osu file format v14

[General]
AudioFilename: audio.ogg
AudioLeadIn: 0
PreviewTime: 67059
Countdown: 0
SampleSet: Normal
StackLeniency: 0.7
Mode: 3
LetterboxInBreaks: 0
SpecialStyle: 0
WidescreenStoryboard: 0

[Editor]
Bookmarks: 70393,71726,74393,81059,82393,85059,91226,94059
DistanceSpacing: 0.9
BeatDivisor: 4
GridSize: 32
TimelineZoom: 2.599999

[Metadata]
Title:Miracle infinity
TitleUnicode:ミラクルinfinity
Artist:solfa feat. Chata
ArtistUnicode:solfa feat. 茶太
Creator:Koito Ria
Version:Miracle
Source:ゆめこい~夢見る魔法少女と恋の呪文~
Tags:eroge parasol Yumekoi ~Yume Miru Mahou Shoujo to Koi no Jumon~ iyuna galgame sister imouto video game visual novel vn opening op jpop j-pop japanese pop fa featured artist yhsh
BeatmapID:4331424
BeatmapSetID:2070063

[Difficulty]
HPDrainRate:8.5
CircleSize:6
OverallDifficulty:8.5
ApproachRate:5
SliderMultiplier:1.4
SliderTickRate:1

[Events]
//Background and Video events
Video,0,"ImoutoEroge.mp4"
0,0,"HoshizakiLoveConfession.jpg",0,0
//Break Periods
//Storyboard Layer 0 (Background)
//Storyboard Layer 1 (Fail)
//Storyboard Layer 2 (Pass)
//Storyboard Layer 3 (Foreground)
//Storyboard Layer 4 (Overlay)
//Storyboard Sound Samples

[TimingPoints]
560,333.333333333333,4,1,1,70,1,0
67226,-100,4,1,1,70,0,1
77059,-100,4,1,1,70,0,0
77893,-100,4,1,1,70,0,1
88559,-100,4,1,1,70,0,0

[HitObjects]
128,192,560,128,0,893:0:0:0:0:
213,192,560,128,0,893:0:0:0:0:
42,192,726,128,0,893:0:0:0:0:
298,192,893,1,8,0:0:0:0:
384,192,893,128,0,1059:0:0:0:0:
469,192,893,128,0,1059:0:0:0:0:
42,192,1059,128,0,1393:0:0:0:0:
128,192,1059,128,0,1393:0:0:0:0:
213,192,1226,128,0,1393:0:0:0:0:
298,192,1393,128,0,1559:0:0:0:0:
384,192,1393,128,0,1559:0:0:0:0:
42,192,1559,128,8,1726:0:0:0:0:
128,192,1559,128,0,1726:0:0:0:0:
213,192,1559,1,0,0:0:0:0:
384,192,1726,128,0,2059:0:0:0:0:
469,192,1726,128,0,2059:0:0:0:0:
213,192,1893,128,0,2059:0:0:0:0:
128,192,2059,128,0,2226:0:0:0:0:
298,192,2059,128,0,2226:0:0:0:0:
42,192,2226,1,8,0:0:0:0:
213,192,2226,128,0,2393:0:0:0:0:
384,192,2226,128,0,2393:0:0:0:0:
298,192,2393,128,0,2726:0:0:0:0:
469,192,2393,128,0,2726:0:0:0:0:
128,192,2559,128,0,2726:0:0:0:0:
213,192,2726,128,0,2893:0:0:0:0:
384,192,2726,128,0,2893:0:0:0:0:
42,192,2893,128,8,3059:0:0:0:0:
298,192,2893,128,0,3059:0:0:0:0:
469,192,2893,1,0,0:0:0:0:
128,192,3059,128,0,3226:0:0:0:0:
213,192,3059,128,0,3226:0:0:0:0:
298,192,3226,128,0,3559:0:0:0:0:
384,192,3226,128,0,3559:0:0:0:0:
469,192,3393,128,0,3559:0:0:0:0:
42,192,3559,1,8,0:0:0:0:
128,192,3559,128,0,3726:0:0:0:0:
213,192,3559,128,0,3726:0:0:0:0:
384,192,3726,128,0,4059:0:0:0:0:
469,192,3726,128,0,4059:0:0:0:0:
298,192,3893,128,0,4059:0:0:0:0:
128,192,4059,128,0,4226:0:0:0:0:
213,192,4059,128,0,4226:0:0:0:0:
298,192,4226,1,8,0:0:0:0:
384,192,4226,128,0,4393:0:0:0:0:
469,192,4226,128,0,4393:0:0:0:0:
42,192,4393,128,0,4726:0:0:0:0:
128,192,4393,128,0,4726:0:0:0:0:
298,192,4559,128,0,4726:0:0:0:0:
213,192,4726,128,0,4893:0:0:0:0:
384,192,4726,128,0,4893:0:0:0:0:
128,192,4893,128,8,5059:0:0:0:0:
298,192,4893,128,0,5059:0:0:0:0:
469,192,4893,1,0,0:0:0:0:
42,192,5059,128,0,5393:0:0:0:0:
213,192,5059,128,0,5393:0:0:0:0:
384,192,5226,128,0,5393:0:0:0:0:
128,192,5393,128,0,5559:0:0:0:0:
298,192,5393,128,0,5559:0:0:0:0:
42,192,5559,1,8,0:0:0:0:
213,192,5559,128,0,5726:0:0:0:0:
469,192,5559,128,0,5726:0:0:0:0:
298,192,5726,128,0,5893:0:0:0:0:
384,192,5726,128,0,5893:0:0:0:0:
42,192,5893,128,0,6226:0:0:0:0:
128,192,5893,128,0,6226:0:0:0:0:
213,192,6059,128,0,6226:0:0:0:0:
298,192,6226,128,8,6393:0:0:0:0:
384,192,6226,1,0,0:0:0:0:
469,192,6226,128,0,6393:0:0:0:0:
128,192,6393,128,0,6726:0:0:0:0:
213,192,6393,128,0,6726:0:0:0:0:
42,192,6559,128,0,6726:0:0:0:0:
298,192,6726,128,0,6893:0:0:0:0:
384,192,6726,128,0,6893:0:0:0:0:
42,192,6893,1,8,0:0:0:0:
128,192,6893,128,0,7059:0:0:0:0:
213,192,6893,128,0,7059:0:0:0:0:
384,192,7059,128,0,7393:0:0:0:0:
469,192,7059,128,0,7393:0:0:0:0:
42,192,7226,128,0,7393:0:0:0:0:
128,192,7393,128,0,7559:0:0:0:0:
298,192,7393,128,0,7559:0:0:0:0:
213,192,7559,128,8,7726:0:0:0:0:
384,192,7559,128,0,7726:0:0:0:0:
469,192,7559,1,0,0:0:0:0:
42,192,7726,128,0,7893:0:0:0:0:
298,192,7726,128,0,7893:0:0:0:0:
384,192,7893,1,0,0:0:0:0:
128,192,8059,128,0,8143:0:0:0:0:
213,192,8059,128,0,8143:0:0:0:0:
42,192,8226,128,8,8309:0:0:0:0:
298,192,8226,1,0,0:0:0:0:
469,192,8226,128,0,8309:0:0:0:0:
128,192,8393,128,0,8476:0:0:0:0:
213,192,8476,128,0,8559:0:0:0:0:
298,192,8559,128,8,8643:0:0:0:0:
384,192,8559,128,0,8643:0:0:0:0:
469,192,8559,128,0,8643:0:0:0:0:
42,192,8726,128,8,8809:0:0:0:0:
384,192,8726,128,0,8809:0:0:0:0:
469,192,8726,128,0,8809:0:0:0:0:
42,192,9059,128,8,9143:0:0:0:0:
128,192,9059,128,0,9143:0:0:0:0:
213,192,9059,128,0,9143:0:0:0:0:
42,192,9226,128,8,9309:0:0:0:0:
128,192,9226,128,0,9309:0:0:0:0:
469,192,9226,128,0,9309:0:0:0:0:
298,192,9559,128,8,9643:0:0:0:0:
384,192,9559,128,0,9643:0:0:0:0:
469,192,9559,128,0,9643:0:0:0:0:
128,192,9726,128,8,9809:0:0:0:0:
298,192,9726,128,0,9809:0:0:0:0:
384,192,9726,128,0,9809:0:0:0:0:
42,192,10059,128,8,10143:0:0:0:0:
128,192,10059,128,0,10143:0:0:0:0:
213,192,10059,128,0,10143:0:0:0:0:
128,192,10226,128,8,10309:0:0:0:0:
213,192,10226,128,0,10309:0:0:0:0:
384,192,10226,128,0,10309:0:0:0:0:
42,192,10559,128,8,10643:0:0:0:0:
128,192,10559,128,0,10643:0:0:0:0:
298,192,10559,128,0,10643:0:0:0:0:
384,192,10559,128,0,10643:0:0:0:0:
469,192,10559,128,0,10643:0:0:0:0:
469,192,10893,128,0,10976:0:0:0:0:
384,192,10976,128,0,11059:0:0:0:0:
298,192,11059,128,0,11143:0:0:0:0:
213,192,11143,128,0,11226:0:0:0:0:
42,192,11226,1,4,0:0:0:0:
128,192,11226,1,2,0:0:0:0:
298,192,11226,128,0,11559:0:0:0:0:
384,192,11226,1,0,0:0:0:0:
469,192,11226,1,0,0:0:0:0:
213,192,11393,128,0,11559:0:0:0:0:
42,192,11559,128,8,11726:0:0:0:0:
128,192,11559,1,0,0:0:0:0:
384,192,11559,1,0,0:0:0:0:
298,192,11726,128,0,11893:0:0:0:0:
128,192,11893,128,2,12059:0:0:0:0:
384,192,11893,1,0,0:0:0:0:
469,192,11893,1,0,0:0:0:0:
213,192,12059,128,2,12226:0:0:0:0:
384,192,12059,1,0,0:0:0:0:
469,192,12059,1,0,0:0:0:0:
42,192,12226,1,8,0:0:0:0:
128,192,12226,1,0,0:0:0:0:
298,192,12226,128,0,12393:0:0:0:0:
42,192,12393,1,2,0:0:0:0:
128,192,12393,1,4,0:0:0:0:
384,192,12393,1,0,0:0:0:0:
469,192,12393,128,0,12726:0:0:0:0:
213,192,12559,128,0,12893:0:0:0:0:
298,192,12726,128,2,12893:0:0:0:0:
384,192,12726,1,0,0:0:0:0:
42,192,12893,1,8,0:0:0:0:
128,192,12893,1,0,0:0:0:0:
469,192,12893,128,0,13226:0:0:0:0:
213,192,13059,1,0,0:0:0:0:
128,192,13226,1,2,0:0:0:0:
298,192,13226,128,0,13559:0:0:0:0:
384,192,13226,1,0,0:0:0:0:
213,192,13393,1,0,0:0:0:0:
42,192,13559,1,8,0:0:0:0:
128,192,13559,128,0,13893:0:0:0:0:
469,192,13559,1,0,0:0:0:0:
298,192,13726,1,2,0:0:0:0:
384,192,13726,1,0,0:0:0:0:
213,192,13893,1,2,0:0:0:0:
298,192,13893,1,4,0:0:0:0:
384,192,13893,1,0,0:0:0:0:
469,192,13893,128,0,14226:0:0:0:0:
42,192,14059,128,0,14226:0:0:0:0:
128,192,14226,1,8,0:0:0:0:
213,192,14226,1,0,0:0:0:0:
298,192,14226,128,0,14393:0:0:0:0:
42,192,14393,128,0,14559:0:0:0:0:
128,192,14559,128,2,14726:0:0:0:0:
298,192,14559,1,0,0:0:0:0:
384,192,14559,1,0,0:0:0:0:
213,192,14726,128,2,14893:0:0:0:0:
298,192,14726,1,0,0:0:0:0:
384,192,14726,1,0,0:0:0:0:
42,192,14893,1,8,0:0:0:0:
128,192,14893,1,0,0:0:0:0:
469,192,14893,128,0,15059:0:0:0:0:
42,192,15059,1,2,0:0:0:0:
128,192,15059,1,4,0:0:0:0:
298,192,15059,128,0,15393:0:0:0:0:
384,192,15059,1,0,0:0:0:0:
213,192,15226,128,0,15559:0:0:0:0:
384,192,15393,128,2,15559:0:0:0:0:
469,192,15393,1,0,0:0:0:0:
42,192,15559,1,8,0:0:0:0:
128,192,15559,1,0,0:0:0:0:
298,192,15559,128,0,15726:0:0:0:0:
42,192,15726,128,8,15809:0:0:0:0:
128,192,15726,128,4,15809:0:0:0:0:
384,192,15726,128,0,15809:0:0:0:0:
469,192,15726,128,0,15809:0:0:0:0:
213,192,16059,128,8,16143:0:0:0:0:
298,192,16059,128,4,16143:0:0:0:0:
384,192,16059,128,0,16143:0:0:0:0:
469,192,16059,128,0,16143:0:0:0:0:
42,192,16393,1,4,0:0:0:0:
128,192,16393,1,2,0:0:0:0:
298,192,16393,128,0,16726:0:0:0:0:
384,192,16393,1,0,0:0:0:0:
213,192,16559,128,0,16726:0:0:0:0:
384,192,16726,128,2,16893:0:0:0:0:
469,192,16726,1,0,0:0:0:0:
42,192,16893,1,8,0:0:0:0:
128,192,16893,1,0,0:0:0:0:
298,192,16893,128,0,17059:0:0:0:0:
42,192,17059,1,2,0:0:0:0:
128,192,17059,1,4,0:0:0:0:
213,192,17059,1,0,0:0:0:0:
469,192,17059,128,0,17226:0:0:0:0:
298,192,17226,1,0,0:0:0:0:
128,192,17393,128,2,17559:0:0:0:0:
213,192,17393,1,0,0:0:0:0:
42,192,17559,128,8,17726:0:0:0:0:
384,192,17559,1,0,0:0:0:0:
469,192,17559,1,0,0:0:0:0:
128,192,17726,128,2,17893:0:0:0:0:
298,192,17726,128,4,18059:0:0:0:0:
384,192,17726,1,0,0:0:0:0:
469,192,17726,1,0,0:0:0:0:
213,192,17893,128,0,18059:0:0:0:0:
384,192,18059,1,2,0:0:0:0:
469,192,18059,128,0,18226:0:0:0:0:
42,192,18226,1,8,0:0:0:0:
128,192,18226,1,0,0:0:0:0:
298,192,18226,128,0,18393:0:0:0:0:
42,192,18393,1,2,0:0:0:0:
128,192,18393,1,4,0:0:0:0:
384,192,18393,128,0,18559:0:0:0:0:
469,192,18393,1,0,0:0:0:0:
213,192,18559,1,0,0:0:0:0:
128,192,18726,128,2,18893:0:0:0:0:
298,192,18726,1,0,0:0:0:0:
42,192,18893,1,8,0:0:0:0:
384,192,18893,128,0,19059:0:0:0:0:
469,192,18893,1,0,0:0:0:0:
213,192,19059,128,2,19226:0:0:0:0:
298,192,19059,1,0,0:0:0:0:
42,192,19226,1,2,0:0:0:0:
128,192,19226,1,4,0:0:0:0:
384,192,19226,1,0,0:0:0:0:
469,192,19226,128,0,20226:0:0:0:0:
298,192,19393,1,0,0:0:0:0:
42,192,19559,1,8,0:0:0:0:
128,192,19559,1,0,0:0:0:0:
213,192,19559,1,0,0:0:0:0:
384,192,19726,1,0,0:0:0:0:
128,192,19893,1,2,0:0:0:0:
213,192,19893,1,0,0:0:0:0:
298,192,20059,1,0,0:0:0:0:
42,192,20226,1,8,0:0:0:0:
128,192,20226,1,0,0:0:0:0:
384,192,20226,1,0,0:0:0:0:
213,192,20393,128,2,20476:0:0:0:0:
469,192,20393,1,0,0:0:0:0:
298,192,20476,128,0,20559:0:0:0:0:
42,192,20559,128,0,21893:0:0:0:0:
384,192,20559,1,0,0:0:0:0:
213,192,20726,1,2,0:0:0:0:
384,192,20726,1,0,0:0:0:0:
298,192,20809,1,2,0:0:0:0:
128,192,20893,1,8,0:0:0:0:
213,192,20893,1,4,0:0:0:0:
384,192,20893,1,0,0:0:0:0:
469,192,20893,1,0,0:0:0:0:
128,192,21059,1,2,0:0:0:0:
213,192,21059,1,0,0:0:0:0:
469,192,21226,1,0,0:0:0:0:
213,192,21393,1,2,0:0:0:0:
298,192,21393,1,0,0:0:0:0:
128,192,21476,1,2,0:0:0:0:
298,192,21559,1,8,0:0:0:0:
384,192,21559,1,0,0:0:0:0:
469,192,21559,1,0,0:0:0:0:
213,192,21643,1,8,0:0:0:0:
128,192,21726,1,8,0:0:0:0:
384,192,21726,1,0,0:0:0:0:
298,192,21809,1,8,0:0:0:0:
128,192,21893,1,4,0:0:0:0:
213,192,21893,1,2,0:0:0:0:
384,192,21893,1,0,0:0:0:0:
469,192,21893,128,0,22393:0:0:0:0:
42,192,22226,1,0,0:0:0:0:
128,192,22226,128,0,22393:0:0:0:0:
384,192,22393,128,0,22726:0:0:0:0:
213,192,22559,128,0,22726:0:0:0:0:
298,192,22726,128,0,23059:0:0:0:0:
42,192,22893,128,0,23059:0:0:0:0:
469,192,22893,128,0,23893:0:0:0:0:
384,192,23059,128,0,23893:0:0:0:0:
128,192,23143,1,0,0:0:0:0:
213,192,23226,128,0,23393:0:0:0:0:
298,192,23393,128,0,23559:0:0:0:0:
42,192,23559,128,0,23726:0:0:0:0:
128,192,23559,1,0,0:0:0:0:
213,192,23726,128,0,23893:0:0:0:0:
128,192,23893,1,0,0:0:0:0:
298,192,24059,128,0,24393:0:0:0:0:
42,192,24226,1,0,0:0:0:0:
128,192,24226,1,0,0:0:0:0:
213,192,24393,128,2,24476:0:0:0:0:
384,192,24393,1,0,0:0:0:0:
469,192,24393,1,0,0:0:0:0:
128,192,24476,128,0,24559:0:0:0:0:
42,192,24559,128,2,25059:0:0:0:0:
384,192,24559,1,0,0:0:0:0:
469,192,24559,1,0,0:0:0:0:
298,192,24726,1,0,0:0:0:0:
213,192,24893,1,0,0:0:0:0:
469,192,24893,128,0,25059:0:0:0:0:
128,192,25059,128,0,25393:0:0:0:0:
384,192,25059,128,0,25226:0:0:0:0:
298,192,25226,128,0,25393:0:0:0:0:
213,192,25393,128,0,25726:0:0:0:0:
384,192,25393,128,0,25559:0:0:0:0:
42,192,25559,128,0,26559:0:0:0:0:
469,192,25559,128,0,25726:0:0:0:0:
128,192,25726,128,0,26559:0:0:0:0:
384,192,25726,128,0,25809:0:0:0:0:
298,192,25809,128,0,25893:0:0:0:0:
213,192,25893,128,0,26059:0:0:0:0:
469,192,26059,128,0,26226:0:0:0:0:
213,192,26226,1,0,0:0:0:0:
384,192,26226,128,0,26393:0:0:0:0:
298,192,26393,128,0,26559:0:0:0:0:
469,192,26559,1,0,0:0:0:0:
213,192,26726,128,0,27059:0:0:0:0:
384,192,26893,1,0,0:0:0:0:
469,192,26893,1,0,0:0:0:0:
42,192,27059,1,2,0:0:0:0:
128,192,27059,1,0,0:0:0:0:
298,192,27059,128,0,27226:0:0:0:0:
42,192,27226,128,2,27559:0:0:0:0:
128,192,27226,1,0,0:0:0:0:
384,192,27226,128,0,27726:0:0:0:0:
213,192,27393,1,0,0:0:0:0:
128,192,27559,1,0,0:0:0:0:
298,192,27559,1,0,0:0:0:0:
213,192,27726,128,0,27893:0:0:0:0:
469,192,27726,128,0,28059:0:0:0:0:
42,192,27893,128,0,28393:0:0:0:0:
298,192,28059,128,0,28393:0:0:0:0:
213,192,28226,1,0,0:0:0:0:
384,192,28226,128,0,29226:0:0:0:0:
469,192,28393,128,0,29226:0:0:0:0:
128,192,28476,1,0,0:0:0:0:
213,192,28559,1,0,0:0:0:0:
298,192,28726,1,0,0:0:0:0:
42,192,28893,1,0,0:0:0:0:
128,192,28893,1,0,0:0:0:0:
298,192,29059,1,0,0:0:0:0:
128,192,29226,128,0,29559:0:0:0:0:
384,192,29393,1,0,0:0:0:0:
213,192,29559,128,0,29726:0:0:0:0:
298,192,29559,1,0,0:0:0:0:
384,192,29726,1,2,0:0:0:0:
469,192,29726,1,0,0:0:0:0:
128,192,29809,1,0,0:0:0:0:
42,192,29893,128,2,30393:0:0:0:0:
384,192,29893,1,0,0:0:0:0:
469,192,29893,128,0,30226:0:0:0:0:
298,192,30059,1,0,0:0:0:0:
213,192,30226,1,0,0:0:0:0:
384,192,30226,1,0,0:0:0:0:
128,192,30393,128,0,30726:0:0:0:0:
298,192,30393,128,0,30559:0:0:0:0:
384,192,30559,128,0,30726:0:0:0:0:
213,192,30726,128,0,31059:0:0:0:0:
42,192,30893,128,0,31559:0:0:0:0:
469,192,30893,1,0,0:0:0:0:
128,192,31059,128,0,31559:0:0:0:0:
384,192,31059,128,0,31143:0:0:0:0:
298,192,31143,128,0,31226:0:0:0:0:
213,192,31226,1,0,0:0:0:0:
384,192,31393,128,0,31559:0:0:0:0:
213,192,31559,128,0,31893:0:0:0:0:
469,192,31559,1,0,0:0:0:0:
298,192,31726,128,0,32059:0:0:0:0:
42,192,31893,128,0,32059:0:0:0:0:
128,192,32059,128,0,32226:0:0:0:0:
384,192,32059,128,0,32226:0:0:0:0:
213,192,32226,128,0,32393:0:0:0:0:
469,192,32226,128,0,32309:0:0:0:0:
384,192,32309,128,0,32393:0:0:0:0:
42,192,32393,128,2,32559:0:0:0:0:
298,192,32393,128,0,32476:0:0:0:0:
213,192,32476,128,0,32559:0:0:0:0:
128,192,32559,1,2,0:0:0:0:
298,192,32559,1,4,0:0:0:0:
384,192,32559,1,0,0:0:0:0:
469,192,32559,128,0,33059:0:0:0:0:
128,192,32893,1,0,0:0:0:0:
213,192,32893,128,0,33059:0:0:0:0:
298,192,33059,128,0,33226:0:0:0:0:
384,192,33059,128,0,33393:0:0:0:0:
42,192,33226,128,8,33393:0:0:0:0:
128,192,33226,1,0,0:0:0:0:
213,192,33226,1,0,0:0:0:0:
298,192,33393,128,0,33726:0:0:0:0:
213,192,33559,128,0,33726:0:0:0:0:
469,192,33559,128,0,34393:0:0:0:0:
42,192,33726,128,8,34059:0:0:0:0:
128,192,33726,1,0,0:0:0:0:
384,192,33726,128,0,34393:0:0:0:0:
213,192,33809,1,0,0:0:0:0:
298,192,33893,1,0,0:0:0:0:
128,192,34059,128,0,34226:0:0:0:0:
213,192,34226,1,0,0:0:0:0:
298,192,34226,128,0,34393:0:0:0:0:
42,192,34393,128,0,34559:0:0:0:0:
128,192,34559,1,8,0:0:0:0:
384,192,34559,1,0,0:0:0:0:
469,192,34559,1,0,0:0:0:0:
298,192,34726,128,0,35059:0:0:0:0:
42,192,34893,1,0,0:0:0:0:
128,192,34893,1,0,0:0:0:0:
213,192,35059,128,2,35143:0:0:0:0:
384,192,35059,1,0,0:0:0:0:
469,192,35059,1,0,0:0:0:0:
128,192,35143,128,0,35226:0:0:0:0:
42,192,35226,128,2,35726:0:0:0:0:
384,192,35226,1,0,0:0:0:0:
469,192,35226,1,0,0:0:0:0:
298,192,35393,1,0,0:0:0:0:
213,192,35559,128,0,35893:0:0:0:0:
469,192,35559,1,0,0:0:0:0:
128,192,35726,128,0,36059:0:0:0:0:
298,192,35893,1,8,0:0:0:0:
384,192,35893,1,0,0:0:0:0:
469,192,35893,128,0,36226:0:0:0:0:
213,192,36059,128,0,36393:0:0:0:0:
42,192,36226,128,0,37059:0:0:0:0:
298,192,36226,128,0,36393:0:0:0:0:
128,192,36393,128,8,37059:0:0:0:0:
384,192,36393,128,0,36476:0:0:0:0:
469,192,36393,1,0,0:0:0:0:
298,192,36476,128,0,36559:0:0:0:0:
213,192,36559,128,0,36726:0:0:0:0:
469,192,36726,128,0,36893:0:0:0:0:
213,192,36893,1,0,0:0:0:0:
384,192,36893,128,0,37059:0:0:0:0:
298,192,37059,128,0,37226:0:0:0:0:
42,192,37226,1,8,0:0:0:0:
128,192,37226,1,0,0:0:0:0:
469,192,37226,1,0,0:0:0:0:
213,192,37393,128,0,37726:0:0:0:0:
384,192,37559,1,0,0:0:0:0:
469,192,37559,1,0,0:0:0:0:
128,192,37643,1,0,0:0:0:0:
42,192,37726,1,2,0:0:0:0:
298,192,37726,128,0,37809:0:0:0:0:
384,192,37809,128,0,37893:0:0:0:0:
42,192,37893,1,2,0:0:0:0:
213,192,37893,128,0,38226:0:0:0:0:
469,192,37893,128,0,38393:0:0:0:0:
298,192,38059,1,0,0:0:0:0:
42,192,38226,1,0,0:0:0:0:
128,192,38226,1,0,0:0:0:0:
298,192,38393,128,0,38559:0:0:0:0:
384,192,38393,128,0,38726:0:0:0:0:
42,192,38559,128,8,38893:0:0:0:0:
128,192,38559,1,0,0:0:0:0:
213,192,38559,1,0,0:0:0:0:
298,192,38726,128,0,39059:0:0:0:0:
213,192,38893,1,0,0:0:0:0:
469,192,38893,128,0,39726:0:0:0:0:
42,192,39059,1,8,0:0:0:0:
128,192,39059,1,0,0:0:0:0:
384,192,39059,128,0,39726:0:0:0:0:
213,192,39143,1,0,0:0:0:0:
298,192,39226,1,0,0:0:0:0:
128,192,39393,1,0,0:0:0:0:
213,192,39559,1,0,0:0:0:0:
298,192,39559,1,0,0:0:0:0:
42,192,39726,1,0,0:0:0:0:
213,192,39893,128,8,40226:0:0:0:0:
384,192,39893,1,0,0:0:0:0:
469,192,39893,1,0,0:0:0:0:
128,192,40059,1,0,0:0:0:0:
42,192,40226,1,0,0:0:0:0:
298,192,40226,128,0,40393:0:0:0:0:
384,192,40393,1,2,0:0:0:0:
469,192,40393,1,0,0:0:0:0:
128,192,40476,1,0,0:0:0:0:
42,192,40559,128,2,41059:0:0:0:0:
384,192,40559,128,0,40893:0:0:0:0:
469,192,40559,1,0,0:0:0:0:
213,192,40726,1,0,0:0:0:0:
128,192,40893,1,0,0:0:0:0:
298,192,40893,1,0,0:0:0:0:
213,192,41059,128,0,41226:0:0:0:0:
469,192,41059,128,0,41393:0:0:0:0:
42,192,41226,128,0,41393:0:0:0:0:
298,192,41226,128,0,41393:0:0:0:0:
128,192,41393,128,0,41559:0:0:0:0:
384,192,41393,128,0,41559:0:0:0:0:
213,192,41559,128,0,41726:0:0:0:0:
298,192,41559,128,0,41726:0:0:0:0:
42,192,41726,128,4,41809:0:0:0:0:
128,192,41726,128,2,41809:0:0:0:0:
384,192,41726,128,0,41809:0:0:0:0:
469,192,41726,128,0,41809:0:0:0:0:
128,192,42059,128,2,42143:0:0:0:0:
213,192,42059,128,4,42143:0:0:0:0:
384,192,42059,128,0,42143:0:0:0:0:
469,192,42059,128,0,42143:0:0:0:0:
42,192,42393,128,2,42476:0:0:0:0:
128,192,42393,128,4,42476:0:0:0:0:
298,192,42393,128,0,42476:0:0:0:0:
384,192,42393,128,0,42476:0:0:0:0:
42,192,42726,128,2,42809:0:0:0:0:
128,192,42726,128,4,42809:0:0:0:0:
213,192,42726,128,0,42809:0:0:0:0:
298,192,42726,128,0,42809:0:0:0:0:
298,192,42893,1,8,0:0:0:0:
384,192,42893,1,0,0:0:0:0:
469,192,42893,1,0,0:0:0:0:
42,192,43059,1,0,0:0:0:50:tom.wav
128,192,43059,1,0,0:0:0:0:
213,192,43226,128,2,43559:0:0:0:0:
298,192,43226,1,4,0:0:0:0:
384,192,43226,1,0,0:0:0:0:
469,192,43226,1,0,0:0:0:0:
128,192,43393,1,0,0:0:0:0:
42,192,43559,1,8,0:0:0:0:
384,192,43559,1,0,0:0:0:0:
469,192,43559,1,0,0:0:0:0:
298,192,43726,128,0,43893:0:0:0:0:
42,192,43893,128,0,44226:0:0:0:0:
213,192,44059,1,2,0:0:0:0:
469,192,44059,1,0,0:0:0:0:
128,192,44226,1,8,0:0:0:0:
298,192,44226,1,0,0:0:0:0:
384,192,44226,1,0,0:0:0:0:
213,192,44393,1,2,0:0:0:0:
469,192,44393,128,0,44559:0:0:0:0:
128,192,44476,1,0,0:0:0:0:
42,192,44559,128,0,44893:0:0:0:0:
298,192,44726,1,2,0:0:0:0:
384,192,44726,1,0,0:0:0:0:
128,192,44893,1,8,0:0:0:0:
213,192,44893,1,0,0:0:0:0:
469,192,44893,1,0,0:0:0:0:
42,192,45059,1,0,0:0:0:70:snare.wav
298,192,45059,128,0,45226:0:0:0:0:
213,192,45226,128,2,45559:0:0:0:0:
384,192,45226,1,0,0:0:0:0:
469,192,45226,1,0,0:0:0:0:
384,192,45393,1,2,0:0:0:0:
469,192,45393,1,0,0:0:0:0:
42,192,45559,1,8,0:0:0:0:
128,192,45559,128,0,45893:0:0:0:0:
298,192,45559,1,0,0:0:0:0:
384,192,45726,1,2,0:0:0:0:
469,192,45726,1,0,0:0:0:0:
213,192,45893,128,2,46226:0:0:0:0:
384,192,45893,1,0,0:0:0:0:
469,192,45893,1,0,0:0:0:0:
128,192,46059,1,0,0:0:0:0:
42,192,46226,1,8,0:0:0:0:
298,192,46226,1,0,0:0:0:0:
384,192,46226,1,0,0:0:0:0:
213,192,46393,1,0,0:0:0:70:snare.wav
469,192,46393,128,0,46559:0:0:0:0:
42,192,46559,1,2,0:0:0:0:
128,192,46559,1,0,0:0:0:0:
298,192,46559,128,0,46893:0:0:0:0:
42,192,46726,1,2,0:0:0:0:
128,192,46726,1,0,0:0:0:0:
213,192,46893,1,8,0:0:0:0:
384,192,46893,1,0,0:0:0:0:
469,192,46893,1,0,0:0:0:0:
42,192,47059,1,2,0:0:0:0:
128,192,47059,1,0,0:0:0:0:
298,192,47143,1,0,0:0:0:0:
384,192,47226,1,0,0:0:0:0:
128,192,47393,1,2,0:0:0:0:
213,192,47393,1,0,0:0:0:0:
298,192,47559,1,8,0:0:0:0:
384,192,47559,1,0,0:0:0:0:
469,192,47559,1,0,0:0:0:0:
128,192,47726,1,0,0:0:0:0:
42,192,47809,1,0,0:0:0:0:
384,192,47893,128,0,48226:0:0:0:0:
128,192,48059,1,2,0:0:0:0:
213,192,48059,1,0,0:0:0:0:
298,192,48143,1,2,0:0:0:0:
128,192,48226,1,8,0:0:0:0:
213,192,48226,1,0,0:0:0:0:
469,192,48226,128,0,48559:0:0:0:0:
298,192,48393,1,0,0:0:0:70:snare.wav
213,192,48476,1,0,0:0:0:70:snare.wav
42,192,48559,128,2,48893:0:0:0:0:
128,192,48559,1,4,0:0:0:0:
298,192,48559,1,0,0:0:0:0:
384,192,48559,1,0,0:0:0:0:
213,192,48726,1,0,0:0:0:0:
298,192,48893,1,8,0:0:0:0:
384,192,48893,1,0,0:0:0:0:
469,192,48893,1,0,0:0:0:0:
213,192,49059,128,0,49226:0:0:0:0:
298,192,49226,128,0,49559:0:0:0:0:
42,192,49393,1,2,0:0:0:0:
128,192,49393,1,0,0:0:0:0:
213,192,49559,1,8,0:0:0:0:
384,192,49559,1,0,0:0:0:0:
469,192,49559,1,0,0:0:0:0:
42,192,49726,128,2,49893:0:0:0:0:
128,192,49726,1,0,0:0:0:0:
298,192,49726,1,0,0:0:0:0:
384,192,49809,1,0,0:0:0:0:
469,192,49893,128,0,50226:0:0:0:0:
128,192,50059,1,2,0:0:0:0:
213,192,50059,1,0,0:0:0:0:
42,192,50226,1,8,0:0:0:0:
298,192,50226,1,0,0:0:0:0:
384,192,50226,1,0,0:0:0:0:
128,192,50393,128,0,50559:0:0:0:0:
213,192,50559,128,2,50893:0:0:0:0:
384,192,50559,1,0,0:0:0:0:
469,192,50559,1,0,0:0:0:0:
384,192,50726,1,2,0:0:0:0:
469,192,50726,1,0,0:0:0:0:
42,192,50893,1,8,0:0:0:0:
128,192,50893,128,0,51059:0:0:0:0:
298,192,50893,1,0,0:0:0:0:
384,192,51059,1,2,0:0:0:0:
469,192,51059,1,0,0:0:0:0:
42,192,51226,128,2,51726:0:0:0:0:
384,192,51226,1,0,0:0:0:0:
469,192,51226,1,0,0:0:0:0:
213,192,51393,1,0,0:0:0:0:
128,192,51559,1,8,0:0:0:0:
298,192,51559,1,0,0:0:0:0:
384,192,51559,1,0,0:0:0:0:
469,192,51726,128,0,51893:0:0:0:0:
42,192,51893,1,2,0:0:0:0:
128,192,51893,1,0,0:0:0:0:
298,192,51893,128,0,52226:0:0:0:0:
42,192,52059,1,2,0:0:0:0:
128,192,52059,1,0,0:0:0:0:
213,192,52226,1,8,0:0:0:0:
384,192,52226,1,0,0:0:0:0:
469,192,52226,1,0,0:0:0:0:
42,192,52393,1,2,0:0:0:0:
298,192,52393,1,0,0:0:0:0:
128,192,52476,1,0,0:0:0:0:
213,192,52559,1,0,0:0:0:0:
469,192,52559,1,0,0:0:0:0:
298,192,52726,1,2,0:0:0:0:
384,192,52726,1,0,0:0:0:0:
42,192,52893,128,8,53226:0:0:0:0:
128,192,52893,1,0,0:0:0:0:
469,192,52893,1,0,0:0:0:0:
384,192,52976,1,0,0:0:0:70:snare.wav
298,192,53059,1,0,0:0:0:70:snare.wav
128,192,53226,1,2,0:0:0:0:
213,192,53226,1,0,0:0:0:0:
469,192,53226,128,0,53559:0:0:0:0:
128,192,53393,1,2,0:0:0:0:
213,192,53393,1,0,0:0:0:0:
42,192,53559,128,8,53726:0:0:0:0:
298,192,53559,1,0,0:0:0:0:
384,192,53559,1,0,0:0:0:0:
213,192,53643,1,0,0:0:0:70:snare.wav
298,192,53726,1,8,0:0:0:0:
384,192,53726,1,0,0:0:0:0:
469,192,53726,1,0,0:0:0:0:
42,192,53893,1,2,0:0:0:0:
128,192,53893,1,4,0:0:0:0:
213,192,53893,1,0,0:0:0:0:
298,192,53893,128,0,54226:0:0:0:0:
384,192,54059,1,0,0:0:0:0:
128,192,54226,1,8,0:0:0:0:
213,192,54226,1,0,0:0:0:0:
469,192,54226,1,0,0:0:0:0:
42,192,54393,128,0,54559:0:0:0:0:
469,192,54559,128,0,54893:0:0:0:0:
128,192,54726,1,2,0:0:0:0:
213,192,54726,1,0,0:0:0:0:
42,192,54893,1,8,0:0:0:0:
298,192,54893,1,0,0:0:0:0:
384,192,54893,1,0,0:0:0:0:
213,192,55059,1,2,0:0:0:0:
469,192,55059,1,0,0:0:0:0:
128,192,55143,1,0,0:0:0:0:
42,192,55226,1,0,0:0:0:0:
213,192,55393,1,2,0:0:0:0:
384,192,55393,1,0,0:0:0:0:
42,192,55559,128,8,55893:0:0:0:0:
128,192,55559,1,0,0:0:0:0:
298,192,55559,1,0,0:0:0:0:
384,192,55643,1,0,0:0:0:70:snare.wav
469,192,55726,1,0,0:0:0:70:snare.wav
128,192,55893,1,2,0:0:0:0:
213,192,55893,1,0,0:0:0:0:
298,192,55893,128,0,56226:0:0:0:0:
128,192,56059,1,2,0:0:0:0:
213,192,56059,1,0,0:0:0:0:
42,192,56226,1,8,0:0:0:0:
384,192,56226,1,0,0:0:0:0:
469,192,56226,128,0,56559:0:0:0:0:
128,192,56393,1,2,0:0:0:0:
213,192,56393,1,0,0:0:0:0:
128,192,56559,1,2,0:0:0:0:
213,192,56559,1,0,0:0:0:0:
298,192,56559,128,0,56893:0:0:0:0:
384,192,56726,1,0,0:0:0:0:
128,192,56893,1,8,0:0:0:0:
213,192,56893,1,0,0:0:0:0:
469,192,56893,1,0,0:0:0:0:
42,192,57059,128,0,57226:0:0:0:70:snare.wav
298,192,57059,1,0,0:0:0:0:
213,192,57226,128,2,57559:0:0:0:0:
384,192,57226,1,0,0:0:0:0:
469,192,57226,1,0,0:0:0:0:
384,192,57393,1,2,0:0:0:0:
469,192,57393,1,0,0:0:0:0:
42,192,57559,1,8,0:0:0:0:
128,192,57559,128,0,57726:0:0:0:0:
298,192,57559,1,0,0:0:0:0:
213,192,57726,128,2,57893:0:0:0:0:
469,192,57726,1,0,0:0:0:0:
384,192,57809,1,0,0:0:0:0:
298,192,57893,1,0,0:0:0:0:
128,192,58059,1,2,0:0:0:0:
213,192,58059,1,0,0:0:0:0:
42,192,58226,1,8,0:0:0:0:
384,192,58226,1,0,0:0:0:0:
469,192,58226,128,0,58559:0:0:0:0:
213,192,58393,1,0,0:0:0:0:
42,192,58559,128,0,58893:0:0:0:0:
128,192,58726,1,2,0:0:0:0:
298,192,58726,1,0,0:0:0:0:
213,192,58809,1,2,0:0:0:0:
298,192,58893,128,8,59226:0:0:0:0:
384,192,58893,1,0,0:0:0:0:
469,192,58893,1,0,0:0:0:0:
213,192,59059,1,0,0:0:0:0:
42,192,59226,128,2,59559:0:0:0:0:
128,192,59226,1,4,0:0:0:0:
384,192,59226,1,0,0:0:0:0:
469,192,59226,1,0,0:0:0:0:
384,192,59393,1,2,0:0:0:0:
469,192,59393,1,0,0:0:0:0:
128,192,59559,1,8,0:0:0:0:
213,192,59559,1,0,0:0:0:0:
298,192,59559,1,0,0:0:0:0:
384,192,59726,128,0,59893:0:0:0:70:snare.wav
469,192,59726,1,0,0:0:0:0:
128,192,59893,1,2,0:0:0:0:
213,192,59893,1,0,0:0:0:0:
298,192,59893,128,0,60226:0:0:0:0:
128,192,60059,1,2,0:0:0:0:
213,192,60059,1,0,0:0:0:0:
42,192,60226,1,8,0:0:0:0:
384,192,60226,1,0,0:0:0:0:
469,192,60226,1,0,0:0:0:0:
128,192,60393,1,2,0:0:0:0:
213,192,60393,1,0,0:0:0:0:
384,192,60476,1,0,0:0:0:0:
42,192,60559,1,0,0:0:0:0:
298,192,60559,1,0,0:0:0:0:
213,192,60726,128,2,61059:0:0:0:0:
384,192,60726,1,0,0:0:0:0:
469,192,60726,1,0,0:0:0:0:
42,192,60893,1,8,0:0:0:0:
128,192,60893,1,0,0:0:0:0:
298,192,60893,1,0,0:0:0:0:
384,192,61059,128,0,61226:0:0:0:70:snare.wav
469,192,61059,1,0,0:0:0:0:
128,192,61226,1,2,0:0:0:0:
213,192,61226,1,0,0:0:0:0:
42,192,61393,128,2,61726:0:0:0:0:
128,192,61393,1,0,0:0:0:0:
213,192,61393,1,0,0:0:0:0:
298,192,61559,1,8,0:0:0:0:
384,192,61559,1,0,0:0:0:0:
469,192,61559,1,0,0:0:0:0:
213,192,61643,1,0,0:0:0:0:
128,192,61726,1,8,0:0:0:0:
298,192,61726,128,0,61893:0:0:0:0:
384,192,61726,1,0,0:0:0:0:
42,192,61893,128,4,61976:0:0:0:0:
128,192,61893,128,8,61976:0:0:0:0:
213,192,61893,128,0,61976:0:0:0:0:
469,192,61893,128,0,61976:0:0:0:0:
42,192,62226,128,8,62309:0:0:0:0:
128,192,62226,128,0,62309:0:0:0:0:
384,192,62226,128,0,62309:0:0:0:0:
213,192,62393,1,2,0:0:0:0:
298,192,62393,1,0,0:0:0:0:
42,192,62559,128,8,62643:0:0:0:0:
128,192,62559,128,0,62643:0:0:0:0:
384,192,62559,128,0,62643:0:0:0:0:
298,192,62726,1,0,0:0:0:0:
128,192,62893,128,8,62976:0:0:0:0:
384,192,62893,128,0,62976:0:0:0:0:
469,192,62893,128,0,62976:0:0:0:0:
213,192,63059,1,2,0:0:0:0:
298,192,63059,1,0,0:0:0:0:
128,192,63226,128,8,63309:0:0:0:0:
384,192,63226,128,0,63309:0:0:0:0:
469,192,63226,128,0,63309:0:0:0:0:
42,192,63559,128,8,63643:0:0:0:0:
384,192,63559,128,0,63643:0:0:0:0:
469,192,63559,128,0,63643:0:0:0:0:
213,192,63726,1,2,0:0:0:0:
298,192,63726,1,0,0:0:0:0:
42,192,63893,128,8,63976:0:0:0:0:
128,192,63893,128,0,63976:0:0:0:0:
469,192,63893,128,0,63976:0:0:0:0:
213,192,64059,1,2,0:0:0:0:
298,192,64059,1,0,0:0:0:0:
42,192,64226,128,8,64309:0:0:0:0:
384,192,64226,128,0,64309:0:0:0:0:
469,192,64226,128,0,64309:0:0:0:0:
128,192,64309,128,0,64393:0:0:0:0:
213,192,64393,128,2,64559:0:0:0:0:
298,192,64393,128,0,64559:0:0:0:0:
42,192,64559,128,8,64643:0:0:0:0:
128,192,64559,128,4,64643:0:0:0:0:
384,192,64559,128,0,64643:0:0:0:0:
469,192,64559,128,0,64643:0:0:0:0:
42,192,64726,128,8,64809:0:0:0:0:
128,192,64726,128,4,64809:0:0:0:0:
384,192,64726,128,0,64809:0:0:0:0:
469,192,64726,128,0,64809:0:0:0:0:
128,192,65059,128,8,65143:0:0:0:0:
213,192,65059,128,4,65143:0:0:0:0:
384,192,65059,128,0,65143:0:0:0:0:
469,192,65059,128,0,65143:0:0:0:0:
128,192,65226,128,8,65309:0:0:0:0:
213,192,65226,128,4,65309:0:0:0:0:
384,192,65226,128,0,65309:0:0:0:0:
469,192,65226,128,0,65309:0:0:0:0:
42,192,65559,128,8,65643:0:0:0:0:
128,192,65559,128,4,65643:0:0:0:0:
298,192,65559,128,0,65643:0:0:0:0:
384,192,65559,128,0,65643:0:0:0:0:
42,192,65726,128,4,65809:0:0:0:0:
128,192,65726,128,8,65809:0:0:0:0:
298,192,65726,128,0,65809:0:0:0:0:
384,192,65726,128,0,65809:0:0:0:0:
42,192,66059,128,8,66143:0:0:0:0:
213,192,66059,128,4,66143:0:0:0:0:
298,192,66059,128,0,66143:0:0:0:0:
469,192,66059,128,0,66143:0:0:0:0:
42,192,66226,128,4,66393:0:0:0:0:
213,192,66226,128,8,66393:0:0:0:0:
298,192,66226,128,0,66393:0:0:0:0:
469,192,66226,128,0,66393:0:0:0:0:
42,192,66559,128,8,67143:0:0:0:0:
128,192,66559,128,4,67143:0:0:0:0:
213,192,66559,128,0,67059:0:0:0:0:
298,192,66559,128,0,66976:0:0:0:0:
384,192,66559,128,0,66893:0:0:0:0:
469,192,66893,128,0,66976:0:0:0:0:
384,192,66976,128,0,67059:0:0:0:0:
298,192,67059,128,0,67143:0:0:0:0:
213,192,67143,128,0,67226:0:0:0:0:
42,192,67226,128,2,69226:0:0:0:0:
128,192,67226,128,4,67393:0:0:0:0:
298,192,67226,1,0,0:0:0:0:
384,192,67226,1,0,0:0:0:0:
469,192,67226,1,0,0:0:0:0:
384,192,67393,1,2,0:0:0:0:
469,192,67393,1,0,0:0:0:0:
128,192,67559,1,8,0:0:0:0:
213,192,67559,1,0,0:0:0:0:
298,192,67559,1,0,0:0:0:0:
469,192,67726,128,0,67893:0:0:0:0:
128,192,67893,1,2,0:0:0:0:
213,192,67893,1,0,0:0:0:0:
298,192,67893,128,0,68059:0:0:0:0:
128,192,68059,1,2,0:0:0:0:
213,192,68059,1,0,0:0:0:0:
298,192,68226,1,8,0:0:0:0:
384,192,68226,1,0,0:0:0:0:
469,192,68226,1,0,0:0:0:0:
128,192,68393,1,2,0:0:0:0:
213,192,68393,128,0,68559:0:0:0:0:
384,192,68559,128,0,68726:0:0:0:0:
213,192,68726,1,2,0:0:0:0:
298,192,68726,1,0,0:0:0:0:
128,192,68893,1,8,0:0:0:0:
384,192,68893,1,0,0:0:0:0:
469,192,68893,128,0,69226:0:0:0:0:
213,192,69059,1,0,0:0:0:0:
298,192,69226,128,2,69559:0:0:0:0:
384,192,69226,1,0,0:0:0:0:
213,192,69393,128,0,69559:0:0:0:0:
42,192,69559,128,8,69726:0:0:0:0:
128,192,69559,1,0,0:0:0:0:
384,192,69559,128,0,69726:0:0:0:0:
213,192,69726,128,2,69893:0:0:0:0:
469,192,69726,1,0,0:0:0:0:
42,192,69893,128,2,70893:0:0:0:0:
128,192,69893,128,0,70059:0:0:0:0:
298,192,69893,1,0,0:0:0:0:
384,192,69893,1,0,0:0:0:0:
298,192,70059,1,2,0:0:0:0:
384,192,70059,1,0,0:0:0:0:
128,192,70226,1,8,0:0:0:0:
213,192,70226,1,0,0:0:0:0:
469,192,70226,1,0,0:0:0:0:
298,192,70393,1,0,0:0:0:70:snare.wav
384,192,70393,128,0,70559:0:0:0:0:
128,192,70559,1,2,0:0:0:0:
213,192,70559,1,0,0:0:0:0:
469,192,70559,128,0,70726:0:0:0:0:
128,192,70726,1,2,0:0:0:0:
213,192,70726,1,0,0:0:0:0:
298,192,70893,1,8,0:0:0:0:
384,192,70893,1,0,0:0:0:0:
469,192,70893,1,0,0:0:0:0:
128,192,71059,128,2,71226:0:0:0:0:
213,192,71059,128,0,71226:0:0:0:0:
469,192,71226,128,0,71559:0:0:0:0:
42,192,71393,128,2,71559:0:0:0:0:
384,192,71393,1,0,0:0:0:0:
128,192,71559,128,8,71726:0:0:0:0:
213,192,71559,1,0,0:0:0:0:
298,192,71559,1,0,0:0:0:0:
384,192,71726,128,0,71893:0:0:0:70:snare.wav
469,192,71726,128,0,71893:0:0:0:0:
42,192,71893,1,2,0:0:0:0:
298,192,71893,1,0,0:0:0:0:
128,192,72059,128,0,72226:0:0:0:0:
213,192,72059,128,0,72226:0:0:0:0:
42,192,72226,1,8,0:0:0:0:
384,192,72226,1,0,0:0:0:0:
469,192,72226,1,0,0:0:0:0:
213,192,72393,128,2,72559:0:0:0:0:
298,192,72393,128,0,72559:0:0:0:0:
42,192,72559,1,2,0:0:0:0:
128,192,72559,1,4,0:0:0:0:
384,192,72559,128,0,72726:0:0:0:0:
469,192,72559,128,0,73059:0:0:0:0:
42,192,72726,1,2,0:0:0:0:
128,192,72726,1,0,0:0:0:0:
213,192,72893,128,8,73059:0:0:0:0:
298,192,72893,1,0,0:0:0:0:
384,192,72893,1,0,0:0:0:0:
298,192,73059,128,0,73143:0:0:0:0:
213,192,73143,128,0,73226:0:0:0:0:
42,192,73226,128,2,74559:0:0:0:0:
128,192,73226,128,0,73393:0:0:0:0:
384,192,73226,1,0,0:0:0:0:
384,192,73393,1,2,0:0:0:0:
469,192,73393,1,0,0:0:0:0:
128,192,73559,1,8,0:0:0:0:
213,192,73559,1,0,0:0:0:0:
298,192,73559,1,0,0:0:0:0:
384,192,73726,128,2,73893:0:0:0:0:
469,192,73726,1,0,0:0:0:0:
128,192,73893,128,0,74059:0:0:0:0:
213,192,74059,1,2,0:0:0:0:
298,192,74059,1,0,0:0:0:0:
128,192,74226,1,8,0:0:0:0:
384,192,74226,1,0,0:0:0:0:
469,192,74226,128,0,74559:0:0:0:0:
298,192,74393,1,0,0:0:0:0:
128,192,74559,1,2,0:0:0:0:
213,192,74559,128,0,74893:0:0:0:0:
384,192,74726,128,0,74893:0:0:0:0:
42,192,74893,128,8,75059:0:0:0:0:
128,192,74893,128,0,75059:0:0:0:0:
469,192,74893,1,0,0:0:0:0:
213,192,75059,1,2,0:0:0:0:
298,192,75059,128,0,75226:0:0:0:0:
42,192,75226,1,2,0:0:0:0:
128,192,75226,1,0,0:0:0:0:
384,192,75226,128,0,75393:0:0:0:0:
469,192,75226,128,0,76059:0:0:0:0:
42,192,75393,1,2,0:0:0:0:
128,192,75393,1,0,0:0:0:0:
213,192,75559,128,8,75726:0:0:0:0:
298,192,75559,1,0,0:0:0:0:
384,192,75559,1,0,0:0:0:0:
42,192,75726,128,0,76059:0:0:0:0:
128,192,75893,1,2,0:0:0:0:
213,192,75893,1,0,0:0:0:0:
298,192,76059,128,0,76226:0:0:0:0:
384,192,76059,128,0,76226:0:0:0:0:
42,192,76226,1,8,0:0:0:0:
128,192,76226,1,0,0:0:0:0:
213,192,76226,128,0,76393:0:0:0:0:
298,192,76393,128,2,76559:0:0:0:0:
469,192,76393,128,0,76726:0:0:0:0:
213,192,76559,128,0,76893:0:0:0:0:
42,192,76726,1,2,0:0:0:0:
128,192,76726,1,0,0:0:0:0:
298,192,76809,1,2,0:0:0:0:
128,192,76893,1,8,0:0:0:0:
384,192,76893,128,0,77059:0:0:0:0:
469,192,76893,128,0,77059:0:0:0:0:
42,192,77059,128,2,77143:0:0:0:0:
128,192,77059,128,4,77143:0:0:0:0:
213,192,77059,128,8,77143:0:0:0:0:
298,192,77059,128,0,77143:0:0:0:0:
213,192,77393,128,2,77476:0:0:0:0:
298,192,77393,128,4,77476:0:0:0:0:
384,192,77393,128,8,77476:0:0:0:0:
469,192,77393,128,0,77476:0:0:0:0:
42,192,77559,1,8,0:0:0:0:
298,192,77559,1,0,0:0:0:0:
384,192,77559,1,0,0:0:0:0:
128,192,77643,1,8,0:0:0:0:
213,192,77726,1,8,0:0:0:0:
469,192,77726,1,0,0:0:0:0:
298,192,77809,1,8,0:0:0:0:
42,192,77893,1,2,0:0:0:0:
128,192,77893,1,4,0:0:0:0:
213,192,77893,1,0,0:0:0:0:
384,192,77893,128,0,78059:0:0:0:0:
469,192,77893,128,0,79893:0:0:0:0:
42,192,78059,1,2,0:0:0:0:
128,192,78059,1,0,0:0:0:0:
213,192,78226,1,8,0:0:0:0:
298,192,78226,1,0,0:0:0:0:
384,192,78226,1,0,0:0:0:0:
42,192,78393,128,0,78559:0:0:0:0:
128,192,78559,128,2,78726:0:0:0:0:
298,192,78559,1,0,0:0:0:0:
384,192,78559,1,0,0:0:0:0:
298,192,78726,1,2,0:0:0:0:
384,192,78726,1,0,0:0:0:0:
42,192,78893,1,8,0:0:0:0:
128,192,78893,1,0,0:0:0:0:
213,192,78893,1,0,0:0:0:0:
298,192,79059,1,2,0:0:0:0:
384,192,79059,128,0,79226:0:0:0:0:
128,192,79226,128,0,79393:0:0:0:0:
298,192,79393,1,2,0:0:0:0:
384,192,79393,1,0,0:0:0:0:
42,192,79559,1,8,0:0:0:0:
128,192,79559,1,0,0:0:0:0:
213,192,79559,128,0,79893:0:0:0:0:
298,192,79726,1,0,0:0:0:0:
128,192,79893,1,2,0:0:0:0:
384,192,79893,128,0,80226:0:0:0:0:
213,192,80059,128,0,80226:0:0:0:0:
42,192,80226,128,8,80309:0:0:0:0:
469,192,80226,128,0,80393:0:0:0:0:
128,192,80309,128,0,80393:0:0:0:0:
213,192,80393,128,2,80476:0:0:0:0:
384,192,80393,1,0,0:0:0:0:
298,192,80476,128,0,80559:0:0:0:0:
42,192,80559,1,2,0:0:0:0:
128,192,80559,1,0,0:0:0:0:
384,192,80559,128,0,80726:0:0:0:0:
469,192,80559,128,0,81059:0:0:0:0:
42,192,80726,1,2,0:0:0:0:
128,192,80726,1,0,0:0:0:0:
213,192,80893,1,8,0:0:0:0:
298,192,80893,1,0,0:0:0:0:
384,192,80893,1,0,0:0:0:0:
42,192,81059,128,0,81143:0:0:0:70:snare.wav
128,192,81059,128,0,81143:0:0:0:0:
42,192,81226,128,2,82559:0:0:0:0:
128,192,81226,128,0,81393:0:0:0:0:
298,192,81226,1,0,0:0:0:0:
298,192,81393,1,2,0:0:0:0:
384,192,81393,1,0,0:0:0:0:
128,192,81559,1,8,0:0:0:0:
213,192,81559,1,0,0:0:0:0:
469,192,81559,1,0,0:0:0:0:
298,192,81726,128,2,81893:0:0:0:0:
384,192,81726,1,0,0:0:0:0:
128,192,81893,128,0,82059:0:0:0:0:
384,192,82059,1,2,0:0:0:0:
469,192,82059,1,0,0:0:0:0:
128,192,82226,1,8,0:0:0:0:
213,192,82226,1,0,0:0:0:0:
298,192,82226,128,0,82393:0:0:0:0:
384,192,82393,128,0,82726:0:0:0:70:snare.wav
469,192,82393,1,0,0:0:0:0:
128,192,82559,1,2,0:0:0:0:
298,192,82559,1,0,0:0:0:0:
213,192,82726,128,0,82893:0:0:0:0:
469,192,82726,128,0,82893:0:0:0:0:
42,192,82893,1,8,0:0:0:0:
128,192,82893,1,0,0:0:0:0:
384,192,82893,128,0,83059:0:0:0:0:
213,192,83059,128,2,83226:0:0:0:0:
298,192,83059,128,0,83226:0:0:0:0:
42,192,83226,128,2,83893:0:0:0:0:
128,192,83226,128,4,83393:0:0:0:0:
384,192,83226,1,0,0:0:0:0:
469,192,83226,1,0,0:0:0:0:
384,192,83393,1,2,0:0:0:0:
469,192,83393,1,0,0:0:0:0:
128,192,83559,1,8,0:0:0:0:
213,192,83559,1,0,0:0:0:0:
298,192,83559,1,0,0:0:0:0:
384,192,83726,128,0,83893:0:0:0:0:
128,192,83893,1,2,0:0:0:0:
213,192,83893,1,0,0:0:0:0:
469,192,83893,128,0,84059:0:0:0:0:
128,192,84059,1,2,0:0:0:0:
213,192,84059,1,0,0:0:0:0:
298,192,84059,128,0,84226:0:0:0:0:
42,192,84226,128,8,84393:0:0:0:0:
384,192,84226,1,0,0:0:0:0:
469,192,84226,1,0,0:0:0:0:
213,192,84393,128,2,84559:0:0:0:0:
298,192,84393,128,0,84559:0:0:0:0:
384,192,84559,128,0,84726:0:0:0:0:
469,192,84559,128,0,85226:0:0:0:0:
128,192,84726,1,2,0:0:0:0:
213,192,84726,1,0,0:0:0:0:
42,192,84893,1,8,0:0:0:0:
298,192,84893,1,0,0:0:0:0:
384,192,84893,1,0,0:0:0:0:
128,192,85059,1,0,0:0:0:70:snare.wav
213,192,85059,128,0,85226:0:0:0:0:
42,192,85226,128,2,85559:0:0:0:0:
384,192,85226,1,0,0:0:0:0:
298,192,85393,128,0,85559:0:0:0:0:
128,192,85559,128,8,85726:0:0:0:0:
384,192,85559,1,0,0:0:0:0:
469,192,85559,1,0,0:0:0:0:
213,192,85726,128,2,85893:0:0:0:0:
298,192,85726,128,0,85893:0:0:0:0:
42,192,85893,1,2,0:0:0:0:
128,192,85893,1,0,0:0:0:0:
384,192,85893,128,0,86059:0:0:0:0:
469,192,85893,128,0,86726:0:0:0:0:
42,192,86059,1,2,0:0:0:0:
128,192,86059,1,0,0:0:0:0:
213,192,86226,1,8,0:0:0:0:
298,192,86226,1,0,0:0:0:0:
384,192,86226,1,0,0:0:0:0:
128,192,86393,128,0,86559:0:0:0:0:
213,192,86559,128,2,86893:0:0:0:0:
298,192,86559,1,0,0:0:0:0:
384,192,86726,128,0,86893:0:0:0:0:
42,192,86893,1,8,0:0:0:0:
298,192,86893,128,0,87059:0:0:0:0:
469,192,86893,1,0,0:0:0:0:
128,192,87059,128,2,87226:0:0:0:0:
213,192,87059,128,0,87226:0:0:0:0:
42,192,87226,128,0,87559:0:0:0:0:
469,192,87226,128,0,87393:0:0:0:0:
298,192,87393,1,2,0:0:0:0:
384,192,87393,1,0,0:0:0:0:
213,192,87476,1,2,0:0:0:0:
128,192,87559,1,8,0:0:0:0:
298,192,87559,128,0,87726:0:0:0:0:
384,192,87559,128,0,87726:0:0:0:0:
42,192,87726,128,2,87809:0:0:0:0:
128,192,87726,128,4,87809:0:0:0:0:
213,192,87726,128,8,87809:0:0:0:0:
469,192,87726,128,0,87809:0:0:0:0:
42,192,88059,128,2,88143:0:0:0:0:
298,192,88059,128,4,88143:0:0:0:0:
384,192,88059,128,8,88143:0:0:0:0:
469,192,88059,128,0,88143:0:0:0:0:
128,192,88226,1,8,0:0:0:0:
213,192,88226,1,0,0:0:0:0:
469,192,88226,1,0,0:0:0:0:
384,192,88309,1,8,0:0:0:0:
42,192,88393,1,8,0:0:0:0:
298,192,88393,1,0,0:0:0:0:
213,192,88476,1,8,0:0:0:0:
42,192,88559,1,2,0:0:0:0:
128,192,88559,1,4,0:0:0:0:
298,192,88559,1,0,0:0:0:0:
384,192,88559,128,0,89059:0:0:0:0:
469,192,88559,128,0,89893:0:0:0:0:
213,192,88726,1,0,0:0:0:70:snare.wav
128,192,88893,1,0,0:0:0:0:
213,192,89059,1,2,0:0:0:0:
298,192,89059,1,0,0:0:0:0:
42,192,89226,1,8,0:0:0:0:
128,192,89226,1,0,0:0:0:0:
384,192,89226,1,0,0:0:0:0:
298,192,89393,1,0,0:0:0:0:
213,192,89559,1,0,0:0:0:0:
128,192,89726,1,0,0:0:0:70:snare.wav
384,192,89726,1,0,0:0:0:0:
213,192,89893,128,0,90059:0:0:0:0:
128,192,90059,1,0,0:0:0:70:snare.wav
298,192,90059,128,0,90226:0:0:0:0:
42,192,90226,128,2,90393:0:0:0:0:
384,192,90226,1,0,0:0:0:0:
469,192,90226,1,0,0:0:0:0:
213,192,90393,128,2,90559:0:0:0:0:
384,192,90393,1,0,0:0:0:0:
469,192,90393,1,0,0:0:0:0:
42,192,90559,1,8,0:0:0:0:
128,192,90559,1,0,0:0:0:0:
298,192,90559,128,0,90726:0:0:0:0:
384,192,90726,1,2,0:0:0:0:
469,192,90726,128,0,90893:0:0:0:0:
42,192,90893,128,0,91059:0:0:0:0:
213,192,91059,128,0,91226:0:0:0:70:snare.wav
298,192,91059,1,0,0:0:0:0:
384,192,91143,1,0,0:0:0:0:
42,192,91226,1,2,0:0:0:0:
469,192,91226,128,0,91726:0:0:0:0:
128,192,91393,1,0,0:0:0:70:snare.wav
384,192,91393,1,0,0:0:0:0:
213,192,91559,1,0,0:0:0:0:
42,192,91726,128,2,92059:0:0:0:0:
298,192,91726,1,0,0:0:0:0:
213,192,91893,1,8,0:0:0:0:
384,192,91893,1,0,0:0:0:0:
469,192,91893,1,0,0:0:0:0:
298,192,92059,1,0,0:0:0:0:
42,192,92226,128,0,92726:0:0:0:0:
213,192,92393,1,0,0:0:0:70:snare.wav
298,192,92393,1,0,0:0:0:0:
469,192,92559,128,0,92893:0:0:0:0:
128,192,92726,1,0,0:0:0:70:snare.wav
213,192,92726,1,0,0:0:0:0:
42,192,92893,128,2,93059:0:0:0:0:
298,192,92893,1,0,0:0:0:0:
384,192,92893,1,0,0:0:0:0:
213,192,93059,128,2,93226:0:0:0:0:
298,192,93059,1,0,0:0:0:0:
384,192,93059,1,0,0:0:0:0:
42,192,93226,1,8,0:0:0:0:
128,192,93226,1,0,0:0:0:0:
469,192,93226,1,0,0:0:0:0:
298,192,93393,1,2,0:0:0:0:
384,192,93393,128,0,93559:0:0:0:0:
128,192,93559,1,0,0:0:0:0:
213,192,93726,1,0,0:0:0:70:snare.wav
298,192,93726,128,0,93893:0:0:0:0:
42,192,93893,128,2,95726:0:0:0:0:
128,192,93893,1,4,0:0:0:0:
384,192,93893,1,0,0:0:0:0:
469,192,93893,128,0,94393:0:0:0:0:
213,192,94059,1,0,0:0:0:70:snare.wav
384,192,94226,1,0,0:0:0:0:
128,192,94393,1,2,0:0:0:0:
298,192,94393,1,0,0:0:0:0:
213,192,94559,1,8,0:0:0:0:
384,192,94559,1,0,0:0:0:0:
469,192,94559,1,0,0:0:0:0:
128,192,94726,128,2,94893:0:0:0:0:
298,192,94726,1,0,0:0:0:0:
469,192,94893,128,0,95059:0:0:0:0:
213,192,95059,128,0,95393:0:0:0:70:snare.wav
298,192,95059,1,0,0:0:0:0:
384,192,95226,1,0,0:0:0:0:
128,192,95393,128,0,95726:0:0:0:70:snare.wav
469,192,95393,1,0,0:0:0:0:
298,192,95559,1,2,0:0:0:0:
384,192,95559,1,0,0:0:0:0:
298,192,95726,1,2,0:0:0:0:
384,192,95726,1,0,0:0:0:0:
469,192,95726,128,0,95893:0:0:0:0:
42,192,95893,1,8,0:0:0:0:
128,192,95893,1,0,0:0:0:0:
213,192,95893,1,0,0:0:0:0:
384,192,96059,1,2,0:0:0:0:
469,192,96059,128,0,96393:0:0:0:0:
128,192,96226,1,0,0:0:0:0:
42,192,96393,128,0,96559:0:0:0:70:snare.wav
298,192,96393,1,0,0:0:0:0:
384,192,96476,1,0,0:0:0:70:snare.wav
213,192,96559,1,2,0:0:0:0:
469,192,96559,128,0,96893:0:0:0:0:
42,192,96726,1,0,0:0:0:70:snare.wav
128,192,96726,1,0,0:0:0:0:
298,192,96893,128,0,97059:0:0:0:0:
128,192,97059,1,2,0:0:0:0:
213,192,97059,128,0,97559:0:0:0:0:
298,192,97226,1,8,0:0:0:0:
384,192,97226,1,0,0:0:0:0:
469,192,97226,1,0,0:0:0:0:
42,192,97393,1,0,0:0:0:0:
298,192,97559,128,2,97726:0:0:0:0:
384,192,97559,1,0,0:0:0:0:
42,192,97726,128,0,97893:0:0:0:70:snare.wav
469,192,97726,1,0,0:0:0:0:
213,192,97893,128,0,98059:0:0:0:0:
128,192,98059,1,0,0:0:0:70:snare.wav
384,192,98059,128,0,98226:0:0:0:0:
42,192,98226,128,2,98393:0:0:0:0:
469,192,98226,1,0,0:0:0:0:
213,192,98393,1,0,0:0:0:70:snare.wav
298,192,98393,128,0,98559:0:0:0:0:
42,192,98559,1,0,0:0:0:50:tom.wav
384,192,98559,1,0,0:0:0:0:
469,192,98559,1,0,0:0:0:0:
128,192,98726,128,0,98893:0:0:0:50:tom.wav
213,192,98726,1,0,0:0:0:0:
298,192,98726,1,0,0:0:0:0:
42,192,98893,128,0,99059:0:0:0:50:tom.wav
298,192,98893,1,0,0:0:0:0:
469,192,98893,1,0,0:0:0:0:
128,192,99059,1,0,0:0:0:50:tom.wav
213,192,99059,1,0,0:0:0:0:
384,192,99059,128,0,99226:0:0:0:0:
42,192,99226,128,2,102559:0:0:0:0:
213,192,99226,128,8,102559:0:0:0:0:
298,192,99226,128,4,102559:0:0:0:0:
469,192,99226,128,0,102559:0:0:0:0:
