osu file format v14

[General]
AudioFilename: audio.mp3
AudioLeadIn: 0
PreviewTime: 144235
Countdown: 0
SampleSet: Soft
StackLeniency: 0.7
Mode: 0
LetterboxInBreaks: 0
WidescreenStoryboard: 1

[Editor]
DistanceSpacing: 0.5
BeatDivisor: 4
GridSize: 32
TimelineZoom: 1

[Metadata]
Title:Miracle infinity
TitleUnicode:ミラクルinfinity
Artist:solfa feat. Chata
ArtistUnicode:solfa feat. 茶太
Creator:Dored
Version:Suou's Insane
Source:ゆめこい~夢見る魔法少女と恋の呪文~
Tags:Featured Artist fa Mappers' Guild mpg Yumekoi ~Yume Miru Mahou Shoujo to Koi no Jumon~ Parasol Japanese Pop Jpop J-pop Eroge Galgame Visual Novel Video Game VN Opening op Full Ver Version Garden Shirahane Suou yf_bmp chronicle ~dog side~
BeatmapID:3307573
BeatmapSetID:1619982

[Difficulty]
HPDrainRate:5
CircleSize:4
OverallDifficulty:8
ApproachRate:9
SliderMultiplier:1.7
SliderTickRate:1

[Events]
//Background and Video events
0,0,"BG.jpg",0,0
//Break Periods
2,189852,199718
//Storyboard Layer 0 (Background)
//Storyboard Layer 1 (Fail)
//Storyboard Layer 2 (Pass)
//Storyboard Layer 3 (Foreground)
//Storyboard Layer 4 (Overlay)
//Storyboard Sound Samples

[TimingPoints]
319,333.333333333333,4,2,1,45,1,0
319,-166.666666666667,4,2,1,45,0,0
10985,-105.263157894737,4,2,1,70,0,0
21652,-133.333333333333,4,2,1,45,0,0
32318,-117.647058823529,4,2,1,55,0,0
42985,-111.111111111111,4,2,1,60,0,0
61652,-111.111111111111,4,2,1,70,0,0
66318,-166.666666666666,4,2,1,70,0,0
66985,-90.9090909090909,4,2,1,80,0,1
88318,-117.647058823529,4,2,1,80,0,0
88485,-117.647058823529,4,2,1,40,0,0
98985,-133.333333333333,4,2,1,45,0,0
109652,-117.647058823529,4,2,1,55,0,0
120318,-111.111111111111,4,2,1,60,0,0
138985,-111.111111111111,4,2,1,70,0,0
143652,-166.666666666666,4,2,1,70,0,0
144318,-90.9090909090909,4,2,1,80,0,1
165652,-117.647058823529,4,2,1,65,0,0
176318,-105.263157894737,4,2,1,70,0,0
188985,-166.666666666667,4,2,1,40,0,0
200318,-133.333333333333,4,2,1,50,0,0
209485,-105.263157894737,4,2,1,65,0,0
210985,-90.9090909090909,4,2,1,80,0,1
232318,-117.647058823529,4,2,1,65,0,0
253818,-117.647058823529,4,2,1,50,0,0
254318,-117.647058823529,4,2,1,45,0,0
254985,-117.647058823529,4,2,1,40,0,0
255652,-117.647058823529,4,2,1,35,0,0
256318,-117.647058823529,4,2,1,30,0,0
256985,-117.647058823529,4,2,1,25,0,0

[Colours]
Combo1 : 215,215,215
Combo2 : 255,166,210
Combo3 : 142,142,255
Combo4 : 252,215,158

[HitObjects]
435,293,319,6,0,P|440:317|445:342,2,50.9999984436036,2|0|2,0:0|0:0|0:0,0:0:0:0:
383,225,818,2,0,P|394:171|406:117,1,101.999996887207,2|2,0:0|0:0,0:0:0:0:
466,69,1318,1,0,0:0:0:0:
466,69,1485,2,0,P|417:77|377:47,1,101.999996887207,2|2,0:0|0:0,0:0:0:0:
309,101,1985,1,0,0:0:0:0:
309,101,2152,2,0,P|260:92|220:122,1,101.999996887207,2|2,0:0|0:0,0:0:0:0:
147,76,2652,1,2,0:0:0:0:
147,76,2818,1,2,0:0:0:0:
103,154,2985,6,0,P|108:178|113:203,2,50.9999984436036,2|0|2,0:0|0:0|0:0,0:0:0:0:
14,146,3485,2,0,P|25:195|35:245,1,101.999996887207,2|2,0:0|0:0,0:0:0:0:
92,314,3985,1,0,0:0:0:0:
92,314,4152,2,0,P|135:333|185:299,1,101.999996887207,2|2,0:0|0:0,0:0:0:0:
252,253,4652,1,0,0:0:0:0:
252,253,4818,2,0,P|294:228|340:247,1,101.999996887207,2|2,0:0|0:0,0:0:0:0:
403,319,5319,1,2,0:0:0:0:
403,319,5485,1,2,0:0:0:0:
456,252,5652,6,0,P|480:257|506:261,2,50.9999984436036,2|0|2,0:0|0:0|0:0,0:0:0:0:
403,319,6152,2,0,P|346:329|289:341,1,101.999996887207,2|2,0:0|0:0,0:0:0:0:
252,253,6652,1,0,0:0:0:0:
252,253,6818,2,0,P|274:230|255:151,1,101.999996887207,2|2,0:0|0:0,0:0:0:0:
199,108,7318,1,0,0:0:0:0:
283,76,7485,1,2,0:0:0:0:
283,76,7818,5,2,0:0:0:0:
213,19,7985,1,2,0:0:0:0:
128,51,8152,2,0,L|94:64,1,25.4999992218018,2|2,0:0|0:0,0:0:0:0:
28,88,8318,5,2,0:0:0:0:
28,88,8485,1,2,0:0:0:0:
188,197,8818,5,2,0:0:0:0:
188,197,8985,1,2,0:0:0:0:
13,283,9318,5,2,0:0:0:0:
13,283,9485,1,2,0:0:0:0:
201,367,9818,5,2,0:0:0:0:
201,367,9985,1,2,0:0:0:0:
80,199,10318,5,2,0:0:0:0:
72,189,10652,5,2,0:0:0:0:
76,170,10735,1,2,0:0:0:0:
80,151,10818,1,2,0:0:0:0:
84,133,10902,1,2,0:0:0:0:
88,114,10985,6,0,P|155:94|217:171,1,161.499995687485,6|10,3:2|0:0,0:0:0:0:
277,0,11485,1,0,0:0:0:0:
382,122,11652,2,0,P|343:111|303:101,1,80.7499978437424,2|2,3:2|3:2,0:0:0:0:
462,59,11985,1,10,0:0:0:0:
336,208,12152,6,0,B|277:225|277:225|263:256|263:256|183:279,1,161.499995687485,6|0,3:2|3:0,0:0:0:0:
333,384,12652,2,0,P|341:344|350:305,1,80.7499978437424,10|0,0:0|0:0,0:0:0:0:
424,145,12985,2,0,P|433:184|441:223,1,80.7499978437424,2|0,3:2|3:0,0:0:0:0:
512,376,13318,2,0,P|472:366|433:358,1,80.7499978437424,10|0,0:0|0:0,0:0:0:0:
276,225,13652,6,0,P|293:146|309:66,1,161.499995687485,6|10,3:2|0:0,0:0:0:0:
158,149,14152,1,2,0:0:0:0:
201,3,14318,2,0,P|210:42|219:81,1,80.7499978437424,2|2,3:2|3:2,0:0:0:0:
179,243,14652,1,10,0:0:0:0:
44,123,14818,6,0,B|71:80|129:93|129:93|133:140|187:169,1,161.499995687485,6|0,3:2|3:0,0:0:0:0:
310,67,15318,1,10,0:0:0:0:
98,0,15485,5,6,3:2:0:0:
316,192,15818,5,6,3:2:0:0:
79,384,16152,6,0,P|68:303|55:224,1,161.499995687485,6|2,3:2|3:2,0:0:0:0:
207,139,16652,1,10,0:0:0:0:
98,0,16818,2,0,P|108:80|121:159,1,161.499995687485,6|2,3:2|3:2,0:0:0:0:
218,295,17318,1,10,0:0:0:0:
316,143,17485,6,0,P|375:125|445:191,1,161.499995687485,6|2,3:2|3:2,0:0:0:0:
281,229,17985,1,10,0:0:0:0:
392,380,18152,2,0,P|381:299|368:220,1,161.499995687485,6|2,3:2|3:2,0:0:0:0:
221,130,18652,1,10,0:0:0:0:
408,92,18818,1,2,3:2:0:0:
281,229,18985,6,0,P|201:215|121:205,1,161.499995687485,6|8,3:2|0:0,0:0:0:0:
0,97,19485,2,0,P|6:136|11:176,1,80.7499978437424,0|0,0:0|3:0,0:0:0:0:
112,30,19818,2,0,P|105:69|100:109,1,80.7499978437424,0|8,3:0|0:0,0:0:0:0:
0,289,20152,1,2,0:0:0:0:
0,289,20235,1,2,0:0:0:0:
0,289,20318,6,0,P|55:279|90:317,1,80.7499978437424,2|0,3:2|3:0,0:0:0:0:
94,319,20568,1,0,3:0:0:0:
94,319,20652,1,10,0:0:0:0:
240,203,20818,2,0,P|224:282|210:361,1,161.499995687485,0|0,3:0|3:0,0:0:0:0:
351,229,21318,1,8,0:0:0:0:
345,199,21401,1,8,0:0:0:0:
340,169,21484,1,8,0:0:0:0:
334,139,21567,1,8,0:0:0:0:
329,109,21651,5,4,3:1:0:0:
329,109,21985,2,0,P|273:128|216:75,1,127.500004863739,2|2,0:0|0:0,0:0:0:0:
348,3,22652,2,0,P|380:11|422:19,1,63.7500024318696,2|0,0:0|0:0,0:0:0:0:
449,96,22985,2,0,P|481:87|523:80,2,63.7500024318696,2|2|2,0:0|0:0|0:0,0:0:0:0:
399,169,23485,1,2,0:0:0:0:
399,169,23818,2,0,P|411:231|422:294,1,127.500004863739,2|2,0:0|0:0,0:0:0:0:
430,326,24235,1,2,0:0:0:0:
430,326,24318,5,0,3:0:0:0:
430,326,24652,2,0,P|398:319|367:314,1,63.7500024318696,2|0,0:0|0:0,0:0:0:0:
293,279,24985,2,0,P|261:284|230:290,1,63.7500024318696,2|0,0:0|0:0,0:0:0:0:
166,353,25318,1,2,0:0:0:0:
166,353,25485,1,2,0:0:0:0:
121,272,25652,2,0,P|126:238|138:180,2,63.7500024318696,0|2|2,0:0|0:0|0:0,0:0:0:0:
231,185,26152,1,2,0:0:0:0:
231,185,26485,2,0,P|243:145|177:113,1,127.500004863739,2|2,0:0|0:0,0:0:0:0:
97,44,26985,6,0,P|159:29|220:12,1,127.500004863739,2|2,0:0|0:0,0:0:0:0:
305,67,27485,1,2,0:0:0:0:
305,67,27652,2,0,P|336:74|366:82,1,63.7500024318696,2|0,0:0|0:0,0:0:0:0:
447,46,27985,2,0,P|406:92|417:153,1,127.500004863739,2|2,0:0|0:0,0:0:0:0:
512,313,28652,1,2,0:0:0:0:
512,313,28985,2,0,P|482:304|440:293,1,63.7500024318696,2|0,0:0|0:0,0:0:0:0:
375,242,29318,2,0,P|344:250|313:259,1,63.7500024318696,2|0,0:0|3:0,0:0:0:0:
291,290,29568,1,0,3:0:0:0:
291,290,29652,6,0,P|242:252|249:192,1,127.500004863739,0|2,3:0|0:0,0:0:0:0:
320,150,30152,1,2,0:0:0:0:
320,150,30318,2,0,P|256:141|194:129,1,127.500004863739,2|2,0:0|0:0,0:0:0:0:
94,96,30819,2,0,P|101:126|109:157,1,63.7500024318696,2|0,0:0|0:0,0:0:0:0:
23,179,31152,2,0,P|15:148|7:117,1,63.7500024318696,2|2,0:0|0:0,0:0:0:0:
58,17,31485,2,0,P|101:60|161:47,1,127.500004863739,2|2,0:0|0:0,0:0:0:0:
257,60,31985,2,0,P|263:23|247:-5,1,63.7500024318696,2|0,0:0|3:0,0:0:0:0:
194,129,32318,5,4,3:2:0:0:
194,129,32652,2,0,L|207:212,1,72.2500013780594,2|2,0:3|0:0,0:0:0:0:
147,311,32985,2,0,P|214:291|269:334,1,144.500002756119,10|2,0:0|0:0,0:0:0:0:
348,384,33485,2,0,L|375:211,1,144.500002756119,2|0,3:2|0:0,0:0:0:0:
467,148,33985,2,0,P|430:167|393:154,1,72.2500013780594,2|2,0:3|0:0,0:0:0:0:
291,63,34318,1,8,0:0:0:0:
291,63,34652,2,0,L|304:150,1,72.2500013780594,0|2,3:0|3:2,0:0:0:0:
312,170,34902,1,0,3:0:0:0:
312,170,34985,5,0,3:0:0:0:
312,170,35318,2,0,P|261:162|231:159,1,72.2500013780594,2|0,0:3|0:0,0:0:0:0:
112,149,35652,2,0,P|165:192|139:284,1,144.500002756119,10|2,0:0|0:0,0:0:0:0:
38,242,36152,2,0,P|25:170|11:99,1,144.500002756119,2|2,3:2|0:0,0:0:0:0:
0,0,36652,2,0,P|38:22|79:8,1,72.2500013780594,2|2,0:3|0:0,0:0:0:0:
216,0,36985,1,8,0:0:0:0:
216,0,37318,1,2,0:0:0:0:
163,105,37485,1,2,0:0:0:0:
163,105,37568,1,2,0:0:0:0:
163,105,37652,6,0,P|233:91|305:80,1,144.500002756119,2|2,3:2|0:3,0:0:0:0:
372,17,38152,1,2,0:0:0:0:
492,118,38318,2,0,P|454:99|368:161,1,144.500002756119,10|2,0:0|0:0,0:0:0:0:
439,268,38818,1,0,3:0:0:0:
439,268,39318,2,0,P|445:232|452:196,1,72.2500013780594,2|0,0:3|0:0,0:0:0:0:
488,355,39652,2,0,P|450:373|364:311,1,144.500002756119,10|2,0:0|0:0,0:0:0:0:
258,242,40152,1,0,3:0:0:0:
258,242,40235,1,0,3:0:0:0:
258,242,40318,6,0,P|273:320|287:398,1,144.500002756119,0|2,3:0|0:3,0:0:0:0:
195,330,40818,1,2,0:0:0:0:
345,240,40985,2,0,P|357:168|371:98,1,144.500002756119,2|2,0:0|0:0,0:0:0:0:
213,14,41485,5,6,3:2:0:0:
449,194,41818,5,6,3:2:0:0:
171,140,42152,5,6,3:2:0:0:
396,8,42485,5,6,3:2:0:0:
348,188,42652,1,8,0:0:0:0:
372,98,42818,1,0,3:0:0:0:
259,213,42985,6,0,P|179:225|99:238,1,152.999995330811,6|8,3:2|0:0,0:0:0:0:
5,169,43485,1,2,0:0:0:0:
119,67,43652,2,0,P|188:46|246:95,1,152.999995330811,2|8,3:2|0:0,0:0:0:0:
355,177,44152,1,2,3:2:0:0:
436,26,44318,6,0,B|349:15|349:15|318:47|342:85,1,152.999995330811,2|8,3:2|0:0,0:0:0:0:
472,138,44818,1,2,3:2:0:0:
367,252,44985,2,0,P|361:212|354:171,1,76.4999976654053,2|0,3:2|3:0,0:0:0:0:
480,257,45318,2,0,P|473:294|468:332,1,76.4999976654053,10|0,0:0|3:0,0:0:0:0:
319,384,45652,6,0,P|243:371|167:360,1,152.999995330811,2|8,3:2|0:0,0:0:0:0:
52,308,46152,1,2,3:2:0:0:
148,204,46318,2,0,P|218:182|277:226,1,152.999995330811,2|8,3:2|0:0,0:0:0:0:
381,329,46818,1,0,3:0:0:0:
381,329,47152,5,0,3:0:0:0:
457,211,47318,2,0,P|419:217|381:224,1,76.4999976654053,8|0,0:0|0:0,0:0:0:0:
279,340,47652,2,0,P|241:332|203:326,1,76.4999976654053,2|0,3:2|3:0,0:0:0:0:
171,351,47902,1,0,3:0:0:0:
171,351,47985,1,10,0:0:0:0:
53,205,48152,1,0,3:0:0:0:
53,205,48235,1,0,3:0:0:0:
53,205,48318,6,0,B|67:252|67:252|120:276|174:230,1,152.999995330811,6|8,3:2|0:0,0:0:0:0:
289,245,48818,1,2,0:0:0:0:
227,103,48985,2,0,B|142:85|142:85|111:117|134:172,1,152.999995330811,2|8,3:2|0:0,0:0:0:0:
207,8,49485,1,2,3:2:0:0:
13,0,49652,6,0,P|26:76|37:152,1,152.999995330811,2|8,3:2|0:0,0:0:0:0:
139,240,50152,1,2,3:2:0:0:
21,328,50318,2,0,P|26:290|32:252,1,76.4999976654053,2|0,3:2|3:0,0:0:0:0:
193,324,50652,2,0,P|155:329|117:335,1,76.4999976654053,10|0,0:0|3:0,0:0:0:0:
242,228,50985,6,0,B|334:212|300:273|406:247,1,152.999995330811,2|8,3:2|0:0,0:0:0:0:
466,172,51485,1,0,3:0:0:0:
372,22,51652,2,0,B|335:67|335:67|369:157,1,152.999995330811,2|8,3:2|0:0,0:0:0:0:
490,282,52152,1,0,3:0:0:0:
490,282,52485,5,0,3:0:0:0:
372,325,52652,2,0,P|379:287|388:250,1,76.4999976654053,10|0,0:0|0:0,0:0:0:0:
263,143,52985,2,0,P|272:180|279:217,1,76.4999976654053,2|0,3:2|3:0,0:0:0:0:
225,384,53318,1,10,0:0:0:0:
279,217,53485,1,0,3:0:0:0:
100,273,53652,6,0,L|271:303,1,152.999995330811,6|8,3:2|0:0,0:0:0:0:
157,192,54152,1,2,0:0:0:0:
61,377,54318,2,0,L|146:362,1,76.4999976654053,2|2,3:2|3:2,0:0:0:0:
251,299,54652,1,8,0:0:0:0:
74,265,54818,6,0,P|34:201|57:131,1,152.999995330811,0|0,3:0|3:0,0:0:0:0:
178,13,55318,2,0,P|170:50|165:88,1,76.4999976654053,10|0,0:0|0:0,0:0:0:0:
7,47,55652,2,0,P|44:42|82:34,1,76.4999976654053,2|0,3:2|3:0,0:0:0:0:
215,177,55985,2,0,P|177:181|139:189,1,76.4999976654053,10|0,0:0|3:0,0:0:0:0:
282,66,56318,6,0,P|322:109|420:86,1,152.999995330811,2|8,3:2|0:0,0:0:0:0:
360,23,56818,1,2,3:2:0:0:
496,118,56985,2,0,P|489:155|482:193,1,76.4999976654053,2|0,3:2|3:0,0:0:0:0:
375,243,57318,1,10,0:0:0:0:
512,334,57485,6,0,P|440:316|384:365,1,152.999995330811,2|0,3:2|3:0,0:0:0:0:
271,248,57985,2,0,P|278:285|285:323,1,76.4999976654053,10|0,0:0|0:0,0:0:0:0:
325,162,58318,2,0,P|318:125|311:87,1,76.4999976654053,2|0,0:0|3:0,0:0:0:0:
160,144,58652,2,0,P|197:150|235:158,1,76.4999976654053,10|0,0:0|0:0,0:0:0:0:
351,4,58985,6,0,P|300:-12|226:51,1,152.999995330811,6|8,3:2|0:0,0:0:0:0:
105,58,59485,1,2,0:0:0:0:
145,219,59652,2,0,P|151:181|160:143,1,76.4999976654053,2|0,3:2|3:0,0:0:0:0:
39,0,59985,1,8,0:0:0:0:
0,158,60152,2,0,P|37:149|75:142,1,76.4999976654053,0|0,3:0|0:0,0:0:0:0:
180,314,60485,6,0,P|133:324|94:299,1,76.4999976654053,2|8,3:2|0:0,0:0:0:0:
237,226,60818,2,0,P|284:216|323:241,1,76.4999976654053,2|0,0:0|3:0,0:0:0:0:
285,384,61152,2,0,P|277:346|272:308,1,76.4999976654053,2|8,3:2|0:0,0:0:0:0:
312,141,61485,1,10,0:0:0:0:
312,141,61568,1,8,0:0:0:0:
312,141,61652,5,10,0:0:0:0:
312,141,61985,2,0,P|305:93|300:65,1,76.4999976654053,8|0,0:0|3:0,0:0:0:0:
427,174,62318,1,8,0:0:0:0:
315,237,62485,1,0,0:0:0:0:
467,265,62652,1,8,0:0:0:0:
355,328,62819,1,0,3:0:0:0:
435,156,62985,5,8,0:0:0:0:
435,156,63318,2,0,P|441:118|446:80,1,76.4999976654053,8|2,0:0|3:2,0:0:0:0:
313,0,63652,1,8,0:0:0:0:
351,107,63818,1,2,0:0:0:0:
231,54,63985,1,8,0:0:0:0:
269,161,64151,1,2,3:2:0:0:
142,104,64318,5,6,3:2:0:0:
87,265,64485,1,4,3:2:0:0:
147,111,64818,5,4,3:2:0:0:
179,277,64985,1,4,3:2:0:0:
152,118,65318,5,4,3:2:0:0:
272,246,65485,1,4,3:2:0:0:
157,125,65818,5,4,3:2:0:0:
347,183,65985,1,6,3:2:0:0:
57,0,66318,6,0,L|72:80,1,76.4999976654053,6|0,3:2|0:0,0:0:0:0:
17,145,66651,5,2,0:0:0:0:
15,154,66734,1,2,0:0:0:0:
14,163,66817,1,2,0:0:0:0:
13,173,66902,1,2,0:0:0:0:
12,183,66985,6,0,B|120:169|75:246|208:216,1,187.000005706787,6|8,3:2|0:0,0:0:0:0:
330,97,67485,1,2,0:0:0:0:
237,306,67652,2,0,P|224:213|209:121,1,187.000005706787,2|8,3:2|0:0,0:0:0:0:
357,263,68152,1,2,3:2:0:0:
164,384,68318,6,0,P|94:372|25:364,1,140.25000428009,2|0,0:0|0:0,0:0:0:0:
5,370,68652,2,0,P|-17:318|15:283,1,93.5000028533936,10|0,0:0|0:0,0:0:0:0:
153,187,68985,1,2,3:2:0:0:
0,128,69152,1,0,0:0:0:0:
125,288,69318,2,0,P|170:278|216:271,1,93.5000028533936,10|0,0:0|3:0,0:0:0:0:
372,96,69652,6,0,P|310:81|267:184,1,187.000005706787,2|8,3:2|0:0,0:0:0:0:
457,213,70152,1,2,0:0:0:0:
329,384,70318,2,0,P|342:291|359:199,1,187.000005706787,2|8,3:2|0:0,0:0:0:0:
467,54,70818,1,2,3:2:0:0:
264,177,70985,6,0,P|192:164|125:155,1,140.25000428009,2|0,0:0|0:0,0:0:0:0:
115,159,71318,1,10,0:0:0:0:
193,0,71485,2,0,P|222:35|190:106,1,93.5000028533936,2|0,0:0|3:0,0:0:0:0:
42,224,71818,2,0,P|12:188|44:117,1,93.5000028533936,2|8,0:0|0:0,0:0:0:0:
171,254,72152,1,2,3:2:0:0:
0,336,72318,6,0,P|62:311|143:416,1,187.000005706787,6|8,3:2|0:0,0:0:0:0:
212,165,72818,1,2,0:0:0:0:
356,285,72985,2,0,L|148:250,1,187.000005706787,2|8,3:2|0:0,0:0:0:0:
17,144,73485,1,2,3:2:0:0:
182,49,73652,6,0,B|235:40|235:40|259:51|259:51|339:39,1,140.25000428009,2|0,0:0|0:0,0:0:0:0:
340,31,73985,2,0,P|367:80|347:119,1,93.5000028533936,10|0,0:0|0:0,0:0:0:0:
259,293,74318,1,2,3:2:0:0:
231,135,74485,1,0,0:0:0:0:
403,223,74652,2,0,P|448:212|494:203,1,93.5000028533936,10|0,0:0|3:0,0:0:0:0:
299,376,74985,6,0,P|252:327|188:346,1,140.25000428009,2|0,3:2|0:0,0:0:0:0:
175,367,75318,1,10,0:0:0:0:
53,178,75485,2,0,P|98:169|145:161,1,93.5000028533936,2|0,0:0|3:0,0:0:0:0:
0,287,75818,2,0,P|46:294|92:303,1,93.5000028533936,2|8,3:2|0:0,0:0:0:0:
285,197,76152,6,0,B|303:133|326:75|326:75|295:102|278:109,1,187.000005706787,2|0,3:2|3:0,0:0:0:0:
248,120,76568,1,0,3:0:0:0:
248,120,76652,1,10,0:0:0:0:
394,213,76818,5,6,3:2:0:0:
144,370,77152,6,0,L|205:360,1,46.7500014266968,6|0,3:2|0:0,0:0:0:0:
258,321,77318,1,8,0:0:0:0:
281,324,77401,1,8,0:0:0:0:
304,328,77484,1,10,0:0:0:0:
327,332,77567,1,8,0:0:0:0:
350,336,77652,6,0,B|454:353|454:353|492:315|463:262,1,187.000005706787,6|8,3:2|0:0,0:0:0:0:
285,197,78152,1,2,0:0:0:0:
424,28,78318,2,0,P|407:119|394:212,1,187.000005706787,2|8,3:2|0:0,0:0:0:0:
284,55,78818,1,2,3:2:0:0:
210,246,78985,6,0,P|275:233|321:282,1,140.25000428009,2|0,0:0|0:0,0:0:0:0:
341,299,79318,2,0,P|295:309|251:324,1,93.5000028533936,10|0,0:0|0:0,0:0:0:0:
118,198,79652,1,2,3:2:0:0:
165,342,79818,1,0,0:0:0:0:
279,148,79985,2,0,P|234:132|189:122,1,93.5000028533936,10|0,0:0|3:0,0:0:0:0:
0,59,80318,6,0,P|66:81|140:1,1,187.000005706787,2|8,3:2|0:0,0:0:0:0:
18,178,80818,1,2,0:0:0:0:
189,122,80985,2,0,P|169:213|153:305,1,187.000005706787,2|8,3:2|0:0,0:0:0:0:
100,105,81485,1,2,3:2:0:0:
256,232,81652,6,0,P|315:248|367:184,1,140.25000428009,2|0,0:0|0:0,0:0:0:0:
368,177,81985,1,10,0:0:0:0:
230,13,82152,2,0,P|219:58|211:104,1,93.5000028533936,2|0,0:0|3:0,0:0:0:0:
68,280,82485,2,0,P|59:233|49:188,1,93.5000028533936,2|8,0:0|0:0,0:0:0:0:
168,211,82818,1,2,3:2:0:0:
28,68,82985,6,0,P|119:88|211:104,1,187.000005706787,6|8,3:2|0:0,0:0:0:0:
314,250,83485,1,2,0:0:0:0:
445,89,83652,2,0,B|341:72|341:72|303:110|332:163,1,187.000005706787,2|8,3:2|0:0,0:0:0:0:
512,198,84152,1,2,3:2:0:0:
382,366,84318,6,0,P|398:273|418:182,1,187.000005706787,6|8,0:0|0:0,0:0:0:0:
484,369,84818,1,2,0:0:0:0:
314,250,84985,2,0,P|239:228|170:318,1,187.000005706787,2|10,3:2|0:0,0:0:0:0:
350,376,85485,1,2,3:2:0:0:
418,183,85652,6,0,P|402:90|382:-1,1,187.000005706787,6|8,3:2|0:0,0:0:0:0:
199,121,86152,1,2,0:0:0:0:
265,328,86318,2,0,P|285:236|300:144,1,187.000005706787,2|8,3:2|0:0,0:0:0:0:
175,4,86818,1,2,3:2:0:0:
81,170,86985,6,0,P|132:184|200:123,1,140.25000428009,2|0,0:0|3:0,0:0:0:0:
199,121,87318,1,10,0:0:0:0:
48,276,87485,5,6,3:2:0:0:
344,370,87818,6,0,L|358:297,1,46.7500014266968,6|0,3:2|0:0,0:0:0:0:
373,236,87985,1,8,0:0:0:0:
350,240,88068,1,8,0:0:0:0:
327,244,88151,1,10,0:0:0:0:
304,249,88234,1,8,0:0:0:0:
281,253,88318,6,0,P|265:298|282:334,1,72.2500013780594,4|0,3:1|0:0,0:0:0:0:
437,368,88652,1,2,0:0:0:0:
437,368,89318,1,2,0:0:0:0:
437,368,89985,1,2,0:0:0:0:
437,368,90652,2,0,L|424:290,1,72.2500013780594,2|0,0:0|0:0,0:0:0:0:
322,205,90985,6,0,L|335:127,1,72.2500013780594,2|0,3:2|0:0,0:0:0:0:
435,42,91318,1,2,0:0:0:0:
435,42,91985,1,2,0:0:0:0:
355,7,92152,1,0,0:0:0:0:
355,7,92235,1,0,0:0:0:0:
355,7,92318,6,0,P|283:19|212:31,1,144.500002756119,2|2,0:0|0:0,0:0:0:0:
92,111,92818,2,0,P|137:103|174:128,1,72.2500013780594,2|0,0:0|0:0,0:0:0:0:
136,270,93152,2,0,P|129:234|122:199,1,72.2500013780594,2|0,0:0|0:0,0:0:0:0:
260,117,93485,1,0,0:0:0:0:
260,117,93568,1,0,0:0:0:0:
260,117,93652,6,0,P|252:152|246:187,1,72.2500013780594,6|0,3:2|0:0,0:0:0:0:
324,312,93985,1,2,0:0:0:0:
324,312,94652,1,2,0:0:0:0:
324,312,95318,1,2,0:0:0:0:
324,312,95985,2,0,P|336:276|315:233,1,72.2500013780594,2|0,0:0|0:0,0:0:0:0:
169,268,96318,6,0,P|204:273|240:280,1,72.2500013780594,2|0,3:2|0:0,0:0:0:0:
340,150,96652,1,2,0:0:0:0:
340,150,97318,1,2,0:0:0:0:
340,150,97985,1,2,0:0:0:0:
340,150,98652,2,0,L|282:138,3,36.1250006890297,2|0|2|2,0:0|0:0|0:0|0:0,0:0:0:0:
275,118,98985,6,0,P|213:134|151:148,1,127.500004863739,4|2,3:2|0:0,0:0:0:0:
76,199,99485,1,2,0:0:0:0:
76,199,99652,2,0,L|59:130,1,63.7500024318696,2|0,3:2|0:0,0:0:0:0:
0,72,99985,2,0,L|17:3,1,63.7500024318696,2|2,0:0|0:0,0:0:0:0:
103,57,100318,5,2,3:2:0:0:
169,0,100485,1,2,0:0:0:0:
234,65,100652,2,0,P|269:74|306:55,1,63.7500024318696,2|2,0:0|0:0,0:0:0:0:
384,16,100985,2,0,P|373:78|364:141,1,127.500004863739,0|0,3:0|0:0,0:0:0:0:
226,317,101652,6,0,P|216:253|206:191,1,127.500004863739,0|2,3:0|0:0,0:0:0:0:
135,144,102152,1,2,0:0:0:0:
135,144,102318,2,0,P|118:180|129:215,1,63.7500024318696,0|2,3:0|0:0,0:0:0:0:
77,287,102652,2,0,P|113:304|148:293,1,63.7500024318696,2|2,0:0|0:0,0:0:0:0:
218,352,102985,5,0,3:2:0:0:
284,278,103152,1,2,0:0:0:0:
331,367,103318,1,2,3:2:0:0:
404,291,103485,2,0,L|381:182,1,95.6250036478044,2|0,3:2|0:0,0:0:0:0:
372,188,103818,2,0,L|380:141,2,31.8750012159348,2|2|0,0:0|0:0|3:0,0:0:0:0:
469,164,104152,1,2,3:2:0:0:
398,70,104318,6,0,P|355:60|301:119,1,127.500004863739,2|0,3:2|0:0,0:0:0:0:
233,181,104818,1,2,0:0:0:0:
233,181,104985,2,0,P|201:175|170:170,1,63.7500024318696,2|0,3:2|3:0,0:0:0:0:
98,91,105318,2,0,P|129:86|160:80,1,63.7500024318696,2|0,0:0|0:0,0:0:0:0:
241,45,105652,5,0,3:0:0:0:
302,115,105818,1,0,0:0:0:0:
358,36,105985,2,0,P|389:41|420:47,1,63.7500024318696,0|0,3:0|0:0,0:0:0:0:
512,0,106318,2,0,P|501:62|493:126,1,127.500004863739,2|2,3:2|0:0,0:0:0:0:
382,301,106985,6,0,P|374:237|363:174,1,127.500004863739,2|0,3:2|0:0,0:0:0:0:
302,115,107485,1,2,3:2:0:0:
302,115,107652,2,0,P|263:113|231:131,1,63.7500024318696,2|0,3:2|3:0,0:0:0:0:
211,207,107985,2,0,L|222:257,2,31.8750012159348,0|2|2,3:0|0:0|0:0,0:0:0:0:
151,141,108318,5,0,3:0:0:0:
82,208,108485,1,2,3:2:0:0:
20,141,108652,2,0,L|38:58,1,63.7500024318696,0|2,0:0|3:2,0:0:0:0:
82,208,108985,2,0,L|75:239,3,31.8750012159348,2|2|2|0,0:0|0:0|3:2|0:0,0:0:0:0:
67,270,109318,1,0,3:0:0:0:
0,334,109485,1,0,3:0:0:0:
97,373,109652,5,4,3:2:0:0:
97,373,109735,2,0,L|208:351,1,108.375002067089,2|2,0:0|0:0,0:0:0:0:
272,279,110152,1,0,0:0:0:0:
341,350,110318,2,0,P|376:356|411:365,1,72.2500013780594,2|0,3:2|0:0,0:0:0:0:
438,269,110652,2,0,P|402:262|367:253,1,72.2500013780594,2|2,0:0|0:0,0:0:0:0:
299,185,110985,5,2,3:2:0:0:
393,161,111152,1,2,0:0:0:0:
326,92,111318,1,2,0:0:0:0:
326,92,111485,1,2,0:0:0:0:
232,116,111652,2,0,L|144:107,1,72.2500013780594,0|2,3:0|0:0,0:0:0:0:
132,116,111902,1,2,0:0:0:0:
132,116,111985,2,2,P|114:85|120:49,1,72.2500013780594,2|0,0:0|0:0,0:0:0:0:
186,207,112318,5,0,3:0:0:0:
186,207,112402,2,0,P|176:260|169:314,1,108.375002067089,2|2,0:0|0:0,0:0:0:0:
98,384,112818,1,0,0:0:0:0:
41,307,112985,2,0,P|49:264|54:221,1,72.2500013780594,2|2,3:2|0:0,0:0:0:0:
95,164,113318,2,0,L|85:120,3,36.1250006890297,2|2|2|2,0:0|0:0|0:0|0:0,0:0:0:0:
77,104,113652,5,2,3:2:0:0:
142,34,113818,1,2,0:0:0:0:
193,120,113985,1,2,0:0:0:0:
274,57,114152,2,0,P|309:48|343:37,1,72.2500013780594,2|0,3:0|0:0,0:0:0:0:
377,140,114485,1,2,0:0:0:0:
377,140,114568,1,2,0:0:0:0:
377,140,114652,2,0,P|341:148|307:159,1,72.2500013780594,0|2,3:0|0:0,0:0:0:0:
226,226,114985,5,2,3:2:0:0:
226,226,115069,2,0,P|233:275|238:333,1,108.375002067089,2|0,0:0|0:0,0:0:0:0:
309,383,115485,1,2,0:0:0:0:
353,306,115652,2,0,P|389:289|421:301,1,72.2500013780594,2|0,3:2|0:0,0:0:0:0:
501,328,115985,2,0,L|505:280,3,36.1250006890297,2|2|2|2,0:0|0:0|0:0|0:0,0:0:0:0:
512,257,116319,5,0,3:0:0:0:
433,204,116485,1,0,0:0:0:0:
492,129,116652,1,0,0:0:0:0:
492,129,116819,1,0,0:0:0:0:
409,63,116985,2,0,L|324:46,1,72.2500013780594,2|0,3:2|0:0,0:0:0:0:
322,72,117235,1,2,0:0:0:0:
322,72,117319,2,0,L|237:89,1,72.2500013780594,2|0,0:0|0:0,0:0:0:0:
133,8,117652,5,2,3:2:0:0:
133,8,117735,2,0,L|111:121,1,108.375002067089,2|0,0:0|0:0,0:0:0:0:
42,184,118152,1,2,0:0:0:0:
124,234,118318,2,0,L|209:217,1,72.2500013780594,2|0,3:2|0:0,0:0:0:0:
273,177,118652,1,0,0:0:0:0:
170,321,118818,5,6,3:2:0:0:
430,212,119152,5,6,3:2:0:0:
194,48,119485,5,6,3:2:0:0:
320,331,119818,5,6,3:2:0:0:
341,240,119985,1,8,0:0:0:0:
362,149,120152,1,0,3:0:0:0:
252,268,120318,6,0,P|205:291|125:217,1,152.999995330811,6|8,3:2|0:0,0:0:0:0:
55,142,120818,1,2,0:0:0:0:
193,39,120985,2,0,P|200:115|205:191,1,152.999995330811,2|8,3:2|0:0,0:0:0:0:
104,60,121485,1,2,3:2:0:0:
277,3,121652,6,0,L|384:23,1,76.4999976654053,2|0,3:2|3:0,0:0:0:0:
459,109,121985,2,0,L|352:129,1,76.4999976654053,8|2,0:0|3:2,0:0:0:0:
318,258,122318,1,2,3:2:0:0:
432,214,122485,1,0,3:0:0:0:
335,360,122652,2,0,L|259:345,1,76.4999976654053,10|0,0:0|3:0,0:0:0:0:
100,281,122985,6,0,P|158:296|220:228,1,152.999995330811,2|8,3:2|0:0,0:0:0:0:
323,167,123485,1,2,3:2:0:0:
188,106,123652,2,0,B|101:93|101:93|67:119|93:181,1,152.999995330811,2|8,3:2|0:0,0:0:0:0:
165,12,124152,1,0,3:0:0:0:
165,12,124485,5,0,3:0:0:0:
282,78,124652,2,0,P|305:44|295:3,1,76.4999976654053,8|0,0:0|0:0,0:0:0:0:
188,106,124985,2,0,P|196:135|209:193,1,76.4999976654053,2|0,3:2|3:0,0:0:0:0:
237,206,125235,1,0,3:0:0:0:
237,206,125318,2,0,P|229:235|216:293,1,76.4999976654053,10|0,0:0|3:0,0:0:0:0:
199,317,125568,1,0,3:0:0:0:
199,317,125652,6,0,P|255:303|311:374,1,152.999995330811,6|8,3:2|0:0,0:0:0:0:
370,255,126152,1,2,0:0:0:0:
489,371,126318,2,0,P|477:295|468:219,1,152.999995330811,2|8,3:2|0:0,0:0:0:0:
364,147,126818,1,2,3:2:0:0:
512,78,126985,6,0,P|456:92|400:21,1,152.999995330811,2|8,3:2|0:0,0:0:0:0:
364,147,127485,1,2,3:2:0:0:
234,52,127652,2,0,P|271:57|309:63,1,76.4999976654053,2|0,3:2|3:0,0:0:0:0:
176,158,127985,2,0,P|213:151|251:146,1,76.4999976654053,10|0,0:0|3:0,0:0:0:0:
404,255,128318,6,0,P|342:243|279:308,1,152.999995330811,2|8,3:2|0:0,0:0:0:0:
369,342,128818,1,0,3:0:0:0:
209,384,128985,2,0,P|197:308|184:233,1,152.999995330811,2|8,3:2|0:0,0:0:0:0:
84,120,129485,1,0,3:0:0:0:
84,120,129818,5,0,3:0:0:0:
233,157,129985,1,10,0:0:0:0:
233,157,130152,1,0,0:0:0:0:
98,215,130318,2,0,P|60:208|22:202,1,76.4999976654053,2|0,3:2|3:0,0:0:0:0:
177,83,130652,1,10,0:0:0:0:
177,83,130818,1,0,3:0:0:0:
259,308,130985,6,0,P|183:318|107:332,1,152.999995330811,6|8,3:2|0:0,0:0:0:0:
186,230,131485,1,2,0:0:0:0:
344,354,131652,2,0,P|361:302|346:269,1,76.4999976654053,2|2,3:2|3:2,0:0:0:0:
282,177,131985,1,8,0:0:0:0:
438,105,132152,6,0,B|450:118|468:133|468:133|409:119|344:111,1,152.999995330811,0|0,3:0|3:0,0:0:0:0:
235,15,132652,2,0,P|284:9|314:39,1,76.4999976654053,10|0,0:0|0:0,0:0:0:0:
282,177,132985,2,0,P|253:137|264:96,1,76.4999976654053,2|0,3:2|3:0,0:0:0:0:
372,208,133318,2,0,P|362:244|355:282,1,76.4999976654053,10|0,0:0|3:0,0:0:0:0:
219,384,133652,6,0,P|204:304|184:225,1,152.999995330811,2|8,3:2|0:0,0:0:0:0:
74,184,134152,1,2,3:2:0:0:
170,58,134318,2,0,P|160:95|153:132,1,76.4999976654053,2|0,3:2|3:0,0:0:0:0:
67,68,134652,1,10,0:0:0:0:
255,112,134818,6,0,P|329:93|404:79,1,152.999995330811,2|0,3:2|3:0,0:0:0:0:
511,204,135318,2,0,P|473:194|436:187,1,76.4999976654053,10|0,0:0|0:0,0:0:0:0:
507,32,135652,2,0,P|497:69|490:106,1,76.4999976654053,2|0,0:0|3:0,0:0:0:0:
354,244,135985,2,0,P|347:206|337:169,1,76.4999976654053,10|0,0:0|0:0,0:0:0:0:
226,21,136318,6,0,P|164:9|101:74,1,152.999995330811,6|8,3:2|0:0,0:0:0:0:
274,102,136818,1,2,0:0:0:0:
171,176,136985,2,0,P|177:138|187:101,1,76.4999976654053,2|0,3:2|3:0,0:0:0:0:
235,243,137318,1,8,0:0:0:0:
91,237,137485,2,0,P|81:199|74:162,1,76.4999976654053,0|0,3:0|0:0,0:0:0:0:
167,310,137818,6,0,P|157:347|150:384,1,76.4999976654053,2|8,3:2|0:0,0:0:0:0:
0,344,138152,2,0,P|37:334|74:327,1,76.4999976654053,2|0,0:0|3:0,0:0:0:0:
235,243,138485,2,0,P|250:204|241:167,1,76.4999976654053,2|8,3:2|0:0,0:0:0:0:
165,53,138818,1,10,0:0:0:0:
324,118,138985,5,10,0:0:0:0:
324,118,139318,2,0,P|361:109|399:104,1,76.4999976654053,8|0,0:0|3:0,0:0:0:0:
512,242,139652,1,8,0:0:0:0:
389,203,139818,1,0,0:0:0:0:
463,331,139985,1,8,0:0:0:0:
340,292,140151,1,0,3:0:0:0:
475,151,140318,5,8,0:0:0:0:
475,151,140652,2,0,P|480:113|488:75,1,76.4999976654053,8|2,0:0|3:2,0:0:0:0:
352,0,140985,1,8,0:0:0:0:
399,104,141152,1,2,0:0:0:0:
260,47,141318,1,8,0:0:0:0:
307,151,141485,1,2,3:2:0:0:
168,94,141652,5,6,3:2:0:0:
247,231,141818,1,4,3:2:0:0:
165,100,142152,5,4,3:2:0:0:
165,263,142318,1,4,3:2:0:0:
162,106,142652,5,4,3:2:0:0:
77,249,142818,1,4,3:2:0:0:
159,112,143152,5,4,3:2:0:0:
8,193,143318,1,6,3:2:0:0:
180,365,143652,6,0,L|271:350,1,76.4999976654053,6|0,3:2|0:0,0:0:0:0:
315,294,143985,5,2,0:0:0:0:
324,295,144068,1,2,0:0:0:0:
333,297,144151,1,2,0:0:0:0:
343,299,144235,1,2,0:0:0:0:
352,301,144318,6,0,B|407:314|407:314|462:267|425:174,1,187.000005706787,6|8,3:2|0:0,0:0:0:0:
222,142,144818,1,2,0:0:0:0:
352,0,144985,2,0,P|336:92|322:184,1,187.000005706787,2|8,3:2|0:0,0:0:0:0:
237,19,145485,1,2,3:2:0:0:
431,68,145652,6,0,P|477:116|458:181,1,140.25000428009,2|0,0:0|0:0,0:0:0:0:
432,194,145985,2,0,P|439:240|446:286,1,93.5000028533936,10|0,0:0|0:0,0:0:0:0:
297,384,146318,1,2,3:2:0:0:
354,270,146485,1,0,0:0:0:0:
482,384,146652,2,0,P|435:376|389:369,1,93.5000028533936,10|0,0:0|3:0,0:0:0:0:
234,212,146985,6,0,B|338:195|338:195|376:233|347:286,1,187.000005706787,2|8,3:2|0:0,0:0:0:0:
160,278,147485,1,2,0:0:0:0:
303,97,147652,2,0,B|413:74|375:155|505:114,1,187.000005706787,2|8,3:2|0:0,0:0:0:0:
338,195,148152,1,2,3:2:0:0:
220,19,148318,6,0,P|168:4|94:74,1,140.25000428009,2|0,0:0|0:0,0:0:0:0:
96,65,148652,1,10,0:0:0:0:
207,199,148818,2,0,P|195:153|185:108,1,93.5000028533936,2|0,0:0|3:0,0:0:0:0:
62,252,149152,2,0,P|73:206|83:161,1,93.5000028533936,2|8,0:0|0:0,0:0:0:0:
166,287,149485,1,2,3:2:0:0:
2,349,149652,6,0,P|93:365|185:383,1,187.000005706787,6|8,3:2|0:0,0:0:0:0:
299,194,150152,1,2,0:0:0:0:
439,353,150318,2,0,P|352:372|297:303,1,187.000005706787,2|8,3:2|0:0,0:0:0:0:
367,109,150818,1,2,3:2:0:0:
511,249,150985,6,0,P|443:263|375:279,1,140.25000428009,2|0,0:0|0:0,0:0:0:0:
381,291,151318,2,0,L|394:172,1,93.5000028533936,10|0,0:0|0:0,0:0:0:0:
271,73,151652,1,2,3:2:0:0:
304,224,151818,1,0,0:0:0:0:
452,131,151985,2,0,P|408:105|337:129,1,93.5000028533936,10|0,0:0|3:0,0:0:0:0:
232,316,152318,6,0,P|300:302|370:291,1,140.25000428009,2|0,3:2|0:0,0:0:0:0:
381,291,152652,1,10,0:0:0:0:
173,381,152818,2,0,P|141:333|166:277,1,93.5000028533936,2|0,0:0|3:0,0:0:0:0:
278,143,153152,2,0,P|310:191|285:247,1,93.5000028533936,2|8,3:2|0:0,0:0:0:0:
53,182,153485,6,0,B|81:125|148:145|148:145|150:206|213:232,1,187.000005706787,2|0,3:2|3:0,0:0:0:0:
212,215,153902,1,0,3:0:0:0:
212,215,153985,1,10,0:0:0:0:
37,67,154152,5,6,3:2:0:0:
422,49,154485,6,0,L|363:40,1,46.7500014266968,6|0,3:2|0:0,0:0:0:0:
300,14,154652,1,8,0:0:0:0:
280,27,154735,1,8,0:0:0:0:
269,47,154818,1,10,0:0:0:0:
267,70,154902,1,8,0:0:0:0:
275,92,154985,6,0,B|286:196|286:196|255:239|191:205,1,187.000005706787,6|8,3:2|0:0,0:0:0:0:
153,32,155485,1,2,0:0:0:0:
0,150,155652,2,0,P|92:135|185:123,1,187.000005706787,2|8,3:2|0:0,0:0:0:0:
17,53,156152,1,2,3:2:0:0:
109,228,156318,6,0,P|95:296|85:366,1,140.25000428009,2|0,0:0|0:0,0:0:0:0:
82,382,156652,2,0,P|128:374|174:368,1,93.5000028533936,10|0,0:0|0:0,0:0:0:0:
327,255,156985,1,2,3:2:0:0:
174,368,157152,1,0,0:0:0:0:
217,181,157318,2,0,P|224:227|230:273,1,93.5000028533936,10|0,0:0|3:0,0:0:0:0:
411,384,157652,6,0,P|424:278|441:173,1,187.000005706787,2|8,3:2|0:0,0:0:0:0:
299,52,158152,1,2,0:0:0:0:
498,117,158318,2,0,P|439:94|342:180,1,187.000005706787,2|8,3:2|0:0,0:0:0:0:
501,298,158818,1,2,3:2:0:0:
289,370,158985,6,0,P|219:358|150:349,1,140.25000428009,2|0,0:0|0:0,0:0:0:0:
139,354,159318,1,10,0:0:0:0:
234,168,159485,2,0,P|242:213|250:260,1,93.5000028533936,2|0,0:0|3:0,0:0:0:0:
118,100,159818,2,0,P|109:145|101:192,1,93.5000028533936,2|8,0:0|0:0,0:0:0:0:
249,70,160152,1,2,3:2:0:0:
21,52,160318,6,0,P|107:70|161:0,1,187.000005706787,6|8,3:2|0:0,0:0:0:0:
234,168,160818,1,2,0:0:0:0:
374,41,160985,2,0,B|346:-16|279:4|279:4|277:65|214:91,1,187.000005706787,2|8,3:2|0:0,0:0:0:0:
465,140,161485,1,2,3:2:0:0:
373,319,161652,6,0,P|357:226|341:134,1,187.000005706787,6|8,0:0|0:0,0:0:0:0:
162,0,162152,1,2,0:0:0:0:
114,226,162318,2,0,B|218:243|218:243|256:205|227:152,1,187.000005706787,2|10,3:2|0:0,0:0:0:0:
39,148,162818,1,2,3:2:0:0:
152,351,162985,6,0,P|243:330|335:313,1,187.000005706787,6|8,3:2|0:0,0:0:0:0:
370,104,163485,1,2,0:0:0:0:
512,235,163652,2,0,P|435:260|350:175,1,187.000005706787,2|8,3:2|0:0,0:0:0:0:
166,163,164152,1,2,3:2:0:0:
298,0,164318,6,0,P|281:68|267:136,1,140.25000428009,2|0,0:0|3:0,0:0:0:0:
271,157,164652,1,10,0:0:0:0:
91,39,164818,5,6,3:2:0:0:
215,347,165152,6,0,L|156:361,1,46.7500014266968,6|0,3:2|0:0,0:0:0:0:
110,309,165318,1,8,0:0:0:0:
96,290,165401,1,8,0:0:0:0:
95,267,165485,1,10,0:0:0:0:
106,247,165568,1,8,0:0:0:0:
127,236,165651,5,6,3:2:0:0:
220,255,165818,2,0,B|305:267|269:216|377:230,1,144.500002756119,0|0,3:0|3:0,0:0:0:0:
483,295,166318,2,0,P|440:307|399:276,2,72.2500013780594,8|0|0,0:0|0:0|3:0,0:0:0:0:
446,218,166818,1,0,3:0:0:0:
332,318,166985,6,0,P|289:324|260:330,1,72.2500013780594,2|2,3:2|3:2,0:0:0:0:
179,274,167318,2,0,P|172:309|166:345,1,72.2500013780594,2|2,3:2|3:2,0:0:0:0:
269,216,167652,1,10,0:2:0:0:
269,216,167818,1,2,3:2:0:0:
215,141,167985,1,2,0:0:0:0:
289,80,168152,1,2,3:2:0:0:
201,0,168318,5,2,3:2:0:0:
128,49,168485,2,0,P|68:62|25:-1,1,144.500002756119,0|2,3:0|3:2,0:0:0:0:
114,151,168985,2,0,P|126:193|115:229,2,72.2500013780594,10|0|0,0:0|0:0|3:0,0:0:0:0:
6,288,169485,5,0,3:0:0:0:
6,288,169818,1,0,3:0:0:0:
99,332,169985,2,0,L|188:313,1,72.2500013780594,2|2,3:2|3:2,0:0:0:0:
292,285,170318,1,8,0:0:0:0:
243,362,170485,2,0,P|201:306|217:233,1,144.500002756119,2|0,3:2|3:0,0:0:0:0:
272,130,170985,5,6,3:2:0:0:
345,189,171152,2,0,B|436:201|400:150|508:164,1,144.500002756119,0|0,3:0|3:0,0:0:0:0:
481,325,171652,2,0,L|471:254,1,72.2500013780594,8|0,0:0|0:0,0:0:0:0:
376,106,171985,1,2,3:2:0:0:
284,259,172152,6,0,P|323:286|352:285,1,72.2500013780594,2|0,3:2|0:0,0:0:0:0:
250,166,172485,2,0,P|207:186|193:211,1,72.2500013780594,2|0,3:2|3:0,0:0:0:0:
199,304,172818,1,2,3:2:0:0:
345,189,172985,2,0,L|314:38,1,144.500002756119,8|0,0:0|0:0,0:0:0:0:
233,0,173485,5,2,3:2:0:0:
233,0,173568,1,0,3:0:0:0:
233,0,173652,2,0,P|216:30|221:66,1,72.2500013780594,2|0,3:2|3:0,0:0:0:0:
282,129,173984,1,2,0:0:0:0:
316,47,174152,1,2,3:2:0:0:
193,155,174318,2,0,L|103:138,1,72.2500013780594,8|0,0:0|0:0,0:0:0:0:
19,68,174652,1,2,3:2:0:0:
122,141,174818,1,2,3:2:0:0:
123,41,174985,5,2,0:0:0:0:
31,165,175152,2,0,L|41:236,1,72.2500013780594,2|2,3:2|3:2,0:0:0:0:
196,372,175485,2,0,L|276:360,1,72.2500013780594,2|8,3:2|0:0,0:0:0:0:
361,218,175818,1,2,3:2:0:0:
211,273,175985,1,0,3:0:0:0:
358,329,176152,1,2,3:2:0:0:
267,183,176318,6,0,L|237:4,1,161.499995687485,6|8,3:2|0:0,0:0:0:0:
77,111,176818,2,0,L|166:125,1,80.7499978437424,2|0,0:0|3:0,0:0:0:0:
211,273,177152,1,2,3:2:0:0:
49,206,177318,2,0,L|138:220,1,80.7499978437424,10|2,0:0|3:2,0:0:0:0:
267,361,177652,6,0,L|177:375,1,80.7499978437424,2|2,0:0|3:2,0:0:0:0:
326,279,177985,2,0,P|356:307|358:351,1,80.7499978437424,10|2,0:0|0:0,0:0:0:0:
211,273,178318,1,2,3:2:0:0:
344,183,178485,1,2,0:0:0:0:
197,151,178652,1,10,0:0:0:0:
326,279,178818,1,2,3:2:0:0:
418,109,178985,6,0,P|351:68|279:96,1,161.499995687485,2|8,3:2|0:0,0:0:0:0:
120,227,179485,2,0,L|96:67,1,161.499995687485,2|0,0:0|3:0,0:0:0:0:
233,225,179985,6,0,L|209:384,1,161.499995687485,10|0,0:0|0:0,0:0:0:0:
120,227,180485,1,2,3:2:0:0:
308,316,180652,2,0,L|400:296,1,80.7499978437424,8|0,0:0|0:0,0:0:0:0:
342,149,180985,2,0,P|322:183|327:222,1,80.7499978437424,2|0,3:2|0:0,0:0:0:0:
457,352,181318,2,0,P|476:317|471:278,1,80.7499978437424,10|0,0:0|3:0,0:0:0:0:
416,99,181652,6,0,L|256:122,2,161.499995687485,6|8|0,3:2|0:0|3:0,0:0:0:0:
327,222,182485,1,0,3:0:0:0:
271,27,182652,6,0,B|174:18|219:71|117:56,1,161.499995687485,10|2,0:0|0:0,0:0:0:0:
0,143,183152,1,0,3:0:0:0:
118,243,183318,2,0,L|98:133,1,80.7499978437424,10|0,0:0|0:0,0:0:0:0:
9,304,183652,1,2,3:2:0:0:
103,163,183818,1,0,0:0:0:0:
174,328,183985,2,0,P|133:349|78:329,1,80.7499978437424,10|0,0:0|3:0,0:0:0:0:
207,185,184318,6,0,L|380:210,2,161.499995687485,6|8|0,3:2|0:0|3:0,0:0:0:0:
356,117,185152,1,0,3:0:0:0:
278,290,185318,1,8,0:0:0:0:
149,105,185485,6,0,P|193:82|241:96,1,80.7499978437424,2|0,0:0|3:0,0:0:0:0:
62,156,185818,2,0,L|48:68,1,80.7499978437424,2|8,3:2|0:0,0:0:0:0:
207,185,186152,2,0,L|180:361,1,161.499995687485,2|0,3:2|0:0,0:0:0:0:
110,236,186652,1,8,0:0:0:0:
305,189,186818,1,2,3:2:0:0:
305,189,186902,1,2,0:0:0:0:
305,189,186985,6,0,B|397:202|397:202|427:244|379:292,2,161.499995687485,2|8|0,0:0|0:0|3:0,0:0:0:0:
398,358,187818,1,0,3:0:0:0:
503,190,187985,1,8,0:0:0:0:
307,290,188152,6,0,L|200:274,1,80.7499978437424,6|0,3:2|0:0,0:0:0:0:
87,178,188485,1,6,3:2:0:0:
230,69,188652,1,8,0:0:0:0:
256,55,188735,1,8,0:0:0:0:
286,57,188818,1,10,0:0:0:0:
311,74,188902,1,8,0:0:0:0:
325,100,188985,6,0,B|362:146|317:194|317:194|318:148|275:123,1,178.499994552612,6|0,3:2|0:0,0:0:0:0:
235,195,189652,5,4,3:2:0:0:
418,97,200318,6,0,P|376:81|308:134,1,127.500004863739,6|0,3:2|0:0,0:0:0:0:
234,83,200818,1,2,0:0:0:0:
317,211,200985,1,10,0:0:0:0:
317,211,201485,1,10,0:0:0:0:
239,254,201652,2,0,P|176:242|113:233,1,127.500004863739,2|2,0:0|0:3,0:0:0:0:
6,117,202318,1,10,0:0:0:0:
6,117,202652,2,0,P|44:123|71:105,1,63.7500024318696,2|0,0:0|0:0,0:0:0:0:
181,21,202985,6,0,P|164:82|152:145,1,127.500004863739,2|0,3:2|0:0,0:0:0:0:
189,227,203485,1,2,0:0:0:0:
270,101,203652,1,10,0:0:0:0:
270,101,204152,1,10,0:0:0:0:
331,162,204318,2,0,P|375:173|423:114,1,127.500004863739,2|2,0:0|0:3,0:0:0:0:
391,37,204818,1,2,0:0:0:0:
508,128,204985,1,8,0:0:0:0:
391,37,205152,2,0,P|327:27|265:16,1,127.500004863739,2|2,0:0|0:0,0:0:0:0:
190,70,205652,6,0,P|126:79|64:90,1,127.500004863739,2|0,3:2|0:0,0:0:0:0:
0,33,206152,1,2,0:0:0:0:
46,176,206318,1,10,0:0:0:0:
46,176,206818,1,10,0:0:0:0:
0,277,206985,2,0,P|60:264|106:305,1,127.500004863739,2|2,0:0|0:3,0:0:0:0:
172,247,207485,1,2,0:0:0:0:
222,384,207652,1,10,0:0:0:0:
222,384,208152,1,2,0:0:0:0:
279,312,208318,6,0,P|269:248|261:185,1,127.500004863739,2|0,3:2|0:0,0:0:0:0:
345,134,208818,1,2,0:0:0:0:
345,134,208985,2,0,P|348:165|353:197,1,63.7500024318696,2|0,0:0|0:0,0:0:0:0:
424,77,209318,1,2,0:0:0:0:
371,292,209485,5,6,3:2:0:0:
217,55,209818,5,6,3:2:0:0:
486,185,210152,5,6,3:2:0:0:
228,384,210485,6,0,L|176:374,1,40.3749989218712,6|0,3:2|0:0,0:0:0:0:
138,314,210652,1,8,0:0:0:0:
119,307,210735,1,8,0:0:0:0:
99,308,210818,1,10,0:0:0:0:
82,319,210902,1,8,0:0:0:0:
71,336,210985,6,0,P|132:272|84:173,1,187.000005706787,6|8,3:2|0:0,0:0:0:0:
155,0,211485,1,2,0:0:0:0:
0,113,211652,2,0,P|92:99|185:87,1,187.000005706787,2|8,3:2|0:0,0:0:0:0:
314,269,212152,1,2,3:2:0:0:
422,81,212318,6,0,P|367:66|318:136,1,140.25000428009,2|0,0:0|0:0,0:0:0:0:
294,144,212652,2,0,P|340:148|386:156,1,93.5000028533936,10|0,0:0|0:0,0:0:0:0:
464,343,212985,1,2,3:2:0:0:
314,269,213152,1,0,0:0:0:0:
502,140,213318,2,0,P|494:186|489:232,1,93.5000028533936,10|0,0:0|3:0,0:0:0:0:
255,384,213652,6,0,P|208:322|95:356,1,187.000005706787,2|8,3:2|0:0,0:0:0:0:
314,269,214152,1,2,0:0:0:0:
173,89,214318,2,0,B|156:193|156:193|194:231|247:202,1,187.000005706787,2|8,3:2|0:0,0:0:0:0:
418,157,214818,1,2,3:2:0:0:
280,0,214985,6,0,P|295:68|309:137,1,140.25000428009,2|0,0:0|0:0,0:0:0:0:
314,154,215318,1,10,0:0:0:0:
476,55,215485,2,0,P|429:49|383:42,1,93.5000028533936,2|0,0:0|3:0,0:0:0:0:
314,269,215818,2,0,P|360:274|406:281,1,93.5000028533936,2|8,0:0|0:0,0:0:0:0:
231,209,216152,1,2,3:2:0:0:
424,379,216318,6,0,P|442:287|462:196,1,187.000005706787,6|8,3:2|0:0,0:0:0:0:
373,16,216818,1,2,0:0:0:0:
231,209,216985,2,0,P|177:233|88:148,1,187.000005706787,2|8,3:2|0:0,0:0:0:0:
276,88,217485,1,2,3:2:0:0:
282,319,217652,6,0,P|201:335|121:352,1,140.25000428009,2|0,0:0|0:0,0:0:0:0:
129,356,217985,2,0,P|94:312|113:267,1,93.5000028533936,10|0,0:0|0:0,0:0:0:0:
182,135,218318,1,2,3:2:0:0:
4,228,218485,1,0,0:0:0:0:
55,40,218652,2,0,P|65:85|73:131,1,93.5000028533936,10|0,0:0|3:0,0:0:0:0:
268,249,218985,6,0,P|280:179|296:109,1,140.25000428009,2|0,3:2|0:0,0:0:0:0:
305,100,219318,1,10,0:0:0:0:
472,162,219485,2,0,P|426:170|381:184,1,93.5000028533936,2|0,0:0|3:0,0:0:0:0:
282,0,219818,2,0,P|327:8|372:22,1,93.5000028533936,2|8,3:2|0:0,0:0:0:0:
166,161,220152,6,0,P|121:136|129:11,1,187.000005706787,2|0,3:2|3:0,0:0:0:0:
154,1,220568,1,0,3:0:0:0:
154,1,220652,1,10,0:0:0:0:
51,243,220818,5,6,3:2:0:0:
278,57,221152,6,0,L|292:112,1,46.7500014266968,6|0,3:2|0:0,0:0:0:0:
272,179,221318,1,8,0:0:0:0:
266,201,221401,1,8,0:0:0:0:
260,224,221484,1,10,0:0:0:0:
254,246,221568,1,8,0:0:0:0:
248,269,221652,6,0,B|352:286|352:286|390:248|361:195,1,187.000005706787,6|8,3:2|0:0,0:0:0:0:
278,57,222152,1,2,0:0:0:0:
87,149,222318,2,0,P|179:163|271:178,1,187.000005706787,2|8,3:2|0:0,0:0:0:0:
123,50,222818,1,2,3:2:0:0:
14,246,222985,6,0,P|73:278|137:254,1,140.25000428009,2|0,0:0|0:0,0:0:0:0:
148,241,223318,2,0,P|155:287|162:333,1,93.5000028533936,10|0,0:0|0:0,0:0:0:0:
272,179,223652,1,2,3:2:0:0:
82,177,223818,1,0,0:0:0:0:
254,280,223985,2,0,P|299:285|336:258,1,93.5000028533936,10|0,0:0|3:0,0:0:0:0:
479,71,224318,6,0,P|391:72|401:180,1,187.000005706787,2|8,3:2|0:0,0:0:0:0:
512,286,224818,1,2,0:0:0:0:
327,384,224985,2,0,P|234:368|142:354,1,187.000005706787,2|8,3:2|0:0,0:0:0:0:
0,240,225485,1,2,3:2:0:0:
190,93,225652,6,0,P|171:160|155:228,1,140.25000428009,2|0,0:0|0:0,0:0:0:0:
155,248,225985,1,10,0:0:0:0:
0,127,226152,2,0,P|46:119|92:110,1,93.5000028533936,2|0,0:0|3:0,0:0:0:0:
257,16,226485,2,0,P|211:7|164:0,1,93.5000028533936,2|8,0:0|0:0,0:0:0:0:
271,156,226818,1,2,3:2:0:0:
407,0,226985,6,0,P|390:92|375:184,1,187.000005706787,6|8,3:2|0:0,0:0:0:0:
245,265,227485,1,2,0:0:0:0:
446,333,227652,2,0,P|371:312|300:399,1,187.000005706787,2|8,3:2|0:0,0:0:0:0:
138,286,228152,1,2,3:2:0:0:
214,81,228318,6,0,P|230:173|245:265,1,187.000005706787,6|8,0:0|0:0,0:0:0:0:
118,125,228818,1,2,0:0:0:0:
305,26,228985,2,0,P|358:5|456:109,1,187.000005706787,2|10,3:2|0:0,0:0:0:0:
265,160,229485,1,2,3:2:0:0:
397,292,229652,6,0,P|381:199|365:107,1,187.000005706787,6|8,3:2|0:0,0:0:0:0:
504,267,230152,1,2,0:0:0:0:
301,345,230318,2,0,B|193:331|238:408|105:378,1,187.000005706787,2|8,3:2|0:0,0:0:0:0:
0,201,230818,1,2,3:2:0:0:
155,289,230985,6,0,P|144:219|135:150,1,140.25000428009,2|0,0:0|3:0,0:0:0:0:
140,129,231318,1,10,0:0:0:0:
341,258,231485,5,6,3:2:0:0:
45,320,231818,6,0,L|32:270,1,46.7500014266968,6|0,3:2|0:0,0:0:0:0:
0,201,231985,1,8,0:0:0:0:
5,178,232068,1,8,0:0:0:0:
11,155,232151,1,10,0:0:0:0:
17,133,232235,1,8,0:0:0:0:
23,110,232318,5,6,3:2:0:0:
95,44,232485,2,0,P|143:29|221:81,1,144.500002756119,0|0,3:0|3:0,0:0:0:0:
130,204,232985,2,0,L|141:132,2,72.2500013780594,8|0|0,0:0|0:0|3:0,0:0:0:0:
84,285,233485,1,0,3:0:0:0:
210,363,233652,6,0,P|250:369|290:338,1,72.2500013780594,2|2,3:2|3:2,0:0:0:0:
365,368,233985,2,0,P|371:333|356:300,1,72.2500013780594,2|2,3:2|3:2,0:0:0:0:
282,150,234318,1,10,0:2:0:0:
282,150,234485,1,2,3:2:0:0:
366,191,234652,1,2,0:0:0:0:
422,123,234818,1,2,3:2:0:0:
389,0,234985,5,2,3:2:0:0:
465,42,235152,2,0,P|427:84|334:65,1,144.500002756119,0|2,3:0|3:2,0:0:0:0:
209,0,235652,2,0,L|193:70,2,72.2500013780594,10|0|0,0:0|0:0|3:0,0:0:0:0:
292,161,236152,5,0,3:0:0:0:
292,161,236485,1,0,3:0:0:0:
218,217,236652,2,0,P|176:226|133:199,1,72.2500013780594,2|2,3:2|3:2,0:0:0:0:
0,137,236985,1,8,0:0:0:0:
85,80,237152,2,0,L|67:223,1,144.500002756119,2|0,3:2|3:0,0:0:0:0:
0,306,237652,5,6,3:2:0:0:
75,369,237818,2,0,B|160:381|124:330|232:344,1,144.500002756119,0|0,3:0|3:0,0:0:0:0:
316,234,238318,2,0,L|302:327,1,72.2500013780594,8|0,0:0|0:0,0:0:0:0:
360,384,238652,1,2,3:2:0:0:
384,170,238818,6,0,P|349:141|307:143,1,72.2500013780594,2|0,3:2|0:0,0:0:0:0:
404,271,239152,2,0,P|446:255|465:217,1,72.2500013780594,2|0,3:2|3:0,0:0:0:0:
471,137,239485,1,2,3:2:0:0:
316,234,239652,2,0,L|165:210,1,144.500002756119,8|0,0:0|0:0,0:0:0:0:
236,55,240152,5,2,3:2:0:0:
236,55,240235,1,0,3:0:0:0:
236,55,240318,2,0,L|246:126,1,72.2500013780594,2|0,3:2|3:0,0:0:0:0:
173,211,240652,1,2,0:0:0:0:
246,126,240818,1,2,3:2:0:0:
127,43,240985,2,0,L|137:114,1,72.2500013780594,8|0,0:0|0:0,0:0:0:0:
80,197,241318,1,2,3:2:0:0:
47,114,241485,1,2,3:2:0:0:
23,271,241652,5,2,0:0:0:0:
173,211,241818,2,0,P|208:209|241:222,1,72.2500013780594,2|2,3:2|3:2,0:0:0:0:
135,366,242152,2,0,P|115:336|110:301,1,72.2500013780594,2|8,3:2|0:0,0:0:0:0:
137,114,242485,1,2,3:2:0:0:
197,297,242652,1,0,3:0:0:0:
80,197,242818,1,2,3:2:0:0:
263,109,242985,5,6,3:2:0:0:
330,180,243152,2,0,L|312:323,1,144.500002756119,0|0,3:0|3:0,0:0:0:0:
197,297,243652,2,0,L|187:225,2,72.2500013780594,8|0|0,0:0|0:0|3:0,0:0:0:0:
143,378,244152,1,0,3:0:0:0:
42,259,244318,6,0,P|32:224|38:189,1,72.2500013780594,2|2,3:2|3:2,0:0:0:0:
102,123,244652,2,0,L|178:135,1,72.2500013780594,2|2,3:2|3:2,0:0:0:0:
318,208,244985,1,10,0:2:0:0:
318,208,245152,1,2,3:2:0:0:
268,120,245318,1,2,0:0:0:0:
332,30,245485,1,2,3:2:0:0:
444,83,245652,5,2,3:2:0:0:
423,177,245818,2,0,B|411:262|462:226|448:334,1,144.500002756119,0|2,3:0|3:2,0:0:0:0:
298,318,246318,2,0,P|333:295|379:312,2,72.2500013780594,8|0|0,0:0|0:0|3:0,0:0:0:0:
226,384,246818,5,0,3:0:0:0:
226,384,247152,1,0,3:0:0:0:
173,304,247318,2,0,L|188:224,1,72.2500013780594,0|0,3:2|3:2,0:0:0:0:
333,135,247652,1,8,0:0:0:0:
239,74,247818,2,0,L|270:244,1,144.500002756119,0|0,3:2|3:0,0:0:0:0:
399,353,248318,5,6,3:2:0:0:
471,308,248485,2,0,P|416:264|348:280,1,144.500002756119,0|0,3:0|3:0,0:0:0:0:
226,383,248985,2,0,P|250:345|243:299,1,72.2500013780594,8|0,0:0|0:0,0:0:0:0:
186,212,249318,1,2,3:2:0:0:
85,333,249485,6,0,L|166:314,1,72.2500013780594,2|0,3:2|0:0,0:0:0:0:
21,214,249818,2,0,L|102:233,1,72.2500013780594,2|0,3:2|3:0,0:0:0:0:
186,212,250152,1,2,3:2:0:0:
84,99,250318,2,0,B|78:115|61:134|61:134|108:118|160:109,1,144.500002756119,8|0,0:0|0:0,0:0:0:0:
267,55,250818,1,2,3:2:0:0:
267,55,250902,1,0,3:0:0:0:
267,55,250985,6,0,L|245:159,1,72.2500013780594,2|0,3:2|3:0,0:0:0:0:
186,212,251318,1,2,0:0:0:0:
262,269,251485,1,2,3:2:0:0:
161,373,251652,2,0,L|231:358,1,72.2500013780594,8|0,0:0|0:0,0:0:0:0:
356,292,251985,1,2,3:2:0:0:
262,269,252152,1,2,3:2:0:0:
373,381,252318,5,2,0:0:0:0:
425,221,252485,1,2,3:2:0:0:
356,292,252652,1,2,3:2:0:0:
512,352,252818,2,0,L|497:267,1,72.2500013780594,2|8,3:2|0:0,0:0:0:0:
445,135,253152,1,2,3:2:0:0:
499,280,253318,1,0,3:0:0:0:
339,192,253485,1,2,3:2:0:0:
510,56,253652,5,6,3:2:0:0:
256,192,253818,12,0,256985,0:0:0:0:
