osu file format v14

[General]
AudioFilename: audio.mp3
AudioLeadIn: 0
PreviewTime: 144235
Countdown: 0
SampleSet: Soft
StackLeniency: 0.7
Mode: 0
LetterboxInBreaks: 0
WidescreenStoryboard: 1

[Editor]
DistanceSpacing: 0.9
BeatDivisor: 2
GridSize: 32
TimelineZoom: 1

[Metadata]
Title:Miracle infinity
TitleUnicode:ミラクルinfinity
Artist:solfa feat. Chata
ArtistUnicode:solfa feat. 茶太
Creator:Dored
Version:Normal
Source:ゆめこい~夢見る魔法少女と恋の呪文~
Tags:Featured Artist fa Mappers' Guild mpg Yumekoi ~Yume Miru Mahou Shoujo to Koi no Jumon~ Parasol Japanese Pop Jpop J-pop Eroge Galgame Visual Novel Video Game VN Opening op Full Ver Version Garden Shirahane Suou yf_bmp chronicle ~dog side~
BeatmapID:3307572
BeatmapSetID:1619982

[Difficulty]
HPDrainRate:3.3
CircleSize:3.5
OverallDifficulty:4.5
ApproachRate:5.5
SliderMultiplier:1.1
SliderTickRate:1

[Events]
//Background and Video events
0,0,"BG.jpg",0,0
//Break Periods
2,91185,97860
2,189851,199027
//Storyboard Layer 0 (Background)
//Storyboard Layer 1 (Fail)
//Storyboard Layer 2 (Pass)
//Storyboard Layer 3 (Foreground)
//Storyboard Layer 4 (Overlay)
//Storyboard Sound Samples

[TimingPoints]
319,333.333333333333,4,2,1,45,1,0
10985,-100,4,2,1,70,0,0
21652,-100,4,2,1,45,0,0
32318,-100,4,2,1,55,0,0
42985,-100,4,2,1,60,0,0
61652,-100,4,2,1,70,0,0
66985,-100,4,2,1,80,0,1
77152,-100,4,2,1,80,0,0
77652,-100,4,2,1,80,0,1
88318,-100,4,2,1,80,0,0
88652,-100,4,2,1,40,0,0
98985,-100,4,2,1,45,0,0
109652,-100,4,2,1,55,0,0
120318,-100,4,2,1,60,0,0
138985,-100,4,2,1,70,0,0
144318,-100,4,2,1,80,0,1
154485,-100,4,2,1,80,0,0
154985,-100,4,2,1,80,0,1
165652,-100,4,2,1,65,0,0
176318,-100,4,2,1,70,0,0
189652,-100,4,2,1,40,0,0
200318,-100,4,2,1,50,0,0
209485,-100,4,2,1,65,0,0
210985,-100,4,2,1,80,0,1
221152,-100,4,2,1,80,0,0
221652,-100,4,2,1,80,0,1
232318,-100,4,2,1,65,0,0
253818,-100,4,2,1,50,0,0
254318,-100,4,2,1,45,0,0
254985,-100,4,2,1,40,0,0
255652,-100,4,2,1,35,0,0
256318,-100,4,2,1,30,0,0
256985,-100,4,2,1,25,0,0

[Colours]
Combo1 : 215,215,215
Combo2 : 255,166,210
Combo3 : 142,142,255
Combo4 : 252,215,158

[HitObjects]
369,344,319,6,0,P|363:290|395:247,1,110,2|2,0:0|0:0,0:0:0:0:
439,225,818,1,2,0:0:0:0:
359,166,1152,1,2,0:0:0:0:
404,78,1485,2,0,P|458:88|512:96,2,110,2|2|2,0:0|0:0|0:0,0:0:0:0:
266,23,2652,2,0,P|261:50|256:77,1,55,2|2,0:0|0:0,0:0:0:0:
217,107,2985,6,0,P|162:117|108:125,1,110,2|2,0:0|0:0,0:0:0:0:
59,130,3485,1,2,0:0:0:0:
115,211,3818,1,2,0:0:0:0:
44,281,4152,2,0,P|87:313|140:307,2,110,2|2|2,0:0|0:0|0:0,0:0:0:0:
59,130,5318,2,0,P|54:102|49:75,1,55,2|2,0:0|0:0,0:0:0:0:
80,36,5652,6,0,P|123:3|176:9,1,110,2|2,0:0|0:0,0:0:0:0:
216,38,6152,1,2,0:0:0:0:
157,117,6485,1,2,0:0:0:0:
238,172,6818,2,0,P|248:226|256:280,2,110,2|2|2,0:0|0:0|0:0,0:0:0:0:
297,93,7818,2,0,P|302:66|306:38,2,55,2|2|2,0:0|0:0|0:0,0:0:0:0:
326,132,8318,6,0,P|353:136|380:141,1,55,2|2,0:0|0:0,0:0:0:0:
447,68,8818,2,0,P|473:73|501:77,1,55,2|2,0:0|0:0,0:0:0:0:
512,177,9318,2,0,P|506:203|502:231,1,55,2|2,0:0|0:0,0:0:0:0:
403,238,9818,2,0,P|398:265|393:292,1,55,2|2,0:0|0:0,0:0:0:0:
445,376,10318,1,2,0:0:0:0:
300,240,10985,6,0,P|246:234|203:266,1,110,6|10,3:2|0:0,0:0:0:0:
157,354,11652,2,0,P|184:358|211:363,2,55,2|2|10,3:2|3:2|0:0,0:0:0:0:
112,332,12152,2,0,P|101:277|93:223,1,110,6|0,3:2|3:0,0:0:0:0:
114,178,12652,1,10,0:0:0:0:
22,140,12985,2,0,P|17:112|12:85,1,55,2|0,3:2|3:0,0:0:0:0:
0,38,13318,1,10,0:0:0:0:
95,64,13652,6,0,P|149:74|203:82,1,110,6|10,3:2|0:0,0:0:0:0:
302,78,14318,2,0,P|307:105|311:132,2,55,2|2|10,3:2|3:2|0:0,0:0:0:0:
337,42,14818,2,0,P|415:26|476:78,1,165,6|10,3:2|0:0,0:0:0:0:
491,125,15485,1,6,3:2:0:0:
406,176,15818,1,6,3:2:0:0:
452,263,16152,6,0,P|398:271|344:281,1,110,6|2,3:2|3:2,0:0:0:0:
305,248,16652,1,10,0:0:0:0:
305,248,16818,2,0,P|261:279|208:273,1,110,6|2,3:2|3:2,0:0:0:0:
173,237,17318,1,10,0:0:0:0:
173,237,17485,2,0,P|118:228|64:218,1,110,6|2,3:2|3:2,0:0:0:0:
27,194,17985,1,10,0:0:0:0:
27,194,18152,1,6,3:2:0:0:
105,133,18485,2,0,P|132:138|159:142,2,55,2|10|2,3:2|0:0|3:2,0:0:0:0:
62,107,18985,6,0,P|54:53|44:-1,1,110,6|8,3:2|0:0,0:0:0:0:
137,30,19652,2,0,P|181:-1|234:5,1,110,0|8,3:0|0:0,0:0:0:0:
274,34,20152,1,2,0:0:0:0:
274,34,20318,2,0,P|263:88|255:142,1,110,2|10,3:2|0:0,0:0:0:0:
159,142,20985,1,0,3:0:0:0:
205,229,21318,2,0,P|210:256|214:283,1,55,8|8,0:0|0:0,0:0:0:0:
223,332,21652,5,4,3:1:0:0:
304,276,21985,2,0,P|358:267|412:256,2,110,2|2|2,0:0|0:0|0:0,0:0:0:0:
315,374,22985,2,0,P|368:363|423:354,1,110,2|2,0:0|0:0,0:0:0:0:
469,336,23485,1,2,0:0:0:0:
412,256,23818,1,2,0:0:0:0:
500,210,24152,1,2,0:0:0:0:
500,210,24318,6,0,P|506:156|475:112,1,110,0|2,3:0|0:0,0:0:0:0:
408,38,24985,2,0,P|354:48|299:58,1,110,2|2,0:0|0:0,0:0:0:0:
269,96,25485,2,0,P|208:44|130:60,1,165,2|2,0:0|0:0,0:0:0:0:
96,96,26152,1,2,0:0:0:0:
185,138,26485,2,0,P|195:191|205:246,1,110,2|2,0:0|0:0,0:0:0:0:
238,282,26985,6,0,P|292:288|336:257,1,110,2|2,0:0|0:0,0:0:0:0:
360,214,27485,1,2,0:0:0:0:
360,214,27652,2,0,P|413:207|457:238,1,110,2|2,0:0|0:0,0:0:0:0:
475,335,28318,2,0,P|420:344|366:355,1,110,2|2,0:0|0:0,0:0:0:0:
292,288,28985,1,2,0:0:0:0:
229,364,29318,1,2,0:0:0:0:
137,322,29652,6,0,P|147:268|157:213,1,110,0|2,3:0|0:0,0:0:0:0:
201,192,30152,1,2,0:0:0:0:
201,192,30318,2,0,P|190:138|180:83,1,110,2|2,0:0|0:0,0:0:0:0:
172,34,30818,2,0,P|226:24|280:14,2,110,2|2|2,0:0|0:0|0:0,0:0:0:0:
76,62,31818,2,0,P|71:34|66:7,2,55,2|2|0,0:0|0:0|3:0,0:0:0:0:
84,110,32318,5,4,3:2:0:0:
110,205,32652,2,0,P|82:210|55:214,1,55,2|2,0:3|0:0,0:0:0:0:
6,213,32985,1,10,0:0:0:0:
32,308,33318,1,2,0:0:0:0:
32,308,33485,2,0,P|93:360|171:344,1,165,2|2,3:2|0:3,0:0:0:0:
240,273,34318,1,8,0:0:0:0:
312,341,34652,2,0,P|339:345|366:350,1,55,0|2,3:0|3:2,0:0:0:0:
412,367,34985,6,0,P|421:312|432:258,1,110,0|2,3:0|0:3,0:0:0:0:
359,192,35652,2,0,P|369:138|379:83,1,110,10|2,0:0|0:0,0:0:0:0:
394,36,36152,2,0,P|315:51|255:0,1,165,2|2,3:2|0:3,0:0:0:0:
176,59,36985,1,8,0:0:0:0:
176,59,37152,2,0,P|207:102|200:156,1,110,2|2,0:0|0:0,0:0:0:0:
163,189,37652,6,0,P|109:199|54:209,1,110,2|2,3:2|0:3,0:0:0:0:
0,292,38318,1,10,0:0:0:0:
70,361,38652,1,2,0:0:0:0:
70,361,38818,2,0,P|130:309|208:324,1,165,0|2,3:0|0:3,0:0:0:0:
250,235,39652,1,10,0:0:0:0:
163,189,39985,1,2,0:0:0:0:
204,99,40318,6,0,P|257:88|312:78,1,110,0|2,3:0|0:3,0:0:0:0:
336,35,40818,1,2,0:0:0:0:
336,35,40985,2,0,P|389:45|444:55,1,110,2|2,0:0|0:0,0:0:0:0:
476,93,41485,2,0,P|507:136|500:190,2,110,6|6|6,3:2|3:2|3:2,0:0:0:0:
390,143,42485,2,0,P|395:170|399:197,2,55,6|8|0,3:2|0:0|3:0,0:0:0:0:
348,115,42985,6,0,P|293:124|239:135,1,110,6|8,3:2|0:0,0:0:0:0:
164,71,43652,2,0,P|110:81|55:91,1,110,2|8,3:2|0:0,0:0:0:0:
23,129,44152,1,2,3:2:0:0:
23,129,44318,2,0,P|33:182|43:237,1,110,2|8,3:2|0:0,0:0:0:0:
50,286,44818,1,2,3:2:0:0:
50,286,44985,1,2,3:2:0:0:
137,238,45318,2,0,P|164:242|191:247,1,55,10|0,0:0|3:0,0:0:0:0:
220,287,45652,6,0,P|263:318|317:311,1,110,2|8,3:2|0:0,0:0:0:0:
351,275,46152,1,2,3:2:0:0:
351,275,46318,2,0,P|404:268|448:299,1,110,2|8,3:2|0:0,0:0:0:0:
493,211,46985,2,0,P|461:167|468:113,1,110,0|8,3:0|0:0,0:0:0:0:
511,24,47652,2,0,P|483:19|456:14,1,55,2|0,3:2|3:0,0:0:0:0:
409,1,47985,1,10,0:0:0:0:
341,73,48318,6,0,P|328:126|320:180,1,110,6|8,3:2|0:0,0:0:0:0:
232,225,48985,2,0,P|223:171|211:118,1,110,2|8,3:2|0:0,0:0:0:0:
204,69,49485,1,2,3:2:0:0:
204,69,49652,2,0,P|247:37|301:44,1,110,2|8,3:2|0:0,0:0:0:0:
341,73,50152,1,2,3:2:0:0:
341,73,50318,1,2,3:2:0:0:
409,1,50652,1,10,0:0:0:0:
463,83,50985,6,0,P|469:136|437:179,1,110,2|8,3:2|0:0,0:0:0:0:
392,191,51485,1,0,3:0:0:0:
392,191,51652,2,0,P|359:234|366:287,1,110,2|8,3:2|0:0,0:0:0:0:
440,352,52318,1,0,3:0:0:0:
347,384,52652,2,0,P|292:373|238:364,2,110,10|2|10,0:0|3:2|0:0,0:0:0:0:
365,286,53652,6,0,P|310:276|256:266,1,110,6|8,3:2|0:0,0:0:0:0:
213,290,54152,1,2,0:0:0:0:
213,290,54318,2,0,P|159:283|117:316,1,110,2|8,3:2|0:0,0:0:0:0:
92,358,54818,1,0,3:0:0:0:
28,281,55152,1,0,3:0:0:0:
28,281,55318,2,0,P|24:254|19:227,1,55,10|0,0:0|0:0,0:0:0:0:
48,186,55652,1,2,3:2:0:0:
0,102,55985,1,10,0:0:0:0:
88,56,56318,6,0,P|142:46|196:36,1,110,2|8,3:2|0:0,0:0:0:0:
234,5,56818,1,2,3:2:0:0:
234,5,56985,2,0,P|276:37|329:31,1,110,2|10,3:2|0:0,0:0:0:0:
375,12,57485,1,2,3:2:0:0:
434,90,57818,1,0,3:0:0:0:
434,90,57985,2,0,P|438:117|443:144,1,55,10|0,0:0|0:0,0:0:0:0:
447,193,58318,1,2,0:0:0:0:
512,268,58652,1,10,0:0:0:0:
434,329,58985,6,0,P|380:335|338:302,1,110,6|8,3:2|0:0,0:0:0:0:
320,256,59485,1,2,0:0:0:0:
320,256,59652,2,0,P|266:249|224:282,1,110,2|8,3:2|0:0,0:0:0:0:
203,327,60152,1,0,3:0:0:0:
122,269,60485,2,0,P|68:259|14:249,1,110,2|2,3:2|0:0,0:0:0:0:
60,161,61152,2,0,P|87:166|114:170,1,55,2|8,3:2|0:0,0:0:0:0:
160,151,61485,1,10,0:0:0:0:
160,151,61652,5,10,0:0:0:0:
252,187,61985,1,8,0:0:0:0:
329,125,62318,1,8,0:0:0:0:
313,27,62652,1,8,0:0:0:0:
237,90,62985,1,8,0:0:0:0:
252,187,63318,1,8,0:0:0:0:
345,223,63652,1,8,0:0:0:0:
422,160,63985,1,8,0:0:0:0:
485,237,64318,6,0,P|479:265|475:292,1,55,6|4,3:2|3:2,0:0:0:0:
424,376,64818,2,0,P|396:371|369:367,1,55,4|4,3:2|3:2,0:0:0:0:
295,301,65318,2,0,P|290:273|284:246,1,55,4|4,3:2|3:2,0:0:0:0:
225,167,65818,2,0,P|197:162|170:157,1,55,4|6,3:2|3:2,0:0:0:0:
74,184,66318,1,6,3:2:0:0:
2,368,66985,6,0,P|44:335|97:342,1,110,6|8,3:2|0:0,0:0:0:0:
129,380,67485,1,2,0:0:0:0:
129,380,67652,2,0,P|184:369|238:361,1,110,2|8,3:2|0:0,0:0:0:0:
264,319,68152,1,2,3:2:0:0:
264,319,68318,2,0,P|319:330|373:338,1,110,2|10,0:0|0:0,0:0:0:0:
459,384,68985,1,2,3:2:0:0:
502,294,69318,2,0,P|474:289|447:284,1,55,10|0,0:0|3:0,0:0:0:0:
405,257,69652,6,0,P|372:215|379:162,1,110,2|8,3:2|0:0,0:0:0:0:
411,124,70152,1,2,0:0:0:0:
411,124,70318,2,0,P|418:70|385:28,1,110,2|8,3:2|0:0,0:0:0:0:
338,45,70818,1,2,3:2:0:0:
338,45,70985,2,0,P|283:36|229:26,1,110,2|10,0:0|0:0,0:0:0:0:
183,8,71485,1,2,0:0:0:0:
144,98,71818,2,0,P|116:104|89:108,1,55,2|8,0:0|0:0,0:0:0:0:
41,96,72152,1,2,3:2:0:0:
41,96,72318,6,0,P|32:150|22:204,1,110,6|8,3:2|0:0,0:0:0:0:
5,251,72818,1,2,0:0:0:0:
5,251,72985,1,2,3:2:0:0:
80,314,73318,2,0,P|108:308|135:304,1,55,8|2,0:0|3:2,0:0:0:0:
149,256,73652,2,0,P|203:247|257:237,1,110,2|10,0:0|0:0,0:0:0:0:
335,176,74318,1,2,3:2:0:0:
327,77,74652,2,0,P|355:83|382:87,1,55,10|0,0:0|3:0,0:0:0:0:
430,86,74985,6,0,P|463:128|455:181,1,110,2|10,3:2|0:0,0:0:0:0:
424,219,75485,1,2,0:0:0:0:
335,176,75818,2,0,P|329:204|325:231,1,55,2|8,3:2|0:0,0:0:0:0:
320,279,76152,2,0,P|277:312|224:304,1,110,2|0,3:2|3:0,0:0:0:0:
181,281,76652,1,10,0:0:0:0:
181,281,76818,1,6,3:2:0:0:
112,352,77152,1,6,3:2:0:0:
43,281,77485,1,10,0:0:0:0:
43,281,77652,6,0,P|85:247|138:255,1,110,6|8,3:2|0:0,0:0:0:0:
181,281,78152,1,2,0:0:0:0:
181,281,78318,2,0,P|192:226|200:172,1,110,2|8,3:2|0:0,0:0:0:0:
232,135,78818,1,2,3:2:0:0:
232,135,78985,2,0,P|285:145|340:153,1,110,2|10,0:0|0:0,0:0:0:0:
301,245,79652,1,2,3:2:0:0:
395,273,79985,2,0,P|423:267|450:263,1,55,10|0,0:0|3:0,0:0:0:0:
483,227,80318,6,0,P|490:174|456:132,1,110,2|8,3:2|0:0,0:0:0:0:
412,110,80818,1,2,0:0:0:0:
412,110,80985,2,0,P|359:117|317:83,1,110,2|8,3:2|0:0,0:0:0:0:
292,40,81485,1,2,3:2:0:0:
292,40,81652,2,0,P|239:32|197:66,1,110,2|10,0:0|0:0,0:0:0:0:
174,110,82152,1,2,0:0:0:0:
237,185,82485,2,0,P|264:189|291:194,1,55,2|8,0:0|0:0,0:0:0:0:
333,219,82818,1,2,3:2:0:0:
333,219,82985,6,0,P|322:274|314:328,1,110,6|8,3:2|0:0,0:0:0:0:
305,376,83485,1,2,0:0:0:0:
305,376,83652,1,2,3:2:0:0:
209,350,83985,2,0,P|203:323|199:295,1,55,8|2,0:0|3:2,0:0:0:0:
168,257,84318,2,0,P|113:246|59:238,1,110,6|8,0:0|0:0,0:0:0:0:
24,202,84818,1,2,0:0:0:0:
24,202,84985,1,2,3:2:0:0:
106,147,85318,2,0,P|132:152|160:156,1,55,10|2,0:0|3:2,0:0:0:0:
200,126,85652,6,0,P|241:92|294:99,1,110,6|8,3:2|0:0,0:0:0:0:
329,135,86152,1,2,0:0:0:0:
329,135,86318,2,0,P|383:126|437:116,1,110,2|8,3:2|0:0,0:0:0:0:
490,128,86818,1,2,3:2:0:0:
490,128,86985,1,2,0:0:0:0:
452,219,87318,1,10,0:0:0:0:
452,219,87485,2,0,P|397:227|343:237,2,110,6|6|10,3:2|3:2|0:0,0:0:0:0:
498,236,88318,5,4,3:1:0:0:
256,192,88485,12,0,90985,0:0:0:0:
498,236,98985,5,4,3:2:0:0:
441,317,99318,2,0,P|387:324|345:291,1,110,2|2,0:0|3:2,0:0:0:0:
281,215,99985,1,2,0:0:0:0:
374,181,100318,2,0,P|365:126|354:72,1,110,2|2,3:2|0:0,0:0:0:0:
321,35,100818,2,0,P|267:27|225:60,2,110,2|2|2,0:0|0:0|3:2,0:0:0:0:
354,72,101652,5,0,3:0:0:0:
286,144,101985,2,0,P|231:152|177:163,1,110,2|0,0:0|3:0,0:0:0:0:
131,75,102652,1,2,0:0:0:0:
54,138,102985,2,0,P|2:198|17:277,1,165,0|2,3:2|3:2,0:0:0:0:
77,356,103818,2,0,P|103:350|131:346,1,55,2|0,0:0|3:0,0:0:0:0:
160,305,104152,1,2,3:2:0:0:
160,305,104318,6,0,P|213:316|268:324,1,110,2|0,3:2|0:0,0:0:0:0:
298,364,104818,1,2,0:0:0:0:
298,364,104985,2,0,P|340:331|393:339,1,110,2|0,3:2|0:0,0:0:0:0:
486,373,105652,2,0,P|494:318|505:264,1,110,0|0,3:0|3:0,0:0:0:0:
445,185,106319,1,2,3:2:0:0:
367,246,106652,1,2,0:0:0:0:
306,166,106985,6,0,P|251:175|198:186,1,110,2|0,3:2|0:0,0:0:0:0:
155,211,107485,1,2,3:2:0:0:
155,211,107652,2,0,P|122:168|130:115,1,110,2|0,3:2|3:0,0:0:0:0:
195,42,108318,2,0,P|237:74|290:66,1,110,0|0,3:0|0:0,0:0:0:0:
326,32,108818,1,2,3:2:0:0:
362,123,109152,2,0,P|358:150|352:177,2,55,2|0|0,3:2|3:0|3:0,0:0:0:0:
404,96,109652,6,0,P|457:107|512:116,1,110,4|2,3:2|0:0,0:0:0:0:
459,199,110318,1,2,3:2:0:0:
512,283,110652,2,0,P|506:309|501:337,1,55,2|2,0:0|0:0,0:0:0:0:
462,367,110985,2,0,P|420:335|367:343,1,110,2|2,3:2|0:0,0:0:0:0:
328,375,111485,1,2,0:0:0:0:
256,306,111818,2,0,P|214:338|161:330,1,110,2|2,0:0|0:0,0:0:0:0:
115,309,112318,5,0,3:0:0:0:
20,338,112652,1,2,0:0:0:0:
23,242,112985,1,2,3:2:0:0:
23,242,113152,2,0,P|77:233|131:221,1,110,2|2,0:0|0:0,0:0:0:0:
148,175,113652,2,0,P|202:183|256:195,1,110,2|2,3:2|0:0,0:0:0:0:
292,228,114152,2,0,P|334:195|387:204,1,110,2|2,3:2|0:0,0:0:0:0:
427,233,114652,1,0,3:0:0:0:
415,331,114985,6,0,P|373:364|320:355,1,110,2|0,3:2|0:0,0:0:0:0:
279,326,115485,1,2,0:0:0:0:
279,326,115652,2,0,P|226:317|184:350,1,110,2|0,3:2|0:0,0:0:0:0:
99,299,116318,2,0,P|110:245|119:191,1,110,0|0,3:0|0:0,0:0:0:0:
40,131,116985,1,2,3:2:0:0:
132,95,117318,1,2,0:0:0:0:
96,2,117652,6,0,P|149:13|204:23,1,110,2|0,3:2|0:0,0:0:0:0:
228,66,118152,1,2,0:0:0:0:
228,66,118318,2,0,P|270:32|322:41,1,110,2|0,3:2|0:0,0:0:0:0:
354,79,118818,2,0,P|407:68|462:58,2,110,6|6|6,3:2|3:2|3:2,0:0:0:0:
305,165,119818,2,0,P|309:192|314:219,2,55,6|8|0,3:2|0:0|3:0,0:0:0:0:
258,148,120318,6,0,P|203:139|149:128,1,110,6|8,3:2|0:0,0:0:0:0:
61,173,120985,2,0,P|27:215|36:267,1,110,2|8,3:2|0:0,0:0:0:0:
71,309,121485,1,2,3:2:0:0:
71,309,121652,1,2,3:2:0:0:
147,246,121985,1,8,0:0:0:0:
199,329,122318,1,2,3:2:0:0:
275,266,122651,2,0,P|302:260|329:256,1,55,10|0,0:0|3:0,0:0:0:0:
360,296,122985,6,0,P|413:288|457:319,1,110,2|8,3:2|0:0,0:0:0:0:
499,294,123485,1,2,3:2:0:0:
499,294,123652,2,0,P|506:241|475:197,1,110,2|8,3:2|0:0,0:0:0:0:
499,101,124318,2,0,P|445:94|402:126,1,110,0|8,3:0|0:0,0:0:0:0:
310,164,124985,2,0,P|304:136|300:109,1,55,2|0,3:2|3:0,0:0:0:0:
290,61,125318,1,10,0:0:0:0:
193,81,125651,6,0,P|206:134|214:188,1,110,6|8,3:2|0:0,0:0:0:0:
282,260,126318,2,0,P|269:313|260:367,1,110,2|8,3:2|0:0,0:0:0:0:
212,376,126818,1,2,3:2:0:0:
212,376,126985,2,0,P|158:382|115:350,1,110,2|8,3:2|0:0,0:0:0:0:
91,312,127485,1,2,3:2:0:0:
91,312,127651,1,2,3:2:0:0:
174,258,127985,1,10,0:0:0:0:
140,164,128318,6,0,P|87:151|33:143,1,110,2|8,3:2|0:0,0:0:0:0:
0,107,128818,1,0,3:0:0:0:
0,107,128985,2,0,P|13:54|21:0,1,110,2|8,3:2|0:0,0:0:0:0:
106,48,129651,1,0,3:0:0:0:
198,12,129985,2,0,P|252:6|295:38,2,110,10|2|10,0:0|3:2|0:0,0:0:0:0:
178,109,130985,6,0,P|191:162|199:216,1,110,6|8,3:2|0:0,0:0:0:0:
174,258,131485,1,2,0:0:0:0:
174,258,131652,2,0,P|228:266|281:279,1,110,2|8,3:2|0:0,0:0:0:0:
315,315,132151,1,0,3:0:0:0:
385,245,132485,1,0,3:0:0:0:
385,245,132652,2,0,P|412:241|439:236,1,55,10|0,0:0|0:0,0:0:0:0:
484,215,132985,1,2,3:2:0:0:
411,147,133318,1,10,0:0:0:0:
496,95,133652,6,0,P|502:41|470:-1,1,110,2|8,3:2|0:0,0:0:0:0:
425,18,134152,1,2,3:2:0:0:
425,18,134318,2,0,P|382:50|328:43,1,110,2|10,3:2|0:0,0:0:0:0:
292,9,134818,1,2,3:2:0:0:
231,89,135151,1,0,3:0:0:0:
231,89,135318,2,0,P|225:116|221:143,1,55,10|0,0:0|0:0,0:0:0:0:
212,191,135651,1,2,0:0:0:0:
292,249,135985,1,10,0:0:0:0:
232,328,136318,6,0,P|177:336|124:349,1,110,6|8,3:2|0:0,0:0:0:0:
80,324,136818,1,2,0:0:0:0:
80,324,136985,2,0,P|71:269|58:216,1,110,2|8,3:2|0:0,0:0:0:0:
27,177,137485,1,0,3:0:0:0:
78,92,137818,2,0,P|129:75|177:100,1,110,2|2,3:2|0:0,0:0:0:0:
212,191,138485,2,0,P|239:186|266:181,1,55,2|8,3:2|0:0,0:0:0:0:
313,167,138818,1,10,0:0:0:0:
313,167,138985,5,10,0:0:0:0:
364,251,139318,1,8,0:0:0:0:
459,228,139652,1,8,0:0:0:0:
466,130,139985,1,8,0:0:0:0:
374,93,140318,1,8,0:0:0:0:
313,167,140652,1,8,0:0:0:0:
221,130,140985,1,8,0:0:0:0:
227,31,141318,1,8,0:0:0:0:
132,60,141652,6,0,P|127:87|121:114,1,55,6|4,3:2|3:2,0:0:0:0:
221,130,142151,2,0,P|216:158|212:185,1,55,4|4,3:2|3:2,0:0:0:0:
131,241,142651,2,0,P|103:236|76:230,1,55,4|4,3:2|3:2,0:0:0:0:
58,328,143151,2,0,P|85:332|112:337,1,55,4|6,3:2|3:2,0:0:0:0:
200,383,143651,1,6,3:2:0:0:
212,184,144318,6,0,P|265:176|307:209,1,110,6|8,3:2|0:0,0:0:0:0:
322,257,144818,1,2,0:0:0:0:
322,257,144985,2,0,P|377:246|431:238,1,110,2|8,3:2|0:0,0:0:0:0:
459,198,145485,1,2,3:2:0:0:
459,198,145652,2,0,P|448:143|440:89,1,110,2|10,0:0|0:0,0:0:0:0:
367,21,146318,1,2,3:2:0:0:
324,113,146651,2,0,P|329:141|334:168,1,55,10|0,0:0|3:0,0:0:0:0:
307,209,146985,6,0,P|253:216|211:183,1,110,2|8,3:2|0:0,0:0:0:0:
182,142,147485,1,2,0:0:0:0:
182,142,147652,2,0,P|128:135|86:168,1,110,2|8,3:2|0:0,0:0:0:0:
49,200,148152,1,2,3:2:0:0:
49,200,148318,2,0,P|60:255|68:309,1,110,2|10,0:0|0:0,0:0:0:0:
53,355,148818,1,2,0:0:0:0:
147,383,149151,2,0,P|173:377|201:373,1,55,2|8,0:0|0:0,0:0:0:0:
228,331,149485,1,2,3:2:0:0:
228,331,149652,6,0,P|282:320|336:311,1,110,6|8,3:2|0:0,0:0:0:0:
371,276,150152,1,2,0:0:0:0:
371,276,150318,1,2,3:2:0:0:
295,212,150651,2,0,P|267:218|240:222,1,55,8|2,0:0|3:2,0:0:0:0:
191,215,150985,2,0,P|158:172|165:119,1,110,2|10,0:0|0:0,0:0:0:0:
220,36,151651,1,2,3:2:0:0:
311,74,151985,2,0,P|339:80|366:84,1,55,10|0,0:0|3:0,0:0:0:0:
413,71,152318,6,0,P|446:113|438:166,1,110,2|10,3:2|0:0,0:0:0:0:
400,197,152818,1,2,0:0:0:0:
487,243,153151,2,0,P|481:271|477:298,1,55,2|8,3:2|0:0,0:0:0:0:
466,345,153485,2,0,P|411:334|357:325,1,110,2|0,3:2|3:0,0:0:0:0:
313,318,153985,1,10,0:0:0:0:
313,318,154151,1,6,3:2:0:0:
234,378,154485,1,6,3:2:0:0:
191,288,154818,1,10,0:0:0:0:
191,288,154985,6,0,P|138:280|96:314,1,110,6|8,3:2|0:0,0:0:0:0:
59,347,155485,1,2,0:0:0:0:
59,347,155652,2,0,P|50:292|40:238,1,110,2|8,3:2|0:0,0:0:0:0:
29,190,156152,1,2,3:2:0:0:
29,190,156318,2,0,P|83:182|137:171,1,110,2|10,0:0|0:0,0:0:0:0:
231,202,156985,1,2,3:2:0:0:
271,111,157318,2,0,P|277:83|281:56,1,55,10|0,0:0|3:0,0:0:0:0:
310,17,157651,6,0,P|363:10|405:44,1,110,2|8,3:2|0:0,0:0:0:0:
436,82,158152,1,2,0:0:0:0:
436,82,158318,2,0,P|428:136|417:190,1,110,2|8,3:2|0:0,0:0:0:0:
448,229,158818,1,2,3:2:0:0:
448,229,158985,2,0,P|437:283|429:337,1,110,2|10,0:0|0:0,0:0:0:0:
394,371,159485,1,2,0:0:0:0:
324,301,159818,2,0,P|296:295|269:291,1,55,2|8,0:0|0:0,0:0:0:0:
222,307,160152,1,2,3:2:0:0:
222,307,160318,6,0,P|233:252|241:198,1,110,6|8,3:2|0:0,0:0:0:0:
253,153,160818,1,2,0:0:0:0:
253,153,160985,1,2,3:2:0:0:
203,67,161318,2,0,P|175:63|148:57,1,55,8|2,0:0|3:2,0:0:0:0:
119,97,161652,2,0,P|66:90|24:124,1,110,6|8,0:0|0:0,0:0:0:0:
17,175,162151,1,2,0:0:0:0:
17,175,162318,1,2,3:2:0:0:
87,245,162652,2,0,P|92:271|96:299,1,55,10|2,0:0|3:2,0:0:0:0:
96,348,162985,6,0,P|150:356|204:366,1,110,6|8,3:2|0:0,0:0:0:0:
235,328,163485,1,2,0:0:0:0:
235,328,163652,2,0,P|289:319|343:309,1,110,2|8,3:2|0:0,0:0:0:0:
391,334,164151,1,2,3:2:0:0:
391,334,164318,1,2,0:0:0:0:
417,238,164652,1,10,0:0:0:0:
417,238,164818,2,0,P|470:245|512:211,2,110,6|6|10,3:2|3:2|0:0,0:0:0:0:
377,206,165652,5,6,3:2:0:0:
377,206,165818,2,0,P|322:195|268:186,1,110,0|0,3:0|3:0,0:0:0:0:
219,195,166318,1,8,0:0:0:0:
253,101,166652,1,0,3:0:0:0:
171,45,166985,2,0,P|116:55|62:64,1,110,2|2,3:2|3:2,0:0:0:0:
28,100,167485,1,2,3:2:0:0:
28,100,167652,2,0,P|38:154|47:208,1,110,10|2,0:2|0:0,0:0:0:0:
70,304,168318,6,0,P|111:270|164:277,1,110,2|0,3:2|0:0,0:0:0:0:
219,195,168985,1,10,0:0:0:0:
307,239,169318,2,0,P|310:211|316:184,1,55,0|0,3:0|3:0,0:0:0:0:
360,162,169652,2,0,P|366:108|333:67,1,110,2|2,3:2|3:2,0:0:0:0:
295,34,170152,2,0,P|267:39|240:43,1,55,2|8,3:2|0:0,0:0:0:0:
191,35,170485,1,2,3:2:0:0:
163,129,170818,2,0,P|168:156|172:183,1,55,0|6,3:0|3:2,0:0:0:0:
212,212,171152,6,0,P|253:245|306:238,1,110,0|0,3:0|3:0,0:0:0:0:
350,214,171652,1,8,0:0:0:0:
388,305,171985,1,2,3:2:0:0:
388,305,172152,2,0,P|440:297|482:330,2,110,2|2|2,3:2|3:2|3:2,0:0:0:0:
348,334,172985,1,8,0:0:0:0:
348,334,173152,1,2,3:2:0:0:
256,297,173485,1,2,3:2:0:0:
256,297,173652,6,0,P|201:287|147:278,1,110,2|2,3:2|0:0,0:0:0:0:
98,192,174318,2,0,P|152:182|206:173,1,110,8|2,0:0|3:2,0:0:0:0:
244,141,174818,1,2,3:2:0:0:
244,141,174985,2,0,P|239:113|234:86,2,55,2|2|2,0:0|3:2|3:2,0:0:0:0:
288,162,175485,1,2,3:2:0:0:
350,84,175818,2,0,P|344:56|340:29,2,55,2|0|2,3:2|3:0|3:2,0:0:0:0:
380,123,176318,6,0,P|432:115|474:148,1,110,6|8,3:2|0:0,0:0:0:0:
452,245,176985,2,0,P|399:252|357:219,1,110,0|10,3:0|0:0,0:0:0:0:
312,198,177485,1,2,3:2:0:0:
312,198,177652,2,0,P|278:239|286:292,1,110,2|10,0:0|0:0,0:0:0:0:
357,362,178318,1,2,3:2:0:0:
258,384,178652,2,0,P|230:378|203:374,1,55,10|2,0:0|3:2,0:0:0:0:
154,369,178985,6,0,P|144:314|135:260,1,110,2|8,3:2|0:0,0:0:0:0:
91,237,179485,2,0,P|81:182|72:128,1,110,2|0,0:0|3:0,0:0:0:0:
70,79,179985,1,10,0:0:0:0:
70,79,180152,2,0,P|111:45|164:53,1,110,2|2,3:2|3:2,0:0:0:0:
204,83,180652,1,8,0:0:0:0:
279,18,180985,1,2,3:2:0:0:
346,90,181318,2,0,P|373:95|400:99,1,55,10|0,0:0|3:0,0:0:0:0:
443,123,181652,6,0,P|476:164|468:217,1,110,6|8,3:2|0:0,0:0:0:0:
445,261,182152,2,0,P|403:294|350:286,1,110,2|0,0:0|3:0,0:0:0:0:
310,256,182652,1,10,0:0:0:0:
245,331,182985,2,0,P|192:338|150:305,1,110,2|10,0:0|0:0,0:0:0:0:
212,228,183652,2,0,P|219:175|186:133,1,110,2|10,3:2|0:0,0:0:0:0:
211,37,184318,6,0,P|156:28|103:15,1,110,6|8,3:2|0:0,0:0:0:0:
78,112,184985,2,0,P|132:120|185:133,1,110,0|8,3:0|0:0,0:0:0:0:
218,170,185485,1,2,0:0:0:0:
218,170,185652,2,0,P|231:223|239:277,1,110,0|8,3:0|0:0,0:0:0:0:
239,327,186152,1,2,3:2:0:0:
239,327,186318,1,2,3:2:0:0:
328,370,186652,2,0,P|355:364|382:360,1,55,8|2,0:0|3:2,0:0:0:0:
400,314,186985,6,0,P|452:321|494:288,1,110,2|8,0:0|0:0,0:0:0:0:
450,199,187652,2,0,P|423:205|396:212,2,55,0|0|8,3:0|3:0|0:0,0:0:0:0:
488,167,188152,1,6,3:2:0:0:
422,93,188485,2,0,P|395:100|368:106,1,55,6|8,3:2|0:0,0:0:0:0:
339,146,188818,1,10,0:0:0:0:
338,146,188985,2,0,P|286:60|196:104,1,220,6|4,3:2|3:2,0:0:0:0:
196,103,200152,5,2,0:0:0:0:
196,103,200318,2,0,P|135:154|57:139,1,165,6|2,3:2|0:0,0:0:0:0:
19,106,200985,1,10,0:0:0:0:
35,253,201485,1,10,0:0:0:0:
35,253,201652,2,0,P|89:261|142:274,1,110,2|2,0:0|0:3,0:0:0:0:
220,213,202318,2,0,P|274:205|327:192,1,110,10|2,0:0|0:0,0:0:0:0:
357,151,202818,1,0,0:0:0:0:
357,151,202985,6,0,P|435:135|495:187,1,165,2|2,3:2|0:0,0:0:0:0:
501,236,203652,1,10,0:0:0:0:
379,321,204152,1,10,0:0:0:0:
379,321,204318,2,0,P|325:307|271:299,1,110,2|2,0:0|0:3,0:0:0:0:
172,306,204985,1,8,0:0:0:0:
172,306,205152,2,0,P|177:333|181:360,2,55,2|0|2,0:0|0:0|0:0,0:0:0:0:
124,291,205652,6,0,P|90:250|98:197,1,110,2|0,3:2|0:0,0:0:0:0:
137,166,206152,1,2,0:0:0:0:
137,166,206318,2,0,P|145:113|110:72,1,110,10|0,0:0|0:0,0:0:0:0:
81,32,206818,1,10,0:0:0:0:
81,32,206985,2,0,P|135:23|188:10,1,110,2|2,0:0|0:3,0:0:0:0:
256,83,207652,1,10,0:0:0:0:
323,11,207985,2,0,P|350:16|377:20,1,55,2|2,0:3|0:0,0:0:0:0:
421,42,208318,6,0,P|473:102|457:180,2,165,2|2|2,3:2|0:0|0:0,0:0:0:0:
377,20,209485,1,6,3:2:0:0:
349,114,209818,1,6,3:2:0:0:
256,83,210152,1,6,3:2:0:0:
228,177,210485,2,0,P|200:172|173:167,1,55,6|8,3:2|0:0,0:0:0:0:
125,155,210818,1,10,0:0:0:0:
125,155,210985,6,0,P|82:188|29:180,1,110,6|8,3:2|0:0,0:0:0:0:
2,221,211485,1,2,0:0:0:0:
2,221,211652,2,0,P|13:276|21:330,1,110,2|8,3:2|0:0,0:0:0:0:
56,371,212152,1,2,3:2:0:0:
56,371,212319,2,0,P|111:360|165:352,1,110,2|10,0:0|0:0,0:0:0:0:
260,375,212985,1,2,3:2:0:0:
227,281,213318,2,0,P|232:253|236:226,1,55,10|0,0:0|3:0,0:0:0:0:
228,177,213652,6,0,P|282:184|324:151,1,110,2|8,3:2|0:0,0:0:0:0:
344,108,214152,1,2,0:0:0:0:
344,108,214319,2,0,P|398:101|440:134,1,110,2|8,3:2|0:0,0:0:0:0:
470,179,214819,1,2,3:2:0:0:
470,179,214985,2,0,P|459:234|451:288,1,110,2|10,0:0|0:0,0:0:0:0:
454,336,215485,1,2,0:0:0:0:
361,371,215818,2,0,P|335:365|307:361,1,55,2|8,0:0|0:0,0:0:0:0:
272,332,216152,1,2,3:2:0:0:
272,332,216318,6,0,P|218:343|164:352,1,110,6|8,3:2|0:0,0:0:0:0:
118,349,216819,1,2,0:0:0:0:
118,349,216985,1,2,3:2:0:0:
66,264,217318,2,0,P|93:259|120:254,1,55,8|2,0:0|3:2,0:0:0:0:
162,228,217652,2,0,P|168:174|135:132,1,110,2|10,0:0|0:0,0:0:0:0:
49,84,218318,1,2,3:2:0:0:
132,30,218652,2,0,P|158:35|186:39,1,55,10|0,0:0|3:0,0:0:0:0:
223,72,218985,6,0,P|275:80|318:47,1,110,2|10,3:2|0:0,0:0:0:0:
347,6,219485,1,2,0:0:0:0:
405,85,219818,2,0,P|399:113|395:140,1,55,2|8,3:2|0:0,0:0:0:0:
396,188,220152,2,0,P|341:197|287:207,1,110,2|0,3:2|3:0,0:0:0:0:
249,186,220652,1,10,0:0:0:0:
249,186,220818,1,6,3:2:0:0:
162,228,221152,1,6,3:2:0:0:
213,318,221485,1,10,0:0:0:0:
213,318,221652,6,0,P|254:351|307:343,1,110,6|8,3:2|0:0,0:0:0:0:
333,300,222152,1,2,0:0:0:0:
333,300,222318,2,0,P|374:266|427:274,1,110,2|8,3:2|0:0,0:0:0:0:
475,301,222819,1,2,3:2:0:0:
475,301,222985,2,0,P|483:247|494:193,1,110,2|10,0:0|0:0,0:0:0:0:
512,96,223652,1,2,3:2:0:0:
420,134,223985,2,0,P|393:128|365:124,1,55,10|0,0:0|3:0,0:0:0:0:
340,81,224318,6,0,P|286:91|231:100,1,110,2|8,3:2|0:0,0:0:0:0:
215,147,224818,1,2,0:0:0:0:
215,147,224985,2,0,P|161:136|106:127,1,110,2|8,3:2|0:0,0:0:0:0:
57,129,225485,1,2,3:2:0:0:
57,129,225652,2,0,P|23:170|31:223,1,110,2|10,0:0|0:0,0:0:0:0:
68,256,226152,1,2,0:0:0:0:
17,340,226485,2,0,P|44:344|71:349,1,55,2|8,0:0|0:0,0:0:0:0:
118,377,226819,1,2,3:2:0:0:
118,378,226985,6,0,P|171:367|226:359,1,110,6|8,3:2|0:0,0:0:0:0:
274,341,227485,1,2,0:0:0:0:
274,341,227652,1,2,3:2:0:0:
226,254,227985,2,0,P|254:250|281:244,1,55,8|2,0:0|3:2,0:0:0:0:
311,205,228319,2,0,P|352:238|405:231,1,110,6|8,0:0|0:0,0:0:0:0:
445,201,228818,1,2,0:0:0:0:
445,201,228985,1,2,3:2:0:0:
395,114,229319,2,0,P|389:86|385:59,1,55,10|2,0:0|3:2,0:0:0:0:
354,21,229652,6,0,P|300:14|259:47,1,110,6|8,3:2|0:0,0:0:0:0:
248,96,230152,1,2,0:0:0:0:
248,96,230318,2,0,P|193:85|139:76,1,110,2|8,3:2|0:0,0:0:0:0:
101,54,230818,1,2,3:2:0:0:
101,54,230985,1,2,0:0:0:0:
18,107,231318,1,10,0:0:0:0:
18,107,231485,2,0,P|8:52|-1:-1,2,110,6|6|10,3:2|3:2|0:0,0:0:0:0:
55,139,232318,5,6,3:2:0:0:
55,139,232485,2,0,P|21:180|28:233,1,110,0|0,3:0|3:0,0:0:0:0:
59,272,232985,1,8,0:0:0:0:
135,209,233319,1,0,3:0:0:0:
183,295,233652,2,0,P|238:285|292:276,1,110,2|2,3:2|3:2,0:0:0:0:
342,265,234152,1,2,3:2:0:0:
342,265,234319,2,0,P|352:319|361:373,1,110,10|2,0:2|0:0,0:0:0:0:
458,356,234985,6,0,P|448:302|439:248,1,110,2|0,3:2|0:0,0:0:0:0:
492,164,235652,1,10,0:0:0:0:
427,89,235985,2,0,P|400:94|372:97,1,55,0|0,3:0|3:0,0:0:0:0:
340,136,236319,2,0,P|298:102|244:108,1,110,2|2,3:2|3:2,0:0:0:0:
207,141,236819,2,0,P|202:168|198:195,1,55,2|8,3:2|0:0,0:0:0:0:
216,241,237152,1,2,3:2:0:0:
117,241,237485,2,0,P|122:268|126:295,1,55,0|6,3:0|3:2,0:0:0:0:
147,340,237819,6,0,P|188:373|241:366,1,110,0|0,3:0|3:0,0:0:0:0:
279,333,238319,1,8,0:0:0:0:
349,263,238652,1,2,3:2:0:0:
349,263,238818,2,0,P|403:271|457:281,2,110,2|2|2,3:2|3:2|3:2,0:0:0:0:
310,241,239652,1,8,0:0:0:0:
310,241,239819,1,2,3:2:0:0:
376,168,240152,1,2,3:2:0:0:
376,168,240318,6,0,P|383:115|350:73,1,110,2|2,3:2|0:0,0:0:0:0:
258,109,240985,2,0,P|203:99|149:89,1,110,8|2,0:0|3:2,0:0:0:0:
113,64,241485,1,2,3:2:0:0:
113,64,241652,2,0,P|108:36|103:9,2,55,2|2|2,0:0|3:2|3:2,0:0:0:0:
78,99,242152,1,2,3:2:0:0:
113,191,242485,2,0,P|140:186|167:181,2,55,2|0|2,3:2|3:0|3:2,0:0:0:0:
74,219,242985,5,6,3:2:0:0:
74,219,243152,2,0,P|40:260|47:313,1,110,0|0,3:0|3:0,0:0:0:0:
71,356,243652,1,8,0:0:0:0:
147,292,243986,1,0,3:0:0:0:
228,347,244318,2,0,P|280:354|322:320,1,110,2|2,3:2|3:2,0:0:0:0:
347,277,244818,1,2,3:2:0:0:
347,277,244985,2,0,P|337:223|328:169,1,110,10|2,0:2|0:0,0:0:0:0:
228,170,245652,6,0,P|238:116|247:62,1,110,2|0,3:2|0:0,0:0:0:0:
323,0,246319,1,8,0:0:0:0:
380,80,246652,2,0,P|407:77|434:72,1,55,0|0,3:0|3:0,0:0:0:0:
477,97,246986,2,0,P|507:141|496:195,1,110,0|0,3:2|3:2,0:0:0:0:
461,228,247486,2,0,P|433:232|406:237,1,55,0|8,3:2|0:0,0:0:0:0:
366,265,247819,1,0,3:2:0:0:
278,218,248152,2,0,P|273:245|269:272,1,55,0|6,3:0|3:2,0:0:0:0:
262,321,248485,6,0,P|208:310|153:301,1,110,0|0,3:0|3:0,0:0:0:0:
103,304,248986,1,8,0:0:0:0:
77,213,249319,1,2,3:2:0:0:
77,213,249485,2,0,P|131:205|185:195,2,110,2|2|2,3:2|3:2|3:2,0:0:0:0:
33,200,250319,1,8,0:0:0:0:
33,200,250486,1,2,3:2:0:0:
57,107,250819,1,2,3:2:0:0:
58,107,250985,6,0,P|100:73|153:80,1,110,2|2,3:2|0:0,0:0:0:0:
243,121,251652,2,0,P|296:127|338:94,1,110,8|2,0:0|3:2,0:0:0:0:
372,59,252152,1,2,3:2:0:0:
373,59,252319,2,0,P|400:64|427:68,2,55,2|2|2,0:0|3:2|3:2,0:0:0:0:
341,20,252819,1,2,3:2:0:0:
257,72,253152,2,0,P|253:45|247:18,2,55,2|0|2,3:2|3:0|3:2,0:0:0:0:
243,121,253652,5,6,3:2:0:0:
256,192,253818,12,0,256985,0:0:0:0:
