osu file format v14

[General]
AudioFilename: audio.mp3
AudioLeadIn: 0
PreviewTime: 144235
Countdown: 0
SampleSet: Soft
StackLeniency: 0.4
Mode: 0
LetterboxInBreaks: 0
WidescreenStoryboard: 1

[Editor]
DistanceSpacing: 1.2
BeatDivisor: 4
GridSize: 32
TimelineZoom: 1

[Metadata]
Title:Miracle infinity
TitleUnicode:ミラクルinfinity
Artist:solfa feat. Chata
ArtistUnicode:solfa feat. 茶太
Creator:Dored
Version:Hard
Source:ゆめこい~夢見る魔法少女と恋の呪文~
Tags:Featured Artist fa Mappers' Guild mpg Yumekoi ~Yume Miru Mahou Shoujo to Koi no Jumon~ Parasol Japanese Pop Jpop J-pop Eroge Galgame Visual Novel Video Game VN Opening op Full Ver Version Garden Shirahane Suou yf_bmp chronicle ~dog side~
BeatmapID:3307571
BeatmapSetID:1619982

[Difficulty]
HPDrainRate:4
CircleSize:3.7
OverallDifficulty:6.5
ApproachRate:8
SliderMultiplier:1.4
SliderTickRate:1

[Events]
//Background and Video events
0,0,"BG.jpg",0,0
//Break Periods
2,91185,98235
2,189851,199402
//Storyboard Layer 0 (Background)
//Storyboard Layer 1 (Fail)
//Storyboard Layer 2 (Pass)
//Storyboard Layer 3 (Foreground)
//Storyboard Layer 4 (Overlay)
//Storyboard Sound Samples

[TimingPoints]
319,333.333333333333,4,2,1,45,1,0
10985,-90.9090909090909,4,2,1,70,0,0
21652,-100,4,2,1,45,0,0
32318,-100,4,2,1,55,0,0
42985,-100,4,2,1,60,0,0
61652,-100,4,2,1,70,0,0
66985,-90.9090909090909,4,2,1,80,0,1
77152,-90.9090909090909,4,2,1,80,0,0
77652,-90.9090909090909,4,2,1,80,0,1
88318,-100,4,2,1,80,0,0
88652,-100,4,2,1,40,0,0
98985,-100,4,2,1,45,0,0
109652,-100,4,2,1,55,0,0
120318,-100,4,2,1,60,0,0
138985,-100,4,2,1,70,0,0
144318,-90.9090909090909,4,2,1,80,0,1
154485,-90.9090909090909,4,2,1,80,0,0
154985,-90.9090909090909,4,2,1,80,0,1
165652,-100,4,2,1,65,0,0
176318,-100,4,2,1,70,0,0
188985,-133.333333333333,4,2,1,70,0,0
189652,-100,4,2,1,40,0,0
200318,-100,4,2,1,50,0,0
209485,-100,4,2,1,65,0,0
210985,-90.9090909090909,4,2,1,80,0,1
221152,-90.9090909090909,4,2,1,80,0,0
221652,-90.9090909090909,4,2,1,80,0,1
232318,-100,4,2,1,65,0,0
253735,-100,4,2,1,50,0,0
254318,-100,4,2,1,45,0,0
254985,-100,4,2,1,40,0,0
255652,-100,4,2,1,35,0,0
256318,-100,4,2,1,30,0,0
256985,-100,4,2,1,25,0,0

[Colours]
Combo1 : 215,215,215
Combo2 : 255,166,210
Combo3 : 142,142,255
Combo4 : 252,215,158

[HitObjects]
479,94,319,6,0,P|428:48|361:58,1,140,2|2,0:0|0:0,0:0:0:0:
290,114,818,2,0,P|303:182|314:251,1,140,2|2,0:0|0:0,0:0:0:0:
329,341,1318,1,0,0:0:0:0:
329,341,1485,6,0,P|397:327|466:316,1,140,2|2,0:0|0:0,0:0:0:0:
452,227,1985,1,0,0:0:0:0:
452,227,2152,2,0,P|383:240|314:251,1,140,2|2,0:0|0:0,0:0:0:0:
243,309,2652,2,0,P|208:302|174:296,1,70,2|2,0:0|0:0,0:0:0:0:
99,349,2985,6,0,P|53:298|63:231,1,140,2|2,0:0|0:0,0:0:0:0:
134,174,3485,2,0,P|144:106|98:56,1,140,2|2,0:0|0:0,0:0:0:0:
177,10,3985,1,0,0:0:0:0:
177,10,4152,6,0,P|245:23|314:34,1,140,2|2,0:0|0:0,0:0:0:0:
334,123,4652,1,0,0:0:0:0:
334,123,4818,2,0,P|266:124|224:178,1,140,2|2,0:0|0:0,0:0:0:0:
197,265,5318,2,0,P|162:271|128:277,1,70,2|2,0:0|0:0,0:0:0:0:
248,340,5652,6,0,P|316:326|385:315,1,140,2|2,0:0|0:0,0:0:0:0:
467,275,6152,2,0,P|399:285|349:239,1,140,2|2,0:0|0:0,0:0:0:0:
404,166,6652,1,0,0:0:0:0:
404,166,6818,6,0,P|414:98|368:48,1,140,2|2,0:0|0:0,0:0:0:0:
296,104,7318,1,0,0:0:0:0:
296,104,7485,2,0,P|226:93|158:79,1,140,2|2,0:0|0:0,0:0:0:0:
76,38,7985,2,0,P|69:72|62:106,1,70,2|2,0:0|0:0,0:0:0:0:
10,181,8318,5,2,0:0:0:0:
10,181,8485,1,2,0:0:0:0:
158,79,8818,1,2,0:0:0:0:
158,79,8985,1,2,0:0:0:0:
172,258,9318,1,2,0:0:0:0:
172,258,9485,1,2,0:0:0:0:
320,156,9818,1,2,0:0:0:0:
320,156,9985,1,2,0:0:0:0:
158,79,10318,5,2,0:0:0:0:
158,79,10652,2,0,L|164:113,3,35,2|2|2|2,0:0|0:0|0:0|0:0,0:0:0:0:
170,159,10985,6,0,P|96:147|37:193,1,154.000004699707,6|10,3:2|0:0,0:0:0:0:
103,258,11485,1,0,0:0:0:0:
75,346,11652,2,0,P|36:352|0:359,1,77.0000023498536,2|2,3:2|3:2,0:0:0:0:
165,327,11985,1,10,0:0:0:0:
103,258,12152,6,0,P|179:269|254:284,1,154.000004699707,6|0,3:2|3:0,0:0:0:0:
348,313,12652,2,0,P|340:275|334:237,1,77.0000023498536,10|0,0:0|0:0,0:0:0:0:
277,164,12985,2,0,P|239:156|201:150,1,77.0000023498536,2|0,3:2|3:0,0:0:0:0:
217,58,13318,2,0,P|254:65|292:71,1,77.0000023498536,10|0,0:0|0:0,0:0:0:0:
364,131,13652,5,6,3:2:0:0:
437,75,13818,2,0,P|430:36|423:0,2,77.0000023498536,2|10|2,0:0|0:0|0:0,0:0:0:0:
512,129,14318,2,0,P|504:166|498:204,1,77.0000023498536,2|2,3:2|3:2,0:0:0:0:
429,268,14652,1,10,0:0:0:0:
480,346,14818,6,0,P|406:358|347:312,1,154.000004699707,6|0,3:2|3:0,0:0:0:0:
351,219,15318,1,10,0:0:0:0:
429,268,15485,1,6,3:2:0:0:
273,170,15818,1,6,3:2:0:0:
219,347,16152,6,0,P|143:332|67:320,1,154.000004699707,6|2,3:2|3:2,0:0:0:0:
0,259,16652,1,10,0:0:0:0:
87,229,16818,2,0,P|75:152|60:77,1,154.000004699707,6|2,3:2|3:2,0:0:0:0:
124,10,17318,1,10,0:0:0:0:
192,70,17485,6,0,P|251:24|324:36,1,154.000004699707,6|2,3:2|3:2,0:0:0:0:
274,114,17985,1,10,0:0:0:0:
356,158,18152,2,0,P|296:203|223:191,1,154.000004699707,6|2,3:2|3:2,0:0:0:0:
141,147,18652,2,0,P|103:154|65:160,1,77.0000023498536,10|2,0:0|3:2,0:0:0:0:
12,236,18985,6,0,P|0:309|45:368,2,154.000004699707,6|8|0,3:2|0:0|3:0,0:0:0:0:
65,160,19818,1,0,3:0:0:0:
118,235,19985,2,0,P|125:272|131:310,1,77.0000023498536,8|2,0:0|0:0,0:0:0:0:
160,349,20235,1,2,0:0:0:0:
160,349,20318,6,0,P|197:341|235:335,1,77.0000023498536,2|0,3:2|3:0,0:0:0:0:
282,341,20568,1,0,3:0:0:0:
282,341,20652,1,10,0:0:0:0:
277,249,20818,2,0,P|314:256|352:262,1,77.0000023498536,0|0,3:0|3:0,0:0:0:0:
447,259,21152,1,0,3:0:0:0:
447,259,21235,1,0,3:0:0:0:
447,259,21318,2,0,L|440:296,3,38.5000011749268,8|8|8|8,0:0|0:0|0:0|0:0,0:0:0:0:
431,341,21652,5,4,3:1:0:0:
361,173,21985,2,0,P|371:103|384:34,2,140,2|2|2,0:0|0:0|0:0,0:0:0:0:
361,173,22985,2,0,P|326:166|291:161,1,70,2|2,0:0|0:0,0:0:0:0:
216,112,23318,1,2,0:0:0:0:
216,112,23485,2,0,P|165:157|98:148,2,140,2|2|2,0:0|0:0|0:0,0:0:0:0:
239,23,24318,5,0,3:0:0:0:
239,23,24652,2,0,P|273:29|308:34,1,70,2|0,0:0|0:0,0:0:0:0:
355,111,24985,2,0,P|389:106|424:99,1,70,2|0,0:0|0:0,0:0:0:0:
456,185,25318,1,2,0:0:0:0:
456,185,25485,6,0,P|500:235|491:303,1,140,2|2,0:0|0:0,0:0:0:0:
403,281,25985,1,2,0:0:0:0:
403,281,26152,2,0,P|335:271|284:316,1,140,2|2,0:0|0:0,0:0:0:0:
210,270,26652,1,0,0:0:0:0:
210,270,26818,1,2,0:0:0:0:
182,357,26985,6,0,P|113:344|43:333,1,140,2|2,0:0|0:0,0:0:0:0:
91,256,27485,1,2,0:0:0:0:
91,256,27652,2,0,P|101:188|56:137,1,140,2|2,0:0|0:0,0:0:0:0:
233,182,28318,5,2,0:0:0:0:
274,4,28652,1,2,0:0:0:0:
99,57,28985,2,0,P|64:52|29:45,1,70,2|0,0:0|0:0,0:0:0:0:
186,30,29318,1,2,0:0:0:0:
186,30,29485,1,0,3:0:0:0:
167,119,29652,6,0,P|236:106|306:95,1,140,0|2,3:0|0:0,0:0:0:0:
379,147,30152,1,2,0:0:0:0:
379,147,30318,2,0,P|430:191|497:181,1,140,2|2,0:0|0:0,0:0:0:0:
456,100,30818,6,0,P|443:169|432:239,2,140,2|2|2,0:0|0:0|0:0,0:0:0:0:
301,196,31818,2,0,P|296:161|289:127,2,70,2|2|0,0:0|0:0|3:0,0:0:0:0:
379,147,32318,5,4,3:2:0:0:
223,245,32652,2,0,P|188:238|154:233,1,70,2|2,0:3|0:0,0:0:0:0:
79,181,32985,2,0,P|68:113|112:62,1,140,10|2,0:0|0:0,0:0:0:0:
194,23,33485,6,0,P|124:12|56:0,1,140,2|0,3:2|0:0,0:0:0:0:
0,70,33985,2,0,P|6:104|11:138,1,70,2|2,0:3|0:0,0:0:0:0:
65,212,34318,1,8,0:0:0:0:
65,212,34485,2,0,P|116:167|183:178,1,140,2|2,0:0|3:2,0:0:0:0:
218,208,34902,1,0,3:0:0:0:
218,208,34985,5,0,3:0:0:0:
129,366,35318,2,0,P|94:371|59:377,1,70,2|0,0:3|0:0,0:0:0:0:
173,287,35652,2,0,P|241:299|311:310,1,140,10|2,0:0|0:0,0:0:0:0:
382,366,36152,1,2,3:2:0:0:
382,366,36318,6,0,P|416:359|451:354,1,70,2|2,0:0|0:0,0:0:0:0:
464,264,36652,1,2,0:3:0:0:
464,264,36818,2,0,P|429:270|394:275,1,70,2|8,0:0|0:0,0:0:0:0:
323,217,37152,2,0,P|256:227|205:182,1,140,2|2,0:0|0:0,0:0:0:0:
172,154,37568,1,2,0:0:0:0:
172,154,37652,6,0,P|184:85|195:15,1,140,2|2,3:2|0:3,0:0:0:0:
277,62,38152,1,2,0:0:0:0:
277,62,38318,2,0,P|346:51|415:38,1,140,10|2,0:0|0:0,0:0:0:0:
483,98,38818,6,0,P|438:148|448:215,1,140,0|0,3:0|0:0,0:0:0:0:
496,293,39318,1,2,0:3:0:0:
496,293,39652,2,0,P|461:298|426:304,1,70,10|0,0:0|0:0,0:0:0:0:
359,242,39985,2,0,P|324:248|289:253,1,70,2|0,0:0|3:0,0:0:0:0:
251,335,40318,6,0,P|201:290|134:300,1,140,0|2,3:0|0:3,0:0:0:0:
43,314,40818,1,2,0:0:0:0:
43,314,40985,2,0,P|32:244|20:175,1,140,2|2,0:0|0:0,0:0:0:0:
103,138,41485,6,0,P|172:148|241:160,2,140,6|6|6,3:2|3:2|3:2,0:0:0:0:
224,2,42485,1,6,3:2:0:0:
224,2,42652,2,0,P|259:8|294:13,1,70,8|0,0:0|3:0,0:0:0:0:
315,101,42985,6,0,P|327:169|337:239,1,140,6|8,3:2|0:0,0:0:0:0:
427,223,43485,1,2,0:0:0:0:
427,223,43652,2,0,P|414:154|404:84,1,140,2|8,3:2|0:0,0:0:0:0:
315,101,44152,1,2,3:2:0:0:
315,101,44318,6,0,P|248:111|197:66,1,140,2|8,3:2|0:0,0:0:0:0:
133,131,44818,1,2,3:2:0:0:
133,131,44985,2,0,P|127:165|122:200,1,70,2|0,3:2|3:0,0:0:0:0:
32,183,45318,2,0,P|37:148|42:113,1,70,10|0,0:0|3:0,0:0:0:0:
122,200,45652,6,0,P|77:250|87:317,1,140,2|8,3:2|0:0,0:0:0:0:
160,372,46152,1,2,3:2:0:0:
160,372,46318,2,0,P|194:366|229:361,2,70,2|0|8,3:2|3:0|0:0,0:0:0:0:
87,317,46818,1,0,3:0:0:0:
87,317,47152,5,0,3:0:0:0:
134,239,47318,2,0,P|168:234|203:228,1,70,8|0,0:0|0:0,0:0:0:0:
292,248,47652,2,0,P|287:213|281:178,1,70,2|0,3:2|3:0,0:0:0:0:
245,150,47902,1,0,3:0:0:0:
245,150,47985,2,0,P|250:115|255:80,1,70,10|0,0:0|3:0,0:0:0:0:
326,24,48318,6,0,P|376:68|443:58,1,140,6|8,3:2|0:0,0:0:0:0:
489,137,48818,1,2,0:0:0:0:
489,137,48985,2,0,P|444:187|454:254,1,140,2|8,3:2|0:0,0:0:0:0:
376,300,49485,1,2,3:2:0:0:
376,300,49652,6,0,P|325:255|258:265,1,140,2|8,3:2|0:0,0:0:0:0:
182,315,50152,1,2,3:2:0:0:
182,315,50318,2,0,P|177:349|170:384,1,70,2|0,3:2|3:0,0:0:0:0:
92,296,50652,2,0,P|87:261|81:226,1,70,10|0,0:0|3:0,0:0:0:0:
182,315,50985,6,0,P|172:245|159:176,1,140,2|8,3:2|0:0,0:0:0:0:
247,195,51485,1,0,3:0:0:0:
247,195,51652,2,0,P|251:229|257:264,2,70,2|0|8,3:2|3:0|0:0,0:0:0:0:
206,113,52152,6,0,P|155:158|88:148,1,140,0|0,3:0|3:0,0:0:0:0:
68,61,52652,2,0,P|33:54|-1:49,1,70,10|0,0:0|0:0,0:0:0:0:
135,0,52985,2,0,P|169:6|204:11,1,70,2|0,3:2|3:0,0:0:0:0:
280,61,53318,1,10,0:0:0:0:
280,61,53485,1,0,3:0:0:0:
206,113,53652,6,0,P|193:181|183:251,1,140,6|8,3:2|0:0,0:0:0:0:
110,306,54152,1,2,0:0:0:0:
110,306,54318,2,0,P|75:300|41:294,2,70,2|2|8,3:2|3:2|0:0,0:0:0:0:
165,379,54818,1,0,3:0:0:0:
165,379,55152,5,0,3:0:0:0:
238,324,55318,2,0,P|305:314|355:359,2,140,10|2|10,0:0|3:2|0:0,0:0:0:0:
183,251,56152,1,0,3:0:0:0:
183,251,56318,6,0,P|173:183|218:133,1,140,2|8,3:2|0:0,0:0:0:0:
300,172,56818,1,2,3:2:0:0:
300,172,56985,2,0,P|335:166|369:160,1,70,2|0,3:2|3:0,0:0:0:0:
284,262,57318,1,10,0:0:0:0:
284,262,57485,6,0,P|353:248|423:239,1,140,2|0,3:2|3:0,0:0:0:0:
460,155,57985,2,0,P|453:120|448:86,1,70,10|0,0:0|0:0,0:0:0:0:
369,39,58318,2,0,P|334:45|300:50,1,70,2|0,0:0|3:0,0:0:0:0:
272,87,58568,1,0,3:0:0:0:
272,87,58652,2,0,P|237:80|203:75,1,70,10|0,0:0|0:0,0:0:0:0:
127,23,58985,6,0,P|60:13|10:58,1,140,6|8,3:2|0:0,0:0:0:0:
65,130,59485,1,2,0:0:0:0:
65,130,59652,2,0,P|99:135|134:141,2,70,2|0|8,3:2|3:0|0:0,0:0:0:0:
46,219,60152,6,0,P|80:223|115:229,1,70,0|0,3:0|0:0,0:0:0:0:
200,260,60485,1,2,3:2:0:0:
229,176,60652,1,8,0:0:0:0:
229,176,60818,2,0,P|223:141|217:107,1,70,2|0,0:0|3:0,0:0:0:0:
319,162,61152,2,0,P|313:127|308:93,1,70,2|8,3:2|0:0,0:0:0:0:
399,202,61485,1,10,0:0:0:0:
399,202,61652,6,0,P|433:208|467:213,1,70,10|0,0:0|0:0,0:0:0:0:
428,296,61985,2,0,P|421:330|416:364,1,70,8|0,0:0|3:0,0:0:0:0:
335,325,62318,2,0,P|300:318|266:313,1,70,8|0,0:0|0:0,0:0:0:0:
307,230,62652,2,0,P|313:195|318:161,1,70,8|0,0:0|3:0,0:0:0:0:
373,90,62985,6,0,P|407:83|441:78,1,70,8|2,0:0|0:0,0:0:0:0:
330,11,63318,2,0,P|295:5|261:0,1,70,8|2,0:0|3:2,0:0:0:0:
209,99,63652,2,0,P|243:92|277:87,1,70,8|2,0:0|0:0,0:0:0:0:
165,20,63985,2,0,P|130:14|96:8,1,70,8|2,0:0|3:2,0:0:0:0:
25,65,64318,5,6,3:2:0:0:
25,65,64485,1,4,3:2:0:0:
166,179,64818,1,4,3:2:0:0:
166,179,64985,1,4,3:2:0:0:
52,320,65318,1,4,3:2:0:0:
52,320,65485,1,4,3:2:0:0:
67,138,65818,1,4,3:2:0:0:
67,138,65985,6,0,P|73:172|78:206,1,70,6|0,3:2|0:0,0:0:0:0:
146,267,66318,2,0,P|228:238|165:178,1,210,6|0,3:2|0:0,0:0:0:0:
164,85,66985,6,0,P|241:73|316:58,1,154.000004699707,6|8,3:2|0:0,0:0:0:0:
396,101,67484,1,2,0:0:0:0:
477,144,67652,2,0,P|403:131|344:177,1,154.000004699707,2|8,3:2|0:0,0:0:0:0:
255,150,68152,1,2,3:2:0:0:
272,239,68318,6,0,P|280:277|286:315,1,77.0000023498536,2|0,0:0|3:0,0:0:0:0:
375,345,68652,2,0,P|403:319|434:295,1,77.0000023498536,10|0,0:0|0:0,0:0:0:0:
416,204,68985,2,0,P|379:192|343:177,1,77.0000023498536,2|0,3:2|0:0,0:0:0:0:
323,87,69318,1,10,0:0:0:0:
323,87,69485,1,0,3:0:0:0:
255,150,69652,6,0,P|181:162|122:116,1,154.000004699707,2|8,3:2|0:0,0:0:0:0:
31,136,70152,1,2,0:0:0:0:
59,49,70318,2,0,P|74:124|85:200,1,154.000004699707,2|8,3:2|0:0,0:0:0:0:
161,253,70818,1,2,3:2:0:0:
77,293,70985,6,0,P|40:285|2:279,1,77.0000023498536,2|0,0:0|3:0,0:0:0:0:
85,200,71318,1,10,0:0:0:0:
161,253,71485,2,0,P|168:215|175:177,1,77.0000023498536,2|0,0:0|3:0,0:0:0:0:
234,308,71818,2,0,P|240:346|248:383,1,77.0000023498536,2|8,0:0|0:0,0:0:0:0:
285,231,72152,1,2,3:2:0:0:
234,308,72318,6,0,P|293:262|366:274,1,154.000004699707,6|8,3:2|0:0,0:0:0:0:
431,341,72818,1,2,0:0:0:0:
366,274,72985,2,0,P|353:200|399:141,1,154.000004699707,2|8,3:2|0:0,0:0:0:0:
491,146,73485,1,2,3:2:0:0:
450,64,73652,6,0,P|411:57|374:50,1,77.0000023498536,2|0,0:0|3:0,0:0:0:0:
309,116,73985,1,10,0:0:0:0:
309,116,74152,1,0,0:0:0:0:
277,29,74318,2,0,P|239:36|201:42,1,77.0000023498536,2|0,3:2|0:0,0:0:0:0:
185,134,74652,2,0,P|146:140|109:147,1,77.0000023498536,10|0,0:0|3:0,0:0:0:0:
30,97,74985,6,0,P|24:58|17:21,1,77.0000023498536,2|0,3:2|3:0,0:0:0:0:
109,146,75318,1,10,0:0:0:0:
30,195,75485,2,0,P|104:182|163:228,1,154.000004699707,2|2,0:0|3:2,0:0:0:0:
169,320,75985,1,8,0:0:0:0:
246,268,76152,6,0,P|321:283|397:294,1,154.000004699707,2|0,3:2|3:0,0:0:0:0:
441,275,76568,1,0,3:0:0:0:
441,275,76652,1,10,0:0:0:0:
469,362,76818,1,6,3:2:0:0:
376,202,77152,2,0,P|337:196|300:189,1,77.0000023498536,6|8,3:2|0:0,0:0:0:0:
207,185,77485,1,10,0:0:0:0:
207,185,77568,1,8,0:0:0:0:
207,185,77652,6,0,P|195:108|180:33,1,154.000004699707,6|8,3:2|0:0,0:0:0:0:
104,86,78152,1,2,0:0:0:0:
180,33,78318,2,0,P|239:78|312:65,1,154.000004699707,2|8,3:2|0:0,0:0:0:0:
391,16,78818,1,2,3:2:0:0:
448,88,78985,6,0,P|440:125|435:163,1,77.0000023498536,2|0,0:0|3:0,0:0:0:0:
345,186,79318,2,0,P|352:223|357:261,1,77.0000023498536,10|0,0:0|0:0,0:0:0:0:
446,289,79652,2,0,P|451:327|458:364,1,77.0000023498536,2|0,3:2|0:0,0:0:0:0:
508,221,79985,1,10,0:0:0:0:
508,221,80152,1,0,3:0:0:0:
435,163,80318,6,0,P|358:152|283:136,1,154.000004699707,2|8,3:2|0:0,0:0:0:0:
271,228,80818,1,2,0:0:0:0:
197,172,80985,2,0,P|123:158|64:204,1,154.000004699707,2|8,3:2|0:0,0:0:0:0:
55,295,81485,1,2,3:2:0:0:
145,320,81652,6,0,P|182:312|220:307,1,77.0000023498536,2|0,0:0|3:0,0:0:0:0:
271,228,81985,1,10,0:0:0:0:
197,172,82152,2,0,P|159:179|121:184,1,77.0000023498536,2|0,0:0|3:0,0:0:0:0:
271,228,82485,2,0,P|309:233|346:240,1,77.0000023498536,2|8,0:0|0:0,0:0:0:0:
425,288,82818,1,2,3:2:0:0:
484,217,82985,6,0,P|498:143|452:84,1,154.000004699707,6|8,3:2|0:0,0:0:0:0:
380,26,83485,1,2,0:0:0:0:
366,118,83652,2,0,P|292:132|233:86,1,154.000004699707,2|8,3:2|0:0,0:0:0:0:
169,153,84152,1,2,3:2:0:0:
233,86,84318,6,0,P|157:102|81:112,1,154.000004699707,6|8,0:0|0:0,0:0:0:0:
41,196,84818,1,2,0:0:0:0:
122,243,84985,2,0,P|181:197|254:211,1,154.000004699707,2|10,3:2|0:0,0:0:0:0:
288,297,85485,1,2,3:2:0:0:
196,305,85652,6,0,P|185:228|169:153,1,154.000004699707,6|8,3:2|0:0,0:0:0:0:
254,118,86152,1,2,0:0:0:0:
199,43,86318,2,0,P|275:32|350:16,1,154.000004699707,2|8,3:2|0:0,0:0:0:0:
420,76,86818,1,2,3:2:0:0:
509,52,86985,6,0,P|504:90|495:127,1,77.0000023498536,2|0,0:0|3:0,0:0:0:0:
466,164,87235,1,0,3:0:0:0:
466,164,87318,1,10,0:0:0:0:
484,254,87485,1,6,3:2:0:0:
344,129,87818,1,6,3:2:0:0:
282,197,87985,2,0,L|244:203,3,38.5000011749268,8|8|10|8,0:0|0:0|0:0|0:0,0:0:0:0:
202,211,88318,5,4,3:1:0:0:
256,192,88402,12,0,90985,0:0:0:0:
202,211,98985,5,4,3:2:0:0:
202,211,99318,2,0,P|167:203|133:199,1,70,2|2,0:0|0:0,0:0:0:0:
84,121,99652,2,0,P|135:77|202:88,1,140,2|2,3:2|0:0,0:0:0:0:
271,150,100152,1,2,0:0:0:0:
271,150,100318,6,0,P|305:145|339:138,2,70,2|2|2,3:2|0:0|0:0,0:0:0:0:
202,211,100818,2,0,P|211:280|224:349,2,140,2|2|2,0:0|0:0|3:2,0:0:0:0:
110,204,101652,5,0,3:0:0:0:
110,204,101985,2,0,P|117:238|122:272,1,70,2|2,0:0|0:0,0:0:0:0:
202,211,102318,2,0,P|236:203|270:198,1,70,0|2,3:0|0:0,0:0:0:0:
209,119,102652,2,0,P|201:84|196:50,1,70,2|2,0:0|0:0,0:0:0:0:
117,112,102985,6,0,P|82:119|48:124,2,70,0|2|2,3:2|0:0|3:2,0:0:0:0:
209,119,103485,2,0,P|260:75|327:86,1,140,2|2,3:2|0:0,0:0:0:0:
388,18,103985,2,0,P|422:25|456:30,1,70,0|2,3:0|3:2,0:0:0:0:
493,113,104318,6,0,P|480:181|470:251,1,140,2|0,3:2|0:0,0:0:0:0:
387,287,104818,1,2,0:0:0:0:
387,287,104985,2,0,P|381:252|374:218,1,70,2|0,3:2|3:0,0:0:0:0:
305,158,105318,2,0,L|270:151,3,35,2|2|2|2,0:0|0:0|0:0|0:0,0:0:0:0:
243,113,105652,6,0,P|208:118|174:125,1,70,0|0,3:0|0:0,0:0:0:0:
145,38,105985,2,0,P|110:45|76:50,1,70,0|0,3:0|0:0,0:0:0:0:
79,141,106318,2,0,P|35:192|46:259,1,140,2|2,3:2|0:0,0:0:0:0:
96,337,106818,1,0,0:0:0:0:
96,337,106985,6,0,P|164:324|234:314,1,140,2|0,3:2|0:0,0:0:0:0:
258,227,107485,1,2,3:2:0:0:
258,227,107652,2,0,P|326:240|396:250,1,140,2|0,3:2|3:0,0:0:0:0:
476,290,108152,1,2,0:0:0:0:
476,290,108318,6,0,P|432:239|443:172,1,140,0|0,3:0|0:0,0:0:0:0:
494,96,108818,2,0,P|443:52|376:63,1,140,2|2,3:2|3:2,0:0:0:0:
346,98,109235,1,0,3:0:0:0:
346,98,109318,1,0,3:0:0:0:
256,80,109485,1,0,3:0:0:0:
256,80,109652,6,0,P|269:148|279:218,1,140,4|2,3:2|0:0,0:0:0:0:
320,299,110152,1,0,0:0:0:0:
320,299,110319,2,0,P|354:305|388:310,1,70,2|0,3:2|0:0,0:0:0:0:
266,372,110652,2,0,P|231:377|197:383,1,70,2|2,0:0|0:0,0:0:0:0:
131,320,110985,6,0,P|136:285|142:251,2,70,2|2|2,3:2|0:0|0:0,0:0:0:0:
41,302,111485,2,0,P|47:267|52:233,1,70,2|0,0:0|3:0,0:0:0:0:
118,169,111818,2,0,P|51:180|0:135,1,140,2|2,0:0|0:0,0:0:0:0:
0,45,112318,5,0,3:0:0:0:
172,104,112652,2,0,P|206:98|240:93,1,70,2|0,0:0|0:0,0:0:0:0:
123,26,112985,1,2,3:2:0:0:
123,26,113152,2,0,P|193:16|262:4,1,140,2|2,0:0|0:0,0:0:0:0:
329,66,113652,6,0,P|363:72|398:77,2,70,2|2|2,3:2|0:0|0:0,0:0:0:0:
241,92,114152,1,2,3:2:0:0:
392,192,114485,1,2,0:0:0:0:
392,192,114568,1,2,0:0:0:0:
392,192,114652,2,0,P|426:186|461:180,1,70,2|2,3:2|0:0,0:0:0:0:
323,251,114985,6,0,P|311:317|356:368,1,140,2|0,3:2|0:0,0:0:0:0:
432,317,115485,1,2,0:0:0:0:
356,368,115652,2,0,P|321:361|286:356,1,70,2|0,3:2|0:0,0:0:0:0:
223,291,115985,2,0,P|188:297|153:302,1,70
68,333,116318,6,0,P|33:326|-1:321,2,70,0|0|0,3:0|0:0|0:0,0:0:0:0:
100,154,116985,2,0,P|65:149|30:142,1,70,2|0,3:2|0:0,0:0:0:0:
14,232,117318,2,0,P|48:236|83:243,1,70,2|0,0:0|0:0,0:0:0:0:
153,302,117652,6,0,P|219:314|270:269,1,140,2|0,3:2|0:0,0:0:0:0:
228,187,118152,1,2,0:0:0:0:
228,187,118318,2,0,P|221:152|216:117,1,70,2|0,3:2|0:0,0:0:0:0:
278,52,118651,1,0,0:0:0:0:
278,52,118818,6,0,P|209:63|139:73,2,140,6|6|6,3:2|3:2|3:2,0:0:0:0:
454,5,119818,1,6,3:2:0:0:
454,5,119985,2,0,P|447:40|442:75,1,70,8|0,0:0|3:0,0:0:0:0:
482,155,120318,6,0,P|431:110|364:120,1,140,6|8,3:2|0:0,0:0:0:0:
302,187,120818,1,2,0:0:0:0:
302,187,120985,2,0,P|234:196|184:152,1,140,2|8,3:2|0:0,0:0:0:0:
139,72,121485,1,2,3:2:0:0:
139,72,121652,6,0,P|104:78|70:83,1,70,2|0,3:2|3:0,0:0:0:0:
14,156,121985,2,0,P|20:190|25:224,1,70,8|2,0:0|3:2,0:0:0:0:
113,251,122318,1,2,3:2:0:0:
113,251,122485,1,0,3:0:0:0:
69,331,122652,2,0,P|103:335|137:342,1,70,10|0,0:0|3:0,0:0:0:0:
226,318,122985,6,0,P|214:251|259:200,1,140,2|8,3:2|0:0,0:0:0:0:
335,250,123485,1,2,3:2:0:0:
335,250,123652,2,0,P|341:284|346:318,2,70,2|0|8,3:2|3:0|0:0,0:0:0:0:
407,194,124152,1,0,3:0:0:0:
407,194,124485,5,0,3:0:0:0:
362,114,124652,2,0,P|396:108|431:102,1,70,8|0,0:0|0:0,0:0:0:0:
506,153,124985,2,0,P|499:187|494:222,1,70,2|0,3:2|3:0,0:0:0:0:
470,260,125235,1,0,3:0:0:0:
470,260,125318,2,0,P|476:294|481:329,1,70,10|0,0:0|3:0,0:0:0:0:
407,194,125652,6,0,P|339:200|301:256,1,140,6|8,3:2|0:0,0:0:0:0:
338,340,126152,1,2,0:0:0:0:
338,340,126318,2,0,P|268:348|199:360,1,140,2|8,3:2|0:0,0:0:0:0:
154,281,126818,1,2,3:2:0:0:
154,281,126984,6,0,P|84:272|15:260,1,140,2|8,3:2|0:0,0:0:0:0:
37,350,127485,1,2,3:2:0:0:
37,350,127651,2,0,P|71:355|106:361,1,70,2|0,3:2|3:0,0:0:0:0:
154,281,127985,2,0,P|160:246|165:211,1,70,10|0,0:0|3:0,0:0:0:0:
242,164,128318,6,0,P|191:118|124:130,1,140,2|8,3:2|0:0,0:0:0:0:
35,113,128818,1,0,3:0:0:0:
35,113,128985,2,0,P|40:147|45:182,2,70,2|0|8,3:2|3:0|0:0,0:0:0:0:
94,44,129485,6,0,P|163:35|232:23,1,140,0|0,3:0|3:0,0:0:0:0:
279,100,129985,2,0,P|313:105|347:111,1,70,10|0,0:0|0:0,0:0:0:0:
378,26,130318,2,0,P|412:20|446:14,1,70,2|0,3:2|3:0,0:0:0:0:
508,82,130652,1,10,0:0:0:0:
508,82,130818,1,0,3:0:0:0:
437,140,130985,6,0,P|481:190|472:257,1,140,6|8,3:2|0:0,0:0:0:0:
398,312,131485,1,2,0:0:0:0:
398,312,131652,2,0,P|363:306|328:301,2,70,2|2|8,3:2|3:2|0:0,0:0:0:0:
472,257,132152,1,0,3:0:0:0:
472,257,132485,5,0,3:0:0:0:
389,218,132652,2,0,P|319:209|250:197,2,140,10|2|10,0:0|3:2|0:0,0:0:0:0:
437,140,133485,1,0,3:0:0:0:
437,140,133652,6,0,P|386:95|319:105,1,140,2|8,3:2|0:0,0:0:0:0:
228,110,134152,1,2,3:2:0:0:
228,110,134318,2,0,P|221:75|216:41,1,70,2|0,3:2|3:0,0:0:0:0:
124,26,134652,1,10,0:0:0:0:
124,26,134818,6,0,P|138:95|147:165,1,140,2|0,3:2|3:0,0:0:0:0:
82,228,135318,2,0,P|47:222|13:216,1,70,10|0,0:0|0:0,0:0:0:0:
142,295,135651,2,0,P|177:289|211:284,1,70,2|0,0:0|3:0,0:0:0:0:
241,249,135902,1,0,3:0:0:0:
241,249,135985,2,0,P|276:256|310:261,1,70,10|0,0:0|0:0,0:0:0:0:
365,333,136318,6,0,P|431:343|482:298,1,140,6|8,3:2|0:0,0:0:0:0:
462,209,136818,1,2,0:0:0:0:
462,209,136985,2,0,P|427:214|392:220,2,70,2|0|8,3:2|3:0|0:0,0:0:0:0:
482,118,137485,6,0,P|413:132|343:140,1,140,0|2,3:0|3:2,0:0:0:0:
265,92,137985,1,8,0:0:0:0:
265,92,138152,2,0,P|259:127|254:161,1,70,2|0,0:0|3:0,0:0:0:0:
166,187,138485,2,0,P|172:222|177:256,1,70,2|8,3:2|0:0,0:0:0:0:
154,344,138818,1,10,0:0:0:0:
154,344,138985,6,0,P|188:349|223:355,1,70,10|0,0:0|0:0,0:0:0:0:
269,276,139318,2,0,P|303:270|338:264,1,70,8|0,0:0|3:0,0:0:0:0:
414,315,139652,2,0,P|420:349|425:384,1,70,8|0,0:0|0:0,0:0:0:0:
472,245,139985,2,0,P|465:210|460:175,1,70,8|0,0:0|3:0,0:0:0:0:
425,91,140318,6,0,P|390:85|356:78,1,70,8|2,0:0|0:0,0:0:0:0:
291,14,140652,2,0,P|269:41|246:67,1,70,8|2,0:0|3:2,0:0:0:0:
157,91,140985,2,0,P|169:123|180:156,1,70,8|2,0:0|0:0,0:0:0:0:
156,245,141318,2,0,P|190:250|224:257,1,70,8|2,0:0|3:2,0:0:0:0:
311,288,141652,5,6,3:2:0:0:
311,288,141818,1,4,3:2:0:0:
180,156,142152,1,4,3:2:0:0:
180,156,142318,1,4,3:2:0:0:
131,336,142652,1,4,3:2:0:0:
131,336,142818,1,4,3:2:0:0:
0,204,143152,1,4,3:2:0:0:
0,204,143318,6,0,P|34:198|69:192,1,70,6|0,3:2|0:0,0:0:0:0:
135,129,143652,2,0,B|177:123|206:97|206:97|190:138|182:181|178:225,1,210,6|0,3:2|0:0,0:0:0:0:
220,306,144318,6,0,P|295:290|371:279,1,154.000004699707,6|8,3:2|0:0,0:0:0:0:
457,247,144817,1,2,0:0:0:0:
431,336,144985,2,0,P|414:260|403:184,1,154.000004699707,2|8,3:2|0:0,0:0:0:0:
386,93,145485,1,2,3:2:0:0:
300,127,145651,6,0,P|308:165|314:203,1,77.0000023498536,2|0,0:0|3:0,0:0:0:0:
386,92,145985,2,0,P|423:85|461:79,1,77.0000023498536,10|0,0:0|0:0,0:0:0:0:
314,34,146318,2,0,P|275:27|238:20,1,77.0000023498536,2|0,3:2|0:0,0:0:0:0:
189,99,146651,1,10,0:0:0:0:
189,99,146818,1,0,3:0:0:0:
142,18,146985,6,0,P|68:6|9:52,1,154.000004699707,2|8,3:2|0:0,0:0:0:0:
64,126,147485,1,2,0:0:0:0:
14,203,147652,2,0,P|90:213|165:229,1,154.000004699707,2|8,3:2|0:0,0:0:0:0:
240,174,148152,1,2,3:2:0:0:
281,256,148318,6,0,P|318:248|356:242,1,77.0000023498536,2|0,0:0|3:0,0:0:0:0:
426,302,148651,1,10,0:0:0:0:
493,239,148818,2,0,P|486:201|479:163,1,77.0000023498536,2|0,0:0|3:0,0:0:0:0:
426,302,149152,2,0,P|417:339|411:377,1,77.0000023498536,2|8,0:0|0:0,0:0:0:0:
357,242,149485,1,2,3:2:0:0:
332,333,149651,6,0,P|258:345|199:299,1,154.000004699707,6|8,3:2|0:0,0:0:0:0:
202,207,150151,1,2,0:0:0:0:
116,243,150318,2,0,P|105:166|89:91,1,154.000004699707,2|8,3:2|0:0,0:0:0:0:
22,27,150818,1,2,3:2:0:0:
89,91,150985,6,0,P|126:84|164:77,1,77.0000023498536,2|0,0:0|3:0,0:0:0:0:
242,25,151318,1,10,0:0:0:0:
242,25,151485,1,0,0:0:0:0:
293,101,151651,2,0,P|331:107|368:113,1,77.0000023498536,2|0,3:2|0:0,0:0:0:0:
409,30,151985,2,0,P|446:37|484:42,1,77.0000023498536,10|0,0:0|3:0,0:0:0:0:
512,131,152318,6,0,P|504:168|499:206,1,77.0000023498536,2|0,3:2|3:0,0:0:0:0:
428,266,152651,1,10,0:0:0:0:
358,203,152818,2,0,P|281:213|206:229,1,154.000004699707,2|2,0:0|3:2,0:0:0:0:
135,288,153318,1,8,0:0:0:0:
51,249,153485,6,0,P|5:189|18:116,1,154.000004699707,2|0,3:2|3:0,0:0:0:0:
68,117,153902,1,0,3:0:0:0:
68,117,153985,1,10,0:0:0:0:
134,53,154151,1,6,3:2:0:0:
206,229,154485,2,0,P|213:266|218:304,1,77.0000023498536,6|8,3:2|0:0,0:0:0:0:
305,360,154818,1,10,0:0:0:0:
305,360,154901,1,8,0:0:0:0:
305,361,154985,6,0,P|380:345|456:334,1,154.000004699707,6|8,3:2|0:0,0:0:0:0:
505,255,155485,1,2,0:0:0:0:
431,198,155652,2,0,P|354:186|279:171,1,154.000004699707,2|8,3:2|0:0,0:0:0:0:
206,229,156151,1,2,3:2:0:0:
188,137,156318,6,0,P|180:100|175:62,1,77.0000023498536,2|0,0:0|3:0,0:0:0:0:
83,77,156651,2,0,P|90:114|95:152,1,77.0000023498536,10|0,0:0|0:0,0:0:0:0:
82,245,156985,2,0,P|44:252|6:257,1,77.0000023498536,2|0,3:2|0:0,0:0:0:0:
156,308,157318,1,10,0:0:0:0:
156,308,157485,1,0,3:0:0:0:
206,229,157652,6,0,P|279:215|338:261,1,154.000004699707,2|8,3:2|0:0,0:0:0:0:
385,341,158151,1,2,0:0:0:0:
338,261,158318,2,0,P|323:187|369:128,1,154.000004699707,2|8,3:2|0:0,0:0:0:0:
455,94,158818,1,2,3:2:0:0:
384,34,158985,6,0,P|347:42|309:47,1,77.0000023498536,2|0,0:0|3:0,0:0:0:0:
227,2,159318,1,10,0:0:0:0:
194,88,159485,2,0,P|201:126|206:164,1,77.0000023498536,2|0,0:0|3:0,0:0:0:0:
283,214,159818,2,0,P|275:251|270:289,1,77.0000023498536,2|8,0:0|0:0,0:0:0:0:
180,268,160151,1,2,3:2:0:0:
182,360,160318,6,0,P|106:344|30:333,1,154.000004699707,6|8,3:2|0:0,0:0:0:0:
0,246,160818,1,2,0:0:0:0:
75,192,160985,2,0,P|89:118|43:59,1,154.000004699707,2|8,3:2|0:0,0:0:0:0:
114,0,161485,1,2,3:2:0:0:
164,76,161651,6,0,P|240:65|315:50,1,154.000004699707,6|8,0:0|0:0,0:0:0:0:
291,139,162152,1,2,0:0:0:0:
380,116,162318,2,0,P|453:101|512:147,1,154.000004699707,2|10,3:2|0:0,0:0:0:0:
512,239,162818,1,2,3:2:0:0:
432,194,162985,6,0,P|415:269|405:345,1,154.000004699707,6|8,3:2|0:0,0:0:0:0:
321,384,163485,1,2,0:0:0:0:
308,292,163652,2,0,P|234:306|175:260,1,154.000004699707,2|8,3:2|0:0,0:0:0:0:
99,311,164151,1,2,3:2:0:0:
175,260,164318,6,0,P|168:222|163:184,1,77.0000023498536,2|0,0:0|3:0,0:0:0:0:
173,141,164568,1,0,3:0:0:0:
173,141,164651,1,10,0:0:0:0:
231,69,164818,1,6,3:2:0:0:
48,38,165151,1,6,3:2:0:0:
62,127,165318,2,0,L|68:165,3,38.5000011749268,8|8|10|8,0:0|0:0|0:0|0:0,0:0:0:0:
75,213,165651,5,6,3:2:0:0:
163,184,165818,2,0,P|232:193|301:206,1,140,0|0,3:0|3:0,0:0:0:0:
352,130,166318,1,8,0:0:0:0:
352,130,166652,2,0,P|347:95|340:60,1,70,0|0,3:0|3:0,0:0:0:0:
442,117,166985,6,0,P|435:82|430:48,2,70,2|2|2,3:2|3:2|3:2,0:0:0:0:
502,185,167485,1,2,3:2:0:0:
442,253,167652,2,0,P|407:259|373:264,2,70,10|2|2,0:2|3:2|0:2,0:0:0:0:
492,334,168152,1,2,3:2:0:0:
492,334,168318,6,0,P|423:343|354:356,1,140,2|0,3:2|0:0,0:0:0:0:
286,295,168818,1,2,3:2:0:0:
286,295,168985,1,10,0:0:0:0:
114,356,169318,2,0,P|109:321|102:287,1,70,0|0,3:0|3:0,0:0:0:0:
24,238,169652,6,0,P|91:247|141:202,1,140,2|2,3:2|3:2,0:0:0:0:
224,187,170152,2,0,P|219:152|213:117,1,70,2|8,3:2|0:0,0:0:0:0:
181,39,170485,1,2,3:2:0:0:
181,39,170818,1,0,3:0:0:0:
268,54,170985,5,6,3:2:0:0:
268,54,171152,2,0,P|337:66|407:76,1,140,0|0,3:0|3:0,0:0:0:0:
497,65,171652,1,8,0:0:0:0:
467,244,171985,1,2,3:2:0:0:
467,244,172152,6,0,P|476:174|488:105,2,140,2|2|2,3:2|3:2|3:2,0:0:0:0:
381,276,172985,1,8,0:0:0:0:
381,276,173152,2,0,P|377:242|371:207,1,70,2|0,3:2|0:0,0:0:0:0:
304,143,173485,1,2,3:2:0:0:
304,143,173568,1,0,3:0:0:0:
304,143,173652,6,0,P|236:134|186:179,1,140,2|2,3:2|0:0,0:0:0:0:
141,258,174152,1,2,3:2:0:0:
141,258,174318,2,0,P|107:254|72:248,1,70,8|0,0:0|0:0,0:0:0:0:
10,316,174652,1,2,3:2:0:0:
10,316,174818,1,2,3:2:0:0:
72,382,174985,6,0,P|107:375|141:370,2,70,2|2|2,0:0|3:2|3:2,0:0:0:0:
10,316,175485,2,0,P|16:281|21:247,1,70,2|8,3:2|0:0,0:0:0:0:
86,183,175818,2,0,P|79:148|74:114,2,70,2|0|2,3:2|3:0|3:2,0:0:0:0:
141,258,176318,6,0,P|209:267|259:222,1,140,6|8,3:2|0:0,0:0:0:0:
334,273,176818,2,0,P|341:308|346:342,1,70,2|0,0:0|3:0,0:0:0:0:
435,322,177152,1,2,3:2:0:0:
435,322,177318,2,0,P|428:287|423:253,1,70,10|2,0:0|3:2,0:0:0:0:
469,174,177652,6,0,P|434:167|400:162,1,70,2|2,0:0|3:2,0:0:0:0:
355,82,177985,2,0,P|320:89|286:94,1,70,10|2,0:0|0:0,0:0:0:0:
210,145,178318,1,2,3:2:0:0:
210,145,178485,1,2,0:0:0:0:
186,56,178652,2,0,P|151:50|117:44,1,70,10|2,0:0|3:2,0:0:0:0:
52,108,178985,6,0,P|6:158|16:225,1,140,2|8,3:2|0:0,0:0:0:0:
60,305,179485,2,0,P|127:295|177:340,1,140,2|0,0:0|3:0,0:0:0:0:
256,294,179985,1,10,0:0:0:0:
256,294,180152,6,0,P|290:299|324:305,1,70,2|0,3:2|0:0,0:0:0:0:
374,227,180485,1,2,3:2:0:0:
374,227,180652,2,0,P|304:218|235:206,2,140,8|2|10,0:0|3:2|0:0,0:0:0:0:
447,280,181485,1,0,3:0:0:0:
447,280,181652,6,0,P|492:229|482:162,1,140,6|8,3:2|0:0,0:0:0:0:
413,102,182152,2,0,P|406:67|401:32,1,70,2|0,0:0|3:0,0:0:0:0:
323,119,182485,1,0,3:0:0:0:
323,119,182652,2,0,P|318:84|312:50,1,70,10|0,0:0|3:0,0:0:0:0:
222,31,182985,6,0,P|233:99|242:169,2,140,2|10|2,0:0|0:0|3:2,0:0:0:0:
133,8,183818,1,0,0:0:0:0:
133,8,183985,2,0,P|98:14|64:19,1,70,10|0,0:0|3:0,0:0:0:0:
6,89,184318,6,0,P|12:124|17:158,1,70,6|0,3:2|3:0,0:0:0:0:
43,246,184652,2,0,P|94:201|161:211,1,140,8|0,0:0|3:0,0:0:0:0:
242,169,185152,1,0,3:0:0:0:
242,169,185318,2,0,P|277:175|311:180,1,70,8|2,0:0|0:0,0:0:0:0:
392,221,185652,6,0,P|397:186|403:151,1,70,0|2,3:0|3:2,0:0:0:0:
492,134,185985,1,8,0:0:0:0:
492,134,186152,2,0,P|481:202|472:272,1,140,2|0,3:2|0:0,0:0:0:0:
388,308,186652,1,8,0:0:0:0:
441,384,186818,1,2,3:2:0:0:
441,384,186902,1,2,0:0:0:0:
441,384,186985,6,0,P|475:378|510:372,2,70,2|0|8,0:0|3:0|0:0,0:0:0:0:
388,308,187485,1,0,0:0:0:0:
388,308,187652,2,0,P|353:313|318:319,1,70,0|0,3:0|3:0,0:0:0:0:
275,304,187902,1,0,3:0:0:0:
275,304,187985,1,8,0:0:0:0:
219,376,188152,6,0,P|151:365|81:356,1,140,6|6,3:2|3:2,0:0:0:0:
122,274,188652,2,0,L|156:280,3,35,8|8|10|8,0:0|0:0|0:0|0:0,0:0:0:0:
88,249,188985,2,0,P|66:181|166:191,1,210.000008010865,6|4,3:2|3:2,0:0:0:0:
165,190,200152,5,2,0:0:0:0:
165,190,200318,2,0,P|234:201|303:210,1,140,6|0,3:2|0:0,0:0:0:0:
336,294,200818,1,2,0:0:0:0:
336,294,200985,2,0,P|386:249|453:258,1,140,10|0,0:0|0:0,0:0:0:0:
512,190,201485,1,10,0:0:0:0:
512,190,201652,6,0,P|501:259|492:328,2,140,2|2|10,0:0|0:3|0:0,0:0:0:0:
363,84,202652,2,0,P|370:119|375:153,1,70,2|0,0:0|0:0,0:0:0:0:
303,210,202985,6,0,P|235:219|185:174,1,140,2|0,3:2|0:0,0:0:0:0:
225,92,203485,1,2,0:0:0:0:
225,92,203652,2,0,P|157:82|107:127,1,140,10|0,0:0|0:0,0:0:0:0:
66,208,204152,1,10,0:0:0:0:
66,208,204318,6,0,P|56:138|45:69,2,140,2|2|8,0:0|0:3|0:0,0:0:0:0:
88,296,205152,2,0,P|53:289|19:284,2,70,2|0|2,0:0|0:0|0:0,0:0:0:0:
154,233,205652,6,0,P|223:244|292:253,1,140,2|0,3:2|0:0,0:0:0:0:
366,199,206152,1,2,0:0:0:0:
366,199,206318,2,0,P|375:131|330:81,1,140,10|0,0:0|0:0,0:0:0:0:
251,34,206818,1,10,0:0:0:0:
251,34,206985,6,0,P|318:43|368:-1,1,140,2|2,0:0|0:3,0:0:0:0:
447,44,207485,1,2,0:0:0:0:
447,44,207652,2,0,P|456:113|467:182,1,140,10|2,0:0|0:3,0:0:0:0:
406,250,208152,1,2,0:0:0:0:
406,250,208318,6,0,P|451:300|442:367,2,140,2|0|2,3:2|0:0|0:0,0:0:0:0:
245,163,209318,1,2,0:0:0:0:
245,163,209485,6,0,P|279:157|313:151,1,70,6|0,3:2|0:0,0:0:0:0:
223,252,209818,2,0,P|189:246|155:240,1,70,6|0,3:2|0:0,0:0:0:0:
105,161,210152,2,0,P|71:167|37:173,1,70,6|0,3:2|0:0,0:0:0:0:
0,256,210485,1,6,3:2:0:0:
82,294,210652,2,0,L|88:328,3,35,8|8|10|8,0:0|0:0|0:0|0:0,0:0:0:0:
108,370,210985,6,0,P|167:324|240:336,1,154.000004699707,6|8,3:2|0:0,0:0:0:0:
312,278,211484,1,2,0:0:0:0:
340,366,211652,2,0,P|415:350|491:339,1,154.000004699707,2|8,3:2|0:0,0:0:0:0:
512,248,212152,1,2,3:2:0:0:
441,188,212318,6,0,P|403:196|365:202,1,77.0000023498536,2|0,0:0|3:0,0:0:0:0:
312,278,212652,2,0,P|275:271|237:265,1,77.0000023498536,10|0,0:0|0:0,0:0:0:0:
160,211,212985,2,0,P|152:173|146:135,1,77.0000023498536,2|0,3:2|0:0,0:0:0:0:
133,299,213318,1,10,0:0:0:0:
133,299,213485,1,0,3:0:0:0:
69,231,213652,6,0,P|57:154|41:79,1,154.000004699707,2|8,3:2|0:0,0:0:0:0:
101,8,214152,1,2,0:0:0:0:
180,53,214318,2,0,P|253:65|312:19,1,154.000004699707,2|8,3:2|0:0,0:0:0:0:
378,84,214819,1,2,3:2:0:0:
435,11,214985,6,0,P|472:19|510:25,1,77.0000023498536,2|0,0:0|3:0,0:0:0:0:
378,84,215318,1,10,0:0:0:0:
458,130,215485,2,0,P|449:167|443:205,1,77.0000023498536,2|0,0:0|3:0,0:0:0:0:
372,265,215818,2,0,P|381:302|387:340,1,77.0000023498536,2|8,0:0|0:0,0:0:0:0:
442,205,216152,1,2,3:2:0:0:
355,172,216318,6,0,P|278:160|203:144,1,154.000004699707,6|8,3:2|0:0,0:0:0:0:
137,210,216818,1,2,0:0:0:0:
94,127,216985,2,0,P|48:186|60:259,1,154.000004699707,2|8,3:2|0:0,0:0:0:0:
1,331,217485,1,2,3:2:0:0:
83,372,217652,6,0,P|120:363|158:357,1,77.0000023498536,2|0,0:0|3:0,0:0:0:0:
203,278,217985,1,10,0:0:0:0:
203,278,218152,1,0,0:0:0:0:
293,296,218318,2,0,P|288:257|280:219,1,77.0000023498536,2|0,3:2|0:0,0:0:0:0:
372,200,218652,2,0,P|379:162|384:123,1,77.0000023498536,10|0,0:0|3:0,0:0:0:0:
378,32,218985,6,0,P|339:27|302:18,1,77.0000023498536,2|0,3:2|3:0,0:0:0:0:
470,26,219318,1,10,0:0:0:0:
480,119,219485,2,0,P|463:194|454:270,1,154.000004699707,2|2,0:0|3:2,0:0:0:0:
508,345,219985,1,8,0:0:0:0:
453,270,220152,6,0,P|393:224|320:237,1,154.000004699707,2|0,3:2|3:0,0:0:0:0:
286,267,220568,1,0,3:0:0:0:
286,267,220652,1,10,0:0:0:0:
337,343,220818,1,6,3:2:0:0:
176,259,221152,2,0,P|172:220|164:182,1,77.0000023498536,6|8,3:2|0:0,0:0:0:0:
222,115,221485,1,10,0:0:0:0:
222,115,221568,1,8,0:0:0:0:
222,115,221652,6,0,P|146:131|70:142,1,154.000004699707,6|8,3:2|0:0,0:0:0:0:
1,204,222152,1,2,0:0:0:0:
89,229,222318,2,0,P|134:288|122:361,1,154.000004699707,2|8,3:2|0:0,0:0:0:0:
31,384,222818,1,2,3:2:0:0:
121,362,222985,6,0,P|159:366|196:375,1,77.0000023498536,2|0,0:0|3:0,0:0:0:0:
251,298,223318,2,0,P|288:305|326:310,1,77.0000023498536,10|0,0:0|0:0,0:0:0:0:
411,348,223652,2,0,P|416:309|423:271,1,77.0000023498536,2|0,3:2|0:0,0:0:0:0:
480,200,223985,1,10,0:0:0:0:
480,200,224152,1,0,3:0:0:0:
416,132,224319,6,0,P|357:178|283:164,1,154.000004699707,2|8,3:2|0:0,0:0:0:0:
261,253,224818,1,2,0:0:0:0:
196,186,224985,2,0,P|136:140|63:155,1,154.000004699707,2|8,3:2|0:0,0:0:0:0:
0,223,225485,1,2,3:2:0:0:
63,155,225652,6,0,P|58:116|49:79,1,77.0000023498536,2|0,0:0|3:0,0:0:0:0:
104,4,225985,1,10,0:0:0:0:
181,54,226152,2,0,P|219:48|257:41,1,77.0000023498536,2|0,0:0|3:0,0:0:0:0:
273,135,226485,2,0,P|311:139|348:148,1,77.0000023498536,2|8,0:0|0:0,0:0:0:0:
441,155,226818,1,2,3:2:0:0:
408,68,226985,6,0,P|331:56|256:41,1,154.000004699707,6|8,3:2|0:0,0:0:0:0:
273,135,227485,1,2,0:0:0:0:
181,145,227652,2,0,P|166:218|212:277,1,154.000004699707,2|8,3:2|0:0,0:0:0:0:
302,256,228152,1,2,3:2:0:0:
277,345,228318,6,0,P|201:329|125:318,1,154.000004699707,6|8,0:0|0:0,0:0:0:0:
136,226,228818,1,2,0:0:0:0:
45,244,228985,2,0,P|60:168|71:92,1,154.000004699707,2|10,3:2|0:0,0:0:0:0:
30,8,229485,1,2,3:2:0:0:
71,92,229652,6,0,P|130:137|203:123,1,154.000004699707,6|8,3:2|0:0,0:0:0:0:
253,45,230152,1,2,0:0:0:0:
300,124,230319,2,0,P|359:78|432:92,1,154.000004699707,2|8,3:2|0:0,0:0:0:0:
474,174,230818,1,2,3:2:0:0:
381,169,230985,6,0,P|374:207|369:245,1,77.0000023498536,2|0,0:0|3:0,0:0:0:0:
389,292,231235,1,0,3:0:0:0:
389,292,231318,1,10,0:0:0:0:
332,365,231485,1,6,3:2:0:0:
248,199,231818,1,6,3:2:0:0:
188,269,231985,2,0,L|150:275,3,38.5000011749268,8|8|10|8,0:0|0:0|0:0|0:0,0:0:0:0:
104,282,232318,5,6,3:2:0:0:
44,213,232485,2,0,P|94:167|161:176,1,140,0|0,3:0|3:0,0:0:0:0:
248,199,232985,1,8,0:0:0:0:
325,33,233319,2,0,P|291:28|257:21,1,70,0|0,3:0|3:0,0:0:0:0:
400,85,233652,6,0,P|434:79|468:73,2,70,2|2|2,3:2|3:2|3:2,0:0:0:0:
337,150,234152,1,2,3:2:0:0:
268,90,234318,2,0,P|262:55|256:20,2,70,10|2|2,0:2|3:2|0:2,0:0:0:0:
337,150,234818,1,2,3:2:0:0:
337,150,234985,6,0,P|382:200|373:267,1,140,2|0,3:2|0:0,0:0:0:0:
318,340,235485,1,2,3:2:0:0:
318,340,235652,1,10,0:0:0:0:
499,330,235985,2,0,P|491:295|487:261,1,70,0|0,3:0|3:0,0:0:0:0:
475,171,236318,6,0,P|406:159|336:149,1,140,2|2,3:2|3:2,0:0:0:0:
271,95,236819,2,0,P|233:101|201:105,1,70,2|8,3:2|0:0,0:0:0:0:
137,51,237152,1,2,3:2:0:0:
137,51,237485,1,0,3:0:0:0:
70,103,237652,5,6,3:2:0:0:
70,103,237818,2,0,P|60:172|48:241,1,140,0|0,3:0|3:0,0:0:0:0:
0,319,238319,1,8,0:0:0:0:
179,345,238652,1,2,3:2:0:0:
179,345,238818,6,0,P|111:336|61:381,2,140,2|2|2,3:2|3:2|3:2,0:0:0:0:
256,296,239652,1,8,0:0:0:0:
256,296,239818,2,0,P|250:261|245:226,1,70,2|0,3:2|0:0,0:0:0:0:
165,185,240152,1,2,3:2:0:0:
165,185,240235,1,0,3:0:0:0:
165,185,240318,6,0,P|234:175|303:163,1,140,2|2,3:2|0:0,0:0:0:0:
186,94,240818,1,2,3:2:0:0:
186,94,240985,2,0,P|221:89|256:84,1,70,8|0,0:0|0:0,0:0:0:0:
328,27,241319,1,2,3:2:0:0:
328,27,241485,1,2,3:2:0:0:
373,106,241652,6,0,P|407:100|441:94,2,70,2|2|2,0:0|3:2|3:2,0:0:0:0:
303,163,242152,2,0,P|309:198|314:232,1,70,2|8,3:2|0:0,0:0:0:0:
376,298,242485,2,0,P|369:333|364:367,2,70,2|0|2,3:2|3:0|3:2,0:0:0:0:
403,211,242985,5,6,3:2:0:0:
314,232,243152,2,0,P|245:220|175:210,1,140,0|0,3:0|3:0,0:0:0:0:
100,261,243652,1,8,0:0:0:0:
182,98,243985,2,0,P|216:93|250:86,1,70,0|0,3:0|3:0,0:0:0:0:
301,162,244318,6,0,P|307:197|313:231,2,70,2|2|2,3:2|3:2|3:2,0:0:0:0:
358,91,244818,1,2,3:2:0:0:
432,143,244985,2,0,P|437:177|444:211,2,70,10|2|2,0:2|3:2|0:2,0:0:0:0:
440,52,245485,1,2,3:2:0:0:
440,52,245652,6,0,P|372:61|322:16,1,140,2|0,3:2|0:0,0:0:0:0:
243,63,246152,1,2,3:2:0:0:
243,63,246318,1,8,0:0:0:0:
70,5,246652,2,0,P|64:39|57:73,1,70,0|0,3:0|3:0,0:0:0:0:
137,119,246985,6,0,P|69:109|19:154,1,140,0|0,3:2|3:2,0:0:0:0:
92,209,247485,1,0,3:2:0:0:
10,245,247652,1,8,0:0:0:0:
10,245,247818,2,0,P|21:313|31:383,1,140,0|0,3:2|3:0,0:0:0:0:
115,347,248318,5,6,3:2:0:0:
115,347,248485,2,0,P|184:356|253:368,1,140,0|0,3:0|3:0,0:0:0:0:
334,326,248985,1,8,0:0:0:0:
212,190,249318,1,2,3:2:0:0:
212,190,249485,6,0,P|202:122|247:72,2,140,2|2|2,3:2|3:2|3:2,0:0:0:0:
285,243,250318,1,8,0:0:0:0:
285,243,250485,2,0,P|319:236|353:230,1,70,2|0,3:2|0:0,0:0:0:0:
394,149,250818,1,2,3:2:0:0:
394,149,250902,1,0,3:0:0:0:
394,149,250985,6,0,P|461:139|511:184,1,140,2|2,3:2|0:0,0:0:0:0:
507,279,251485,1,2,3:2:0:0:
507,279,251652,2,0,P|500:313|494:347,1,70,8|0,0:0|0:0,0:0:0:0:
420,293,251985,1,2,3:2:0:0:
420,293,252152,1,2,3:2:0:0:
333,319,252318,6,0,P|298:312|264:307,2,70,2|2|2,0:0|3:2|3:2,0:0:0:0:
353,230,252818,2,0,P|318:224|284:218,1,70,2|8,3:2|0:0,0:0:0:0:
219,152,253152,1,2,3:2:0:0:
138,194,253318,2,0,P|133:159|126:125,1,70,0|2,3:0|3:2,0:0:0:0:
86,42,253652,5,6,3:2:0:0:
256,192,253735,12,0,256985,0:0:0:0:
