osu file format v14

[General]
AudioFilename: audio.mp3
AudioLeadIn: 0
PreviewTime: 144235
Countdown: 0
SampleSet: Soft
StackLeniency: 0.3
Mode: 0
LetterboxInBreaks: 0
WidescreenStoryboard: 1

[Editor]
Bookmarks: 10985,21652,32318,42985,53652,66985,77652,88318,98985,109652,120318,130985,144318,154985,165652,176318,189652,200318,210985,221652,232318,242985
DistanceSpacing: 1
BeatDivisor: 4
GridSize: 32
TimelineZoom: 1.299999

[Metadata]
Title:Miracle infinity
TitleUnicode:ミラクルinfinity
Artist:solfa feat. Chata
ArtistUnicode:solfa feat. 茶太
Creator:Dored
Version:Dreamy Relationship
Source:ゆめこい~夢見る魔法少女と恋の呪文~
Tags:Featured Artist fa Mappers' Guild mpg Yumekoi ~Yume Miru Mahou Shoujo to Koi no Jumon~ Parasol Japanese Pop Jpop J-pop Eroge Galgame Visual Novel Video Game VN Opening op Full Ver Version Garden Shirahane Suou yf_bmp chronicle ~dog side~
BeatmapID:3307569
BeatmapSetID:1619982

[Difficulty]
HPDrainRate:6
CircleSize:4
OverallDifficulty:8.8
ApproachRate:9.2
SliderMultiplier:1.8
SliderTickRate:1

[Events]
//Background and Video events
0,0,"BG.jpg",0,0
//Break Periods
2,189852,199748
//Storyboard Layer 0 (Background)
//Storyboard Layer 1 (Fail)
//Storyboard Layer 2 (Pass)
//Storyboard Layer 3 (Foreground)
//Storyboard Layer 4 (Overlay)
//Storyboard Sound Samples

[TimingPoints]
319,333.333333333333,4,2,1,45,1,0
319,-111.111111111111,4,2,1,45,0,0
10985,-90.9090909090908,4,2,1,70,0,0
14818,-76.9230769230769,4,2,1,70,0,0
15818,-100,4,2,1,70,0,0
16152,-76.9230769230769,4,2,1,70,0,0
20568,-66.6666666666667,4,2,1,70,0,0
21652,-125,4,2,1,45,0,0
32318,-111.111111111111,4,2,1,55,0,0
33985,-166.666666666667,4,2,1,55,0,0
34485,-111.111111111111,4,2,1,55,0,0
37152,-166.666666666667,4,2,1,55,0,0
37652,-111.111111111111,4,2,1,55,0,0
39318,-166.666666666667,4,2,1,55,0,0
41485,-66.6666666666667,4,2,1,55,0,0
41818,-83.3333333333333,4,2,1,55,0,0
42485,-66.6666666666667,4,2,1,55,0,0
42985,-100,4,2,1,60,0,0
50652,-133.333333333333,4,2,1,60,0,0
50985,-100,4,2,1,60,0,0
61318,-66.6666666666667,4,2,1,60,0,0
61985,-83.3333333333333,4,2,1,70,0,0
64318,-66.6666666666667,4,2,1,70,0,0
66318,-100,4,2,1,70,0,0
66985,-83.3333333333333,4,2,1,80,0,1
76818,-250,4,2,1,80,0,1
77152,-83.3333333333333,4,2,1,80,0,0
77652,-83.3333333333333,4,2,1,80,0,1
86985,-66.6666666666667,4,2,1,80,0,1
88318,-83.3333333333333,4,2,1,80,0,0
88402,-125,4,2,1,40,0,0
98985,-125,4,2,1,45,0,0
109485,-83.3333333333333,4,2,1,45,0,0
109652,-111.111111111111,4,2,1,55,0,0
118818,-66.6666666666667,4,2,1,55,0,0
119152,-83.3333333333333,4,2,1,55,0,0
119818,-66.6666666666667,4,2,1,55,0,0
120318,-100,4,2,1,60,0,0
125485,-83.3333333333333,4,2,1,60,0,0
125652,-100,4,2,1,60,0,0
138652,-66.6666666666667,4,2,1,60,0,0
139318,-83.3333333333333,4,2,1,60,0,0
141652,-66.6666666666667,4,2,1,60,0,0
143652,-100,4,2,1,60,0,0
144318,-83.3333333333333,4,2,1,80,0,1
153985,-66.6666666666667,4,2,1,80,0,1
154235,-66.6666666666667,4,2,1,10,0,1
154485,-66.6666666666667,4,2,1,80,0,0
154985,-83.3333333333333,4,2,1,80,0,1
164318,-66.6666666666667,4,2,1,80,0,1
165652,-100,4,2,1,65,0,0
165818,-133.333333333333,4,2,1,65,0,0
168318,-100,4,2,1,65,0,0
168485,-133.333333333333,4,2,1,65,0,0
174985,-100,4,2,1,65,0,0
176318,-90.9090909090909,4,2,1,70,0,0
188152,-133.333333333333,4,2,1,70,0,0
188485,-66.6666666666667,4,2,1,70,0,0
188985,-133.333333333333,4,2,1,70,0,0
189652,-125,4,2,1,40,0,0
200318,-133.333333333333,4,2,1,50,0,0
201652,-166.666666666667,4,2,1,50,0,0
202985,-133.333333333333,4,2,1,50,0,0
203652,-166.666666666667,4,2,1,50,0,0
204318,-133.333333333333,4,2,1,50,0,0
205152,-166.666666666667,4,2,1,50,0,0
205652,-133.333333333333,4,2,1,50,0,0
206985,-166.666666666667,4,2,1,50,0,0
208318,-222.222222222222,4,2,1,50,0,0
209485,-66.6666666666667,4,2,1,65,0,0
209818,-83.3333333333333,4,2,1,65,0,0
210485,-66.6666666666667,4,2,1,65,0,0
210985,-83.3333333333333,4,2,1,80,0,1
220818,-250,4,2,1,80,0,1
221152,-83.3333333333333,4,2,1,80,0,0
221652,-83.3333333333333,4,2,1,80,0,1
231318,-66.6666666666667,4,2,1,80,0,1
232318,-100,4,2,1,65,0,0
232485,-133.333333333333,4,2,1,65,0,0
241652,-100,4,2,1,65,0,0
242985,-111.111111111111,4,2,1,65,0,0
249485,-90.9090909090908,4,2,1,65,0,0
250485,-111.111111111111,4,2,1,65,0,0
251985,-90.9090909090909,4,2,1,65,0,0
253318,-76.9230769230769,4,2,1,65,0,0
253652,-333.333333333333,4,2,1,65,0,0
253735,-100,4,2,1,50,0,0
254318,-100,4,2,1,45,0,0
254985,-100,4,2,1,40,0,0
255652,-100,4,2,1,35,0,0
256318,-100,4,2,1,30,0,0
256985,-100,4,2,1,25,0,0

[Colours]
Combo1 : 215,215,215
Combo2 : 255,166,210
Combo3 : 142,142,255
Combo4 : 252,215,158

[HitObjects]
441,69,319,6,0,P|432:108|426:148,1,80.9999975280763,2|0,0:0|0:0,0:0:0:0:
472,240,652,1,2,0:0:0:0:
472,240,818,2,0,P|417:185|341:203,1,161.999995056153,2|2,0:0|0:0,0:0:0:0:
162,131,1318,1,0,0:0:0:0:
162,131,1485,6,0,P|242:119|321:102,1,161.999995056153,2|2,0:0|0:0,0:0:0:0:
341,202,1985,1,0,0:0:0:0:
341,202,2152,2,0,P|260:213|181:230,1,161.999995056153,2|2,0:0|0:0,0:0:0:0:
90,184,2652,1,2,0:0:0:0:
237,84,2818,1,2,0:0:0:0:
90,184,2985,6,0,P|84:143|74:104,1,80.9999975280763,2|0,0:0|0:0,0:0:0:0:
182,230,3318,1,2,0:0:0:0:
182,230,3485,2,0,P|106:212|51:267,1,161.999995056153,2|2,0:0|0:0,0:0:0:0:
200,370,3985,1,0,0:0:0:0:
200,370,4152,6,0,P|279:352|359:340,1,161.999995056153,2|2,0:0|0:0,0:0:0:0:
283,274,4652,1,0,0:0:0:0:
283,274,4818,2,0,P|228:218|246:143,1,161.999995056153,2|2,0:0|0:0,0:0:0:0:
331,92,5318,1,2,0:0:0:0:
178,4,5485,1,2,0:0:0:0:
331,92,5652,6,0,P|372:86|411:76,1,80.9999975280763,2|0,0:0|0:0,0:0:0:0:
308,196,5985,1,2,0:0:0:0:
308,196,6152,2,0,P|386:178|467:165,1,161.999995056153,2|2,0:0|0:0,0:0:0:0:
456,384,6652,1,0,0:0:0:0:
456,384,6818,6,0,P|473:308|418:253,1,161.999995056153,2|2,0:0|0:0,0:0:0:0:
342,320,7318,1,0,0:0:0:0:
342,320,7485,2,0,P|266:337|214:287,1,121.499996292114,2|0,0:0|0:0,0:0:0:0:
210,283,7818,1,2,0:0:0:0:
264,199,7985,1,2,0:0:0:0:
102,242,8152,2,0,P|107:261|112:281,1,40.4999987640381,2|2,0:0|0:0,0:0:0:0:
138,376,8318,5,2,0:0:0:0:
170,173,8485,1,2,0:0:0:0:
138,376,8818,5,2,0:0:0:0:
76,147,8985,1,2,0:0:0:0:
138,376,9318,5,2,0:0:0:0:
264,199,9485,1,2,0:0:0:0:
138,376,9818,5,2,0:0:0:0:
358,225,9985,1,2,0:0:0:0:
138,376,10318,5,2,0:0:0:0:
138,376,10652,1,2,0:0:0:0:
106,352,10735,1,2,0:0:0:0:
93,313,10818,1,2,0:0:0:0:
104,274,10902,1,2,0:0:0:0:
137,248,10985,6,0,B|194:238|239:286|203:281|250:330|313:313,1,198.000006042481,6|10,3:2|0:0,0:0:0:0:
461,177,11485,1,0,0:0:0:0:
412,339,11652,2,0,P|407:290|388:238,1,99.0000030212403,2|2,3:2|3:2,0:0:0:0:
505,374,11985,1,10,0:0:0:0:
394,98,12152,6,0,P|305:124|296:217,1,198.000006042481,6|0,3:2|3:0,0:0:0:0:
218,340,12652,2,0,P|263:320|312:313,1,99.0000030212403,10|0,0:0|0:0,0:0:0:0:
2,166,12985,2,0,P|30:204|48:267,1,99.0000030212403,2|0,3:2|3:0,0:0:0:0:
109,384,13318,2,0,P|119:314|156:236,1,148.50000453186,10|0,0:0|0:0,0:0:0:0:
150,243,13652,5,6,3:2:0:0:
218,340,13818,1,2,0:0:0:0:
46,252,13985,1,10,0:0:0:0:
187,154,14152,1,2,0:0:0:0:
15,66,14318,1,2,3:2:0:0:
85,161,14485,2,0,P|94:120|119:61,1,99.0000030212403,2|10,3:2|0:0,0:0:0:0:
389,6,14818,6,0,B|366:55|305:41|305:41|284:-3|229:4,1,175.499991966248,6|0,3:2|0:0,0:0:0:0:
226,8,15152,2,0,P|214:42|206:81,1,58.4999973220826,0|0,3:0|0:0,0:0:0:0:
274,141,15318,1,10,0:0:0:0:
45,252,15485,6,0,P|96:181|182:194,1,175.499991966248,6|0,3:2|0:0,0:0:0:0:
193,202,15818,2,0,P|175:250|169:298,1,90,6|0,3:2|0:0,0:0:0:0:
467,326,16152,6,0,P|416:255|330:268,1,175.499991966248,6|0,3:2|0:0,0:0:0:0:
336,263,16485,1,2,3:2:0:0:
469,176,16652,1,10,0:0:0:0:
398,41,16818,6,0,P|390:98|375:155,1,116.999994644165,6|0,3:2|0:0,0:0:0:0:
309,0,17152,1,2,3:2:0:0:
469,176,17318,1,10,0:0:0:0:
309,0,17485,6,0,P|224:-4|171:61,1,175.499991966248,6|0,3:2|0:0,0:0:0:0:
171,61,17818,1,2,3:2:0:0:
269,201,17985,1,10,0:0:0:0:
70,182,18152,6,0,P|135:168|192:151,1,116.999994644165,6|0,3:2|0:0,0:0:0:0:
271,97,18485,1,2,3:2:0:0:
188,261,18652,1,10,0:0:0:0:
278,83,18818,1,2,3:2:0:0:
382,324,18985,6,0,P|456:273|425:193,1,175.499991966248,6|0,3:2|0:0,0:0:0:0:
362,134,19318,2,0,P|373:80|402:12,1,116.999994644165,8|0,0:0|0:0,0:0:0:0:
322,226,19652,1,0,3:0:0:0:
279,68,19818,1,0,3:0:0:0:
435,201,19985,1,8,0:0:0:0:
286,331,20152,1,2,0:0:0:0:
286,331,20235,1,2,0:0:0:0:
286,331,20318,6,0,P|214:323|160:296,1,116.999994644165,2|0,3:2|3:0,0:0:0:0:
76,320,20568,2,0,P|94:280|94:248,1,67.5000025749208,0|10,3:0|0:0,0:0:0:0:
4,30,20818,6,0,B|7:72|-26:95|-26:95|-15:189|77:169,1,202.500007724762,2|0,3:2|0:0,0:0:0:0:
164,195,21152,1,0,3:0:0:0:
155,190,21235,1,0,3:0:0:0:
146,185,21318,2,0,P|149:148|181:105,1,67.5000025749208,8|8,0:0|0:0,0:0:0:0:
117,8,21485,2,0,P|148:26|182:30,1,67.5000025749208,8|8,0:0|0:0,0:0:0:0:
256,81,21652,5,4,3:1:0:0:
256,81,21985,2,0,P|291:75|326:67,1,72,2|0,0:0|0:0,0:0:0:0:
442,142,22318,2,0,P|372:139|331:195,1,144,2|2,0:0|0:0,0:0:0:0:
331,195,22985,5,2,0:0:0:0:
403,249,23152,1,2,0:0:0:0:
392,338,23318,1,2,0:0:0:0:
309,372,23485,2,0,P|240:350|170:334,1,144,2|2,0:0|0:0,0:0:0:0:
170,244,23985,1,0,0:0:0:0:
83,357,24152,1,2,3:2:0:0:
69,357,24235,1,0,3:0:0:0:
56,351,24318,5,0,3:0:0:0:
68,193,24652,2,0,P|75:228|81:263,1,72,2|0,0:0|0:0,0:0:0:0:
170,244,24985,2,0,P|162:208|156:173,1,72,2|0,0:0|0:0,0:0:0:0:
308,88,25318,1,2,0:0:0:0:
241,148,25485,6,0,P|170:131|102:110,1,144,2|2,0:0|0:0,0:0:0:0:
33,54,25985,1,2,0:0:0:0:
0,206,26152,2,0,P|35:198|70:192,1,72,2|0,0:0|0:0,0:0:0:0:
172,95,26485,2,0,P|137:103|102:109,1,72,2|0,0:0|0:0,0:0:0:0:
144,250,26818,1,2,0:0:0:0:
241,148,26985,6,0,P|308:132|359:179,1,144,2|2,0:0|0:0,0:0:0:0:
479,106,27485,1,2,0:0:0:0:
411,47,27652,2,0,P|432:115|448:185,2,144,2|2|2,0:0|0:0|0:0,0:0:0:0:
359,179,28652,5,2,0:0:0:0:
409,320,28985,2,0,P|444:311|479:305,1,72,2|0,0:0|0:0,0:0:0:0:
345,384,29319,1,2,0:0:0:0:
345,384,29485,1,0,3:0:0:0:
336,267,29652,6,0,P|265:282|194:292,1,144,0|2,3:0|0:0,0:0:0:0:
131,359,30152,1,2,0:0:0:0:
10,261,30318,2,0,P|78:277|129:230,1,144,2|2,0:0|0:0,0:0:0:0:
252,65,30818,6,0,P|230:133|214:203,1,144,2|2,0:0|0:0,0:0:0:0:
194,291,31318,1,2,0:0:0:0:
54,180,31485,2,0,P|50:144|44:109,1,72,2|0,0:0|0:0,0:0:0:0:
142,141,31818,1,2,0:0:0:0:
10,261,31985,1,2,0:0:0:0:
214,203,32152,1,0,3:0:0:0:
100,21,32318,5,4,3:2:0:0:
100,21,32652,2,0,P|139:36|187:44,1,80.9999975280763,2|2,0:3|0:0,0:0:0:0:
366,71,32985,2,0,P|287:67|236:126,1,161.999995056153,10|2,0:0|0:0,0:0:0:0:
179,296,33485,2,0,P|170:216|142:141,1,161.999995056153,2|0,3:2|0:0,0:0:0:0:
284,280,33985,2,0,P|264:330|258:383,1,107.999996704102,2|8,0:3|0:0,0:0:0:0:
100,282,34485,2,0,P|147:295|190:296,1,80.9999975280763,2|0,0:0|3:0,0:0:0:0:
378,263,34818,1,2,3:2:0:0:
385,248,34902,1,0,3:0:0:0:
383,231,34985,1,0,3:0:0:0:
475,247,35318,6,0,P|398:275|384:350,2,161.999995056153,2|10|2,0:3|0:0|0:0,0:0:0:0:
468,108,36152,2,0,P|505:128|504:181,1,80.9999975280763,2|2,3:2|0:0,0:0:0:0:
375,127,36485,1,2,0:0:0:0:
375,127,36652,2,0,P|380:80|398:46,1,80.9999975280763,2|2,0:3|0:0,0:0:0:0:
479,22,36985,1,8,0:0:0:0:
291,169,37152,2,0,P|238:169|186:155,1,107.999996704102,2|2,0:0|0:0,0:0:0:0:
182,120,37568,1,2,0:0:0:0:
182,120,37652,6,0,P|142:71|45:95,1,161.999995056153,2|2,3:2|0:3,0:0:0:0:
222,25,38152,1,2,0:0:0:0:
96,163,38318,2,0,P|113:210|126:334,1,161.999995056153,10|2,0:0|0:0,0:0:0:0:
336,245,38818,2,0,P|261:265|206:210,1,161.999995056153,0|0,3:0|0:0,0:0:0:0:
222,50,39318,2,0,P|172:77|199:131,1,107.999996704102,2|10,0:3|0:0,0:0:0:0:
181,119,39985,1,2,0:0:0:0:
275,153,40152,1,0,3:0:0:0:
275,153,40235,1,0,3:0:0:0:
275,153,40318,6,0,P|336:138|385:136,1,107.999996704102,0|2,3:0|0:3,0:0:0:0:
469,33,40818,1,2,0:0:0:0:
469,33,40985,2,0,P|407:47|359:50,1,107.999996704102,2|2,0:0|0:0,0:0:0:0:
457,182,41485,6,0,P|478:151|457:113,1,67.5000025749208,6|0,3:2|0:0,0:0:0:0:
470,124,41818,6,0,P|463:174|506:201,1,107.999996704102,6|0,3:2|0:0,0:0:0:0:
300,384,42152,6,0,P|399:311|429:324,1,161.999995056153,6|0,3:2|0:0,0:0:0:0:
434,330,42485,6,0,P|454:304|447:272,1,67.5000025749208,6|0,3:2|0:0,0:0:0:0:
374,193,42652,5,8,0:0:0:0:
360,207,42735,1,0,3:0:0:0:
365,226,42818,1,0,3:0:0:0:
470,124,42985,6,0,P|382:142|292:155,1,180,6|8,3:2|0:0,0:0:0:0:
220,325,43485,1,2,0:0:0:0:
140,199,43652,2,0,B|186:182|230:213|216:232|256:264|301:251,1,180,2|8,3:2|0:0,0:0:0:0:
292,154,44152,1,2,3:2:0:0:
115,292,44318,6,0,P|51:233|60:146,1,180,2|8,3:2|0:0,0:0:0:0:
230,53,44818,1,2,3:2:0:0:
130,15,44985,2,0,P|140:68|145:103,1,90,2|0,3:2|3:0,0:0:0:0:
324,68,45318,1,10,0:0:0:0:
140,199,45485,1,0,3:0:0:0:
324,68,45652,6,0,P|410:58|469:122,1,180,2|8,3:2|0:0,0:0:0:0:
301,251,46152,1,2,3:2:0:0:
377,150,46318,1,2,3:2:0:0:
402,327,46485,1,0,3:0:0:0:
228,183,46652,1,8,0:0:0:0:
164,344,46818,6,0,P|208:350|252:359,1,90,0|0,3:0|3:0,0:0:0:0:
27,294,47152,1,0,3:0:0:0:
139,200,47318,2,0,P|183:192|227:182,1,90,8|0,0:0|0:0,0:0:0:0:
24,35,47652,2,0,P|68:44|112:50,1,90,2|0,3:2|3:0,0:0:0:0:
155,43,47902,1,0,3:0:0:0:
155,43,47985,1,10,0:0:0:0:
22,171,48152,1,0,3:0:0:0:
182,284,48318,6,0,P|191:197|127:138,1,180,6|8,3:2|0:0,0:0:0:0:
24,35,48818,1,2,0:0:0:0:
217,77,48985,2,0,P|304:56|390:30,1,180,2|8,3:2|0:0,0:0:0:0:
227,182,49485,1,2,3:2:0:0:
471,198,49652,6,0,P|412:134|325:143,1,180,2|8,3:2|0:0,0:0:0:0:
212,287,50152,1,2,3:2:0:0:
310,248,50318,2,0,P|356:254|398:263,1,90,2|0,3:2|3:0,0:0:0:0:
227,182,50652,2,0,P|178:197|129:208,1,101.250003862381,10|0,0:0|0:0,0:0:0:0:
67,145,50985,6,0,P|85:233|98:323,1,180,2|8,3:2|0:0,0:0:0:0:
164,92,51485,1,0,3:0:0:0:
212,287,51652,1,2,3:2:0:0:
22,231,51818,1,0,3:0:0:0:
168,384,51985,1,8,0:0:0:0:
227,182,52152,6,0,P|296:129|380:153,1,180,0|0,3:0|3:0,0:0:0:0:
464,277,52652,2,0,P|421:266|377:253,1,90,10|0,0:0|0:0,0:0:0:0:
432,380,52985,1,2,3:2:0:0:
277,271,53152,1,0,3:0:0:0:
472,183,53318,1,10,0:0:0:0:
484,166,53402,1,0,3:0:0:0:
482,146,53485,1,0,3:0:0:0:
377,253,53652,6,0,P|391:167|424:67,1,180,6|8,3:2|0:0,0:0:0:0:
277,271,54152,1,2,0:0:0:0:
277,271,54318,2,0,P|233:276|184:249,1,90,2|2,3:2|3:2,0:0:0:0:
340,346,54652,1,8,0:0:0:0:
143,173,54818,2,0,P|57:186|17:263,1,180,0|0,3:0|3:0,0:0:0:0:
214,47,55318,6,0,P|222:105|241:158,1,90,10|0,0:0|0:0,0:0:0:0:
123,17,55652,1,2,3:2:0:0:
322,163,55818,1,0,3:0:0:0:
192,257,55985,1,10,0:0:0:0:
309,66,56152,1,0,3:0:0:0:
410,193,56318,6,0,P|384:291|377:372,1,180,2|8,3:2|0:0,0:0:0:0:
499,225,56818,1,2,3:2:0:0:
286,368,56985,2,0,P|241:371|203:348,1,90,2|0,3:2|3:0,0:0:0:0:
229,156,57318,1,10,0:0:0:0:
103,312,57485,2,0,P|188:321|243:254,1,180,2|0,3:2|3:0,0:0:0:0:
347,96,57985,6,0,P|332:132|321:201,1,90,10|0,0:0|0:0,0:0:0:0:
436,53,58318,1,2,0:0:0:0:
229,156,58485,1,0,3:0:0:0:
229,156,58568,1,0,3:0:0:0:
229,156,58652,2,0,P|189:142|138:133,1,90,10|0,0:0|0:0,0:0:0:0:
341,283,58985,5,6,3:2:0:0:
257,65,59152,1,0,3:0:0:0:
417,217,59318,1,8,0:0:0:0:
202,384,59485,5,2,0:0:0:0:
321,181,59652,1,2,3:2:0:0:
433,313,59818,1,0,3:0:0:0:
211,238,59985,6,0,P|226:150|256:64,1,180,8|0,0:0|0:0,0:0:0:0:
119,0,60485,2,0,P|144:59|154:108,1,90,2|8,3:2|0:0,0:0:0:0:
255,64,60818,1,2,0:0:0:0:
43,210,60985,2,0,P|83:191|127:183,1,90,0|2,3:0|3:2,0:0:0:0:
334,319,61318,5,8,0:0:0:0:
320,350,61402,1,8,0:0:0:0:
292,369,61485,1,10,0:0:0:0:
258,374,61568,1,8,0:0:0:0:
227,359,61652,2,0,P|208:286|320:216,1,202.500007724762,10|0,0:0|0:0,0:0:0:0:
296,212,61985,5,8,0:0:0:0:
466,343,62152,1,0,3:0:0:0:
512,130,62318,5,8,0:0:0:0:
379,278,62485,1,0,0:0:0:0:
347,24,62652,5,8,0:0:0:0:
488,235,62818,1,0,3:0:0:0:
258,374,62985,5,8,0:0:0:0:
258,374,63318,6,0,P|222:357|126:349,1,107.999996704102,8|2,0:0|3:2,0:0:0:0:
337,171,63652,2,0,P|299:215|286:283,1,107.999996704102,8|2,0:0|0:0,0:0:0:0:
64,314,63985,6,0,P|141:316|183:251,1,161.999995056153,8|0,0:0|0:0,0:0:0:0:
182,230,64318,6,0,P|146:224|111:201,1,67.5000025749208,6|0,3:2|0:0,0:0:0:0:
50,60,64485,1,4,3:2:0:0:
50,60,64818,6,0,P|82:67|112:82,1,67.5000025749208,4|0,3:2|0:0,0:0:0:0:
27,216,64985,1,4,3:2:0:0:
27,216,65318,6,0,P|32:182|48:153,1,67.5000025749208,4|0,3:2|0:0,0:0:0:0:
207,79,65485,1,4,3:2:0:0:
207,79,65818,6,0,P|199:111|184:141,1,67.5000025749208,4|0,3:2|0:0,0:0:0:0:
8,0,65985,2,0,P|20:91|112:82,1,202.500007724762,6|0,3:2|0:0,0:0:0:0:
184,141,66318,6,0,P|259:88|368:87,1,180,6|0,3:2|0:0,0:0:0:0:
438,167,66818,1,2,0:0:0:0:
456,162,66902,1,2,0:0:0:0:
465,149,66985,6,0,B|470:131|482:115|482:115|432:167|382:184|322:171,1,215.999993408203,6|8,3:2|0:0,0:0:0:0:
184,141,67485,1,2,0:0:0:0:
310,297,67652,2,0,P|296:189|272:84,1,215.999993408203,2|8,3:2|0:0,0:0:0:0:
432,188,68152,1,2,3:2:0:0:
272,84,68318,6,0,P|218:76|165:65,1,107.999996704102,2|0,0:0|3:0,0:0:0:0:
371,36,68652,1,10,0:0:0:0:
225,213,68818,1,0,0:0:0:0:
475,283,68985,1,2,3:2:0:0:
333,163,69152,1,0,0:0:0:0:
495,89,69318,1,10,0:0:0:0:
310,297,69485,1,0,3:0:0:0:
171,103,69652,6,0,P|232:184|332:163,1,215.999993408203,2|8,3:2|0:0,0:0:0:0:
132,244,70152,1,2,0:0:0:0:
270,42,70318,2,0,P|164:65|57:79,1,215.999993408203,2|8,3:2|0:0,0:0:0:0:
232,183,70818,1,2,3:2:0:0:
0,22,70985,6,0,P|47:85|37:163,1,161.999995056153,2|0,0:0|0:0,0:0:0:0:
12,203,71318,1,10,0:0:0:0:
232,183,71485,2,0,P|215:234|204:287,1,107.999996704102,2|0,0:0|3:0,0:0:0:0:
111,384,71818,2,0,P|99:331|83:279,1,107.999996704102,2|8,0:0|0:0,0:0:0:0:
288,343,72152,1,2,3:2:0:0:
297,114,72318,6,0,P|197:91|135:173,1,215.999993408203,6|8,3:2|0:0,0:0:0:0:
288,343,72818,1,2,0:0:0:0:
83,279,72985,2,0,P|190:264|295:242,1,215.999993408203,2|8,3:2|0:0,0:0:0:0:
403,95,73485,1,2,3:2:0:0:
488,321,73652,6,0,P|435:310|381:302,1,107.999996704102,2|0,0:0|3:0,0:0:0:0:
297,114,73985,2,0,P|350:106|403:95,1,107.999996704102,10|0,0:0|0:0,0:0:0:0:
511,13,74318,1,2,3:2:0:0:
392,198,74485,1,0,0:0:0:0:
273,13,74652,2,0,P|219:23|166:31,1,107.999996704102,10|0,0:0|3:0,0:0:0:0:
295,241,74985,6,0,P|243:184|154:204,1,161.999995056153,2|0,3:2|0:0,0:0:0:0:
129,226,75318,1,10,0:0:0:0:
270,361,75485,2,0,P|321:344|374:333,1,107.999996704102,2|0,0:0|3:0,0:0:0:0:
297,114,75818,1,2,3:2:0:0:
186,308,75985,1,8,0:0:0:0:
17,88,76152,6,0,P|40:193|54:300,1,215.999993408203,2|0,3:2|3:0,0:0:0:0:
48,347,76568,1,0,3:0:0:0:
48,347,76652,1,10,0:0:0:0:
214,207,76818,6,0,P|209:181|204:153,1,54,6|0,3:2|0:0,0:0:0:0:
119,172,77152,6,0,P|123:197|128:225,1,54,6|0,3:2|0:0,0:0:0:0:
186,308,77318,1,8,0:0:0:0:
216,280,77401,1,8,0:0:0:0:
254,268,77485,1,10,0:0:0:0:
294,273,77568,1,8,0:0:0:0:
329,295,77652,6,0,P|394:295|422:155,1,215.999993408203,6|8,3:2|0:0,0:0:0:0:
299,27,78152,1,2,0:0:0:0:
338,198,78318,2,0,P|348:145|366:94,1,107.999996704102,2|0,3:2|3:0,0:0:0:0:
461,48,78652,1,8,0:0:0:0:
265,128,78818,1,2,3:2:0:0:
265,128,78902,1,2,0:0:0:0:
265,128,78985,6,0,P|201:124|144:99,1,107.999996704102,2|0,0:0|3:0,0:0:0:0:
20,2,79318,2,0,P|42:42|56:116,1,107.999996704102,10|0,0:0|0:0,0:0:0:0:
216,216,79652,1,2,3:2:0:0:
130,22,79818,1,0,0:0:0:0:
265,128,79985,1,10,0:0:0:0:
108,264,80152,1,0,3:0:0:0:
160,108,80318,6,0,P|196:209|211:316,1,215.999993408203,2|8,3:2|0:0,0:0:0:0:
108,264,80818,1,2,0:0:0:0:
305,376,80985,2,0,P|377:372|403:226,1,215.999993408203,2|8,3:2|0:0,0:0:0:0:
301,160,81485,6,0,P|343:178|370:183,2,53.9999983520508,2|2|2,3:2|0:0|0:0,0:0:0:0:
419,251,81818,1,0,3:0:0:0:
507,70,81985,1,10,0:0:0:0:
287,257,82152,2,0,P|384:211|489:184,1,215.999993408203,2|2,0:0|0:0,0:0:0:0:
308,34,82652,1,8,0:0:0:0:
399,112,82818,1,2,3:2:0:0:
399,112,82902,1,0,3:0:0:0:
399,112,82985,6,0,P|407:54|433:-3,1,107.999996704102,6|0,3:2|3:0,0:0:0:0:
301,161,83318,1,8,0:0:0:0:
507,70,83485,1,2,0:0:0:0:
301,161,83652,2,0,P|198:163|150:73,1,215.999993408203,2|8,3:2|0:0,0:0:0:0:
24,25,84152,1,2,3:2:0:0:
24,25,84235,1,0,3:0:0:0:
24,25,84318,6,0,P|55:101|70:182,1,161.999995056153,6|0,3:2|0:0,0:0:0:0:
105,207,84652,2,0,P|55:213|-17:234,1,107.999996704102,8|2,0:0|0:0,0:0:0:0:
245,88,84985,1,2,3:2:0:0:
70,299,85152,1,0,0:0:0:0:
326,381,85318,1,10,0:0:0:0:
204,176,85485,1,2,3:2:0:0:
35,384,85652,6,0,P|119:306|223:312,1,215.999993408203,6|8,3:2|0:0,0:0:0:0:
371,194,86152,1,2,0:0:0:0:
326,381,86318,2,0,P|310:328|310:261,1,107.999996704102,2|0,3:2|3:0,0:0:0:0:
424,111,86652,1,8,0:0:0:0:
280,154,86818,2,0,P|314:189|391:184,1,107.999996704102,2|2,3:2|0:0,0:0:0:0:
448,50,87152,5,0,3:0:0:0:
448,50,87235,1,0,3:0:0:0:
448,50,87318,2,0,P|428:78|427:126,1,67.5000025749208,10|0,0:0|0:0,0:0:0:0:
452,260,87485,1,6,3:2:0:0:
452,260,87818,6,0,P|471:232|476:199,1,67.5000025749208,6|0,3:2|0:0,0:0:0:0:
370,193,87985,1,8,0:0:0:0:
339,177,88068,1,8,0:0:0:0:
319,149,88152,1,10,0:0:0:0:
316,115,88235,1,8,0:0:0:0:
330,83,88318,1,4,3:1:0:0:
256,192,88402,12,0,90985,0:0:0:0:
330,83,92152,5,2,0:0:0:0:
330,83,92235,1,2,0:0:0:0:
330,83,92318,2,0,P|261:70|207:114,1,144,2|2,0:0|0:0,0:0:0:0:
188,202,92818,2,0,P|152:194|117:189,1,72,2|0,0:0|0:0,0:0:0:0:
136,100,93152,2,0,P|171:107|206:112,1,72,2|0,0:0|0:0,0:0:0:0:
50,129,93485,1,2,0:0:0:0:
50,129,93568,1,2,0:0:0:0:
50,129,93652,6,0,P|6:183|19:251,1,144,4|0,3:2|0:0,0:0:0:0:
70,327,94152,2,0,P|138:306|208:289,1,144,2|2,0:0|0:0,0:0:0:0:
277,349,94652,1,2,0:0:0:0:
258,214,94818,1,2,0:0:0:0:
258,214,94902,1,2,0:0:0:0:
258,214,94985,6,0,P|223:209|188:202,2,72,2|2|0,0:0|0:0|0:0,0:0:0:0:
327,275,95485,2,0,P|381:231|449:244,1,144,2|0,0:0|0:0,0:0:0:0:
490,324,95985,1,2,0:0:0:0:
500,168,96152,1,2,0:0:0:0:
500,168,96235,1,2,0:0:0:0:
500,168,96318,6,0,P|430:151|361:129,1,144,2|2,3:2|0:0,0:0:0:0:
272,145,96818,2,0,P|266:109|259:74,1,72,2|0,0:0|0:0,0:0:0:0:
349,58,97152,2,0,P|354:93|361:128,1,72,2|2,0:0|0:0,0:0:0:0:
242,230,97485,1,2,0:0:0:0:
242,230,97568,1,2,0:0:0:0:
242,230,97652,6,0,P|173:243|119:199,1,144,2|2,0:0|0:0,0:0:0:0:
46,88,98152,2,0,P|114:109|184:126,1,144,2|2,0:0|0:0,0:0:0:0:
259,74,98652,1,2,0:0:0:0:
119,199,98818,1,0,3:0:0:0:
106,206,98902,1,0,3:0:0:0:
91,208,98985,1,4,3:2:0:0:
154,344,99318,6,0,P|159:302|169:268,1,72,2|2,0:0|0:0,0:0:0:0:
242,230,99652,1,2,3:2:0:0:
300,293,99818,2,0,P|296:310|294:328,2,36,2|2|2,0:0|0:0|0:0,0:0:0:0:
242,230,100152,2,0,P|247:188|257:154,1,72,2|2,0:0|3:2,0:0:0:0:
189,103,100485,5,2,0:0:0:0:
189,103,100652,1,0,0:0:0:0:
322,18,100818,2,0,P|287:27|252:34,1,72,2|0,0:0|3:0,0:0:0:0:
329,107,101152,2,0,P|402:90|475:82,1,144,2|2,0:0|3:2,0:0:0:0:
474,67,101568,1,2,3:2:0:0:
477,52,101652,1,2,3:2:0:0:
463,174,101985,6,0,P|429:177|377:193,1,72,2|2,0:0|0:0,0:0:0:0:
316,228,102318,1,0,3:0:0:0:
316,228,102485,1,2,0:0:0:0:
369,298,102652,2,0,P|367:317|363:338,2,36,2|2|2,0:0|0:0|0:0,0:0:0:0:
445,257,102985,5,0,3:2:0:0:
501,323,103152,1,2,0:0:0:0:
435,384,103318,1,2,3:2:0:0:
445,257,103485,2,0,P|447:220|458:170,1,72,2|0,3:2|0:0,0:0:0:0:
464,156,103735,1,2,0:0:0:0:
464,156,103818,2,0,P|418:167|379:172,1,72,2|0,0:0|3:0,0:0:0:0:
409,2,104152,2,0,P|402:18|397:36,1,36,2|0,3:2|0:0,0:0:0:0:
478,68,104318,6,0,P|401:80|320:96,1,144,2|0,3:2|3:0,0:0:0:0:
271,22,104818,1,2,0:0:0:0:
251,136,104985,2,0,P|297:85|271:22,1,144,2|0,3:2|0:0,0:0:0:0:
155,100,105485,1,2,0:0:0:0:
155,100,105568,1,2,0:0:0:0:
155,100,105652,6,0,P|156:139|169:184,1,72,0|0,3:0|0:0,0:0:0:0:
18,199,105985,2,0,P|51:178|83:144,1,72,0|0,3:0|0:0,0:0:0:0:
168,276,106318,2,0,P|133:257|88:246,1,72,2|0,3:2|0:0,0:0:0:0:
102,248,106568,1,2,0:0:0:0:
102,248,106652,1,2,0:0:0:0:
243,221,106818,1,0,0:0:0:0:
123,350,106985,6,0,P|183:306|254:320,1,144,2|0,3:2|0:0,0:0:0:0:
332,254,107485,1,2,3:2:0:0:
324,384,107652,2,0,P|331:312|343:241,1,144,2|0,3:2|3:0,0:0:0:0:
375,150,108152,6,0,P|333:205|264:202,1,144,2|2,3:2|3:2,0:0:0:0:
459,197,108652,1,0,0:0:0:0:
459,103,108818,2,0,P|447:62|431:32,1,72,2|0,3:2|0:0,0:0:0:0:
458,11,109068,1,2,0:0:0:0:
458,11,109152,2,0,P|479:3|496:-1,2,36,2|0|0,3:2|0:0|3:0,0:0:0:0:
319,22,109485,2,0,P|335:52|340:89,1,53.9999983520508,0|0,3:0|0:0,0:0:0:0:
262,156,109652,5,4,3:2:0:0:
262,156,109985,2,0,L|182:141,1,80.9999975280763,2|0,0:0|0:0,0:0:0:0:
101,88,110318,2,0,P|96:48|119:15,1,80.9999975280763,2|0,3:2|0:0,0:0:0:0:
33,158,110652,2,0,P|41:198|47:238,1,80.9999975280763,2|2,0:0|0:0,0:0:0:0:
49,279,110902,1,2,0:0:0:0:
49,279,110985,5,2,3:2:0:0:
131,225,111152,1,2,0:0:0:0:
185,307,111318,1,2,0:0:0:0:
267,253,111485,2,0,P|307:248|340:271,1,80.9999975280763,2|0,0:0|3:0,0:0:0:0:
451,375,111818,1,2,0:0:0:0:
451,375,111902,1,2,0:0:0:0:
451,375,111985,2,0,L|372:361,1,80.9999975280763,2|2,0:0|0:0,0:0:0:0:
400,192,112318,5,0,3:0:0:0:
400,192,112652,2,0,L|480:207,1,80.9999975280763,2|0,0:0|0:0,0:0:0:0:
339,269,112985,1,2,3:2:0:0:
342,115,113152,2,0,P|309:92|269:98,1,80.9999975280763,2|0,0:0|0:0,0:0:0:0:
201,167,113485,1,2,0:0:0:0:
201,167,113568,1,2,0:0:0:0:
201,167,113652,6,0,L|121:180,1,80.9999975280763,2|2,3:2|0:0,0:0:0:0:
32,145,113985,1,2,0:0:0:0:
169,265,114152,1,2,3:2:0:0:
169,265,114485,2,0,L|129:272,2,40.4999987640381,2|0|0,0:0|0:0|3:0,0:0:0:0:
242,328,114818,2,0,L|281:320,1,40.4999987640381,2|0,0:0|0:0,0:0:0:0:
332,201,114985,6,0,P|275:147|200:166,1,161.999995056153,2|0,3:2|0:0,0:0:0:0:
128,99,115485,1,2,0:0:0:0:
200,30,115652,2,0,P|240:38|280:44,1,80.9999975280763,2|0,3:2|0:0,0:0:0:0:
359,102,115985,1,2,0:0:0:0:
366,91,116068,1,2,0:0:0:0:
375,82,116152,1,2,0:0:0:0:
386,75,116234,1,2,0:0:0:0:
398,72,116318,6,0,P|406:112|412:152,1,80.9999975280763,2|0,3:2|0:0,0:0:0:0:
492,209,116652,2,0,P|484:249|478:289,1,80.9999975280763
320,199,116985,2,0,P|359:204|391:181,1,80.9999975280763,2|0,3:2|0:0,0:0:0:0:
412,152,117235,1,2,0:0:0:0:
412,152,117318,1,2,0:0:0:0:
253,128,117485,1,0,0:0:0:0:
284,291,117652,6,0,P|204:275|125:262,1,161.999995056153,2|0,3:2|0:0,0:0:0:0:
156,171,118152,1,2,0:0:0:0:
35,300,118318,2,0,P|28:259|21:220,1,80.9999975280763,2|0,3:2|0:0,0:0:0:0:
9,186,118568,1,2,0:0:0:0:
9,186,118652,1,2,0:0:0:0:
64,50,118818,6,0,P|69:84|75:117,1,67.5000025749208,6|0,3:2|0:0,0:0:0:0:
156,171,119152,6,0,P|201:141|254:143,1,107.999996704102,6|0,3:2|0:0,0:0:0:0:
398,72,119485,6,0,P|317:53|242:30,1,161.999995056153,6|0,3:2|0:0,0:0:0:0:
253,142,119818,6,0,P|285:149|318:158,1,67.5000025749208,6|0,3:2|0:0,0:0:0:0:
453,170,119985,6,0,P|443:203|436:236,1,67.5000025749208,8|0,0:0|0:0,0:0:0:0:
353,233,120152,2,0,P|361:265|370:298,1,67.5000025749208,0|0,3:0|0:0,0:0:0:0:
466,325,120318,6,0,P|378:325|312:387,1,180,6|8,3:2|0:0,0:0:0:0:
264,287,120818,2,0,P|219:278|176:267,1,90,2|2,0:0|3:2,0:0:0:0:
353,233,121152,1,0,3:0:0:0:
207,374,121318,1,8,0:0:0:0:
366,224,121485,1,2,3:2:0:0:
104,346,121652,6,0,P|92:275|52:168,1,180,2|8,3:2|0:0,0:0:0:0:
193,28,122152,1,2,3:2:0:0:
32,69,122318,2,0,P|81:88|120:93,1,90,2|0,3:2|3:0,0:0:0:0:
265,216,122652,2,0,P|220:222|179:239,1,90,10|0,0:0|3:0,0:0:0:0:
193,28,122985,6,0,P|279:18|327:95,1,180,2|8,3:2|0:0,0:0:0:0:
472,149,123485,1,2,3:2:0:0:
360,264,123652,2,0,P|366:216|383:157,1,90,2|0,3:2|3:0,0:0:0:0:
454,311,123985,1,8,0:0:0:0:
265,216,124152,6,0,P|179:205|116:274,1,180,0|0,3:0|3:0,0:0:0:0:
29,342,124652,2,0,P|21:298|3:255,1,90,8|0,0:0|0:0,0:0:0:0:
127,372,124985,1,2,3:2:0:0:
66,184,125152,1,0,3:0:0:0:
66,184,125235,1,0,3:0:0:0:
66,184,125318,1,10,0:0:0:0:
193,28,125485,2,0,P|183:56|179:83,1,53.9999983520508,0|0,3:0|0:0,0:0:0:0:
97,40,125652,6,0,P|195:64|286:67,1,180,6|8,3:2|0:0,0:0:0:0:
326,147,126152,1,2,0:0:0:0:
377,0,126318,2,0,B|357:93|437:69|420:176,1,180,2|8,3:2|0:0,0:0:0:0:
271,267,126818,2,0,P|312:249|356:243,1,90,2|2,3:2|3:2,0:0:0:0:
456,270,127152,5,0,3:0:0:0:
326,147,127318,1,8,0:0:0:0:
467,279,127485,1,2,3:2:0:0:
280,372,127652,2,0,P|239:353|194:346,1,90,2|0,3:2|3:0,0:0:0:0:
29,138,127985,2,0,P|39:181|53:224,1,90,10|0,0:0|3:0,0:0:0:0:
102,384,128318,6,0,P|167:329|147:245,1,180,2|8,3:2|0:0,0:0:0:0:
53,224,128818,1,0,3:0:0:0:
213,162,128985,2,0,P|167:157|120:146,1,90,2|0,3:2|3:0,0:0:0:0:
185,56,129318,1,8,0:0:0:0:
30,127,129485,6,0,P|92:57|174:67,1,180,0|0,3:0|3:0,0:0:0:0:
386,47,129985,1,10,0:0:0:0:
290,170,130152,1,0,0:0:0:0:
268,8,130318,1,2,3:2:0:0:
408,209,130485,1,0,3:0:0:0:
215,330,130652,1,10,0:0:0:0:
203,313,130735,1,0,3:0:0:0:
205,293,130818,1,0,3:0:0:0:
290,170,130985,6,0,P|206:192|145:132,1,180,6|8,3:2|0:0,0:0:0:0:
69,312,131485,1,2,0:0:0:0:
69,312,131652,2,0,P|61:267|52:223,1,90,2|2,3:2|3:2,0:0:0:0:
205,293,131985,1,8,0:0:0:0:
48,112,132152,6,0,P|136:98|225:80,1,180,0|0,3:0|3:0,0:0:0:0:
398,16,132652,2,0,P|388:59|380:104,1,90,10|0,0:0|0:0,0:0:0:0:
305,258,132985,2,0,P|298:213|289:169,1,90,2|0,3:2|3:0,0:0:0:0:
205,293,133318,1,10,0:0:0:0:
402,198,133485,1,0,3:0:0:0:
172,115,133652,6,0,P|189:203|204:292,1,180,2|8,3:2|0:0,0:0:0:0:
289,169,134152,1,2,3:2:0:0:
99,233,134318,2,0,P|54:225|10:215,1,90,2|0,3:2|3:0,0:0:0:0:
204,292,134652,1,10,0:0:0:0:
89,93,134818,2,0,P|172:115|233:55,1,180,2|0,3:2|3:0,0:0:0:0:
376,152,135318,6,0,P|332:158|288:168,1,90,10|0,0:0|0:0,0:0:0:0:
481,183,135652,1,2,0:0:0:0:
357,33,135818,1,0,3:0:0:0:
357,33,135902,1,0,3:0:0:0:
357,33,135985,2,0,P|400:42|445:50,1,90,10|0,0:0|0:0,0:0:0:0:
288,168,136318,5,6,3:2:0:0:
480,59,136485,1,0,3:0:0:0:
380,231,136652,1,8,0:0:0:0:
512,348,136818,5,2,0:0:0:0:
279,279,136985,1,2,3:2:0:0:
481,183,137152,1,0,3:0:0:0:
317,369,137318,6,0,P|229:361|184:288,1,180,8|0,0:0|0:0,0:0:0:0:
288,168,137818,2,0,P|331:177|376:185,1,90,2|8,3:2|0:0,0:0:0:0:
451,89,138152,1,2,0:0:0:0:
367,296,138318,2,0,P|323:286|278:278,1,90,0|2,3:0|3:2,0:0:0:0:
169,178,138652,5,8,0:0:0:0:
154,147,138735,1,8,0:0:0:0:
159,113,138818,1,10,0:0:0:0:
178,85,138901,1,8,0:0:0:0:
209,71,138985,2,0,P|322:44|404:18,1,202.500007724762,10|0,0:0|0:0,0:0:0:0:
441,5,139318,5,8,0:0:0:0:
288,168,139485,1,0,3:0:0:0:
415,195,139652,5,8,0:0:0:0:
209,71,139818,1,0,0:0:0:0:
337,69,139985,5,8,0:0:0:0:
74,171,140152,1,0,3:0:0:0:
327,307,140318,5,8,0:0:0:0:
327,307,140652,2,0,P|312:255|299:202,1,107.999996704102,8|2,0:0|3:2,0:0:0:0:
114,35,140985,2,0,P|100:87|86:139,1,107.999996704102,8|2,0:0|0:0,0:0:0:0:
0,323,141318,2,0,P|41:276|142:289,1,161.999995056153,8|0,0:0|0:0,0:0:0:0:
144,311,141652,6,0,L|209:328,1,67.5000025749208,6|0,3:2|0:0,0:0:0:0:
299,202,141818,1,4,3:2:0:0:
299,202,142152,6,0,L|233:219,1,67.5000025749208,4|0,3:2|0:0,0:0:0:0:
356,349,142318,1,4,3:2:0:0:
356,349,142652,6,0,L|373:283,1,67.5000025749208,4|0,3:2|0:0,0:0:0:0:
464,161,142818,1,4,3:2:0:0:
464,161,143152,6,0,L|481:226,1,67.5000025749208,4|0,3:2|0:0,0:0:0:0:
299,202,143318,2,0,P|274:117|362:112,1,202.500007724762,6|0,3:2|0:0,0:0:0:0:
373,283,143652,6,0,P|293:243|204:249,1,180,6|2,3:2|0:0,0:0:0:0:
100,287,144152,1,2,0:0:0:0:
100,287,144235,1,2,0:0:0:0:
100,287,144318,6,0,P|82:222|57:179,1,107.999996704102,6|0,3:2|3:0,0:0:0:0:
2,328,144652,1,8,0:0:0:0:
164,153,144818,1,2,0:0:0:0:
0,53,144985,2,0,P|52:141|155:136,1,215.999993408203,2|8,3:2|0:0,0:0:0:0:
386,0,145485,1,2,3:2:0:0:
264,158,145652,6,0,P|273:100|295:54,1,107.999996704102,2|0,0:0|3:0,0:0:0:0:
193,235,145985,1,10,0:0:0:0:
367,134,146152,1,0,0:0:0:0:
209,0,146318,1,2,3:2:0:0:
339,227,146485,1,0,0:0:0:0:
440,59,146652,1,10,0:0:0:0:
264,158,146818,1,0,3:0:0:0:
414,314,146985,6,0,P|436:265|443:211,1,107.999996704102,2|0,3:2|3:0,0:0:0:0:
440,59,147318,2,0,P|480:75|493:146,1,107.999996704102,8|2,0:0|0:0,0:0:0:0:
339,227,147652,2,0,P|254:213|170:310,1,215.999993408203,2|8,3:2|0:0,0:0:0:0:
223,384,148152,1,2,3:2:0:0:
394,340,148318,6,0,P|340:318|288:312,1,107.999996704102,2|0,0:0|3:0,0:0:0:0:
369,102,148652,1,10,0:0:0:0:
242,225,148818,2,0,P|245:178|275:112,1,107.999996704102,2|0,0:0|3:0,0:0:0:0:
512,0,149152,2,0,P|460:89|357:89,1,215.999993408203,2|2,0:0|3:2,0:0:0:0:
173,64,149652,6,0,P|229:47|277:22,1,107.999996704102,6|0,3:2|3:0,0:0:0:0:
331,189,149985,1,8,0:0:0:0:
411,12,150152,1,2,0:0:0:0:
229,215,150318,2,0,P|209:267|209:330,1,107.999996704102,2|0,3:2|3:0,0:0:0:0:
126,180,150652,1,8,0:0:0:0:
313,284,150818,1,2,3:2:0:0:
106,336,150985,6,0,P|67:305|134:180,1,215.999993408203,2|10,0:0|0:0,0:0:0:0:
233,6,151485,1,0,0:0:0:0:
315,77,151652,2,0,P|266:97|206:111,1,107.999996704102,2|0,3:2|0:0,0:0:0:0:
255,318,151985,2,0,P|247:264|228:214,1,107.999996704102,10|0,0:0|3:0,0:0:0:0:
112,82,152318,5,2,3:2:0:0:
320,187,152485,1,0,3:0:0:0:
164,362,152652,1,10,0:0:0:0:
333,173,152818,2,0,P|444:174|492:264,1,215.999993408203,2|2,0:0|3:2,0:0:0:0:
436,71,153318,1,8,0:0:0:0:
388,268,153485,6,0,P|367:148|329:49,1,215.999993408203,2|0,3:2|3:0,0:0:0:0:
314,28,153902,1,0,3:0:0:0:
314,28,153985,1,10,0:0:0:0:
257,144,154152,6,0,P|261:184|275:214,1,67.5000025749208,6|0,3:2|0:0,0:0:0:0:
271,208,154485,6,0,P|304:205|335:193,1,67.5000025749208,6|0,3:2|0:0,0:0:0:0:
233,292,154652,1,8,0:0:0:0:
236,304,154735,1,8,0:0:0:0:
239,316,154818,1,10,0:0:0:0:
242,329,154902,1,8,0:0:0:0:
246,341,154985,6,0,P|146:363|84:281,1,215.999993408203,6|8,3:2|0:0,0:0:0:0:
257,144,155485,1,2,0:0:0:0:
140,58,155652,2,0,P|163:163|178:270,1,215.999993408203,2|8,3:2|0:0,0:0:0:0:
393,186,156152,1,2,3:2:0:0:
246,341,156318,6,0,P|298:329|352:322,1,107.999996704102,2|0,0:0|3:0,0:0:0:0:
479,240,156652,1,10,0:0:0:0:
257,144,156818,1,0,0:0:0:0:
482,55,156985,1,2,3:2:0:0:
304,233,157152,1,0,0:0:0:0:
511,344,157318,1,10,0:0:0:0:
361,99,157485,1,0,3:0:0:0:
361,99,157568,1,0,3:0:0:0:
361,99,157652,6,0,P|255:122|148:136,1,215.999993408203,2|8,3:2|0:0,0:0:0:0:
22,83,158152,1,2,0:0:0:0:
15,328,158318,2,0,P|78:247|177:269,1,215.999993408203,2|8,3:2|0:0,0:0:0:0:
352,213,158818,2,0,P|356:239|361:266,1,53.9999983520508,2|0,3:2|0:0,0:0:0:0:
277,312,158985,6,0,P|270:258|257:205,1,107.999996704102,2|0,0:0|3:0,0:0:0:0:
409,26,159318,2,0,P|405:53|400:80,1,53.9999983520508,10|0,0:0|0:0,0:0:0:0:
466,150,159485,2,0,P|366:172|304:90,1,215.999993408203,2|2,0:0|0:0,0:0:0:0:
177,269,159985,1,8,0:0:0:0:
58,40,160152,1,2,3:2:0:0:
58,40,160235,1,0,3:0:0:0:
58,40,160318,6,0,P|164:25|270:1,1,215.999993408203,6|8,3:2|0:0,0:0:0:0:
352,213,160818,1,2,0:0:0:0:
117,154,160985,2,0,P|35:216|57:315,1,215.999993408203,2|8,3:2|0:0,0:0:0:0:
252,116,161485,1,2,3:2:0:0:
156,366,161652,6,0,P|140:259|116:153,1,215.999993408203,6|8,0:0|0:0,0:0:0:0:
270,0,162152,1,2,0:0:0:0:
234,232,162318,1,2,3:2:0:0:
85,36,162485,1,0,0:0:0:0:
49,268,162651,1,10,0:0:0:0:
252,116,162818,1,2,3:2:0:0:
300,376,162985,6,0,P|405:352|512:336,1,215.999993408203,6|8,3:2|0:0,0:0:0:0:
483,134,163485,1,2,0:0:0:0:
340,250,163652,2,0,P|287:239|233:231,1,107.999996704102,2|0,3:2|3:0,0:0:0:0:
405,352,163985,1,8,0:0:0:0:
358,134,164152,2,0,P|304:125|251:115,1,107.999996704102,2|2,3:2|0:0,0:0:0:0:
124,69,164485,5,0,3:0:0:0:
124,69,164568,1,0,3:0:0:0:
124,69,164652,2,0,P|128:102|134:135,1,67.5000025749208,10|0,0:0|0:0,0:0:0:0:
46,275,164818,1,6,3:2:0:0:
46,275,165152,6,0,P|41:241|35:208,1,67.5000025749208,6|0,3:2|0:0,0:0:0:0:
134,135,165318,1,8,0:0:0:0:
167,127,165402,1,8,0:0:0:0:
199,136,165485,1,10,0:0:0:0:
225,156,165568,1,8,0:0:0:0:
244,187,165652,2,0,P|228:199|202:207,1,45,6|0,3:2|0:0,0:0:0:0:
126,229,165818,6,0,P|200:238|220:300,1,135.000005149842,0|0,3:0|3:0,0:0:0:0:
225,379,166318,2,0,P|291:349|365:334,1,135.000005149842,8|0,0:0|3:0,0:0:0:0:
445,319,166818,1,0,3:0:0:0:
445,319,166985,2,0,P|434:351|435:390,1,67.5000025749208,2|2,3:2|3:2,0:0:0:0:
383,250,167318,1,2,3:2:0:0:
403,171,167485,1,2,3:2:0:0:
485,145,167652,5,10,0:2:0:0:
503,66,167818,1,2,3:2:0:0:
443,11,167985,1,2,0:0:0:0:
359,34,168152,1,2,3:2:0:0:
341,113,168318,1,2,3:2:0:0:
422,90,168485,5,0,3:0:0:0:
422,90,168818,1,2,3:2:0:0:
403,171,168985,2,0,P|469:199|464:267,1,135.000005149842,10|0,0:0|3:0,0:0:0:0:
477,347,169485,1,0,3:0:0:0:
477,347,169652,2,0,P|446:333|396:329,1,67.5000025749208,2|0,3:2|0:0,0:0:0:0:
298,233,169985,2,0,P|329:247|379:251,1,67.5000025749208,2|2,3:2|3:2,0:0:0:0:
348,384,170318,1,8,0:0:0:0:
348,384,170485,2,0,P|286:359|213:342,1,135.000005149842,2|0,3:2|3:0,0:0:0:0:
168,268,170985,5,6,3:2:0:0:
137,378,171152,2,0,P|182:329|158:258,1,135.000005149842,0|0,3:0|3:0,0:0:0:0:
112,137,171652,2,0,P|67:186|91:257,1,135.000005149842,8|2,0:0|3:2,0:0:0:0:
167,267,172152,6,0,P|199:254|232:248,1,67.5000025749208,2|0,3:2|0:0,0:0:0:0:
345,116,172485,2,0,P|313:129|281:136,1,67.5000025749208,2|0,3:2|3:0,0:0:0:0:
329,219,172818,2,0,P|317:256|313:284,1,67.5000025749208,2|8,3:2|0:0,0:0:0:0:
183,165,173152,2,0,P|201:103|214:27,1,135.000005149842,2|2,3:2|3:2,0:0:0:0:
202,2,173568,1,0,3:0:0:0:
202,2,173652,6,0,P|172:48|90:42,1,135.000005149842,2|2,3:2|0:0,0:0:0:0:
25,0,174152,1,2,3:2:0:0:
95,140,174318,1,8,0:0:0:0:
95,140,174652,2,0,P|84:171|78:205,1,67.5000025749208,2|2,3:2|3:2,0:0:0:0:
12,95,174985,5,2,0:0:0:0:
164,247,175152,1,2,3:2:0:0:
0,380,175318,1,2,3:2:0:0:
179,241,175485,2,0,P|185:196|197:153,1,90,2|8,3:2|0:0,0:0:0:0:
252,315,175818,2,0,P|220:331|165:345,1,90,2|0,3:2|3:0,0:0:0:0:
283,223,176152,1,2,3:2:0:0:
157,72,176318,6,0,P|206:81|255:89,1,99.0000030212403,6|0,3:2|3:0,0:0:0:0:
385,131,176652,1,8,0:0:0:0:
385,131,176818,2,0,P|375:82|367:33,1,99.0000030212403,2|0,0:0|3:0,0:0:0:0:
283,223,177152,1,2,3:2:0:0:
367,33,177318,1,10,0:0:0:0:
467,187,177485,1,2,3:2:0:0:
255,89,177652,5,2,0:0:0:0:
201,307,177818,1,2,3:2:0:0:
385,131,177985,1,10,0:0:0:0:
116,92,178152,1,2,0:0:0:0:
283,223,178318,1,2,3:2:0:0:
60,359,178485,1,2,0:0:0:0:
199,157,178652,1,10,0:0:0:0:
0,14,178818,1,2,3:2:0:0:
88,257,178985,6,0,P|185:238|282:222,1,198.000006042481,2|8,3:2|0:0,0:0:0:0:
385,131,179485,1,2,0:0:0:0:
243,16,179652,2,0,P|253:65|261:114,1,99.0000030212403,0|0,3:0|3:0,0:0:0:0:
182,300,179985,1,10,0:0:0:0:
282,221,180152,6,0,P|376:213|432:289,1,198.000006042481,2|2,3:2|3:2,0:0:0:0:
482,113,180652,2,0,P|433:120|384:130,1,99.0000030212403,8|0,0:0|0:0,0:0:0:0:
243,16,180985,2,0,P|291:25|340:33,1,99.0000030212403,2|0,3:2|0:0,0:0:0:0:
282,221,181318,1,10,0:0:0:0:
88,117,181485,1,0,3:0:0:0:
225,320,181652,6,0,P|249:228|183:160,1,198.000006042481,6|8,3:2|0:0,0:0:0:0:
7,189,182152,1,2,0:0:0:0:
70,19,182318,2,0,P|80:68|88:117,1,99.0000030212403,0|0,3:0|3:0,0:0:0:0:
282,221,182652,2,0,P|289:172|299:123,1,99.0000030212403,10|0,0:0|3:0,0:0:0:0:
183,160,182985,5,2,0:0:0:0:
340,33,183152,1,0,3:0:0:0:
183,160,183318,2,0,P|192:111|200:62,1,99.0000030212403,10|0,0:0|0:0,0:0:0:0:
398,184,183652,1,2,3:2:0:0:
200,62,183818,1,0,0:0:0:0:
398,184,183985,2,0,P|388:232|380:281,1,99.0000030212403,10|0,0:0|3:0,0:0:0:0:
122,262,184318,6,0,P|190:196|281:220,2,198.000006042481,6|8|0,3:2|0:0|3:0,0:0:0:0:
267,384,185152,1,0,3:0:0:0:
267,384,185318,2,0,P|315:374|364:366,1,99.0000030212403,8|2,0:0|0:0,0:0:0:0:
495,202,185652,6,0,P|446:194|397:183,2,99.0000030212403,0|2|8,3:0|3:2|0:0,0:0:0:0:
338,51,186152,1,2,3:2:0:0:
379,281,186318,2,0,P|360:184|344:87,1,198.000006042481,2|8,3:2|0:0,0:0:0:0:
144,22,186818,1,2,3:2:0:0:
144,22,186902,1,2,0:0:0:0:
144,22,186985,6,0,P|154:70|162:119,1,99.0000030212403,2|0,0:0|3:0,0:0:0:0:
31,202,187318,1,8,0:0:0:0:
271,200,187485,1,0,0:0:0:0:
73,346,187652,1,0,3:0:0:0:
162,119,187818,1,0,3:0:0:0:
194,113,187902,1,0,3:0:0:0:
222,127,187985,1,8,0:0:0:0:
328,308,188152,6,0,P|279:292|230:281,1,101.250003862381,6|0,3:2|0:0,0:0:0:0:
271,200,188485,6,0,P|303:209|336:216,1,67.5000025749208,6|0,3:2|0:0,0:0:0:0:
425,289,188652,1,8,0:0:0:0:
434,300,188735,1,8,0:0:0:0:
439,312,188818,2,0,P|445:278|454:246,1,67.5000025749208,10|8,0:0|0:0,0:0:0:0:
395,74,188985,6,0,B|435:61|469:28|469:28|442:76|425:120|414:165,1,236.250009012223,6|0,3:2|0:0,0:0:0:0:
336,216,189652,5,4,3:2:0:0:
336,215,200318,6,0,P|422:212|393:294,1,202.500007724762,6|2,3:2|0:0,0:0:0:0:
393,294,200985,1,10,0:0:0:0:
182,363,201485,5,10,0:0:0:0:
182,363,201652,2,0,P|197:296|199:238,1,107.999996704102,2|2,0:0|0:3,0:0:0:0:
336,216,202318,2,0,P|321:149|319:91,1,107.999996704102,10|2,0:0|0:0,0:0:0:0:
334,18,202818,5,0,0:0:0:0:
334,18,202902,1,0,0:0:0:0:
334,18,202985,2,0,P|296:91|183:83,1,202.500007724762,2|2,3:2|0:0,0:0:0:0:
105,49,203652,2,0,P|146:1|196:4,1,107.999996704102,10|0,0:0|0:0,0:0:0:0:
195,94,204152,5,10,0:0:0:0:
195,94,204235,1,2,0:0:0:0:
195,94,204318,2,0,P|200:169|258:188,1,135.000005149842,2|2,0:0|0:3,0:0:0:0:
339,172,204818,2,0,P|332:208|329:256,1,67.5000025749208,2|8,0:0|0:0,0:0:0:0:
408,350,205152,2,0,P|416:297|421:243,1,107.999996704102,2|2,0:0|0:0,0:0:0:0:
421,242,205652,6,0,B|365:218|308:269|355:274|307:325|246:305,1,202.500007724762,2|2,3:2|0:0,0:0:0:0:
170,268,206318,1,10,0:0:0:0:
60,384,206818,5,10,0:0:0:0:
60,384,206985,2,0,P|80:307|87:211,1,161.999995056153,2|2,0:0|0:0,0:0:0:0:
66,139,207652,1,10,0:0:0:0:
0,0,208152,5,2,0:0:0:0:
0,0,208235,1,2,0:0:0:0:
0,0,208318,2,0,P|-2:56|155:102,1,242.999992584229,2|2,3:2|0:0,0:0:0:0:
147,108,209485,6,0,P|140:67|111:51,1,67.5000025749208,6|0,3:2|0:0,0:0:0:0:
325,8,209818,6,0,P|272:6|237:44,1,107.999996704102,6|0,3:2|0:0,0:0:0:0:
141,225,210152,6,0,P|183:136|248:144,1,161.999995056153,6|0,3:2|0:0,0:0:0:0:
255,143,210485,6,0,P|257:175|282:197,1,67.5000025749208,6|0,3:2|0:0,0:0:0:0:
354,99,210652,2,0,P|344:113|342:130,2,33.7500012874604,8|0|8,0:0|0:0|0:0,0:0:0:0:
423,35,210818,1,10,0:0:0:0:
423,35,210902,1,8,0:0:0:0:
423,35,210985,6,0,P|383:114|365:253,1,215.999993408203,6|8,3:2|0:0,0:0:0:0:
504,162,211485,1,2,0:0:0:0:
415,359,211652,2,0,P|354:278|254:299,1,215.999993408203,2|8,3:2|0:0,0:0:0:0:
150,377,212152,1,2,3:2:0:0:
282,197,212318,6,0,P|274:143|263:90,1,107.999996704102,2|0,0:0|3:0,0:0:0:0:
393,180,212652,1,10,0:0:0:0:
167,46,212818,1,0,0:0:0:0:
253,299,212985,1,2,3:2:0:0:
27,165,213152,1,0,0:0:0:0:
263,90,213318,1,10,0:0:0:0:
62,273,213485,1,0,3:0:0:0:
309,384,213652,6,0,P|296:277|250:179,1,215.999993408203,2|8,3:2|0:0,0:0:0:0:
62,273,214152,1,2,0:0:0:0:
167,46,214318,2,0,P|228:127|328:106,1,215.999993408203,2|8,3:2|0:0,0:0:0:0:
475,12,214818,1,2,3:2:0:0:
475,12,214902,1,2,0:0:0:0:
475,12,214985,6,0,P|460:85|446:171,1,161.999995056153,2|0,0:0|0:0,0:0:0:0:
447,216,215318,1,10,0:0:0:0:
224,132,215485,2,0,P|277:120|329:104,1,107.999996704102,2|0,0:0|3:0,0:0:0:0:
408,336,215818,2,0,P|356:320|303:308,1,107.999996704102,2|8,0:0|0:0,0:0:0:0:
447,216,216152,1,2,3:2:0:0:
214,362,216318,6,0,P|132:299|156:200,1,215.999993408203,6|8,3:2|0:0,0:0:0:0:
328,104,216818,1,2,0:0:0:0:
213,361,216985,2,0,P|107:338|1:324,1,215.999993408203,2|8,3:2|0:0,0:0:0:0:
156,200,217485,1,2,3:2:0:0:
39,109,217652,6,0,P|49:161|57:215,1,107.999996704102,2|0,0:0|3:0,0:0:0:0:
213,361,217985,2,0,P|220:307|231:254,1,107.999996704102,10|0,0:0|0:0,0:0:0:0:
197,90,218318,1,2,3:2:0:0:
115,310,218485,1,0,0:0:0:0:
197,90,218652,2,0,P|249:100|303:108,1,107.999996704102,10|0,0:0|3:0,0:0:0:0:
401,278,218985,6,0,P|348:220|271:231,1,161.999995056153,2|0,3:2|0:0,0:0:0:0:
231,254,219318,1,10,0:0:0:0:
377,39,219485,2,0,P|384:92|395:145,1,107.999996704102,2|0,0:0|3:0,0:0:0:0:
267,16,219818,1,2,3:2:0:0:
487,155,219985,1,8,0:0:0:0:
285,339,220152,6,0,P|271:231|247:126,1,215.999993408203,2|0,3:2|3:0,0:0:0:0:
377,39,220652,1,10,0:0:0:0:
146,146,220818,6,0,P|120:141|92:136,1,54,6|0,3:2|0:0,0:0:0:0:
111,51,221152,6,0,P|136:55|164:60,1,54,6|0,3:2|0:0,0:0:0:0:
247,126,221318,1,8,0:0:0:0:
264,159,221401,1,8,0:0:0:0:
253,195,221485,1,10,0:0:0:0:
227,222,221568,1,8,0:0:0:0:
189,230,221652,6,0,P|203:337|298:339,1,215.999993408203,6|8,3:2|0:0,0:0:0:0:
456,224,222152,1,2,0:0:0:0:
397,384,222318,2,0,P|385:331|375:264,1,107.999996704102,2|0,3:2|3:0,0:0:0:0:
451,123,222652,1,8,0:0:0:0:
369,186,222818,1,2,3:2:0:0:
369,186,222902,1,2,0:0:0:0:
369,186,222985,6,0,P|307:175|256:159,1,107.999996704102,2|0,0:0|3:0,0:0:0:0:
146,18,223318,2,0,P|168:112|190:246,1,215.999993408203,10|2,0:0|3:2,0:0:0:0:
257,63,223818,1,0,0:0:0:0:
110,292,223985,2,0,P|57:287|29:243,1,107.999996704102,10|0,0:0|3:0,0:0:0:0:
173,384,224318,6,0,P|230:296|343:300,1,215.999993408203,2|8,3:2|0:0,0:0:0:0:
379,103,224818,1,2,0:0:0:0:
512,216,224985,2,0,P|404:205|300:177,1,215.999993408203,2|8,3:2|0:0,0:0:0:0:
384,384,225485,1,2,3:2:0:0:
384,384,225568,1,2,0:0:0:0:
384,384,225652,6,0,P|427:342|429:294,1,107.999996704102,2|0,0:0|3:0,0:0:0:0:
238,253,225985,1,10,0:0:0:0:
293,83,226152,2,0,P|316:169|334:302,1,215.999993408203,2|2,0:0|0:0,0:0:0:0:
402,111,226652,1,8,0:0:0:0:
205,46,226818,1,2,3:2:0:0:
205,46,226902,1,0,3:0:0:0:
205,46,226985,6,0,P|110:49|54:159,1,215.999993408203,6|8,3:2|0:0,0:0:0:0:
161,296,227485,1,2,0:0:0:0:
0,244,227652,2,0,P|117:218|213:188,1,215.999993408203,2|8,3:2|0:0,0:0:0:0:
319,384,228152,1,2,3:2:0:0:
319,384,228235,1,0,3:0:0:0:
319,384,228318,6,0,P|266:353|282:261,1,161.999995056153,6|0,3:2|0:0,0:0:0:0:
306,236,228652,1,8,0:0:0:0:
472,376,228818,1,2,0:0:0:0:
409,201,228985,2,0,P|399:255|384:325,1,107.999996704102,2|0,3:2|0:0,0:0:0:0:
504,158,229318,1,10,0:0:0:0:
443,0,229485,1,2,3:2:0:0:
504,158,229652,6,0,P|384:136|374:47,1,215.999993408203,6|8,3:2|0:0,0:0:0:0:
241,0,230152,2,0,P|260:60|270:113,1,107.999996704102,2|2,0:0|3:2,0:0:0:0:
176,149,230485,1,0,3:0:0:0:
370,58,230652,1,8,0:0:0:0:
137,0,230818,1,2,3:2:0:0:
363,168,230985,1,2,0:0:0:0:
125,305,231152,5,0,3:0:0:0:
125,305,231235,1,0,3:0:0:0:
125,305,231318,2,0,P|127:273|141:237,1,67.5000025749208,10|0,0:0|0:0,0:0:0:0:
269,103,231485,1,6,3:2:0:0:
269,103,231818,6,0,P|267:135|253:171,1,67.5000025749208,6|0,3:2|0:0,0:0:0:0:
229,261,231985,1,8,0:0:0:0:
261,247,232068,1,8,0:0:0:0:
295,250,232151,1,10,0:0:0:0:
323,270,232235,1,8,0:0:0:0:
339,301,232318,2,0,P|361:298|383:293,1,45,6|0,3:2|0:0,0:0:0:0:
476,271,232485,6,0,P|411:262|380:205,1,135.000005149842,0|0,3:0|3:0,0:0:0:0:
439,135,232985,2,0,P|426:68|415:2,1,135.000005149842,8|0,0:0|3:0,0:0:0:0:
344,118,233485,1,0,3:0:0:0:
344,117,233652,2,0,P|339:84|333:51,1,67.5000025749208,2|2,3:2|3:2,0:0:0:0:
253,6,233985,5,2,3:2:0:0:
208,86,234152,1,2,3:2:0:0:
116,87,234318,5,10,0:2:0:0:
204,115,234485,1,2,3:2:0:0:
223,205,234652,1,2,0:0:0:0:
154,267,234818,1,2,3:2:0:0:
67,238,234985,1,2,3:2:0:0:
136,176,235152,5,0,3:0:0:0:
136,176,235485,1,2,3:2:0:0:
154,267,235652,2,0,P|219:283|284:302,1,135.000005149842,10|0,0:0|3:0,0:0:0:0:
340,171,236152,1,0,3:0:0:0:
340,171,236318,6,0,P|346:204|350:238,1,67.5000025749208,2|0,3:2|0:0,0:0:0:0:
415,354,236652,2,0,P|420:321|427:288,1,67.5000025749208,2|2,3:2|3:2,0:0:0:0:
284,302,236985,1,8,0:0:0:0:
284,302,237152,2,0,P|227:269|218:205,1,135.000005149842,2|0,3:2|3:0,0:0:0:0:
262,124,237652,5,6,3:2:0:0:
100,141,237818,2,0,P|166:128|232:117,1,135.000005149842,0|0,3:0|3:0,0:0:0:0:
352,0,238318,2,0,P|286:13|220:24,1,135.000005149842,8|2,0:0|3:2,0:0:0:0:
338,182,238818,6,0,P|351:117|308:69,2,135.000005149842,2|2|2,3:2|3:2|3:2,0:0:0:0:
442,154,239652,1,8,0:0:0:0:
359,279,239818,2,0,P|294:260|228:243,1,135.000005149842,2|2,3:2|3:2,0:0:0:0:
218,204,240235,1,0,3:0:0:0:
218,204,240318,6,0,P|153:191|105:234,1,135.000005149842,2|2,3:2|0:0,0:0:0:0:
111,324,240818,1,2,3:2:0:0:
26,187,240985,1,8,0:0:0:0:
26,187,241318,2,0,P|32:154|36:120,1,67.5000025749208,2|2,3:2|3:2,0:0:0:0:
6,280,241652,5,2,0:0:0:0:
218,204,241818,1,2,3:2:0:0:
46,86,241985,1,2,3:2:0:0:
111,324,242152,2,0,P|151:311|197:300,1,90,2|8,3:2|0:0,0:0:0:0:
305,110,242485,1,2,3:2:0:0:
121,178,242652,1,0,3:0:0:0:
311,252,242818,1,2,3:2:0:0:
436,23,242985,5,6,3:2:0:0:
436,23,243152,2,0,P|419:100|409:197,1,161.999995056153,0|0,3:0|3:0,0:0:0:0:
393,284,243652,2,0,P|425:213|502:200,1,161.999995056153,8|0,0:0|3:0,0:0:0:0:
461,356,244152,2,0,P|421:366|383:380,1,80.9999975280763,0|2,3:0|3:2,0:0:0:0:
227,381,244485,5,2,3:2:0:0:
270,312,244652,1,2,3:2:0:0:
223,245,244818,1,2,3:2:0:0:
142,252,244985,5,10,0:2:0:0:
104,180,245152,1,2,3:2:0:0:
134,105,245318,1,2,0:0:0:0:
209,76,245485,1,2,3:2:0:0:
281,111,245652,1,2,3:2:0:0:
378,0,245818,5,0,3:0:0:0:
378,0,246152,1,2,3:2:0:0:
294,28,246318,2,0,P|309:107|319:187,1,161.999995056153,8|0,0:0|3:0,0:0:0:0:
512,166,246818,6,0,P|477:96|400:91,1,161.999995056153,0|0,3:0|3:0,0:0:0:0:
421,179,247318,2,0,P|426:227|432:260,1,80.9999975280763,0|0,3:2|3:2,0:0:0:0:
319,370,247652,1,8,0:0:0:0:
224,357,247818,2,0,P|258:287|335:282,1,161.999995056153,0|0,3:2|3:0,0:0:0:0:
421,179,248318,5,6,3:2:0:0:
334,281,248485,2,0,P|326:193|297:107,1,161.999995056153,0|0,3:0|3:0,0:0:0:0:
472,26,248985,1,8,0:0:0:0:
379,12,249152,2,0,P|385:51|397:90,1,80.9999975280763,0|2,3:0|3:2,0:0:0:0:
241,237,249485,6,0,P|210:273|162:272,1,99.0000030212403,2|0,3:2|0:0,0:0:0:0:
353,373,249818,2,0,P|327:331|337:284,1,99.0000030212403,2|0,3:2|3:0,0:0:0:0:
328,186,250152,1,2,3:2:0:0:
235,352,250318,1,8,0:0:0:0:
235,352,250485,2,0,P|136:311|60:303,1,161.999995056153,2|2,3:2|3:2,0:0:0:0:
0,280,250902,1,0,3:0:0:0:
0,280,250985,6,0,P|84:272|122:205,1,161.999995056153,2|2,3:2|0:0,0:0:0:0:
77,131,251485,1,2,3:2:0:0:
189,54,251652,2,0,P|177:92|171:132,1,80.9999975280763,8|0,0:0|0:0,0:0:0:0:
283,41,251985,5,2,3:2:0:0:
77,131,252152,1,2,3:2:0:0:
218,226,252318,1,2,0:0:0:0:
218,226,252485,2,0,P|271:196|321:205,1,99.0000030212403,2|2,3:2|3:2,0:0:0:0:
434,44,252818,2,0,P|391:77|385:126,1,99.0000030212403,2|8,3:2|0:0,0:0:0:0:
412,228,253152,1,2,3:2:0:0:
261,53,253318,6,0,P|271:84|294:104,1,58.4999973220826,0|0,3:0|0:0,0:0:0:0:
412,228,253485,2,0,P|406:267|389:287,1,58.4999973220826,2|0,3:2|0:0,0:0:0:0:
363,380,253652,6,0,B|360:308|411:289|407:328|512:301|479:178|390:172|349:238|349:238|339:178|289:130|228:190|220:237|276:274,1,539.999983520508,6|0,3:2|0:0,0:0:0:0:
