osu file format v14

[General]
AudioFilename: audio.mp3
AudioLeadIn: 0
PreviewTime: 55375
Countdown: 0
SampleSet: Soft
StackLeniency: 0.7
Mode: 0
LetterboxInBreaks: 0
WidescreenStoryboard: 1

[Editor]
Bookmarks: 267,14180,42006,55919,68093,69832,83745,101136,102549,106788
DistanceSpacing: 0.9
BeatDivisor: 3
GridSize: 4
TimelineZoom: 1

[Metadata]
Title:Koi no Spirichu
TitleUnicode:恋のスピリッチュ
Artist:solfa feat. Chata
ArtistUnicode:solfa feat. 茶太
Creator:tomatas95
Version:Normal
Source:恋嵐スピリッチュ
Tags:eroge parasol Renran Spirichu iyuna visual novel vn galgame video game パラソル japanese opening op j-pop jpop pop
BeatmapID:4053184
BeatmapSetID:1952184

[Difficulty]
HPDrainRate:3
CircleSize:3
OverallDifficulty:4
ApproachRate:5
SliderMultiplier:1.1
SliderTickRate:1

[Events]
//Background and Video events
Video,0,"erogedaisuki.mp4"
0,0,"EliseEcchi.jpg",0,0
//Break Periods
//Storyboard Layer 0 (Background)
//Storyboard Layer 1 (Fail)
//Storyboard Layer 2 (Pass)
//Storyboard Layer 3 (Foreground)
//Storyboard Layer 4 (Overlay)
//Storyboard Sound Samples

[TimingPoints]
267,434.782608695652,4,2,6,45,1,0
267,-111.111111111111,4,2,6,45,0,0
919,-111.111111111111,4,2,6,5,0,0
1136,-111.111111111111,4,2,6,5,0,0
1353,-111.111111111111,4,2,6,40,0,0
2006,-111.111111111111,4,2,6,45,0,0
2875,-111.111111111111,4,2,6,5,0,0
3092,-111.111111111111,4,2,6,40,0,0
3745,-111.111111111111,4,2,6,45,0,0
4397,-111.111111111111,4,2,6,5,0,0
4614,-111.111111111111,4,2,6,40,0,0
5266,-111.111111111111,4,2,6,35,0,0
5484,-111.111111111111,4,2,6,45,0,0
5919,-111.111111111111,4,2,6,5,0,0
6136,-111.111111111111,4,2,6,30,0,0
6353,-111.111111111111,4,2,6,40,0,0
7223,-111.111111111111,4,2,6,45,0,0
8093,-111.111111111111,4,2,6,5,0,0
8310,-111.111111111111,4,2,6,35,0,0
8527,-111.111111111111,4,2,6,30,0,0
8962,-111.111111111111,4,2,6,25,0,0
9832,-111.111111111111,4,2,6,20,0,0
12440,-111.111111111111,4,2,6,35,0,0
13310,-111.111111111111,4,2,6,20,0,0
14180,-111.111111111111,4,2,1,50,0,0
15919,-111.111111111111,4,2,1,45,0,0
16788,-111.111111111111,4,2,1,50,0,0
18527,-111.111111111111,4,2,6,5,0,0
18962,-111.111111111111,4,2,1,50,0,0
19180,-111.111111111111,4,2,1,45,0,0
19832,-111.111111111111,4,2,6,5,0,0
20266,-111.111111111111,4,2,1,50,0,0
21788,-111.111111111111,4,2,1,45,0,0
23745,-111.111111111111,4,2,1,50,0,0
25701,-111.111111111111,4,2,1,45,0,0
27223,-111.111111111111,4,2,1,50,0,0
28093,-111.111111111111,4,2,1,55,0,0
28745,-111.111111111111,4,2,1,50,0,0
31571,-111.111111111111,4,2,1,55,0,0
32223,-111.111111111111,4,2,1,50,0,0
35049,-111.111111111111,4,2,1,55,0,0
35701,-111.111111111111,4,2,1,50,0,0
36788,-111.111111111111,4,2,1,55,0,0
37440,-111.111111111111,4,2,1,50,0,0
38527,-111.111111111111,4,2,1,55,0,0
39179,-111.111111111111,4,2,1,50,0,0
40266,-111.111111111111,4,2,1,55,0,0
40918,-111.111111111111,4,2,1,50,0,0
41136,-111.111111111111,4,2,1,55,0,0
42006,-100,4,2,7,55,0,0
42440,-100,4,2,1,60,0,0
45484,-100,4,2,1,65,0,0
45919,-100,4,2,1,60,0,0
47223,-100,4,2,1,65,0,0
47658,-100,4,2,1,60,0,0
48962,-100,4,2,1,65,0,0
49397,-100,4,2,1,60,0,0
52440,-100,4,2,1,65,0,0
52875,-100,4,2,1,60,0,0
54180,-100,4,2,7,65,0,0
55049,-100,4,2,1,45,0,0
55158,-100,4,2,1,25,0,0
55484,-100,4,2,1,55,0,0
55593,-100,4,2,1,35,0,0
55919,-90.9090909090909,4,2,4,75,0,1
56353,-90.9090909090909,4,2,1,75,0,1
62875,-90.9090909090909,4,2,3,75,0,1
63093,-90.9090909090909,4,2,1,75,0,1
68093,-90.9090909090909,4,2,7,80,0,1
69397,-90.9090909090909,4,2,7,80,0,0
69614,-90.9090909090909,4,2,1,70,0,0
69832,-90.9090909090909,4,2,3,75,0,1
76788,-90.9090909090909,4,2,4,75,0,1
77006,-90.9090909090909,4,2,1,75,0,1
83093,-90.9090909090909,4,2,1,65,0,1
83310,-90.9090909090909,4,2,1,70,0,1
83527,-90.9090909090909,4,2,1,75,0,1
83745,-100,4,2,4,70,0,0
84180,-100,4,2,6,70,0,0
90701,-100,4,2,4,70,0,0
91136,-100,4,2,6,70,0,0
94180,-100,4,2,1,70,0,0
94614,-100,4,2,6,70,0,0
97658,-100,4,2,3,70,0,0
98093,-100,4,2,6,75,0,0
101136,-100,4,2,6,40,0,0
102549,-100,4,2,3,70,0,0
102875,-100,4,2,3,50,0,0
103310,-100,4,2,3,45,0,0
103745,-100,4,2,3,40,0,0
104180,-100,4,2,3,35,0,0
104614,-100,4,2,3,30,0,0
105049,-100,4,2,3,25,0,0
105484,-100,4,2,3,20,0,0
105919,-100,4,2,3,15,0,0
106353,-100,4,2,3,10,0,0
106788,-100,4,2,3,5,0,0

[Colours]
Combo1 : 232,183,251
Combo2 : 198,250,146
Combo3 : 245,181,150
Combo4 : 139,201,237

[HitObjects]
0,47,267,6,0,B|37:32|69:61|69:61|100:90|138:74,1,148.49999546814,2|0,0:0|0:0,0:0:0:0:
224,58,1353,2,0,P|219:33|213:9,2,49.4999984893799,2|2|2,0:0|0:0|0:0,0:0:0:0:
233,101,2006,1,2,0:0:0:0:
412,233,3093,2,0,P|407:259|400:288,2,49.4999984893799,2|2|2,0:0|0:0|0:0,0:0:0:0:
421,190,3746,5,2,0:0:0:0:
502,32,4614,2,0,P|456:39|396:41,1,98.9999969787599,2|2,0:0|0:0,0:0:0:0:
335,99,5484,2,0,P|289:92|229:90,1,98.9999969787599,2|0,0:0|0:0,0:0:0:0:
207,123,6136,2,0,L|218:192,1,49.4999984893799,2|2,0:0|0:0,0:0:0:0:
181,254,6788,1,2,0:0:0:0:
255,302,7223,5,2,0:0:0:0:
35,342,8310,2,0,P|33:317|25:278,1,49.4999984893799,2|2,0:0|0:0,0:0:0:0:
0,214,8962,2,0,B|51:194|112:223|69:258|134:275|183:251,2,197.99999395752,2|2|2,0:0|0:0|0:0,0:0:0:0:
0,214,12440,2,0,B|3:169|-5:119|-5:119|34:69|94:95,1,197.99999395752,2|2,0:0|0:0,0:0:0:0:
243,7,14180,6,0,P|233:56|226:111,1,98.9999969787599,2|0,0:0|0:0,0:0:0:0:
207,144,14832,2,0,P|217:193|230:296,1,148.49999546814,2|2,0:0|0:0,0:0:0:0:
407,303,16353,2,0,P|458:318|511:292,2,98.9999969787599,2|2|0,0:0|0:0|0:0,0:0:0:0:
454,227,17658,6,0,P|458:130|417:25,1,197.99999395752,2|0,0:0|0:0,0:0:0:0:
346,79,18962,1,2,0:0:0:0:
346,79,19180,2,0,P|374:140|359:225,1,148.49999546814,2|0,0:0|0:0,0:0:0:0:
281,182,20266,2,0,P|286:156|271:125,2,49.4999984893799,2|2|2,0:0|0:0|0:0,0:0:0:0:
292,270,21136,6,0,P|250:277|188:283,1,98.9999969787599,2|0,0:0|0:0,0:0:0:0:
185,326,21788,2,0,P|143:319|65:320,1,98.9999969787599,2|0,0:0|0:0,0:0:0:0:
15,372,22658,2,0,P|-4:325|41:241,1,148.49999546814,2|2,0:0|0:0,0:0:0:0:
30,154,23745,2,0,L|24:103,1,49.4999984893799,2|2,0:0|0:0,0:0:0:0:
22,60,24180,1,2,0:0:0:0:
104,26,24614,6,0,L|121:173,1,148.49999546814,2|2,0:0|0:0,0:0:0:0:
168,248,25701,2,0,P|190:243|224:244,1,49.4999984893799,2|2,0:0|0:0,0:0:0:0:
260,233,26136,2,0,B|243:239|252:288|295:320|356:303|392:218|324:164,1,247.4999924469,2|2,0:0|0:0,0:0:0:0:
286,83,27658,1,2,0:0:0:0:
356,29,28093,6,0,P|408:41|460:20,1,98.9999969787599,2|0,0:0|0:0,0:0:0:0:
493,36,28745,2,0,P|472:107|465:181,1,148.49999546814,2|2,0:0|0:0,0:0:0:0:
407,349,30266,2,0,P|459:365|505:345,2,98.9999969787599,2|2|2,0:0|0:0|0:0,0:0:0:0:
448,269,31571,6,0,B|522:196|470:98|395:84|347:127|342:186|364:193,1,296.99999093628,2|2,0:0|0:0,0:0:0:0:
364,236,33093,2,0,P|289:245|203:256,1,148.49999546814,2|0,0:0|0:0,0:0:0:0:
228,165,34180,2,0,P|252:161|277:158,2,49.4999984893799,2|2|2,0:0|0:0|0:0,0:0:0:0:
138,165,35049,6,0,P|132:122|166:56,1,98.9999969787599,2|0,0:0|0:0,0:0:0:0:
163,28,35701,1,2,0:0:0:0:
77,4,36136,1,2,0:0:0:0:
45,87,36571,2,0,P|40:139|27:244,1,148.49999546814,2|0,0:0|0:0,0:0:0:0:
51,320,37658,2,0,L|-2:326,2,49.4999984893799,2|2|2,0:0|0:0|0:0,0:0:0:0:
128,363,38527,6,0,L|227:351,1,98.9999969787599,2|0,0:0|0:0,0:0:0:0:
270,360,39180,1,2,0:0:0:0:
292,273,39614,1,2,0:0:0:0:
230,208,40049,2,0,P|220:134|213:60,1,148.49999546814,2|0,0:0|0:0,0:0:0:0:
226,17,40919,1,2,0:0:0:0:
475,7,42006,6,0,L|457:128,1,110,6|0,3:2|3:0,0:0:0:0:
458,169,42658,1,2,0:0:0:0:
458,169,42875,1,2,3:2:0:0:
415,260,43310,1,2,3:2:0:0:
415,260,43527,2,0,P|364:240|309:256,2,110,2|2|2,0:0|0:0|0:0,0:0:0:0:
463,269,44614,1,2,3:2:0:0:
412,355,45049,1,2,3:2:0:0:
412,355,45266,2,0,P|359:368|308:349,1,110,2|0,0:0|0:0,0:0:0:0:
259,343,45919,6,0,P|210:344|129:354,2,110,2|2|2,3:2|3:2|3:2,0:0:0:0:
251,244,47223,2,0,P|196:250|141:251,2,110,2|2|2,3:2|3:2|3:2,0:0:0:0:
335,192,48527,1,2,3:2:0:0:
375,99,48962,6,0,P|407:99|450:83,2,55,2|0|0,3:2|0:0|3:2,0:0:0:0:
345,59,49614,2,0,P|361:31|368:-13,2,55,2|2|2,0:0|3:2|0:0,0:0:0:0:
256,103,50484,2,0,P|203:120|150:93,1,110,2|2,0:0|0:0,0:0:0:0:
151,47,51136,1,2,3:2:0:0:
151,47,51353,1,2,0:0:0:0:
57,14,51788,1,2,0:0:0:0:
4,97,52223,6,0,P|23:141|11:212,1,110,2|0,0:0|0:0,0:0:0:0:
43,242,52875,2,0,P|71:203|139:178,1,110,2|2,3:2|3:2,0:0:0:0:
173,197,53527,2,0,L|297:188,1,110,2|2,0:0|0:0,0:0:0:0:
332,187,54180,1,4,3:2:0:0:
36,369,55919,6,0,B|31:323|31:323|35:300|35:300|25:236,1,121.000003692627,6|10,3:2|0:0,0:0:0:0:
16,133,56788,1,2,3:2:0:0:
16,133,57006,2,0,L|24:65,1,60.5000018463135,2|8,0:0|0:0,0:0:0:0:
18,12,57440,2,0,P|72:36|144:9,1,121.000003692627,2|2,0:0|0:0,0:0:0:0:
183,60,58093,1,10,0:0:0:0:
183,60,58310,2,0,P|237:35|294:51,1,121.000003692627,2|0,0:0|0:0,0:0:0:0:
317,106,58962,1,10,0:0:0:0:
386,6,59397,5,2,3:2:0:0:
491,65,59832,1,10,0:0:0:0:
506,189,60266,1,2,3:2:0:0:
506,189,60484,2,0,P|498:243|495:332,1,121.000003692627,2|2,0:0|0:0,0:0:0:0:
493,369,61136,1,0,3:0:0:0:
373,371,61571,1,10,0:0:0:0:
312,266,62006,1,2,3:2:0:0:
373,161,62440,1,10,0:0:0:0:
309,59,62875,6,0,P|278:57|249:48,1,60.5000018463135,6|2,3:2|0:0,0:0:0:0:
194,24,63310,2,0,P|165:32|134:34,1,60.5000018463135,10|2,0:0|0:0,0:0:0:0:
91,76,63745,1,2,3:2:0:0:
91,76,63962,2,0,P|104:129|116:216,1,121.000003692627,2|2,0:0|0:0,0:0:0:0:
218,256,64832,2,0,P|211:282|205:326,1,60.5000018463135,2|10,0:0|0:0,0:0:0:0:
198,375,65266,2,0,L|66:363,1,121.000003692627,2|0,0:0|0:0,0:0:0:0:
16,364,65919,1,10,0:0:0:0:
27,243,66353,6,0,P|30:185|-6:120,1,121.000003692627,2|10,3:2|0:0,0:0:0:0:
90,45,67223,2,0,P|138:76|213:77,1,121.000003692627,2|10,3:2|0:0,0:0:0:0:
302,19,68093,1,4,3:2:0:0:
409,84,68527,1,4,3:2:0:0:
407,205,68962,1,4,3:2:0:0:
302,264,69397,2,0,P|267:270|232:271,1,60.5000018463135,4|8,3:2|3:2,0:0:0:0:
181,277,69832,6,0,P|178:241|197:193,1,60.5000018463135,6|2,3:2|0:0,0:0:0:0:
156,163,70266,2,0,P|127:172|103:190,2,60.5000018463135,10|2|2,0:0|0:0|3:2,0:0:0:0:
214,144,70919,1,2,0:0:0:0:
185,26,71353,2,0,P|130:48|63:22,1,121.000003692627,2|2,0:0|0:0,0:0:0:0:
13,37,72006,1,10,0:0:0:0:
13,37,72223,2,0,L|34:159,1,121.000003692627,2|0,0:0|0:0,0:0:0:0:
33,216,72875,1,10,0:0:0:0:
16,335,73310,6,0,L|75:324,1,60.5000018463135,2|2,3:2|0:0,0:0:0:0:
136,322,73745,2,0,P|143:351|145:381,2,60.5000018463135,10|2|2,0:0|0:0|3:2,0:0:0:0:
134,261,74397,1,2,0:0:0:0:
193,155,74832,2,0,P|247:173|311:142,1,121.000003692627,2|0,0:0|0:0,0:0:0:0:
343,103,75484,1,10,0:0:0:0:
456,144,75919,1,2,3:2:0:0:
477,263,76353,1,10,0:0:0:0:
385,341,76788,6,0,P|332:348|261:358,1,121.000003692627,6|10,3:2|0:0,0:0:0:0:
206,373,77440,1,2,0:0:0:0:
206,373,77658,2,0,P|199:329|191:307,1,60.5000018463135,2|2,3:2|0:0,0:0:0:0:
288,238,78310,2,0,P|302:149|318:104,1,121.000003692627,2|2,0:0|0:0,0:0:0:0:
355,78,78962,1,10,0:0:0:0:
355,78,79180,1,2,0:0:0:0:
235,60,79614,2,0,P|235:30|223:-8,2,60.5000018463135,2|10|2,0:0|0:0|0:0,0:0:0:0:
221,119,80266,5,2,3:2:0:0:
135,33,80701,1,10,0:0:0:0:
18,65,81136,1,2,3:2:0:0:
6,189,81571,1,10,0:0:0:0:
6,189,81788,2,0,L|23:314,1,121.000003692627,2|0,0:0|0:0,0:0:0:0:
33,368,82440,1,10,0:0:0:0:
153,352,82875,2,0,L|144:292,1,60.5000018463135,2|10,3:2|0:0,0:0:0:0:
187,249,83310,2,0,L|178:189,1,60.5000018463135,10|8,3:2|0:0,0:0:0:0:
167,135,83745,5,6,3:2:0:0:
232,46,84180,2,0,P|287:42|366:36,1,110,10|0,0:0|3:0,0:0:0:0:
400,32,84832,1,2,0:0:0:0:
400,32,85049,1,10,0:0:0:0:
486,99,85484,2,0,P|467:148|496:222,1,110,2|10,3:2|0:0,0:0:0:0:
373,231,86353,2,0,P|383:179|341:111,1,110,2|10,3:2|0:0,0:0:0:0:
273,195,87223,6,0,B|232:186|209:196|209:196|197:210|185:220|185:220|152:232|105:208,1,165,0|0,3:2|0:0,0:0:0:0:
20,168,88310,2,0,L|29:106,2,55,2|8|2,0:0|0:0|0:0,0:0:0:0:
24,223,88962,2,0,L|7:339,1,110,2|8,3:2|0:0,0:0:0:0:
46,371,89614,1,2,0:0:0:0:
160,356,90049,1,0,3:0:0:0:
160,356,90266,2,0,P|195:351|233:365,1,55,10|8,0:0|0:0,0:0:0:0:
268,365,90701,5,6,3:2:0:0:
378,361,91136,1,10,0:0:0:0:
430,264,91571,1,2,3:2:0:0:
372,171,92006,1,10,0:0:0:0:
263,175,92440,2,0,P|206:185|133:197,1,110,2|10,3:2|0:0,0:0:0:0:
108,225,93093,2,0,P|98:164|78:95,1,110,2|2,0:0|3:2,0:0:0:0:
75,63,93745,2,0,L|147:54,1,55,10|2,0:0|0:0,0:0:0:0:
180,78,94180,5,4,3:2:0:0:
254,0,94614,1,10,0:0:0:0:
312,90,95049,1,2,3:2:0:0:
370,0,95484,1,10,0:0:0:0:
444,78,95919,2,0,P|454:123|469:206,1,110,2|10,3:2|0:0,0:0:0:0:
499,229,96571,2,0,P|488:274|474:357,1,110,2|2,0:0|3:2,0:0:0:0:
436,374,97223,1,10,0:0:0:0:
314,313,97658,5,4,3:2:0:0:
190,360,98093,1,10,0:0:0:0:
143,236,98527,1,10,0:0:0:0:
267,189,98962,2,0,L|329:183,1,55,10|0,0:0|3:0,0:0:0:0:
362,131,99397,2,0,L|424:125,1,55,10|0,3:2|3:0,0:0:0:0:
482,116,99832,2,0,P|480:70|460:16,2,82.5,10|8|10,0:0|0:0|0:0,0:0:0:0:
489,185,100701,1,8,0:0:0:0:
489,185,100919,2,0,P|480:211|480:238,1,55,8|2,0:0|0:0,0:0:0:0:
256,192,102549,12,0,106788,0:0:0:0:
