osu file format v14

[General]
AudioFilename: audio.mp3
AudioLeadIn: 0
PreviewTime: 55375
Countdown: 0
SampleSet: Soft
StackLeniency: 0.7
Mode: 0
LetterboxInBreaks: 0
WidescreenStoryboard: 1

[Editor]
Bookmarks: 267,14180,28093,42006,55919,68093,69832,83745,101136,102549,106788
DistanceSpacing: 0.3
BeatDivisor: 4
GridSize: 16
TimelineZoom: 1

[Metadata]
Title:Koi no Spirichu
TitleUnicode:恋のスピリッチュ
Artist:solfa feat. Chata
ArtistUnicode:solfa feat. 茶太
Creator:tomatas95
Version:Light Insane
Source:恋嵐スピリッチュ
Tags:eroge parasol Renran Spirichu iyuna visual novel vn galgame video game パラソル japanese opening op j-pop jpop pop
BeatmapID:4053183
BeatmapSetID:1952184

[Difficulty]
HPDrainRate:4
CircleSize:3.6
OverallDifficulty:6.8
ApproachRate:7.5
SliderMultiplier:1.5
SliderTickRate:1

[Events]
//Background and Video events
Video,0,"erogedaisuki.mp4"
0,0,"MizuhoImouto.jpg",0,0
//Break Periods
//Storyboard Layer 0 (Background)
//Storyboard Layer 1 (Fail)
//Storyboard Layer 2 (Pass)
//Storyboard Layer 3 (Foreground)
//Storyboard Layer 4 (Overlay)
//Storyboard Sound Samples

[TimingPoints]
267,434.782608695652,4,2,6,45,1,0
267,-166.666666666667,4,2,6,45,0,0
1136,-166.666666666667,4,2,6,5,0,0
1353,-166.666666666667,4,2,6,40,0,0
2006,-166.666666666667,4,2,6,45,0,0
2875,-166.666666666667,4,2,6,5,0,0
3092,-166.666666666667,4,2,6,40,0,0
3745,-166.666666666667,4,2,6,45,0,0
4397,-166.666666666667,4,2,6,5,0,0
4614,-166.666666666667,4,2,6,40,0,0
5266,-166.666666666667,4,2,6,35,0,0
5484,-166.666666666667,4,2,6,45,0,0
5919,-166.666666666667,4,2,6,5,0,0
6136,-166.666666666667,4,2,6,30,0,0
6353,-166.666666666667,4,2,6,40,0,0
7223,-166.666666666667,4,2,6,45,0,0
8093,-166.666666666667,4,2,6,5,0,0
8310,-166.666666666667,4,2,6,35,0,0
8527,-166.666666666667,4,2,6,30,0,0
8962,-166.666666666667,4,2,6,25,0,0
9832,-166.666666666667,4,2,6,20,0,0
12440,-166.666666666667,4,2,6,35,0,0
13310,-166.666666666667,4,2,6,20,0,0
14180,-142.857142857143,4,2,1,50,0,0
15919,-142.857142857143,4,2,1,45,0,0
16788,-142.857142857143,4,2,1,50,0,0
19180,-142.857142857143,4,2,1,45,0,0
20049,-166.666666666667,4,2,6,5,0,0
20266,-142.857142857143,4,2,1,50,0,0
21788,-142.857142857143,4,2,1,45,0,0
23745,-142.857142857143,4,2,1,50,0,0
25701,-142.857142857143,4,2,1,45,0,0
27223,-142.857142857143,4,2,1,50,0,0
28093,-142.857142857143,4,2,1,55,0,0
28745,-142.857142857143,4,2,1,50,0,0
31571,-142.857142857143,4,2,1,55,0,0
32223,-142.857142857143,4,2,1,50,0,0
35049,-142.857142857143,4,2,1,55,0,0
35701,-142.857142857143,4,2,1,50,0,0
36788,-142.857142857143,4,2,1,55,0,0
37440,-142.857142857143,4,2,1,50,0,0
38527,-142.857142857143,4,2,1,55,0,0
39179,-142.857142857143,4,2,1,50,0,0
40266,-142.857142857143,4,2,1,55,0,0
40918,-142.857142857143,4,2,1,50,0,0
41136,-142.857142857143,4,2,1,55,0,0
42006,-111.111111111111,4,2,7,55,0,0
42440,-111.111111111111,4,2,1,60,0,0
45484,-111.111111111111,4,2,1,65,0,0
45919,-111.111111111111,4,2,1,60,0,0
47223,-111.111111111111,4,2,1,65,0,0
47658,-111.111111111111,4,2,1,60,0,0
48962,-111.111111111111,4,2,1,65,0,0
49397,-111.111111111111,4,2,1,60,0,0
52440,-111.111111111111,4,2,1,65,0,0
52875,-111.111111111111,4,2,1,60,0,0
54180,-111.111111111111,4,2,7,65,0,0
55049,-111.111111111111,4,2,1,45,0,0
55158,-111.111111111111,4,2,1,25,0,0
55484,-111.111111111111,4,2,1,55,0,0
55593,-111.111111111111,4,2,1,35,0,0
55919,-90.9090909090909,4,2,4,75,0,1
56353,-90.9090909090909,4,2,1,75,0,1
62875,-90.9090909090909,4,2,3,75,0,1
63093,-90.9090909090909,4,2,1,75,0,1
68093,-90.9090909090909,4,2,7,80,0,1
69397,-90.9090909090909,4,2,7,80,0,0
69614,-90.9090909090909,4,2,1,70,0,0
69832,-90.9090909090909,4,2,3,75,0,1
76788,-90.9090909090909,4,2,4,75,0,1
77006,-90.9090909090909,4,2,1,75,0,1
83093,-90.9090909090909,4,2,1,65,0,1
83310,-90.9090909090909,4,2,1,70,0,1
83527,-90.9090909090909,4,2,1,75,0,1
83745,-100,4,2,4,70,0,0
84180,-100,4,2,6,70,0,0
90701,-100,4,2,4,70,0,0
91136,-100,4,2,6,70,0,0
94180,-100,4,2,1,70,0,0
94614,-100,4,2,6,70,0,0
97658,-90.9090909090909,4,2,3,70,0,0
98093,-90.9090909090909,4,2,6,75,0,0
101136,-100,4,2,6,40,0,0
102549,-200,4,2,3,70,0,0
102875,-200,4,2,3,50,0,0
103310,-200,4,2,3,45,0,0
103745,-200,4,2,3,40,0,0
104180,-200,4,2,3,35,0,0
104614,-200,4,2,3,30,0,0
105049,-200,4,2,3,25,0,0
105484,-200,4,2,3,20,0,0
105919,-200,4,2,3,15,0,0
106353,-200,4,2,3,10,0,0
106788,-100,4,2,3,5,0,0

[Colours]
Combo1 : 232,183,251
Combo2 : 198,250,146
Combo3 : 245,181,150
Combo4 : 139,201,237

[HitObjects]
15,119,267,6,0,B|46:90|46:37|46:37|68:84|128:98,1,179.999994506836,2|0,0:0|0:0,0:0:0:0:
83,168,1353,6,0,L|95:225,2,44.999998626709,2|2|2,0:0|0:0|0:0,0:0:0:0:
15,119,2006,1,2,0:0:0:0:
180,142,3093,6,0,L|192:199,2,44.999998626709,2|2|2,0:0|0:0|0:0,0:0:0:0:
112,93,3746,1,2,0:0:0:0:
310,47,4614,6,0,P|354:37|397:27,1,89.9999972534181,2|2,0:0|0:0,0:0:0:0:
422,108,5266,1,2,0:0:0:0:
422,108,5484,2,0,P|377:117|334:127,1,89.9999972534181,2|0,0:0|0:0,0:0:0:0:
245,125,6136,2,0,L|249:147,2,22.4999993133545,2|2|2,0:0|0:0|0:0,0:0:0:0:
121,72,6788,2,0,L|139:161,1,89.9999972534181,2|2,0:0|0:0,0:0:0:0:
256,192,8310,2,0,P|253:167|248:134,2,44.999998626709,2|2|2,0:0|0:0|0:0,0:0:0:0:
225,269,8962,6,0,B|269:278|291:325|291:325|291:272|322:243,2,179.999994506836,2|2|2,0:0|0:0|0:0,0:0:0:0:
225,269,12440,2,0,P|137:288|49:309,1,179.999994506836,2|2,0:0|0:0,0:0:0:0:
49,309,14180,6,0,P|57:258|32:212,1,104.999996795654,2|0,0:0|0:0,0:0:0:0:
104,163,14832,2,0,P|143:195|195:197,1,104.999996795654,2|0,0:0|0:0,0:0:0:0:
172,115,15484,1,2,0:0:0:0:
172,115,16353,2,0,P|179:81|187:47,1,52.4999983978272,2|0,0:0|0:0,0:0:0:0:
109,19,16788,2,0,P|97:70|85:121,1,104.999996795654,2|2,0:0|0:0,0:0:0:0:
32,293,17658,6,0,B|-13:229|14:145|84:120|84:120|102:152|95:194|70:219,1,314.999990386963,2|0,0:0|0:0,0:0:0:0:
117,287,19180,2,0,P|223:309|329:335,1,209.999993591309,2|0,0:0|0:0,0:0:0:0:
404,320,20266,2,0,P|398:346|393:372,1,52.4999983978272,2|2,0:0|0:0,0:0:0:0:
478,384,20701,2,0,P|483:358|489:332,1,52.4999983978272,2|0,0:0|0:0,0:0:0:0:
504,254,21136,6,0,P|453:242|402:231,1,104.999996795654,2|0,0:0|0:0,0:0:0:0:
319,242,21788,2,0,P|255:263|182:207,1,157.499995193482,2|2,0:0|0:0,0:0:0:0:
261,180,22658,6,0,P|264:122|281:18,1,157.499995193482,2|2,0:0|0:0,0:0:0:0:
280,24,23745,2,0,P|255:34|218:40,1,52.4999983978272,2|2,0:0|0:0,0:0:0:0:
363,16,24180,2,0,P|388:26|425:32,1,52.4999983978272,2|0,0:0|0:0,0:0:0:0:
479,109,24614,6,0,B|428:88|412:30|412:30|402:90|361:117,1,209.999993591309,2|0,0:0|0:0,0:0:0:0:
427,172,25701,2,0,P|420:211|414:243,1,52.4999983978272,2|2,0:0|0:0,0:0:0:0:
415,308,26136,2,0,B|444:376|523:364|551:317|534:275|495:256|474:270,1,209.999993591309,2|0,0:0|0:0,0:0:0:0:
417,223,27223,2,0,P|392:233|355:239,1,52.4999983978272,2|2,0:0|0:0,0:0:0:0:
333,311,27658,2,0,P|308:301|271:295,1,52.4999983978272,2|2,0:0|0:0,0:0:0:0:
207,253,28093,6,0,P|196:304|183:356,1,104.999996795654,2|0,0:0|0:0,0:0:0:0:
96,342,28745,2,0,P|108:291|119:239,1,104.999996795654,2|0,0:0|0:0,0:0:0:0:
177,173,29397,1,2,0:0:0:0:
177,173,30266,2,0,P|202:179|228:184,1,52.4999983978272,2|0,0:0|0:0,0:0:0:0:
287,117,30701,2,0,P|236:104|184:93,1,104.999996795654,2|2,0:0|0:0,0:0:0:0:
12,18,31571,6,0,B|-32:63|12:121|56:175|8:214|8:214|-31:169|12:121,1,314.999990386963,2|2,0:0|0:0,0:0:0:0:
84,64,33093,2,0,P|188:90|295:113,1,209.999993591309,2|0,0:0|0:0,0:0:0:0:
354,67,34180,2,0,P|352:41|335:-2,1,52.4999983978272,2|2,0:0|0:0,0:0:0:0:
451,23,34614,2,0,P|443:48|441:74,1,52.4999983978272,2|2,0:0|0:0,0:0:0:0:
388,148,35049,6,0,P|439:158|490:171,1,104.999996795654,2|0,0:0|0:0,0:0:0:0:
474,255,35701,2,0,P|423:242|372:232,2,104.999996795654,2|0|2,0:0|0:0|0:0,0:0:0:0:
480,344,36788,6,0,P|399:323|317:306,1,157.499995193482,2|0,0:0|0:0,0:0:0:0:
219,302,37658,2,0,P|228:326|231:353,1,52.4999983978272,2|2,0:0|0:0,0:0:0:0:
315,358,38093,2,0,P|317:331|326:307,1,52.4999983978272,2|2,0:0|0:0,0:0:0:0:
402,243,38527,6,0,P|350:232|299:219,1,104.999996795654,2|0,0:0|0:0,0:0:0:0:
325,136,39180,2,0,P|375:148|427:159,2,104.999996795654,2|2|2,0:0|0:0|0:0,0:0:0:0:
241,154,40266,2,0,L|256:34,1,104.999996795654,2|0,0:0|0:0,0:0:0:0:
169,63,40919,2,0,L|162:115,1,52.4999983978272,2|2,0:0|0:0,0:0:0:0:
161,115,42006,6,0,L|12:93,1,134.999995880127,6|0,3:2|3:0,0:0:0:0:
63,14,42658,1,2,0:0:0:0:
63,14,42875,2,0,L|129:23,1,67.4999979400635,2|0,3:2|0:0,0:0:0:0:
221,0,43310,1,2,3:2:0:0:
278,76,43527,6,0,P|254:136|292:205,2,134.999995880127,2|2|2,0:0|0:0|0:0,0:0:0:0:
339,133,44614,2,0,P|401:127|480:118,1,134.999995880127,2|2,3:2|3:2,0:0:0:0:
492,208,45266,6,0,P|430:214|351:223,1,134.999995880127,2|0,0:0|0:0,0:0:0:0:
285,281,45919,2,0,P|279:320|293:354,1,67.4999979400635,2|0,3:2|0:0,0:0:0:0:
270,198,46353,2,0,P|233:212|210:241,1,67.4999979400635,2|0,3:2|0:0,0:0:0:0:
334,143,46788,2,0,P|303:118|266:113,1,67.4999979400635,2|0,3:2|0:0,0:0:0:0:
163,83,47223,6,0,P|165:53|183:-10,1,67.4999979400635,2|0,3:2|0:0,0:0:0:0:
82,127,47658,2,0,P|57:110|11:63,1,67.4999979400635,2|0,3:2|0:0,0:0:0:0:
79,219,48093,2,0,P|52:232|-11:248,1,67.4999979400635,2|0,3:2|0:0,0:0:0:0:
161,176,48527,1,2,3:2:0:0:
161,176,48745,1,2,0:0:0:0:
146,335,48962,6,0,L|159:260,1,67.4999979400635,2|0,3:2|0:0,0:0:0:0:
328,291,49397,2,0,L|315:366,1,67.4999979400635,2|2,3:2|0:0,0:0:0:0:
231,347,49832,1,2,3:2:0:0:
231,347,50049,2,0,L|244:272,1,67.4999979400635,2|0,0:0|3:0,0:0:0:0:
254,186,50484,6,0,P|317:210|375:182,1,134.999995880127,2|2,0:0|0:0,0:0:0:0:
314,124,51136,1,2,3:2:0:0:
314,124,51353,2,0,P|309:85|298:54,1,67.4999979400635,2|0,0:0|3:0,0:0:0:0:
416,26,51788,2,0,P|405:58|401:91,1,67.4999979400635,2|0,0:0|3:0,0:0:0:0:
374,182,52223,6,0,P|441:190|515:201,1,134.999995880127,2|0,0:0|0:0,0:0:0:0:
508,287,52875,2,0,P|465:281|420:275,1,67.4999979400635,2|0,3:2|0:0,0:0:0:0:
283,228,53310,1,2,3:2:0:0:
352,315,53527,2,0,L|374:182,1,134.999995880127,2|2,0:0|0:0,0:0:0:0:
388,63,54180,1,4,3:2:0:0:
168,352,55919,6,0,B|126:368|90:336|90:336|55:303|12:321,2,165.000005035401,6|10|2,3:2|0:0|3:2,0:0:0:0:
158,190,57006,2,0,P|150:230|147:272,1,82.5000025177003,2|8,0:0|0:0,0:0:0:0:
61,134,57440,6,0,P|57:92|49:52,1,82.5000025177003,2|0,0:0|3:2,0:0:0:0:
150,102,57875,1,2,0:0:0:0:
64,226,58093,1,10,0:0:0:0:
161,97,58310,2,0,L|347:75,1,165.000005035401,2|0,0:0|0:0,0:0:0:0:
303,192,58962,2,0,L|221:201,1,82.5000025177003,10|0,0:0|0:0,0:0:0:0:
420,210,59397,6,0,P|423:150|438:35,2,165.000005035401,2|10|0,3:2|0:0|3:0,0:0:0:0:
512,306,60484,2,0,P|439:297|325:282,1,165.000005035401,2|2,0:0|0:0,0:0:0:0:
252,328,61136,6,0,P|257:287|262:246,1,82.5000025177003,0|0,3:0|0:0,0:0:0:0:
194,116,61571,2,0,P|188:156|183:197,1,82.5000025177003,10|0,0:0|0:0,0:0:0:0:
93,327,62006,2,0,P|98:286|103:245,1,82.5000025177003,2|0,3:2|0:0,0:0:0:0:
34,114,62440,2,0,P|28:154|23:195,1,82.5000025177003,10|0,0:0|0:0,0:0:0:0:
209,30,62875,5,6,3:2:0:0:
116,167,63093,1,2,0:0:0:0:
201,20,63310,5,10,0:0:0:0:
108,157,63528,1,2,0:0:0:0:
104,0,63745,1,2,3:2:0:0:
244,142,63962,2,0,P|288:137|350:131,1,82.5000025177003,2|8,0:0|0:0,0:0:0:0:
392,14,64397,6,0,B|368:49|395:90|395:90|420:131|397:169,1,165.000005035401,2|2,0:0|0:0,0:0:0:0:
416,333,65049,1,10,0:0:0:0:
482,283,65266,2,0,P|422:247|339:305,1,165.000005035401,2|0,0:0|0:0,0:0:0:0:
253,280,65919,2,0,L|261:363,1,82.5000025177003,10|0,0:0|0:0,0:0:0:0:
147,384,66353,6,0,L|128:179,1,165.000005035401,2|10,3:2|0:0,0:0:0:0:
165,70,67006,5,2,3:2:0:0:
67,164,67223,1,2,3:2:0:0:
107,6,67440,5,0,3:0:0:0:
214,154,67658,1,10,0:0:0:0:
14,94,67875,1,2,3:2:0:0:
247,12,68093,5,4,3:2:0:0:
283,257,68527,1,4,3:2:0:0:
478,104,68962,1,4,3:2:0:0:
247,12,69397,1,4,3:2:0:0:
358,105,69614,5,8,0:0:0:0:
358,105,69723,1,8,0:0:0:0:
358,105,69832,6,0,B|316:92|316:92|260:113,1,82.5000025177003,6|2,3:2|0:0,0:0:0:0:
186,164,70266,5,10,0:0:0:0:
126,18,70484,1,2,0:0:0:0:
190,180,70701,5,2,3:2:0:0:
31,70,70919,2,0,P|42:117|50:175,1,82.5000025177003,2|8,0:0|0:0,0:0:0:0:
194,196,71353,2,0,P|200:155|210:115,1,82.5000025177003,2|2,0:0|3:2,0:0:0:0:
61,267,71788,5,2,0:0:0:0:
122,91,72006,1,10,0:0:0:0:
187,276,72223,2,0,L|377:300,1,165.000005035401,2|0,0:0|0:0,0:0:0:0:
348,185,72875,2,0,L|266:174,1,82.5000025177003,10|0,0:0|0:0,0:0:0:0:
491,113,73310,5,2,3:2:0:0:
425,252,73527,1,2,0:0:0:0:
375,89,73745,1,10,0:0:0:0:
512,201,73962,5,2,0:0:0:0:
445,34,74180,1,2,3:2:0:0:
348,185,74397,2,0,L|184:164,1,165.000005035401,2|2,0:0|0:0,0:0:0:0:
238,263,75049,2,0,L|319:273,1,82.5000025177003,2|0,3:2|0:0,0:0:0:0:
143,378,75484,6,0,P|144:331|156:290,1,82.5000025177003,10|0,0:0|0:0,0:0:0:0:
28,296,75919,2,0,P|38:335|38:377,1,82.5000025177003,2|0,3:2|0:0,0:0:0:0:
91,240,76353,2,0,L|80:158,1,82.5000025177003,10|0,0:0|0:0,0:0:0:0:
226,97,76788,5,6,3:2:0:0:
183,207,77006,1,2,0:0:0:0:
311,67,77223,5,10,0:0:0:0:
268,177,77441,1,2,0:0:0:0:
243,9,77658,5,2,3:2:0:0:
353,207,77875,2,0,L|456:221,1,82.5000025177003,2|8,0:0|0:0,0:0:0:0:
474,89,78310,6,0,L|295:64,1,165.000005035401,2|2,0:0|0:0,0:0:0:0:
161,41,78962,1,10,0:0:0:0:
214,178,79180,2,0,L|225:96,1,82.5000025177003,2|0,0:0|3:0,0:0:0:0:
64,89,79614,5,2,0:0:0:0:
137,143,79832,1,10,0:0:0:0:
59,0,80049,1,2,0:0:0:0:
13,157,80266,6,0,P|21:203|25:253,1,82.5000025177003,2|0,3:2|0:0,0:0:0:0:
188,271,80701,2,0,P|144:254|98:233,1,82.5000025177003,10|0,0:0|0:0,0:0:0:0:
1,365,81136,2,0,P|36:335|78:306,1,82.5000025177003,2|0,3:2|0:0,0:0:0:0:
138,157,81571,1,10,0:0:0:0:
233,346,81788,6,0,P|266:302|228:192,1,165.000005035401,2|0,0:0|0:0,0:0:0:0:
127,75,82440,2,0,P|134:120|139:171,1,82.5000025177003,10|0,0:0|0:0,0:0:0:0:
167,236,82875,1,2,3:2:0:0:
224,82,83093,5,10,0:0:0:0:
224,82,83201,1,8,0:0:0:0:
224,82,83310,2,0,L|283:72,1,41.2500012588501,10|8,3:2|0:0,0:0:0:0:
340,112,83527,2,0,L|399:102,1,41.2500012588501,10|8,3:2|0:0,0:0:0:0:
449,150,83745,6,0,P|463:100|395:28,2,150,6|10|0,3:2|0:0|3:0,0:0:0:0:
429,307,84832,1,2,0:0:0:0:
400,220,85049,2,0,L|498:236,1,75,10|0,0:0|0:0,0:0:0:0:
358,354,85484,6,0,P|344:315|349:273,1,75,2|0,3:2|0:0,0:0:0:0:
218,280,85919,2,0,P|219:317|206:351,1,75,10|0,0:0|0:0,0:0:0:0:
281,217,86353,2,0,L|269:129,1,75,2|0,3:2|0:0,0:0:0:0:
128,228,86788,2,0,L|140:316,1,75,10|0,0:0|0:0,0:0:0:0:
184,163,87223,6,0,P|138:143|48:199,2,150,0|8|0,3:2|0:0|3:0,0:0:0:0:
259,216,88310,2,0,P|330:206|443:197,1,150,2|2,0:0|0:0,0:0:0:0:
407,110,88962,6,0,P|335:119|223:129,1,150,2|8,3:2|0:0,0:0:0:0:
179,21,89614,2,0,B|201:51|180:92|180:92|159:131|183:162,1,150,2|0,0:0|3:0,0:0:0:0:
171,258,90266,1,10,0:0:0:0:
69,159,90484,1,8,0:0:0:0:
69,159,90593,1,8,0:0:0:0:
69,159,90701,6,0,P|59:78|36:-6,2,150,6|10|2,3:2|0:0|3:2,0:0:0:0:
63,325,91788,1,2,0:0:0:0:
23,252,92006,2,0,P|57:239|93:248,1,75,10|0,0:0|0:0,0:0:0:0:
192,203,92440,6,0,L|210:351,1,150,2|10,3:2|0:0,0:0:0:0:
309,348,93093,2,0,L|290:199,1,150,2|2,0:0|3:2,0:0:0:0:
339,97,93745,1,10,0:0:0:0:
386,195,93962,1,2,0:0:0:0:
269,47,94180,6,0,P|304:19|420:61,2,150,4|10|2,3:2|0:0|3:2,0:0:0:0:
114,95,95266,1,2,0:0:0:0:
199,113,95484,2,0,L|185:14,1,75,10|0,0:0|0:0,0:0:0:0:
25,67,95919,6,0,L|39:166,1,75,2|0,3:2|0:0,0:0:0:0:
43,306,96353,1,10,0:0:0:0:
10,232,96571,6,0,B|41:208|82:229|82:229|122:251|152:227,1,150,2|2,0:0|3:2,0:0:0:0:
235,178,97223,5,10,0:0:0:0:
150,130,97440,1,2,0:0:0:0:
236,275,97658,6,0,L|327:262,1,82.5000025177003,4|0,3:2|0:0,0:0:0:0:
405,79,98093,5,10,0:0:0:0:
493,291,98310,1,0,3:0:0:0:
429,80,98527,5,10,0:0:0:0:
403,305,98744,1,0,3:0:0:0:
449,92,98962,5,10,0:0:0:0:
317,264,99180,1,8,3:2:0:0:
317,264,99288,1,8,0:0:0:0:
317,264,99397,6,0,P|308:198|286:91,1,165.000005035401,10|10,3:2|0:0,0:0:0:0:
236,33,100049,1,2,3:2:0:0:
236,33,100158,1,8,0:0:0:0:
236,33,100266,2,0,B|193:49|193:49|132:31,1,82.5000025177003,10|0,3:2|0:0,0:0:0:0:
50,43,100701,6,0,P|60:70|66:99,1,41.2500012588501,8|8,0:0|0:0,0:0:0:0:
128,133,100919,2,0,P|118:160|112:189,1,41.2500012588501,8|8,0:0|0:0,0:0:0:0:
51,226,101136,1,2,0:0:0:0:
37,210,102549,6,0,B|177:248|91:151|271:159|292:195|292:195|229:186|207:91|244:2|347:-11|402:32|423:113|423:113|384:100|346:118,1,731.25,4|0,3:2|0:0,0:0:0:0:
