osu file format v14

[General]
AudioFilename: audio.mp3
AudioLeadIn: 0
PreviewTime: 55375
Countdown: 0
SampleSet: Soft
StackLeniency: 0.7
Mode: 0
LetterboxInBreaks: 0
WidescreenStoryboard: 1

[Editor]
Bookmarks: 267,14180,25266,28093,42006,55919,68093,69832,83745,101136,102549,106788
DistanceSpacing: 0.3
BeatDivisor: 4
GridSize: 8
TimelineZoom: 1

[Metadata]
Title:Koi no Spirichu
TitleUnicode:恋のスピリッチュ
Artist:solfa feat. Chata
ArtistUnicode:solfa feat. 茶太
Creator:tomatas95
Version:Kaze ni Yureru Hanabira no you ni, Kimi ni Hikarete Iku
Source:恋嵐スピリッチュ
Tags:eroge parasol Renran Spirichu iyuna visual novel vn galgame video game パラソル japanese opening op j-pop jpop pop
BeatmapID:4042569
BeatmapSetID:1952184

[Difficulty]
HPDrainRate:5
CircleSize:4
OverallDifficulty:8
ApproachRate:8
SliderMultiplier:1.6
SliderTickRate:1

[Events]
//Background and Video events
Video,0,"erogedaisuki.mp4"
0,0,"TsubasaMizugi.jpg",0,0
//Break Periods
//Storyboard Layer 0 (Background)
//Storyboard Layer 1 (Fail)
//Storyboard Layer 2 (Pass)
//Storyboard Layer 3 (Foreground)
//Storyboard Layer 4 (Overlay)
//Storyboard Sound Samples

[TimingPoints]
267,434.782608695652,4,2,6,45,1,0
267,-166.666666666667,4,2,6,45,0,0
1136,-166.666666666667,4,2,6,5,0,0
1353,-166.666666666667,4,2,6,40,0,0
2006,-166.666666666667,4,2,6,45,0,0
2875,-166.666666666667,4,2,6,5,0,0
3092,-166.666666666667,4,2,6,40,0,0
3745,-166.666666666667,4,2,6,45,0,0
4397,-166.666666666667,4,2,6,5,0,0
4614,-166.666666666667,4,2,6,40,0,0
5266,-166.666666666667,4,2,6,35,0,0
5484,-166.666666666667,4,2,6,45,0,0
5919,-166.666666666667,4,2,6,5,0,0
6136,-166.666666666667,4,2,6,30,0,0
6353,-200.000000000001,4,2,6,40,0,0
7223,-250.000000000001,4,2,6,45,0,0
8093,-250.000000000001,4,2,6,5,0,0
8310,-250.000000000001,4,2,6,35,0,0
8527,-250.000000000001,4,2,6,30,0,0
8962,-1000,4,2,6,25,0,0
9832,-1000,4,2,6,20,0,0
10701,-166.666666666667,4,2,6,20,0,0
12440,-1000,4,2,6,35,0,0
13310,-1000,4,2,6,20,0,0
14180,-166.666666666667,4,2,1,50,0,0
15919,-166.666666666667,4,2,1,40,0,0
16788,-166.666666666667,4,2,1,50,0,0
19180,-166.666666666667,4,2,1,45,0,0
19397,-166.666666666667,4,2,1,40,0,0
20266,-166.666666666667,4,2,1,55,0,0
20484,-166.666666666667,4,2,1,50,0,0
20701,-166.666666666667,4,2,1,45,0,0
20919,-166.666666666667,4,2,1,40,0,0
21136,-166.666666666667,4,2,1,50,0,0
21788,-166.666666666667,4,2,1,45,0,0
22440,-166.666666666667,4,2,1,40,0,0
23745,-166.666666666667,4,2,1,50,0,0
25701,-166.666666666667,4,2,1,45,0,0
25919,-166.666666666667,4,2,1,40,0,0
27223,-166.666666666667,4,2,1,55,0,0
27441,-166.666666666667,4,2,1,50,0,0
27658,-166.666666666667,4,2,1,45,0,0
27876,-166.666666666667,4,2,1,40,0,0
28093,-166.666666666667,4,2,1,55,0,0
28745,-166.666666666667,4,2,1,50,0,0
29180,-250.000000000001,4,2,1,50,0,0
30266,-166.666666666667,4,2,1,30,0,0
30701,-166.666666666667,4,2,1,55,0,0
30919,-166.666666666667,4,2,1,50,0,0
31136,-166.666666666667,4,2,1,45,0,0
31354,-166.666666666667,4,2,1,40,0,0
31571,-166.666666666667,4,2,1,50,0,0
32223,-166.666666666667,4,2,1,50,0,0
35049,-166.666666666667,4,2,1,55,0,0
35701,-166.666666666667,4,2,1,50,0,0
36788,-166.666666666667,4,2,1,55,0,0
37440,-166.666666666667,4,2,1,50,0,0
38527,-166.666666666667,4,2,1,55,0,0
39179,-166.666666666667,4,2,1,50,0,0
39397,-166.666666666667,4,2,1,55,0,0
39615,-166.666666666667,4,2,1,50,0,0
39832,-166.666666666667,4,2,1,45,0,0
40050,-166.666666666667,4,2,1,40,0,0
40266,-250.000000000001,4,2,1,55,0,0
40918,-250.000000000001,4,2,1,50,0,0
41136,-166.666666666667,4,2,1,55,0,0
42006,-111.111111111111,4,2,7,55,0,0
42440,-111.111111111111,4,2,1,60,0,0
45484,-111.111111111111,4,2,1,65,0,0
45919,-111.111111111111,4,2,1,60,0,0
47223,-111.111111111111,4,2,1,65,0,0
47658,-111.111111111111,4,2,1,60,0,0
48962,-111.111111111111,4,2,1,65,0,0
49397,-111.111111111111,4,2,1,60,0,0
52440,-111.111111111111,4,2,1,65,0,0
52875,-111.111111111111,4,2,1,60,0,0
54180,-111.111111111111,4,2,7,65,0,0
55049,-333.333333333334,4,2,1,45,0,0
55158,-333.333333333334,4,2,1,25,0,0
55375,-200,4,2,1,5,0,0
55484,-125,4,2,1,55,0,0
55593,-125,4,2,1,35,0,0
55810,-200,4,2,1,5,0,0
55919,-76.9230769230769,4,2,4,75,0,1
56245,-200,4,2,1,5,0,1
56353,-90.9090909090909,4,2,1,75,0,1
58962,-200,4,2,1,75,0,1
59288,-200,4,2,1,5,0,1
59397,-76.9230769230769,4,2,1,75,0,1
59723,-200,4,2,1,5,0,1
59831,-90.9090909090909,4,2,1,75,0,1
62875,-90.9090909090909,4,2,3,75,0,1
63093,-90.9090909090909,4,2,1,75,0,1
65919,-200,4,2,1,75,0,1
66245,-200,4,2,1,5,0,1
66353,-76.9230769230769,4,2,1,75,0,1
68093,-90.9090909090909,4,2,7,80,0,1
69397,-90.9090909090909,4,2,7,80,0,0
69614,-90.9090909090909,4,2,1,70,0,0
69832,-90.9090909090909,4,2,3,75,0,1
72875,-200,4,2,3,75,0,1
73201,-200,4,2,1,5,0,1
73310,-76.9230769230769,4,2,3,75,0,1
73527,-90.9090909090909,4,2,3,75,0,1
76353,-200,4,2,3,75,0,1
76680,-200,4,2,1,5,0,1
76788,-76.9230769230769,4,2,4,75,0,1
77006,-76.9230769230769,4,2,1,75,0,1
77223,-90.9090909090909,4,2,1,75,0,1
83093,-90.9090909090909,4,2,1,65,0,1
83310,-90.9090909090909,4,2,1,70,0,1
83527,-90.9090909090909,4,2,1,75,0,1
83745,-83.3333333333333,4,2,4,70,0,0
84071,-200,4,2,1,5,0,0
84180,-100,4,2,6,70,0,0
85049,-250,4,2,6,70,0,0
85375,-200,4,2,1,5,0,0
85484,-100,4,2,6,70,0,0
90701,-83.3333333333333,4,2,4,70,0,0
91027,-200,4,2,1,5,0,0
91136,-100,4,2,6,70,0,0
94180,-83.3333333333333,4,2,1,70,0,0
94506,-200,4,2,1,5,0,0
94614,-100,4,2,6,70,0,0
97658,-90.9090909090909,4,2,3,70,0,0
98093,-90.9090909090909,4,2,6,75,0,0
101136,-100,4,2,6,40,0,0
102549,-166.666666666667,4,2,3,70,0,0
102875,-166.666666666667,4,2,3,50,0,0
103310,-166.666666666667,4,2,3,45,0,0
103745,-166.666666666667,4,2,3,40,0,0
104180,-166.666666666667,4,2,3,35,0,0
104614,-166.666666666667,4,2,3,30,0,0
105049,-166.666666666667,4,2,3,25,0,0
105484,-166.666666666667,4,2,3,20,0,0
105919,-166.666666666667,4,2,3,15,0,0
106353,-166.666666666667,4,2,3,10,0,0
106788,-100,4,2,3,5,0,0

[Colours]
Combo1 : 232,183,251
Combo2 : 198,250,146
Combo3 : 245,181,150
Combo4 : 139,201,237

[HitObjects]
77,106,267,6,0,B|41:75|65:17|65:17|126:12|142:60,1,191.999994140625,2|0,0:0|0:0,0:0:0:0:
153,141,1353,6,0,P|174:136|213:147,2,47.9999985351563,2|2|2,0:0|0:0|0:0,0:0:0:0:
176,218,2006,1,2,0:0:0:0:
359,141,3093,6,0,P|338:136|299:147,2,47.9999985351563,2|2|2,0:0|0:0|0:0,0:0:0:0:
336,218,3746,1,2,0:0:0:0:
336,218,4614,6,0,P|328:262|315:333,1,95.9999970703126,2|2,0:0|0:0,0:0:0:0:
403,334,5266,1,2,0:0:0:0:
403,334,5484,2,0,P|411:286|420:239,1,95.9999970703126,2|0,0:0|0:0,0:0:0:0:
414,140,6136,2,0,L|450:146,1,23.9999992675781,2|2,0:0|0:0,0:0:0:0:
405,154,6353,2,0,L|496:169,2,80,2|2|2,0:0|0:0|0:0,0:0:0:0:
256,192,8310,6,0,L|256:160,2,32,2|2|2,0:0|0:0|0:0,0:0:0:0:
256,276,8962,6,0,L|256:308,2,32,2|2|2,0:0|0:0|0:0,0:0:0:0:
256,76,12440,6,0,L|256:108,1,32,2|2,0:0|0:0,0:0:0:0:
256,108,14180,6,0,P|211:122|157:91,1,95.9999970703126,2|0,0:0|0:0,0:0:0:0:
124,39,14832,2,0,P|169:25|223:56,2,95.9999970703126,2|0|0,0:0|0:0|0:0,0:0:0:0:
49,91,15919,1,2,0:0:0:0:
49,91,16788,5,2,0:0:0:0:
34,175,17006,1,2,0:0:0:0:
100,230,17223,1,2,0:0:0:0:
100,230,17658,6,0,P|147:239|194:247,1,95.9999970703126,2|0,0:0|0:0,0:0:0:0:
177,334,18310,2,0,P|129:324|82:316,2,95.9999970703126,2|0|2,0:0|0:0|0:0,0:0:0:0:
253,304,19397,1,2,0:0:0:0:
254,304,20266,5,2,0:0:0:0:
194,225,20484,1,2,0:0:0:0:
258,157,20701,1,2,0:0:0:0:
199,86,20919,1,2,0:0:0:0:
255,32,21136,6,0,P|298:54|349:49,1,95.9999970703126,2|0,0:0|0:0,0:0:0:0:
401,113,21788,2,0,P|443:91|490:93,1,95.9999970703126,2|0,0:0|0:0,0:0:0:0:
459,171,22440,1,2,0:0:0:0:
459,171,23745,5,2,0:0:0:0:
480,252,23962,1,2,0:0:0:0:
501,333,24180,1,2,0:0:0:0:
501,333,24614,6,0,P|449:345|391:357,1,95.9999970703126,2|0,0:0|0:0,0:0:0:0:
386,273,25266,2,0,P|432:263|479:252,1,95.9999970703126,2|0,0:0|0:0,0:0:0:0:
459,171,25919,1,2,0:0:0:0:
459,171,27223,5,2,0:0:0:0:
371,124,27440,1,2,0:0:0:0:
291,180,27658,1,2,0:0:0:0:
204,132,27875,1,2,0:0:0:0:
147,193,28093,6,0,P|156:239|170:304,1,95.9999970703126,2|0,0:0|0:0,0:0:0:0:
77,267,28745,2,0,P|72:243|67:219,1,47.9999985351563,2|0,0:0|0:0,0:0:0:0:
5,85,29180,6,0,B|11:126|62:130|62:130|90:86|65:55,1,160
65,55,30701,5,2,0:0:0:0:
161,33,30919,1,2,0:0:0:0:
231,99,31136,1,2,0:0:0:0:
190,180,31353,1,2,0:0:0:0:
236,248,31571,6,0,P|283:256|353:269,1,95.9999970703126,2|0,0:0|0:0,0:0:0:0:
310,350,32223,2,0,P|262:341|215:333,2,95.9999970703126,2|2|0,0:0|0:0|0:0,0:0:0:0:
393,364,33310,6,0,L|409:264,1,95.9999970703126,2|0,0:0|0:0,0:0:0:0:
497,284,33962,2,0,L|481:378,2,95.9999970703126,2|2|2,0:0|0:0|0:0,0:0:0:0:
503,189,35049,6,0,P|458:203|415:185,1,95.9999970703126,2|0,0:0|0:0,0:0:0:0:
375,122,35701,2,0,P|419:107|463:126,2,95.9999970703126,2|0|2,0:0|0:0|0:0,0:0:0:0:
310,204,36788,6,0,P|299:160|283:92,1,95.9999970703126,2|0,0:0|0:0,0:0:0:0:
214,166,37440,2,0,P|219:189|226:213,1,47.9999985351563,2|0,0:0|0:0,0:0:0:0:
147,240,37875,2,0,P|136:196|120:128,1,95.9999970703126,2|2,0:0|0:0,0:0:0:0:
12,94,38527,6,0,B|46:109|78:82|78:82|110:57|146:73,1,143.999995605469,2|0,0:0|0:0,0:0:0:0:
215,33,39397,5,2,0:0:0:0:
265,99,39614,1,2,0:0:0:0:
331,28,39832,1,2,0:0:0:0:
392,123,40049,1,2,0:0:0:0:
491,61,40266,6,0,B|509:38|486:2|486:2|444:5|439:39,1,128,2|2,0:0|0:0,0:0:0:0:
439,37,42006,6,0,L|464:200,1,143.999995605469,6|0,3:2|3:0,0:0:0:0:
466,337,42658,1,2,0:0:0:0:
503,265,42875,2,0,P|469:255|434:262,1,71.9999978027344,2|0,3:2|0:0,0:0:0:0:
284,300,43310,1,2,3:2:0:0:
350,216,43527,6,0,P|360:287|370:358,2,143.999995605469,2|2|2,0:0|0:0|0:0,0:0:0:0:
384,96,44614,2,0,P|422:109|462:95,1,71.9999978027344,2|0,3:2|0:0,0:0:0:0:
421,26,45049,1,2,3:2:0:0:
316,142,45266,6,0,L|163:122,1,143.999995605469,2|0,0:0|0:0,0:0:0:0:
64,109,45919,6,0,P|57:70|42:35,1,71.9999978027344,2|0,3:2|0:0,0:0:0:0:
153,192,46353,2,0,P|160:153|175:118,1,71.9999978027344,2|0,3:2|0:0,0:0:0:0:
64,275,46788,2,0,P|57:236|42:201,1,71.9999978027344,2|0,3:2|0:0,0:0:0:0:
34,43,47223,6,0,P|47:76|53:111,1,71.9999978027344,2|0,3:2|0:0,0:0:0:0:
181,128,47658,2,0,P|167:161|161:196,1,71.9999978027344,2|0,3:2|0:0,0:0:0:0:
34,208,48093,2,0,P|47:241|53:276,1,71.9999978027344,2|0,3:2|0:0,0:0:0:0:
15,358,48527,5,2,3:2:0:0:
15,358,48745,1,2,0:0:0:0:
105,349,48962,6,0,P|141:343|185:336,1,71.9999978027344,2|0,3:2|0:0,0:0:0:0:
312,268,49397,5,2,3:2:0:0:
248,329,49614,1,2,0:0:0:0:
228,243,49832,1,2,3:2:0:0:
333,354,50049,2,0,L|422:340,1,71.9999978027344,2|0,0:0|3:0,0:0:0:0:
454,246,50484,6,0,L|291:271,1,143.999995605469,2|2,0:0|0:0,0:0:0:0:
385,89,51136,1,2,3:2:0:0:
352,163,51353,2,0,P|390:171|435:150,1,71.9999978027344,2|0,0:0|3:0,0:0:0:0:
418,15,51788,2,0,P|380:7|335:28,1,71.9999978027344,2|0,0:0|3:0,0:0:0:0:
248,42,52223,6,0,L|274:183,1,143.999995605469,2|0,0:0|0:0,0:0:0:0:
181,260,52875,2,0,L|167:189,1,71.9999978027344,2|0,3:2|0:0,0:0:0:0:
127,37,53310,5,2,3:2:0:0:
181,96,53527,2,0,P|142:117|56:74,1,143.999995605469,2|2,0:0|0:0,0:0:0:0:
205,6,54180,1,4,3:2:0:0:
59,78,55049,6,0,L|67:119,1,35.9999989013672,2|2,0:0|0:0,0:0:0:0:
114,174,55484,6,0,P|69:160|12:185,1,96,2|2,0:0|0:0,0:0:0:0:
69,242,55919,6,0,P|133:223|235:219,1,155.999992858887,6|0,3:2|0:0,0:0:0:0:
302,252,56353,2,0,P|305:204|317:159,1,88.000002685547,10|0,0:0|0:0,0:0:0:0:
331,60,56788,5,2,3:2:0:0:
407,210,57006,1,2,0:0:0:0:
464,51,57223,1,8,0:0:0:0:
314,165,57440,5,2,0:0:0:0:
314,165,57549,1,2,0:0:0:0:
314,165,57658,1,0,3:2:0:0:
395,6,57875,1,2,0:0:0:0:
480,174,58093,1,10,0:0:0:0:
331,60,58310,2,0,P|251:50|147:38,1,176.000005371094,2|0,0:0|0:0,0:0:0:0:
0,83,58962,6,0,P|33:73|69:87,1,60,10|0,0:0|0:0,0:0:0:0:
35,154,59397,6,0,P|45:217|61:318,1,155.999992858887,2|0,3:2|0:0,0:0:0:0:
135,281,59832,2,0,P|128:237|121:194,1,88.000002685547,10|0,0:0|0:0,0:0:0:0:
251,64,60266,5,2,3:2:0:0:
200,212,60484,1,2,0:0:0:0:
132,71,60701,1,8,0:0:0:0:
291,164,60919,5,2,0:0:0:0:
291,164,61027,1,2,0:0:0:0:
291,164,61136,1,2,3:2:0:0:
185,10,61353,1,0,3:0:0:0:
121,194,61571,6,0,P|77:202|17:215,1,88.000002685547,10|0,0:0|0:0,0:0:0:0:
58,297,62006,2,0,P|102:289|162:276,1,88.000002685547,2|0,3:2|0:0,0:0:0:0:
97,107,62440,2,0,P|53:115|-7:128,1,88.000002685547,10|0,0:0|0:0,0:0:0:0:
239,39,62875,5,6,3:2:0:0:
313,246,63093,1,2,0:0:0:0:
300,92,63310,5,10,0:0:0:0:
257,311,63528,1,2,0:0:0:0:
185,101,63745,5,2,3:2:0:0:
341,329,63962,2,0,L|450:345,1,88.000002685547,2|8,0:0|0:0,0:0:0:0:
257,165,64397,5,2,0:0:0:0:
257,165,64506,1,2,0:0:0:0:
257,165,64614,1,2,3:2:0:0:
440,251,64832,1,2,0:0:0:0:
367,72,65049,1,10,0:0:0:0:
444,263,65266,2,0,P|448:213|464:72,1,176.000005371094,2|0,0:0|0:0,0:0:0:0:
286,40,65919,6,0,P|256:44|224:48,1,60,10|0,0:0|0:0,0:0:0:0:
159,8,66353,6,0,B|133:57|171:107|171:107|208:153|181:202,1,207.999990478516,2|10,3:2|0:0,0:0:0:0:
166,281,67006,1,2,0:0:0:0:
226,47,67223,5,2,3:2:0:0:
105,229,67440,1,2,3:2:0:0:
331,122,67658,1,10,0:0:0:0:
64,73,67875,1,2,0:0:0:0:
289,241,68093,5,4,3:2:0:0:
475,45,68527,1,4,3:2:0:0:
460,311,68962,1,4,3:2:0:0:
244,78,69397,1,4,3:2:0:0:
296,241,69614,5,8,0:0:0:0:
296,241,69723,1,8,0:0:0:0:
296,241,69832,5,6,3:2:0:0:
333,39,70049,1,2,0:0:0:0:
207,280,70266,5,10,0:2:0:0:
244,78,70483,1,2,0:0:0:0:
385,280,70701,5,2,3:2:0:0:
427,24,70919,2,0,L|411:116,1,88.000002685547,2|8,0:0|0:0,0:0:0:0:
385,280,71353,5,2,0:0:0:0:
385,280,71462,1,2,0:0:0:0:
385,280,71571,1,2,3:2:0:0:
248,115,71788,1,2,0:0:0:0:
217,303,72006,1,10,0:0:0:0:
322,149,72223,6,0,P|325:92|226:34,1,176.000005371094,2|0,0:0|0:0,0:0:0:0:
27,73,72875,6,0,L|92:85,1,60,10|0,0:0|0:0,0:0:0:0:
164,61,73310,5,2,3:2:0:0:
145,274,73527,1,2,0:0:0:0:
102,6,73745,5,10,0:0:0:0:
201,219,73962,1,2,0:0:0:0:
234,32,74180,5,2,3:2:0:0:
126,199,74397,2,0,L|39:183,1,88.000002685547,2|8,0:0|0:0,0:0:0:0:
244,121,74832,5,2,0:0:0:0:
244,121,74940,1,2,0:0:0:0:
244,121,75049,2,0,L|330:136,1,88.000002685547,2|0,3:2|0:0,0:0:0:0:
410,303,75484,2,0,L|380:220,1,88.000002685547,10|0,0:0|0:0,0:0:0:0:
485,69,75919,2,0,L|427:135,1,88.000002685547,2|0,3:2|0:0,0:0:0:0:
299,328,76353,6,0,P|293:298|284:262,1,60,10|0,0:0|0:0,0:0:0:0:
270,183,76788,5,6,3:2:0:0:
114,285,77006,1,2,0:0:0:0:
128,45,77223,5,10,0:0:0:0:
202,257,77440,1,2,0:0:0:0:
240,16,77658,5,2,3:2:0:0:
42,133,77875,2,0,L|22:36,1,88.000002685547,2|8,0:0|0:0,0:0:0:0:
202,257,78310,5,2,0:0:0:0:
202,257,78419,1,2,0:0:0:0:
202,257,78527,1,2,3:2:0:0:
138,74,78745,1,2,0:0:0:0:
87,243,78962,1,10,0:0:0:0:
258,96,79180,2,0,L|358:83,1,88.000002685547,2|0,0:0|3:0,0:0:0:0:
461,60,79614,5,2,0:0:0:0:
329,202,79832,1,10,0:0:0:0:
390,19,80049,1,2,0:0:0:0:
488,220,80266,6,0,P|477:265|471:326,1,88.000002685547,2|0,3:2|0:0,0:0:0:0:
329,202,80701,2,0,P|373:189|429:163,1,88.000002685547,10|0,0:0|0:0,0:0:0:0:
393,349,81136,2,0,P|359:316|309:281,1,88.000002685547,2|0,3:2|0:0,0:0:0:0:
141,224,81571,1,10,0:0:0:0:
232,172,81788,6,0,L|212:346,1,176.000005371094,2|0,0:0|0:0,0:0:0:0:
71,361,82440,2,0,L|80:273,1,88.000002685547,10|0,0:0|0:0,0:0:0:0:
76,163,82875,5,2,3:2:0:0:
77,176,82984,1,8,0:0:0:0:
77,189,83093,2,0,P|55:191|33:195,1,44.0000013427735,10|8,0:0|0:0,0:0:0:0:
15,75,83310,5,10,3:2:0:0:
14,88,83419,1,8,0:0:0:0:
13,101,83528,2,0,P|43:96|79:92,1,44.0000013427735,10|8,0:0|0:0,0:0:0:0:
101,26,83745,6,0,P|172:36|258:48,1,143.999995605469,6|0,3:2|0:0,0:0:0:0:
311,14,84180,2,0,B|334:51|307:92|307:92|281:131|305:167,1,160,10|0,0:0|3:0,0:0:0:0:
324,248,84832,1,2,0:0:0:0:
423,56,85049,1,10,0:0:0:0:
422,70,85484,6,0,L|504:78,1,80,2|0,3:2|0:0,0:0:0:0:
487,184,85919,2,0,L|405:176,1,80,10|0,0:0|0:0,0:0:0:0:
392,282,86353,2,0,L|472:290,1,80,2|0,3:2|0:0,0:0:0:0:
219,179,86788,5,10,0:0:0:0:
280,292,87006,1,2,0:0:0:0:
274,118,87223,6,0,P|211:98|141:164,1,160,0|8,3:2|0:0,0:0:0:0:
150,312,87875,2,0,L|160:226,1,80,2|0,0:0|3:0,0:0:0:0:
76,47,88310,2,0,L|57:205,1,160,2|2,0:0|0:0,0:0:0:0:
0,332,88962,6,0,B|38:351|77:322|77:322|114:292|152:313,1,160,2|8,3:2|0:0,0:0:0:0:
243,229,89614,1,2,0:0:0:0:
174,162,89832,5,0,3:0:0:0:
249,320,90049,1,0,3:0:0:0:
293,156,90266,1,10,0:0:0:0:
149,306,90484,1,8,0:0:0:0:
149,306,90593,1,8,0:0:0:0:
149,306,90701,6,0,P|71:323|19:260,1,143.999995605469,6|0,3:2|0:0,0:0:0:0:
97,245,91136,2,0,P|89:208|73:143,1,80,10|0,0:0|0:0,0:0:0:0:
288,143,91571,2,0,P|297:181|305:221,1,80,2|0,3:2|0:0,0:0:0:0:
202,236,92006,2,0,P|192:197|184:157,1,80,10|0,0:0|0:0,0:0:0:0:
182,0,92440,6,0,P|254:10|346:20,1,160,2|10,3:2|0:0,0:0:0:0:
443,7,93093,1,2,0:0:0:0:
482,235,93310,5,2,3:2:0:0:
397,76,93527,1,2,3:2:0:0:
413,281,93745,5,10,0:0:0:0:
480,82,93962,1,2,0:0:0:0:
346,235,94180,6,0,L|179:224,1,143.999995605469,4|0,3:2|0:0,0:0:0:0:
140,183,94614,2,0,P|126:223|145:271,1,80,10|0,0:0|0:0,0:0:0:0:
84,125,95049,2,0,P|42:132|10:173,1,80,2|0,3:2|0:0,0:0:0:0:
106,47,95484,2,0,P|78:14|27:7,1,80,10|0,0:0|0:0,0:0:0:0:
162,105,95919,6,0,L|358:86,1,160,2|10,3:2|0:0,0:0:0:0:
414,82,96571,1,2,0:0:0:0:
259,198,96788,5,2,3:2:0:0:
185,6,97006,1,2,3:2:0:0:
195,257,97223,5,10,0:0:0:0:
249,54,97441,1,2,0:0:0:0:
279,283,97658,6,0,L|387:299,1,88.000002685547,4|0,3:2|0:0,0:0:0:0:
478,26,98093,5,10,0:0:0:0:
446,280,98310,1,0,3:0:0:0:
326,26,98527,5,10,0:0:0:0:
279,283,98744,1,0,3:0:0:0:
402,64,98962,5,10,0:0:0:0:
366,295,99180,1,8,3:2:0:0:
366,295,99288,1,8,0:0:0:0:
366,295,99397,6,0,P|369:249|386:171,1,88.000002685547,10|0,3:2|0:0,0:0:0:0:
242,53,99832,2,0,P|249:96|252:140,1,88.000002685547,10|2,0:0|3:2,0:0:0:0:
254,153,100158,1,8,0:0:0:0:
253,166,100266,6,0,P|231:169|209:164,1,44.0000013427735,10|8,0:0|0:0,0:0:0:0:
158,231,100484,2,0,P|131:222|100:227,1,44.0000013427735,10|8,0:0|0:0,0:0:0:0:
54,168,100701,1,8,0:0:0:0:
50,149,100809,1,8,0:0:0:0:
48,131,100918,1,8,0:0:0:0:
45,113,101027,1,8,0:0:0:0:
42,95,101136,1,2,0:0:0:0:
68,136,102549,6,0,B|133:100|136:9|79:-21|-6:-7|-31:102|31:208|99:280|189:289|189:289|119:355|54:322|89:295|-7:299|-7:299|83:285|114:217|78:222|106:183|154:180,1,935.999971435548,4|0,3:2|0:0,0:0:0:0:
