osu file format v14

[General]
AudioFilename: audio.mp3
AudioLeadIn: 0
PreviewTime: 55375
Countdown: 0
SampleSet: Soft
StackLeniency: 0.7
Mode: 0
LetterboxInBreaks: 0
WidescreenStoryboard: 1

[Editor]
Bookmarks: 267,14180,28093,42006,55919,68093,69832,83745,101136,102549,106788
DistanceSpacing: 0.3
BeatDivisor: 4
GridSize: 16
TimelineZoom: 1

[Metadata]
Title:Koi no Spirichu
TitleUnicode:恋のスピリッチュ
Artist:solfa feat. Chata
ArtistUnicode:solfa feat. 茶太
Creator:tomatas95
Version:Insane
Source:恋嵐スピリッチュ
Tags:eroge parasol Renran Spirichu iyuna visual novel vn galgame video game パラソル japanese opening op j-pop jpop pop
BeatmapID:4053182
BeatmapSetID:1952184

[Difficulty]
HPDrainRate:4
CircleSize:3.6
OverallDifficulty:7.2
ApproachRate:8
SliderMultiplier:1.5
SliderTickRate:1

[Events]
//Background and Video events
Video,0,"erogedaisuki.mp4"
0,0,"TsubasaWaifu.jpg",0,0
//Break Periods
//Storyboard Layer 0 (Background)
//Storyboard Layer 1 (Fail)
//Storyboard Layer 2 (Pass)
//Storyboard Layer 3 (Foreground)
//Storyboard Layer 4 (Overlay)
//Storyboard Sound Samples

[TimingPoints]
267,434.782608695652,4,2,6,45,1,0
267,-166.666666666667,4,2,6,45,0,0
1136,-166.666666666667,4,2,6,5,0,0
1353,-166.666666666667,4,2,6,40,0,0
2006,-166.666666666667,4,2,6,45,0,0
2875,-166.666666666667,4,2,6,5,0,0
3092,-166.666666666667,4,2,6,40,0,0
3745,-166.666666666667,4,2,6,45,0,0
4397,-166.666666666667,4,2,6,5,0,0
4614,-166.666666666667,4,2,6,40,0,0
5266,-166.666666666667,4,2,6,35,0,0
5484,-166.666666666667,4,2,6,45,0,0
5919,-166.666666666667,4,2,6,5,0,0
6136,-166.666666666667,4,2,6,30,0,0
6353,-166.666666666667,4,2,6,40,0,0
7223,-166.666666666667,4,2,6,45,0,0
8093,-166.666666666667,4,2,6,5,0,0
8310,-166.666666666667,4,2,6,35,0,0
8527,-166.666666666667,4,2,6,30,0,0
8962,-166.666666666667,4,2,6,25,0,0
9832,-166.666666666667,4,2,6,20,0,0
12440,-166.666666666667,4,2,6,35,0,0
13310,-166.666666666667,4,2,6,20,0,0
14180,-142.857142857143,4,2,1,50,0,0
15919,-142.857142857143,4,2,1,45,0,0
16788,-142.857142857143,4,2,1,50,0,0
19180,-142.857142857143,4,2,1,45,0,0
20266,-142.857142857143,4,2,1,50,0,0
21788,-142.857142857143,4,2,1,45,0,0
23745,-142.857142857143,4,2,1,50,0,0
25701,-142.857142857143,4,2,1,45,0,0
27223,-142.857142857143,4,2,1,50,0,0
28093,-142.857142857143,4,2,1,55,0,0
28745,-142.857142857143,4,2,1,50,0,0
29832,-166.666666666667,4,2,6,5,0,0
30266,-142.857142857143,4,2,1,50,0,0
31571,-142.857142857143,4,2,1,55,0,0
32223,-142.857142857143,4,2,1,50,0,0
35049,-142.857142857143,4,2,1,55,0,0
35701,-142.857142857143,4,2,1,50,0,0
36788,-142.857142857143,4,2,1,55,0,0
37440,-142.857142857143,4,2,1,50,0,0
38527,-142.857142857143,4,2,1,55,0,0
39179,-142.857142857143,4,2,1,50,0,0
40266,-142.857142857143,4,2,1,55,0,0
40918,-142.857142857143,4,2,1,50,0,0
41136,-142.857142857143,4,2,1,55,0,0
42006,-111.111111111111,4,2,7,55,0,0
42440,-111.111111111111,4,2,1,60,0,0
45484,-111.111111111111,4,2,1,65,0,0
45919,-111.111111111111,4,2,1,60,0,0
47114,-166.666666666667,4,2,6,5,0,0
47223,-111.111111111111,4,2,1,65,0,0
47658,-111.111111111111,4,2,1,60,0,0
48962,-111.111111111111,4,2,1,65,0,0
49397,-111.111111111111,4,2,1,60,0,0
50375,-166.666666666667,4,2,6,5,0,0
50484,-111.111111111111,4,2,1,60,0,0
52440,-111.111111111111,4,2,1,65,0,0
52875,-111.111111111111,4,2,1,60,0,0
54180,-111.111111111111,4,2,7,65,0,0
55049,-111.111111111111,4,2,1,45,0,0
55158,-111.111111111111,4,2,1,25,0,0
55484,-111.111111111111,4,2,1,55,0,0
55593,-111.111111111111,4,2,1,35,0,0
55919,-90.9090909090909,4,2,4,75,0,1
56245,-90.9090909090909,4,2,4,5,0,1
56353,-90.9090909090909,4,2,1,75,0,1
59288,-90.9090909090909,4,2,4,5,0,1
59397,-90.9090909090909,4,2,1,75,0,1
61462,-90.9090909090909,4,2,4,5,0,1
61571,-90.9090909090909,4,2,1,75,0,1
62875,-90.9090909090909,4,2,3,75,0,1
63093,-90.9090909090909,4,2,1,75,0,1
66245,-90.9090909090909,4,2,4,5,0,1
66353,-90.9090909090909,4,2,1,75,0,1
68093,-90.9090909090909,4,2,7,80,0,1
69397,-90.9090909090909,4,2,7,80,0,0
69614,-90.9090909090909,4,2,1,70,0,0
69832,-90.9090909090909,4,2,3,75,0,1
73201,-90.9090909090909,4,2,4,5,0,1
73310,-90.9090909090909,4,2,3,75,0,1
75375,-90.9090909090909,4,2,4,5,0,1
75484,-90.9090909090909,4,2,3,75,0,1
76680,-90.9090909090909,4,2,3,5,0,1
76788,-90.9090909090909,4,2,4,75,0,1
77006,-90.9090909090909,4,2,1,75,0,1
83093,-90.9090909090909,4,2,1,65,0,1
83310,-90.9090909090909,4,2,1,70,0,1
83527,-90.9090909090909,4,2,1,75,0,1
83745,-100,4,2,4,70,0,0
84071,-100,4,2,4,5,0,0
84180,-100,4,2,6,70,0,0
85375,-100,4,2,4,5,0,0
85484,-100,4,2,6,70,0,0
87114,-100,4,2,4,5,0,0
87223,-100,4,2,6,70,0,0
90701,-100,4,2,4,70,0,0
91027,-100,4,2,4,5,0,0
91136,-100,4,2,6,70,0,0
92332,-100,4,2,4,5,0,0
92441,-100,4,2,6,70,0,0
94180,-100,4,2,1,70,0,0
94506,-100,4,2,4,5,0,0
94614,-100,4,2,6,70,0,0
97658,-90.9090909090909,4,2,3,70,0,0
98093,-90.9090909090909,4,2,6,75,0,0
101136,-100,4,2,6,40,0,0
102549,-200,4,2,3,70,0,0
102875,-200,4,2,3,50,0,0
103310,-200,4,2,3,45,0,0
103745,-200,4,2,3,40,0,0
104180,-200,4,2,3,35,0,0
104614,-200,4,2,3,30,0,0
105049,-200,4,2,3,25,0,0
105484,-200,4,2,3,20,0,0
105919,-200,4,2,3,15,0,0
106353,-200,4,2,3,10,0,0
106788,-100,4,2,3,5,0,0

[Colours]
Combo1 : 232,183,251
Combo2 : 198,250,146
Combo3 : 245,181,150
Combo4 : 139,201,237

[HitObjects]
47,100,267,6,0,B|38:86|31:71|39:45|70:25|70:25|101:49|114:71|93:107,1,179.999994506836,2|0,0:0|0:0,0:0:0:0:
65,176,1353,6,0,P|63:206|76:236,2,44.999998626709,2|2|2,0:0|0:0|0:0,0:0:0:0:
149,193,2006,1,2,0:0:0:0:
65,176,3093,6,0,P|63:206|76:236,2,44.999998626709,2|2|2,0:0|0:0|0:0,0:0:0:0:
149,193,3746,1,2,0:0:0:0:
148,192,4614,6,0,B|146:188|148:173|157:163|175:161|175:161|184:178|185:191|171:200,1,89.9999972534181,2|2,0:0|0:0,0:0:0:0:
300,196,5266,1,2,0:0:0:0:
299,195,5484,2,0,B|301:191|299:176|290:166|272:164|272:164|263:181|261:194|276:202,1,89.9999972534181,2|0,0:0|0:0,0:0:0:0:
220,265,6136,2,0,L|214:303,2,22.4999993133545,2|2|2,0:0|0:0|0:0,0:0:0:0:
223,101,6788,1,2,0:0:0:0:
364,186,7223,1,2,0:0:0:0:
364,186,8310,2,0,P|361:208|359:230,2,44.999998626709,2|2|2,0:0|0:0|0:0,0:0:0:0:
347,97,8962,6,0,B|337:84|334:62|346:38|380:25|380:25|407:53|416:76|392:101,2,179.999994506836,2|2|2,0:0|0:0|0:0,0:0:0:0:
347,97,12440,2,0,B|304:75|259:109|259:109|216:142|175:120,1,179.999994506836,2|2,0:0|0:0,0:0:0:0:
179,122,14180,6,0,P|146:81|83:74,1,104.999996795654,2|0,0:0|0:0,0:0:0:0:
180,143,14832,2,0,P|212:102|275:95,1,104.999996795654,2|0,0:0|0:0,0:0:0:0:
179,164,15484,2,0,P|146:123|83:116,1,104.999996795654,2|0,0:0|0:0,0:0:0:0:
97,113,16353,6,0,P|101:87|111:58,1,52.4999983978272,2|0,0:0|0:0,0:0:0:0:
0,99,16788,2,0,P|16:151|26:206,1,104.999996795654,2|2,0:0|0:0,0:0:0:0:
71,323,17658,6,0,B|45:363|73:382|102:377|116:358|102:325|102:325|77:262|123:190|207:207,1,314.999990386963,2|0,0:0|0:0,0:0:0:0:
180,290,19180,2,0,P|223:299|399:338,1,209.999993591309,2|0,0:0|0:0,0:0:0:0:
468,312,20266,5,2,0:0:0:0:
474,297,20484,1,2,0:0:0:0:
478,214,20701,5,2,0:0:0:0:
484,199,20919,1,2,0:0:0:0:
405,252,21136,6,0,P|356:258|282:268,1,104.999996795654,2|0,0:0|0:0,0:0:0:0:
215,379,21788,2,0,B|182:338|218:286|218:286|234:324|263:332,1,157.499995193482,2|2,0:0|0:0,0:0:0:0:
300,265,22658,6,0,B|332:224|296:172|296:172|280:210|251:218,1,157.499995193482,2|2,0:0|0:0,0:0:0:0:
260,214,23745,2,0,P|234:208|209:199,1,52.4999983978272,2|2,0:0|0:0,0:0:0:0:
146,145,24180,2,0,P|121:154|95:159,1,52.4999983978272,2|0,0:0|0:0,0:0:0:0:
1,300,24614,6,0,B|-38:249|10:178|10:178|32:230|59:236,1,209.999993591309,2|0,0:0|0:0,0:0:0:0:
95,159,25701,2,0,L|89:106,1,52.4999983978272,2|2,0:0|0:0,0:0:0:0:
22,29,26136,2,0,B|73:50|89:108|89:108|99:48|140:21,1,209.999993591309,2|0,0:0|0:0,0:0:0:0:
194,94,27223,5,2,0:0:0:0:
192,110,27440,1,2,0:0:0:0:
228,188,27658,5,2,0:0:0:0:
226,204,27875,1,2,0:0:0:0:
311,170,28093,6,0,P|325:133|297:61,1,104.999996795654,2|0,0:0|0:0,0:0:0:0:
314,185,28745,2,0,P|353:178|401:118,1,104.999996795654,2|0,0:0|0:0,0:0:0:0:
302,195,29397,2,0,P|327:225|403:237,1,104.999996795654,2|0,0:0|0:0,0:0:0:0:
388,241,30266,6,0,P|380:281|374:310,1,52.4999983978272,2|0,0:0|0:0,0:0:0:0:
458,345,30701,2,0,P|468:293|478:242,1,104.999996795654,2|2,0:0|0:0,0:0:0:0:
464,115,31571,6,0,B|509:129|520:97|508:71|486:62|457:84|457:84|403:124|322:99|316:16,1,314.999990386963,2|2,0:0|0:0,0:0:0:0:
402,18,33093,2,0,P|393:61|354:237,1,209.999993591309,2|0,0:0|0:0,0:0:0:0:
392,309,34180,5,2,0:0:0:0:
397,294,34397,1,2,0:0:0:0:
304,294,34614,5,2,0:0:0:0:
299,279,34831,1,2,0:0:0:0:
233,336,35049,6,0,P|181:327|129:318,1,104.999996795654,2|0,0:0|0:0,0:0:0:0:
73,258,35701,2,0,P|46:302|56:353,2,104.999996795654,2|0|2,0:0|0:0|0:0,0:0:0:0:
56,178,36788,2,0,B|91:162|125:194|125:194|162:227|200:211,1,157.499995193482,2|0,0:0|0:0,0:0:0:0:
284,241,37658,5,2,0:0:0:0:
278,255,37875,1,2,0:0:0:0:
364,272,38093,5,2,0:0:0:0:
358,286,38310,1,2,0:0:0:0:
347,183,38527,6,0,P|355:135|370:79,1,104.999996795654,2|0,0:0|0:0,0:0:0:0:
290,57,39180,2,0,P|273:115|263:175,2,104.999996795654,2|2|2,0:0|0:0|0:0,0:0:0:0:
208,32,40266,2,0,P|194:82|184:134,1,104.999996795654,2|0,0:0|0:0,0:0:0:0:
203,217,40919,5,2,0:0:0:0:
269,155,41136,1,2,0:0:0:0:
62,359,42006,6,0,P|57:302|40:206,1,134.999995880127,6|0,3:2|3:0,0:0:0:0:
24,65,42658,1,2,0:0:0:0:
0,150,42875,2,0,P|35:145|87:137,1,67.4999979400635,2|0,3:2|0:0,0:0:0:0:
222,103,43310,1,2,3:2:0:0:
133,76,43527,6,0,L|118:9,1,67.4999979400635,2|0,0:0|3:0,0:0:0:0:
155,167,43962,2,0,L|169:233,1,67.4999979400635,2|0,0:0|3:0,0:0:0:0:
156,331,44397,1,2,0:0:0:0:
156,331,44614,2,0,P|218:304|284:345,1,134.999995880127,2|2,3:2|3:2,0:0:0:0:
362,337,45266,6,0,P|424:364|490:323,1,134.999995880127,2|0,0:0|0:0,0:0:0:0:
410,211,45919,2,0,P|416:244|421:278,1,67.4999979400635,2|0,3:2|0:0,0:0:0:0:
454,131,46353,2,0,P|479:109|506:88,1,67.4999979400635,2|0,3:2|0:0,0:0:0:0:
363,133,46788,2,0,P|331:121|259:93,1,101.249996910095,2|0,3:2|0:0,0:0:0:0:
258,94,47223,6,0,L|241:176,1,67.4999979400635,2|0,3:2|0:0,0:0:0:0:
174,46,47658,2,0,L|157:128,1,67.4999979400635,2|0,3:2|0:0,0:0:0:0:
85,0,48093,2,0,L|68:82,1,67.4999979400635,2|0,3:2|0:0,0:0:0:0:
90,185,48527,1,2,3:2:0:0:
8,136,48745,1,2,0:0:0:0:
18,298,48962,6,0,P|14:262|3:221,1,67.4999979400635,2|0,3:2|0:0,0:0:0:0:
101,341,49397,2,0,P|105:305|116:264,1,67.4999979400635,2|2,3:2|0:0,0:0:0:0:
154,121,49832,1,2,3:2:0:0:
88,187,50049,2,0,L|205:211,1,101.249996910095,2|0,0:0|0:0,0:0:0:0:
197,207,50484,6,0,P|202:141|215:56,1,134.999995880127,2|2,0:0|0:0,0:0:0:0:
284,14,51136,1,2,3:2:0:0:
298,107,51353,2,0,P|293:140|290:174,1,67.4999979400635,2|0,0:0|3:0,0:0:0:0:
453,189,51788,2,0,P|455:155|460:121,1,67.4999979400635,2|0,0:0|3:0,0:0:0:0:
385,66,52223,6,0,P|377:132|367:218,1,134.999995880127,2|0,0:0|0:0,0:0:0:0:
424,284,52875,2,0,P|459:279|500:295,1,67.4999979400635,2|0,3:2|0:0,0:0:0:0:
354,355,53310,1,2,3:2:0:0:
354,355,53527,2,0,P|302:361|235:303,1,134.999995880127,2|2,0:0|0:0,0:0:0:0:
368,198,54180,1,4,3:2:0:0:
54,371,55919,6,0,P|44:309|30:249,1,123.75000377655,6|0,3:2|0:0,0:0:0:0:
28,237,56353,2,0,P|71:229|128:221,1,82.5000025177003,10|0,0:0|0:0,0:0:0:0:
224,155,56788,1,2,3:2:0:0:
137,142,57006,6,0,P|131:102|122:62,1,82.5000025177003,2|8,0:0|0:0,0:0:0:0:
310,149,57440,2,0,P|300:189|294:229,1,82.5000025177003,2|0,0:0|3:2,0:0:0:0:
240,71,57875,5,2,0:0:0:0:
194,236,58093,1,10,0:0:0:0:
248,62,58310,2,0,L|429:43,1,165.000005035401,2|0,0:0|0:0,0:0:0:0:
512,164,58962,2,0,P|458:140|395:199,1,123.75000377655,10|0,0:0|0:0,0:0:0:0:
406,182,59397,6,0,P|414:221|425:273,1,82.5000025177003,2|0,3:2|0:0,0:0:0:0:
334,351,59832,2,0,P|326:312|315:260,1,82.5000025177003,10|0,0:0|0:0,0:0:0:0:
297,107,60266,1,2,3:2:0:0:
406,182,60484,2,0,P|319:191|226:200,1,165.000005035401,2|2,0:0|0:0,0:0:0:0:
88,76,61136,6,0,P|104:135|114:196,1,123.75000377655,0|0,3:0|0:0,0:0:0:0:
114,209,61571,2,0,P|74:219|30:199,1,82.5000025177003,10|0,0:0|0:0,0:0:0:0:
139,338,62006,2,0,P|150:298|189:270,1,82.5000025177003,2|0,3:2|0:0,0:0:0:0:
14,295,62440,2,0,P|42:324|47:372,1,82.5000025177003,10|0,0:0|0:0,0:0:0:0:
66,104,62875,5,6,3:2:0:0:
180,272,63093,1,2,0:0:0:0:
127,37,63310,5,10,0:0:0:0:
78,248,63528,1,2,0:0:0:0:
39,18,63745,5,2,3:2:0:0:
161,167,63962,2,0,L|339:148,1,165.000005035401,2|2,0:0|0:0,0:0:0:0:
483,60,64614,5,2,3:2:0:0:
415,227,64832,1,2,0:0:0:0:
348,53,65049,1,10,0:0:0:0:
415,240,65266,2,0,L|237:259,1,165.000005035401,2|0,0:0|0:0,0:0:0:0:
74,315,65919,2,0,P|64:256|43:177,1,123.75000377655,10|0,0:0|0:0,0:0:0:0:
46,181,66353,6,0,B|86:197|125:162|125:162|162:128|202:145,1,165.000005035401,2|10,3:2|0:0,0:0:0:0:
64,102,67006,5,2,0:0:0:0:
178,225,67223,1,2,3:2:0:0:
137,11,67440,5,0,3:0:0:0:
40,219,67658,1,10,0:0:0:0:
13,0,67875,1,0,3:0:0:0:
257,158,68093,5,4,3:2:0:0:
257,171,68527,1,4,3:2:0:0:
257,184,68962,1,4,3:2:0:0:
257,197,69397,1,4,3:2:0:0:
217,48,69614,5,8,0:0:0:0:
217,48,69723,1,8,0:0:0:0:
217,48,69832,6,0,P|256:43|326:33,1,82.5000025177003,6|2,3:2|0:0,0:0:0:0:
465,80,70266,5,10,0:0:0:0:
418,233,70484,1,2,0:0:0:0:
399,24,70701,5,2,3:2:0:0:
352,177,70919,2,0,P|270:188|188:198,1,165.000005035401,2|2,0:0|0:0,0:0:0:0:
11,272,71571,5,2,3:2:0:0:
74,140,71788,1,2,0:0:0:0:
136,275,72006,1,10,0:0:0:0:
0,93,72223,6,0,P|46:58|147:99,1,165.000005035401,2|0,0:0|0:0,0:0:0:0:
267,218,72875,2,0,P|258:153|244:84,1,123.75000377655,10|0,0:0|0:0,0:0:0:0:
245,83,73310,2,0,L|339:73,1,82.5000025177003,2|2,3:2|0:0,0:0:0:0:
452,111,73745,5,10,0:0:0:0:
373,175,73962,1,2,0:0:0:0:
458,16,74180,1,2,3:2:0:0:
500,192,74397,2,0,P|490:247|476:357,1,165.000005035401,2|2,0:0|0:0,0:0:0:0:
382,316,75049,6,0,P|374:254|363:193,1,123.75000377655,2|0,3:2|0:0,0:0:0:0:
364,181,75484,2,0,L|270:191,1,82.5000025177003,10|0,0:0|0:0,0:0:0:0:
210,311,75919,2,0,L|304:301,1,82.5000025177003,2|0,3:2|0:0,0:0:0:0:
93,368,76353,6,0,P|82:306|69:246,1,123.75000377655,10|0,0:0|0:0,0:0:0:0:
67,234,76788,2,0,P|111:244|161:216,1,82.5000025177003,6|2,3:2|0:0,0:0:0:0:
163,15,77223,5,10,0:0:0:0:
103,162,77440,1,2,0:0:0:0:
37,15,77658,5,2,3:2:0:0:
216,133,77875,2,0,L|301:119,1,82.5000025177003,2|8,0:0|0:0,0:0:0:0:
480,33,78310,6,0,P|426:3|335:61,1,165.000005035401,2|2,0:0|0:0,0:0:0:0:
506,136,78962,1,10,0:0:0:0:
426,165,79180,2,0,L|411:66,1,82.5000025177003,2|0,0:0|3:0,0:0:0:0:
316,202,79614,5,2,0:0:0:0:
224,34,79832,1,10,0:0:0:0:
191,218,80049,1,2,0:0:0:0:
222,22,80266,6,0,L|241:119,1,82.5000025177003,2|0,3:2|0:0,0:0:0:0:
129,273,80701,2,0,L|191:218,1,82.5000025177003,10|0,0:2|0:0,0:0:0:0:
394,228,81136,2,0,L|315:201,1,82.5000025177003,2|0,3:2|0:0,0:0:0:0:
237,102,81571,1,10,0:0:0:0:
222,302,81788,6,0,L|41:324,1,165.000005035401,2|0,0:0|0:0,0:0:0:0:
6,86,82440,5,10,0:0:0:0:
79,227,82658,1,0,3:0:0:0:
40,4,82875,5,2,3:2:0:0:
113,145,83093,1,10,0:0:0:0:
113,145,83201,1,8,0:0:0:0:
113,145,83310,2,0,L|179:134,1,41.2500012588501,10|8,3:2|0:0,0:0:0:0:
211,74,83527,2,0,L|277:63,1,41.2500012588501,8|8,0:0|0:0,0:0:0:0:
295,0,83745,6,0,P|330:42|327:97,1,112.5,6|0,3:2|0:0,0:0:0:0:
326,108,84180,2,0,P|361:117|403:108,1,75,10|0,0:0|0:0,0:0:0:0:
305,224,84614,2,0,P|270:215|228:224,1,75,0|0,3:0|0:0,0:0:0:0:
386,356,85049,2,0,P|394:298|408:232,1,112.5,10|0,0:0|0:0,0:0:0:0:
406,234,85484,6,0,P|443:243|500:254,1,75,2|0,3:2|0:0,0:0:0:0:
305,224,85919,2,0,P|278:251|240:295,1,75,10|0,0:0|0:0,0:0:0:0:
364,141,86353,2,0,P|353:104|334:49,1,75,2|0,3:2|0:0,0:0:0:0:
208,9,86788,2,0,P|226:62|242:116,1,112.5,10|0,0:0|0:0,0:0:0:0:
242,127,87223,6,0,B|204:142|168:109|168:109|134:78|97:94,1,150,0|8,3:2|0:0,0:0:0:0:
32,58,87875,2,0,P|24:94|32:130,1,75,2|0,0:0|3:0,0:0:0:0:
110,244,88310,2,0,P|118:208|110:172,1,75,2|8,0:0|0:0,0:0:0:0:
27,321,88745,1,2,0:0:0:0:
27,321,88962,6,0,P|98:330|193:345,1,150,2|8,3:2|0:0,0:0:0:0:
270,360,89614,2,0,P|271:291|295:194,1,150,2|0,0:0|3:0,0:0:0:0:
320,44,90266,1,10,0:0:0:0:
262,121,90484,1,8,0:0:0:0:
262,121,90593,1,8,0:0:0:0:
262,121,90701,6,0,L|401:145,1,112.5,6|0,3:2|0:0,0:0:0:0:
383,143,91136,2,0,P|389:104|398:62,1,75,10|0,0:0|0:0,0:0:0:0:
483,151,91571,2,0,P|475:187|469:224,1,75,2|0,3:2|0:0,0:0:0:0:
490,351,92006,2,0,P|445:328|376:355,1,112.5,10|0,0:0|0:0,0:0:0:0:
385,354,92440,6,0,B|355:367|321:335|321:335|285:303|247:318,1,150,2|10,3:2|0:0,0:0:0:0:
155,338,93093,2,0,P|147:268|133:165,1,150,2|2,0:0|3:2,0:0:0:0:
77,56,93745,5,10,0:0:0:0:
46,217,93962,1,2,0:0:0:0:
191,116,94180,6,0,L|320:100,1,112.5,4|0,3:2|0:0,0:0:0:0:
313,101,94614,2,0,P|311:61|293:25,1,75,10|0,0:0|0:0,0:0:0:0:
390,151,95049,2,0,P|423:129|445:95,1,75,2|0,3:2|0:0,0:0:0:0:
385,242,95484,2,0,P|420:260|460:262,1,75,10|0,0:0|0:0,0:0:0:0:
308,192,95919,6,0,L|148:211,1,150,2|10,3:2|0:0,0:0:0:0:
23,95,96571,1,2,0:0:0:0:
92,266,96788,5,2,3:2:0:0:
135,53,97006,1,2,3:2:0:0:
17,218,97223,5,10,0:0:0:0:
52,5,97440,1,2,0:0:0:0:
159,209,97658,6,0,P|201:204|260:197,1,82.5000025177003,4|0,3:2|0:0,0:0:0:0:
371,109,98093,5,10,0:0:0:0:
366,315,98310,1,0,3:0:0:0:
322,39,98527,5,10,0:0:0:0:
317,245,98744,1,0,3:0:0:0:
407,31,98962,5,10,0:0:0:0:
246,208,99180,1,8,0:0:0:0:
246,208,99288,1,8,0:0:0:0:
246,208,99397,6,0,P|206:213|165:218,1,82.5000025177003,10|0,0:0|3:0,0:0:0:0:
381,136,99832,2,0,P|421:131|462:126,1,82.5000025177003,10|0,0:0|3:2,0:0:0:0:
278,22,100266,5,10,0:0:0:0:
278,22,100375,1,8,0:0:0:0:
278,22,100484,2,0,L|236:26,1,41.2500012588501,10|8,0:0|0:0,0:0:0:0:
164,81,100701,1,8,0:0:0:0:
164,81,100810,1,8,0:0:0:0:
164,81,100919,2,0,L|122:85,1,41.2500012588501,8|8,0:0|0:0,0:0:0:0:
56,25,101136,1,2,0:0:0:0:
56,25,102549,6,0,B|113:68|188:12|188:12|266:44|268:185|188:216|188:216|100:257|94:397|211:445|283:352|224:298,1,731.25,4|0,3:2|0:0,0:0:0:0:
