osu file format v14

[General]
AudioFilename: audio.mp3
AudioLeadIn: 0
PreviewTime: 48218
Countdown: 0
SampleSet: Soft
StackLeniency: 0.7
Mode: 3
LetterboxInBreaks: 0
SpecialStyle: 0
WidescreenStoryboard: 1

[Editor]
DistanceSpacing: 2.1
BeatDivisor: 4
GridSize: 4
TimelineZoom: 1

[Metadata]
Title:I will
TitleUnicode:I will
Artist:solfa feat. Chata
ArtistUnicode:solfa feat. 茶太
Creator:MCPXiaoBai
Version:Easy
Source:晴のちきっと菜の花びより
Tags:Featured Artist FA Hare Nochi Kitto Nanohana Biyori Parasol iyuna visual novel vn galgame eroge op opening short version video game japanese pop jpop j-pop Muse Dash
BeatmapID:3272584
BeatmapSetID:1602476

[Difficulty]
HPDrainRate:7
CircleSize:4
OverallDifficulty:7
ApproachRate:5
SliderMultiplier:1.4
SliderTickRate:1

[Events]
//Background and Video events
0,0,"frm_title03.jpg",0,0
Video,0,"opening.flv"
//Break Periods
//Storyboard Layer 0 (Background)
//Storyboard Layer 1 (Fail)
//Storyboard Layer 2 (Pass)
//Storyboard Layer 3 (Foreground)
//Storyboard Layer 4 (Overlay)
//Storyboard Sound Samples

[TimingPoints]
1649,697.674418604651,4,2,1,45,1,0
49090,-100.0,4,2,1,45,0,1
70718,-100.0,4,2,1,45,0,0
71416,-100.0,4,2,1,45,0,1
93742,-100.0,4,2,1,45,0,0

[HitObjects]
320,192,1649,1,0,0:0:0:0:
448,192,1649,1,0,0:0:0:0:
64,192,2695,1,0,0:0:0:0:
192,192,2869,1,0,0:0:0:0:
320,192,3044,1,0,0:0:0:0:
448,192,3916,1,0,0:0:0:0:
320,192,4090,1,0,0:0:0:0:
192,192,4265,1,0,0:0:0:0:
448,192,4439,1,0,0:0:0:0:
64,192,4962,1,0,0:0:0:0:
320,192,5137,1,0,0:0:0:0:
192,192,5835,1,0,0:0:0:0:
448,192,6532,1,0,0:0:0:0:
320,192,6765,1,0,0:0:0:0:
192,192,6997,1,0,0:0:0:0:
64,192,7230,1,0,0:0:0:0:
192,192,8102,1,0,0:0:0:0:
320,192,8276,1,0,0:0:0:0:
448,192,8451,1,0,0:0:0:0:
64,192,8625,1,0,0:0:0:0:
320,192,9497,1,0,0:0:0:0:
192,192,9672,1,0,0:0:0:0:
64,192,9846,1,0,0:0:0:0:
448,192,10021,1,0,0:0:0:0:
320,192,10544,1,0,0:0:0:0:
192,192,10718,1,0,0:0:0:0:
448,192,11416,1,0,0:0:0:0:
64,192,11765,1,2,0:0:0:0:
192,192,11939,1,0,0:0:0:0:
320,192,12114,1,8,0:0:0:0:
192,192,12462,1,0,0:0:0:45:HHOpen.wav
320,192,12637,1,2,0:0:0:0:
64,192,12811,128,4,13160:0:0:0:0:
448,192,12811,1,2,0:0:0:0:
192,192,13160,128,2,13509:0:0:0:0:
320,192,13509,128,8,13858:0:0:0:0:
448,192,13858,1,0,0:0:0:0:
64,192,14207,128,2,14555:0:0:0:0:
192,192,14555,128,2,14904:0:0:0:0:
448,192,14904,1,8,0:0:0:0:
320,192,15079,128,0,15428:0:0:0:0:
192,192,15428,1,2,0:0:0:0:
448,192,15602,128,2,15951:0:0:0:0:
320,192,15951,128,2,16300:0:0:0:0:
192,192,16300,128,8,16648:0:0:0:0:
64,192,16648,1,2,0:0:0:0:
448,192,16997,128,2,17346:0:0:0:0:
320,192,17346,128,2,17695:0:0:0:0:
64,192,17695,1,8,0:0:0:0:
192,192,17869,128,0,18218:0:0:0:0:
320,192,18218,1,2,0:0:0:0:
64,192,18393,128,2,18742:0:0:0:0:
320,192,18742,128,2,19090:0:0:0:0:
192,192,19090,1,8,0:0:0:0:
320,192,19439,1,0,0:0:0:0:
64,192,19614,1,2,0:0:0:0:
448,192,19788,128,2,20137:0:0:0:0:
192,192,20137,128,2,20486:0:0:0:0:
320,192,20486,1,8,0:0:0:0:
192,192,20835,1,0,0:0:0:0:
448,192,21009,1,2,0:0:0:0:
64,192,21183,128,2,21532:0:0:0:0:
320,192,21532,128,2,21881:0:0:0:0:
192,192,21881,1,8,0:0:0:0:
320,192,22230,1,0,0:0:0:0:
64,192,22404,1,0,0:0:0:0:
448,192,22579,128,2,22928:0:0:0:0:
192,192,22928,1,2,0:0:0:0:
64,192,23276,128,8,23625:0:0:0:0:
448,192,23625,1,0,0:0:0:45:HHOpen.wav
192,192,23800,1,2,0:0:0:0:
320,192,23974,128,2,24323:0:0:0:0:
448,192,23974,1,4,0:0:0:0:
192,192,24323,128,2,24672:0:0:0:0:
64,192,24672,128,8,25021:0:0:0:0:
192,192,25021,1,0,0:0:0:0:
448,192,25369,128,2,25718:0:0:0:0:
320,192,25718,128,2,26067:0:0:0:0:
192,192,26067,1,8,0:0:0:0:
64,192,26242,128,0,26590:0:0:0:0:
320,192,26590,1,2,0:0:0:0:
192,192,26765,128,2,27114:0:0:0:0:
320,192,27114,128,2,27462:0:0:0:0:
448,192,27462,128,8,27811:0:0:0:0:
320,192,27811,1,2,0:0:0:0:
64,192,28160,128,2,28509:0:0:0:0:
192,192,28509,128,2,28858:0:0:0:0:
320,192,28858,1,8,0:0:0:0:
448,192,29032,128,0,29381:0:0:0:0:
192,192,29381,1,2,0:0:0:0:
320,192,29555,128,2,29904:0:0:0:0:
64,192,29904,128,2,30253:0:0:0:0:
192,192,30253,1,8,0:0:0:0:
448,192,30602,1,0,0:0:0:0:
320,192,30776,1,2,0:0:0:0:
192,192,30951,128,2,31300:0:0:0:0:
448,192,31300,128,2,31648:0:0:0:0:
320,192,31648,1,8,0:0:0:0:
64,192,31997,1,0,0:0:0:0:
192,192,32172,1,2,0:0:0:0:
320,192,32346,128,2,32695:0:0:0:0:
192,192,32695,128,2,33044:0:0:0:0:
64,192,33044,1,8,0:0:0:0:
320,192,33393,1,0,0:0:0:0:
192,192,33567,1,0,0:0:0:0:
448,192,33742,128,2,34090:0:0:0:0:
320,192,34090,1,2,0:0:0:0:
192,192,34439,128,8,34788:0:0:0:0:
64,192,34788,1,0,0:0:0:45:HHOpen.wav
320,192,34962,1,2,0:0:0:0:
64,192,35137,128,2,35486:0:0:0:0:
192,192,35137,1,4,0:0:0:0:
448,192,35486,1,2,0:0:0:0:
320,192,35835,128,8,36183:0:0:0:0:
448,192,36183,1,0,0:0:0:0:
192,192,36358,1,0,0:0:0:0:
448,192,36532,128,2,36881:0:0:0:0:
64,192,36881,1,2,0:0:0:0:
192,192,37230,128,8,37579:0:0:0:0:
64,192,37579,1,0,0:0:0:0:
320,192,37753,1,2,0:0:0:0:
448,192,37928,128,2,38276:0:0:0:0:
192,192,38276,128,2,38625:0:0:0:0:
64,192,38625,1,8,0:0:0:0:
320,192,38800,128,0,39148:0:0:0:0:
448,192,39148,1,0,0:0:0:0:
64,192,39323,128,2,39672:0:0:0:0:
192,192,39672,1,2,0:0:0:0:
320,192,40021,128,8,40369:0:0:0:0:
448,192,40369,1,0,0:0:0:45:HHOpen.wav
192,192,40544,1,2,0:0:0:0:
448,192,40718,128,2,41067:0:0:0:0:
64,192,41067,1,2,0:0:0:0:
192,192,41416,128,8,41765:0:0:0:0:
448,192,41765,1,0,0:0:0:0:
64,192,41939,1,0,0:0:0:0:
320,192,42114,128,2,42462:0:0:0:0:
64,192,42462,128,2,42811:0:0:0:0:
192,192,42811,1,8,0:0:0:0:
448,192,42986,128,0,43335:0:0:0:0:
320,192,43335,1,0,0:0:0:0:
64,192,43509,1,2,0:0:0:0:
192,192,43509,1,4,0:0:0:0:
320,192,43858,1,2,0:0:0:0:
64,192,44207,1,8,0:0:0:0:
448,192,44207,1,0,0:0:0:0:
192,192,44555,1,0,0:0:0:0:
320,192,44904,1,2,0:0:0:0:
448,192,44904,1,0,0:0:0:0:
192,192,45253,1,2,0:0:0:0:
64,192,45602,1,8,0:0:0:0:
448,192,45602,1,0,0:0:0:0:
320,192,45776,1,0,0:0:0:0:
192,192,45951,128,0,46300:0:0:0:45:HHOpen.wav
320,192,46300,1,4,0:0:0:0:
448,192,46300,1,8,0:0:0:0:
64,192,46474,1,8,0:0:0:0:
320,192,46823,1,8,0:0:0:0:
64,192,46997,1,8,0:0:0:0:
192,192,46997,1,0,0:0:0:0:
64,192,47346,1,2,0:0:0:0:
320,192,47521,1,8,0:0:0:0:
448,192,47521,1,0,0:0:0:0:
64,192,47869,1,8,0:0:0:0:
192,192,47869,1,0,0:0:0:0:
448,192,48044,1,8,0:0:0:0:
192,192,48393,1,8,0:0:0:0:
320,192,48393,128,0,48742:0:0:0:0:
64,192,48742,1,0,0:0:0:0:
192,192,48916,1,0,0:0:0:0:
320,192,49090,1,2,0:0:0:0:
448,192,49090,128,4,49439:0:0:0:0:
64,192,49439,1,0,0:0:0:0:
192,192,49614,1,2,0:0:0:0:
320,192,49788,1,8,0:0:0:0:
448,192,49788,1,0,0:0:0:0:
192,192,50137,1,0,0:0:0:0:
448,192,50311,1,0,0:0:0:0:
64,192,50486,128,0,50835:0:0:0:0:
320,192,50835,1,2,0:0:0:0:
192,192,51009,1,0,0:0:0:0:
64,192,51183,1,8,0:0:0:0:
448,192,51183,128,0,51532:0:0:0:0:
320,192,51532,128,0,51881:0:0:0:0:
192,192,51881,128,2,52230:0:0:0:0:
448,192,51881,1,0,0:0:0:0:
64,192,52230,1,0,0:0:0:0:
320,192,52404,1,2,0:0:0:0:
192,192,52579,1,8,0:0:0:0:
448,192,52579,1,0,0:0:0:0:
320,192,52928,1,0,0:0:0:0:
64,192,53102,1,0,0:0:0:0:
448,192,53276,128,0,53625:0:0:0:0:
192,192,53625,1,2,0:0:0:0:
320,192,53800,1,0,0:0:0:0:
64,192,53974,128,8,54323:0:0:0:0:
448,192,53974,1,0,0:0:0:0:
192,192,54323,128,0,54672:0:0:0:0:
64,192,54672,1,2,0:0:0:0:
320,192,54672,128,0,55021:0:0:0:0:
448,192,55021,1,0,0:0:0:0:
192,192,55195,1,2,0:0:0:0:
64,192,55369,1,8,0:0:0:0:
320,192,55369,1,0,0:0:0:0:
192,192,55718,1,0,0:0:0:0:
320,192,55893,1,0,0:0:0:0:
64,192,56067,128,0,56416:0:0:0:0:
448,192,56416,1,2,0:0:0:0:
192,192,56590,1,0,0:0:0:0:
320,192,56765,128,8,57114:0:0:0:0:
448,192,56765,1,0,0:0:0:0:
192,192,57114,128,0,57462:0:0:0:0:
64,192,57462,1,2,0:0:0:0:
448,192,57462,128,0,57811:0:0:0:0:
192,192,57811,1,0,0:0:0:0:
320,192,57986,1,2,0:0:0:0:
64,192,58160,1,8,0:0:0:0:
192,192,58160,1,0,0:0:0:0:
320,192,58509,1,0,0:0:0:0:
64,192,58683,1,0,0:0:0:0:
448,192,58858,128,0,59207:0:0:0:0:
64,192,59207,1,2,0:0:0:0:
192,192,59381,1,0,0:0:0:0:
320,192,59555,1,8,0:0:0:0:
448,192,59555,1,0,0:0:0:0:
64,192,59904,1,0,0:0:0:0:
320,192,60079,1,0,0:0:0:0:
64,192,60253,128,2,60602:0:0:0:0:
192,192,60253,1,4,0:0:0:0:
448,192,60602,1,0,0:0:0:0:
320,192,60776,1,2,0:0:0:0:
64,192,60951,1,8,0:0:0:0:
192,192,60951,1,0,0:0:0:0:
320,192,61300,128,0,61648:0:0:0:0:
448,192,61648,128,0,61997:0:0:0:0:
192,192,61997,1,2,0:0:0:0:
320,192,62172,1,0,0:0:0:0:
64,192,62346,128,8,62695:0:0:0:0:
448,192,62346,1,0,0:0:0:0:
192,192,62695,128,0,63044:0:0:0:0:
64,192,63044,1,2,0:0:0:0:
320,192,63044,128,0,63393:0:0:0:0:
448,192,63393,1,0,0:0:0:0:
192,192,63567,1,2,0:0:0:0:
64,192,63742,1,8,0:0:0:0:
320,192,63742,1,0,0:0:0:0:
192,192,64090,1,0,0:0:0:0:
448,192,64265,1,0,0:0:0:0:
64,192,64439,128,0,64788:0:0:0:0:
320,192,64788,1,2,0:0:0:0:
192,192,64962,1,0,0:0:0:0:
64,192,65137,1,8,0:0:0:0:
448,192,65137,128,0,65486:0:0:0:0:
320,192,65486,128,0,65835:0:0:0:0:
192,192,65835,128,2,66183:0:0:0:0:
448,192,65835,1,4,0:0:0:0:
64,192,66183,1,0,0:0:0:0:
320,192,66358,1,2,0:0:0:0:
192,192,66532,1,8,0:0:0:0:
448,192,66532,1,0,0:0:0:0:
320,192,66881,128,0,67230:0:0:0:0:
64,192,67230,128,0,67579:0:0:0:0:
448,192,67579,1,2,0:0:0:0:
64,192,67928,1,8,0:0:0:0:
192,192,67928,128,0,68276:0:0:0:0:
448,192,68276,1,0,0:0:0:0:
320,192,68451,1,0,0:0:0:0:
64,192,68625,128,2,68974:0:0:0:0:
192,192,68625,1,0,0:0:0:0:
320,192,68974,1,0,0:0:0:0:
192,192,69148,1,2,0:0:0:0:
64,192,69323,1,8,0:0:0:0:
448,192,69323,128,0,69672:0:0:0:0:
320,192,69672,1,0,0:0:0:0:
192,192,69846,1,0,0:0:0:0:
64,192,70021,128,0,70369:0:0:0:0:
192,192,70369,1,2,0:0:0:0:
448,192,70369,128,0,70718:0:0:0:0:
64,192,70718,1,8,0:0:0:0:
320,192,70718,128,0,71067:0:0:0:0:
192,192,71067,1,8,0:0:0:0:
448,192,71242,1,8,0:0:0:0:
64,192,71416,128,2,71765:0:0:0:0:
192,192,71416,1,4,0:0:0:0:
448,192,71765,1,0,0:0:0:0:
320,192,71939,1,2,0:0:0:0:
64,192,72114,1,8,0:0:0:0:
192,192,72114,1,0,0:0:0:0:
320,192,72462,1,0,0:0:0:0:
64,192,72637,1,0,0:0:0:0:
448,192,72811,128,0,73160:0:0:0:0:
192,192,73160,1,2,0:0:0:0:
320,192,73335,1,0,0:0:0:0:
64,192,73509,128,8,73858:0:0:0:0:
448,192,73509,1,0,0:0:0:0:
192,192,73858,128,0,74207:0:0:0:0:
64,192,74207,1,2,0:0:0:0:
320,192,74207,128,0,74555:0:0:0:0:
448,192,74555,1,0,0:0:0:0:
192,192,74730,1,2,0:0:0:0:
64,192,74904,1,8,0:0:0:0:
320,192,74904,1,0,0:0:0:0:
192,192,75253,1,0,0:0:0:0:
448,192,75428,1,0,0:0:0:0:
64,192,75602,128,0,75951:0:0:0:0:
320,192,75951,1,2,0:0:0:0:
192,192,76125,1,0,0:0:0:0:
64,192,76300,1,8,0:0:0:0:
448,192,76300,128,0,76648:0:0:0:0:
320,192,76648,128,0,76997:0:0:0:0:
192,192,76997,128,2,77346:0:0:0:0:
448,192,76997,1,0,0:0:0:0:
64,192,77346,1,0,0:0:0:0:
320,192,77521,1,2,0:0:0:0:
192,192,77695,1,8,0:0:0:0:
448,192,77695,1,0,0:0:0:0:
320,192,78044,1,0,0:0:0:0:
192,192,78218,1,0,0:0:0:0:
448,192,78393,128,0,78742:0:0:0:0:
64,192,78742,1,2,0:0:0:0:
320,192,78916,1,0,0:0:0:0:
64,192,79090,1,8,0:0:0:0:
192,192,79090,128,0,79439:0:0:0:0:
320,192,79439,128,0,79788:0:0:0:0:
64,192,79788,128,2,80137:0:0:0:0:
448,192,79788,1,0,0:0:0:0:
320,192,80137,1,0,0:0:0:0:
192,192,80311,1,2,0:0:0:0:
320,192,80486,1,8,0:0:0:0:
448,192,80486,1,0,0:0:0:0:
192,192,80835,1,0,0:0:0:0:
448,192,81009,1,0,0:0:0:0:
64,192,81183,128,0,81532:0:0:0:0:
448,192,81532,1,2,0:0:0:0:
320,192,81707,1,0,0:0:0:0:
64,192,81881,1,8,0:0:0:0:
192,192,81881,1,0,0:0:0:0:
448,192,82230,1,0,0:0:0:0:
192,192,82404,1,0,0:0:0:0:
320,192,82579,1,2,0:0:0:0:
448,192,82579,128,4,82928:0:0:0:0:
64,192,82928,1,0,0:0:0:0:
192,192,83102,1,2,0:0:0:0:
320,192,83276,1,8,0:0:0:0:
448,192,83276,1,0,0:0:0:0:
192,192,83625,128,0,83974:0:0:0:0:
64,192,83974,128,0,84323:0:0:0:0:
320,192,84323,1,2,0:0:0:0:
192,192,84497,1,0,0:0:0:0:
64,192,84672,1,8,0:0:0:0:
448,192,84672,128,0,85021:0:0:0:0:
320,192,85021,128,0,85369:0:0:0:0:
192,192,85369,128,2,85718:0:0:0:0:
448,192,85369,1,0,0:0:0:0:
64,192,85718,1,0,0:0:0:0:
320,192,85893,1,2,0:0:0:0:
192,192,86067,1,8,0:0:0:0:
448,192,86067,1,0,0:0:0:0:
320,192,86416,1,0,0:0:0:0:
64,192,86590,1,0,0:0:0:0:
448,192,86765,128,0,87114:0:0:0:0:
192,192,87114,1,2,0:0:0:0:
320,192,87288,1,0,0:0:0:0:
64,192,87462,128,8,87811:0:0:0:0:
448,192,87462,1,0,0:0:0:0:
192,192,87811,128,0,88160:0:0:0:0:
64,192,88160,1,2,0:0:0:0:
320,192,88160,128,4,88509:0:0:0:0:
448,192,88509,1,0,0:0:0:0:
192,192,88683,1,2,0:0:0:0:
64,192,88858,1,8,0:0:0:0:
320,192,88858,1,0,0:0:0:0:
448,192,89207,128,0,89555:0:0:0:0:
192,192,89555,128,0,89904:0:0:0:0:
64,192,89904,1,2,0:0:0:0:
320,192,90253,128,8,90602:0:0:0:0:
448,192,90253,1,0,0:0:0:0:
64,192,90602,1,0,0:0:0:0:
192,192,90776,1,0,0:0:0:0:
320,192,90951,1,2,0:0:0:0:
448,192,90951,128,0,91300:0:0:0:0:
192,192,91300,1,0,0:0:0:0:
320,192,91474,1,2,0:0:0:0:
64,192,91648,128,8,91997:0:0:0:0:
448,192,91648,1,0,0:0:0:0:
192,192,91997,1,0,0:0:0:0:
320,192,92172,1,0,0:0:0:0:
448,192,92346,128,0,92695:0:0:0:0:
64,192,92695,1,2,0:0:0:0:
320,192,92695,128,0,93044:0:0:0:0:
192,192,93044,128,8,93393:0:0:0:0:
448,192,93044,1,0,0:0:0:0:
64,192,93393,1,8,0:0:0:0:
448,192,93393,1,0,0:0:0:0:
64,192,93742,1,4,0:0:0:0:
192,192,93742,1,0,0:0:0:0:
448,192,93916,1,0,0:0:0:0:
320,192,94090,1,0,0:0:0:0:
192,192,94265,1,0,0:0:0:0:
64,192,95137,1,0,0:0:0:0:
448,192,95311,1,0,0:0:0:0:
320,192,95486,1,0,0:0:0:0:
192,192,95660,1,0,0:0:0:0:
192,192,96183,1,0,0:0:0:0:
64,192,96532,1,0,0:0:0:0:
448,192,96707,1,0,0:0:0:0:
320,192,96881,1,0,0:0:0:0:
192,192,97055,1,0,0:0:0:0:
192,192,98625,128,0,98974:0:0:0:0:
320,192,98974,128,0,99323:0:0:0:0:
448,192,99323,1,0,0:0:0:0:
64,192,99497,1,0,0:0:0:0:
192,192,99672,1,0,0:0:0:0:
320,192,99846,1,0,0:0:0:0:
320,192,100195,1,0,0:0:0:0:
448,192,100718,1,0,0:0:0:0:
64,192,100893,1,0,0:0:0:0:
192,192,101067,1,0,0:0:0:0:
320,192,101242,1,0,0:0:0:0:
192,192,101590,1,0,0:0:0:0:
320,192,101765,128,0,102114:0:0:0:0:
64,192,102114,1,0,0:0:0:0:
448,192,102288,1,0,0:0:0:0:
320,192,102462,1,0,0:0:0:0:
192,192,102637,1,0,0:0:0:0:
64,192,103509,1,0,0:0:0:0:
192,192,103683,1,0,0:0:0:0:
448,192,103858,1,0,0:0:0:0:
320,192,104032,1,0,0:0:0:0:
192,192,104207,128,0,104555:0:0:0:0:
320,192,104555,128,0,104904:0:0:0:0:
64,192,104904,128,0,110486:0:0:0:0:
448,192,104904,1,0,0:0:0:0:
