osu file format v14

[General]
AudioFilename: audio.mp3
AudioLeadIn: 0
PreviewTime: 53583
Countdown: 0
SampleSet: Soft
StackLeniency: 0.7
Mode: 2
LetterboxInBreaks: 0
WidescreenStoryboard: 0

[Editor]
Bookmarks: 176319
DistanceSpacing: 1
BeatDivisor: 4
GridSize: 8
TimelineZoom: 1.7

[Metadata]
Title:Colorful precious life
TitleUnicode:Colorful precious life
Artist:solfa feat. Chata
ArtistUnicode:solfa feat. 茶太
Creator:Dapuluous
Version:Overdose
Source:恋妹SWEET☆DAYS
Tags:featured artist fa mappers guild mpg SWEET*DAYS colourful opening full version parasol album chronicle ~cat side~ j-pop japanese pop jpop video game eroge vn visual novel Koiimo こいいも -luminate kukkai
BeatmapID:3322047
BeatmapSetID:1627187

[Difficulty]
HPDrainRate:6
CircleSize:4.2
OverallDifficulty:9.3
ApproachRate:9.3
SliderMultiplier:1.9
SliderTickRate:2

[Events]
//Background and Video events
0,0,"wangiwangiwangiaaaa.jpg",0,0
//Break Periods
//Storyboard Layer 0 (Background)
//Storyboard Layer 1 (Fail)
//Storyboard Layer 2 (Pass)
//Storyboard Layer 3 (Foreground)
//Storyboard Layer 4 (Overlay)
//Storyboard Sound Samples

[TimingPoints]
334,333.333333333333,4,2,1,47,1,0
334,-100,4,2,1,50,0,0
10986,-90.9090909090909,4,2,1,65,0,0
21653,-100,4,2,2,50,0,0
40319,-100,4,2,2,60,0,0
41486,-100,4,2,1,65,0,0
53667,-100,4,2,1,75,0,1
75000,-100,4,2,1,47,0,0
85653,-100,4,2,1,39,0,0
96319,-100,4,2,1,55,0,0
104319,-100,4,2,1,65,0,0
117667,-100,4,2,1,75,0,1
139000,-100,4,2,1,50,0,0
139417,-100,4,2,1,5,0,0
139500,-100,4,2,1,50,0,0
139917,-100,4,2,1,5,0,0
140000,-100,4,2,1,50,0,0
140250,-100,4,2,1,5,0,0
140333,-100,4,2,1,50,0,0
140750,-100,4,2,1,5,0,0
140833,-100,4,2,1,50,0,0
141250,-100,4,2,1,5,0,0
141333,-100,4,2,1,50,0,0
141583,-100,4,2,1,5,0,0
141667,-100,4,2,1,50,0,0
142083,-100,4,2,1,5,0,0
142167,-100,4,2,1,50,0,0
142583,-100,4,2,1,5,0,0
142667,-100,4,2,1,50,0,0
142917,-100,4,2,1,5,0,0
143000,-100,4,2,1,50,0,0
143417,-100,4,2,1,5,0,0
143500,-100,4,2,1,50,0,0
143917,-100,4,2,1,5,0,0
144000,-100,4,2,1,50,0,0
152333,-100,4,2,1,70,0,0
176333,-100,4,2,1,48,0,0
186667,-100,4,2,1,55,0,0
187333,-100,4,2,1,65,0,0
190000,-100,4,2,1,65,0,1
191500,-100,4,2,1,75,0,1
197667,-100,4,2,1,65,0,0
202833,-90.9090909090909,4,2,1,65,0,0
215000,-100,4,2,1,30,0,0
218833,-100,4,2,1,15,0,0

[Colours]
Combo1 : 247,208,214
Combo2 : 199,48,98
Combo3 : 241,175,138
Combo4 : 188,116,84

[HitObjects]
240,192,334,6,0,L|240:296,1,95,2|0,0:0|0:0,0:0:0:0:
384,144,667,2,0,L|384:248,1,95,0|2,0:0|0:0,0:0:0:0:
136,80,1167,1,0,0:0:0:0:
248,80,1333,1,2,0:0:0:0:
360,80,1500,1,0,0:0:0:0:
192,192,1667,5,2,0:0:0:0:
112,256,1833,1,0,0:0:0:0:
112,312,2000,1,0,0:0:0:0:
192,248,2167,1,2,0:0:0:0:
456,112,2500,2,0,L|360:112,2,95,0|2|0,0:0|0:0|0:0,0:0:0:0:
200,40,3000,6,0,L|200:136,1,95,2|0,0:0|0:0,0:0:0:0:
336,192,3333,2,0,L|232:192,1,95,0|2,0:0|0:0,0:0:0:0:
432,264,3833,2,0,L|336:264,1,95,0|2,0:0|0:0,0:0:0:0:
240,264,4167,1,0,0:0:0:0:
408,48,4333,6,0,L|304:48,1,95,2|0,0:0|0:0,0:0:0:0:
160,64,4667,2,0,L|264:64,1,95,0|2,0:0|0:0,0:0:0:0:
488,80,5167,1,0,0:0:0:0:
384,80,5333,1,2,0:0:0:0:
488,80,5500,1,0,0:0:0:0:
232,192,5667,6,0,L|128:192,2,95,14|0|0,0:0|0:0|0:0,0:0:0:0:
344,192,6167,1,2,0:0:0:0:
112,80,6500,1,0,0:0:0:0:
224,80,6667,1,2,0:0:0:0:
336,80,6833,1,8,0:0:0:0:
176,160,7000,5,10,0:0:0:0:
280,160,7167,2,0,L|280:256,1,95,0|0,0:0|0:0,0:0:0:0:
128,160,7500,1,2,0:0:0:0:
376,192,7833,1,0,0:0:0:0:
256,192,8000,1,2,0:0:0:0:
136,192,8167,1,0,0:0:0:0:
384,72,8333,5,10,0:0:0:0:
472,136,8499,1,0,0:0:0:0:
472,192,8666,1,0,0:0:0:0:
384,128,8832,1,2,0:0:0:0:
152,192,9167,1,0,0:0:0:0:
56,192,9333,1,2,0:0:0:0:
152,240,9500,1,8,0:0:0:0:
312,192,9667,5,10,0:0:0:0:
152,240,9833,1,2,0:0:0:0:
401,232,10167,2,0,L|496:232,1,95,2|10,0:0|0:0,0:0:0:0:
448,280,10417,1,8,0:0:0:0:
256,40,10500,2,8,L|192:40,1,47.5,8|8,0:1|0:1,0:0:0:0:
376,72,10666,1,8,0:3:0:0:
432,104,10750,1,8,0:3:0:0:
432,144,10833,1,8,0:0:0:0:
376,120,10916,1,8,0:0:0:0:
160,192,11000,6,0,P|88:248|160:312,1,209.000006378174,14|8,0:0|0:1,0:0:0:0:
288,192,11500,1,8,0:0:0:0:
416,192,11667,2,8,L|416:312,1,104.500003189087,10|8,0:0|0:0,0:0:0:0:
288,240,12000,1,8,0:1:0:0:
416,248,12167,2,0,L|416:352,1,104.500003189087,0|8,0:0|0:0,0:0:0:0:
256,192,12500,5,2,0:0:0:0:
416,192,12667,1,8,0:1:0:0:
120,192,12833,2,0,P|88:104|176:64,1,209.000006378174,2|2,0:0|0:0,0:0:0:0:
312,64,13333,1,8,0:1:0:0:
448,64,13500,1,2,0:0:0:0:
120,192,13667,5,14,0:0:0:0:
256,192,13833,1,8,0:0:0:0:
400,200,14000,1,8,0:1:0:0:
256,256,14167,1,0,0:0:0:0:
496,56,14333,1,10,0:0:0:0:
344,48,14499,1,8,0:0:0:0:
496,112,14666,1,8,0:1:0:0:
168,192,14833,6,0,P|96:248|168:312,1,209.000006378174,14|2,0:0|0:0,0:0:0:0:
296,312,15333,1,8,0:1:0:0:
48,48,15500,2,0,L|48:152,1,104.500003189087,2|8,0:0|0:0,0:0:0:0:
176,152,15833,1,2,0:0:0:0:
48,200,16000,1,14,0:0:0:0:
320,144,16167,1,2,0:0:0:0:
88,192,16333,6,0,P|16:248|88:312,1,209.000006378174,14|8,0:0|0:1,0:0:0:0:
224,192,16833,1,0,0:0:0:0:
88,192,17000,1,10,0:0:0:0:
368,56,17167,2,0,L|480:56,1,104.500003189087,2|8,0:0|0:1,0:0:0:0:
208,56,17500,1,2,0:0:0:0:
472,192,17667,6,0,L|472:296,1,104.500003189087,10|0,0:0|0:0,0:0:0:0:
344,192,18000,2,0,L|208:192,1,104.500003189087,8|0,0:1|0:0,0:0:0:0:
376,264,18333,1,10,0:0:0:0:
128,80,18500,2,0,L|24:80,2,104.500003189087,10|8|2,0:0|0:1|0:0,0:0:0:0:
372,192,19000,6,0,L|160:192,1,209.000006378174,14|8,0:0|0:1,0:0:0:0:
296,136,19500,1,8,0:0:0:0:
168,136,19667,1,10,0:0:0:0:
296,136,19833,1,0,0:0:0:0:
424,136,20000,1,8,0:1:0:0:
104,192,20167,5,14,0:0:0:0:
320,192,20500,1,6,0:0:0:0:
72,192,20667,1,10,0:1:0:0:
344,192,20833,1,2,0:0:0:0:
48,192,21000,1,14,0:0:0:0:
368,120,21167,5,8,0:1:0:0:
418,128,21250,1,8,0:1:0:0:
451,167,21333,1,8,0:3:0:0:
451,218,21416,1,8,0:3:0:0:
418,257,21500,1,8,0:0:0:0:
367,265,21583,1,8,0:0:0:0:
176,80,21667,6,0,P|112:136|176:192,1,190,14|8,0:0|0:1,0:0:0:0:
304,192,22167,2,0,P|304:280|208:280,1,190,2|2,0:0|0:0,0:0:0:0:
96,288,22667,1,8,0:1:0:0:
218,289,22833,1,2,0:0:0:0:
96,208,23000,6,0,P|96:120|184:120,1,190,8|8,0:0|0:1,0:0:0:0:
304,104,23500,1,0,0:0:0:0:
432,104,23667,1,10,0:0:0:0:
304,192,23833,1,8,0:0:0:0:
208,192,24000,1,8,0:1:0:0:
304,272,24167,1,0,0:0:0:0:
80,120,24333,6,0,P|24:184|72:264,1,190,8|10,0:0|0:1,0:0:0:0:
208,152,24833,1,0,0:0:0:0:
344,152,25000,1,10,0:0:0:0:
208,248,25167,2,0,L|312:248,1,95,2|8,0:0|0:1,0:0:0:0:
144,56,25500,6,0,L|144:152,1,95,2|0,0:0|0:0,0:0:0:0:
280,192,25833,1,2,0:0:0:0:
144,192,26000,1,10,0:1:0:0:
64,248,26167,1,2,0:0:0:0:
144,312,26333,1,10,0:0:0:0:
272,312,26500,1,8,0:0:0:0:
128,96,26667,2,0,L|24:96,1,95,10|0,0:1|0:0,0:0:0:0:
304,136,27000,6,0,P|368:192|304:256,1,190,10|8,0:0|0:1,0:0:0:0:
216,256,27500,1,0,0:0:0:0:
368,192,27667,2,0,L|368:304,1,95,10|2,0:0|0:0,0:0:0:0:
248,288,28000,1,8,0:1:0:0:
128,288,28167,1,2,0:0:0:0:
280,192,28333,6,0,L|280:80,1,95,8|2,0:0|0:0,0:0:0:0:
152,104,28667,1,10,0:1:0:0:
280,97,28833,1,0,0:0:0:0:
128,192,29000,2,0,L|128:312,1,95,10|0,0:0|0:0,0:0:0:0:
272,192,29333,2,0,L|376:192,1,95,10|0,0:1|0:0,0:0:0:0:
128,136,29667,6,0,P|64:192|128:256,1,190,10|8,0:0|0:1,0:0:0:0:
232,192,30167,1,0,0:0:0:0:
344,192,30333,1,10,0:0:0:0:
192,192,30500,2,0,L|192:304,1,95,2|8,0:0|0:1,0:0:0:0:
352,280,30833,2,0,L|408:280,1,47.5,2|0,0:0|0:0,0:0:0:0:
184,56,31000,5,8,0:0:0:0:
120,56,31083,1,8,0:0:0:0:
120,112,31167,1,8,0:0:0:0:
184,112,31250,1,8,0:0:0:0:
352,128,31333,1,0,1:0:0:0:
400,160,31417,1,0,1:2:0:0:
352,184,31500,1,8,0:0:0:0:
128,192,31667,5,10,0:0:0:0:
16,192,31833,1,8,0:0:0:0:
264,264,32000,1,0,1:0:0:0:
320,264,32083,1,0,1:0:0:0:
144,232,32167,1,8,0:0:0:0:
88,232,32250,1,8,0:0:0:0:
296,96,32333,6,0,L|88:96,1,190,14|8,0:0|0:1,0:0:0:0:
256,192,32833,2,0,P|256:280|168:280,1,190,2|2,0:0|0:0,0:0:0:0:
56,280,33333,1,8,0:1:0:0:
200,160,33499,1,2,0:0:0:0:
320,160,33666,6,0,P|320:72|232:72,1,190,8|10,0:0|0:1,0:0:0:0:
128,80,34166,1,0,0:0:0:0:
16,80,34333,1,10,0:0:0:0:
128,192,34499,1,0,0:0:0:0:
248,192,34666,1,10,0:1:0:0:
96,192,34833,1,0,0:0:0:0:
352,192,35000,6,0,P|416:232|352:296,1,190,10|8,0:0|0:1,0:0:0:0:
240,296,35499,1,2,0:0:0:0:
353,296,35666,1,0,0:0:0:0:
200,248,35833,2,0,L|96:248,1,95,2|8,0:0|0:1,0:0:0:0:
248,56,36166,6,0,L|248:168,1,95,2|8,0:0|0:0,0:0:0:0:
120,152,36499,1,2,0:0:0:0:
272,200,36666,1,8,0:1:0:0:
152,200,36833,1,2,0:0:0:0:
304,192,37000,2,0,L|304:296,1,95,10|0,0:0|0:0,0:0:0:0:
168,64,37333,2,0,L|64:64,1,95,10|0,0:1|0:0,0:0:0:0:
304,104,37667,6,0,L|496:104,1,190,14|8,0:0|0:1,0:0:0:0:
368,168,38166,1,0,0:0:0:0:
248,168,38333,2,0,L|248:280,1,95,10|2,0:0|0:0,0:0:0:0:
368,256,38666,1,8,0:1:0:0:
216,312,38833,1,2,0:0:0:0:
120,312,39000,6,0,L|120:208,1,95,8|2,0:0|0:0,0:0:0:0:
272,120,39333,1,8,0:1:0:0:
152,120,39499,1,2,0:0:0:0:
400,192,39666,2,0,L|296:192,1,95,10|0,0:0|0:0,0:0:0:0:
80,192,40000,2,0,L|24:192,2,47.5,0|0|8,1:2|1:0|0:0,0:0:0:0:
328,128,40333,6,0,P|384:192|328:264,1,190,14|2,0:0|1:2,0:0:0:0:
96,80,40833,1,6,0:0:0:0:
240,80,40999,1,0,0:0:0:0:
96,168,41166,2,0,L|96:264,1,95,2|0,0:0|1:0,0:0:0:0:
344,312,41500,6,0,L|136:312,1,190,6|0,0:0|0:0,0:0:0:0:
400,248,41999,1,6,1:2:0:0:
256,248,42166,1,8,0:0:0:0:
400,200,42333,1,0,1:2:0:0:
152,56,42499,1,8,0:1:0:0:
104,96,42583,1,8,0:1:0:0:
104,144,42666,1,8,0:3:0:0:
152,96,42749,1,8,0:3:0:0:
320,96,42833,1,8,0:0:0:0:
376,96,42916,1,8,0:0:0:0:
216,280,43000,6,0,L|408:280,1,190,14|8,0:0|0:1,0:0:0:0:
288,240,43500,1,2,0:0:0:0:
176,232,43667,2,0,L|176:128,1,95,8|2,0:0|0:0,0:0:0:0:
288,128,44000,1,8,0:1:0:0:
40,80,44167,1,2,0:0:0:0:
136,80,44333,6,0,L|248:80,1,95,8|2,0:0|0:0,0:0:0:0:
80,192,44667,2,0,L|80:296,1,95,8|0,0:1|0:0,0:0:0:0:
328,288,45000,1,10,0:0:0:0:
424,248,45167,1,8,0:0:0:0:
424,160,45333,1,8,0:1:0:0:
328,136,45500,1,0,0:0:0:0:
96,192,45667,6,0,P|96:104|184:104,1,190,10|8,0:0|0:1,0:0:0:0:
424,56,46167,1,2,0:0:0:0:
312,56,46333,1,8,0:0:0:0:
200,56,46500,1,2,0:0:0:0:
312,120,46667,1,8,0:1:0:0:
87,191,46833,6,0,P|23:247|87:303,1,190,2|2,0:0|0:0,0:0:0:0:
208,304,47333,1,8,0:1:0:0:
85,304,47500,1,0,0:0:0:0:
232,64,47667,2,0,L|232:176,1,95,10|2,0:0|0:0,0:0:0:0:
88,72,48000,2,0,L|88:176,1,95,8|2,0:1|0:0,0:0:0:0:
336,232,48333,6,0,L|144:232,1,190,14|8,0:0|0:1,0:0:0:0:
296,80,48833,2,0,L|408:80,2,95,2|8|8,0:0|0:0|0:0,0:0:0:0:
176,80,49333,1,8,0:1:0:0:
400,296,49500,6,0,L|200:296,1,190,6|0,0:0|0:0,0:0:0:0:
328,256,50000,1,8,0:1:0:0:
208,248,50167,2,0,L|208:128,1,95,2|8,0:0|0:0,0:0:0:0:
328,152,50500,1,10,0:0:0:0:
448,152,50667,1,8,0:1:0:0:
208,56,50833,6,0,L|96:56,1,95,14|0,0:0|0:0,0:0:0:0:
272,112,51167,2,0,L|272:216,1,95,2|8,0:0|0:1,0:0:0:0:
120,208,51500,1,2,0:0:0:0:
248,272,51667,2,0,L|248:384,1,95,10|8,0:0|0:0,0:0:0:0:
16,272,52000,1,8,0:1:0:0:
288,192,52167,5,10,0:0:0:0:
488,192,52500,1,2,0:0:0:0:
200,192,52833,1,2,0:0:0:0:
440,192,53000,1,10,0:0:0:0:
176,248,53333,2,8,L|104:248,1,47.5,8|8,0:1|0:1,0:0:0:0:
296,312,53500,2,8,L|368:312,1,47.5,0|0,0:0|0:0,0:0:0:0:
128,112,53667,6,0,L|8:112,1,95,14|2,0:0|0:0,0:0:0:0:
176,192,54000,1,8,0:1:0:0:
416,192,54167,2,0,P|416:280|328:280,1,190,2|2,0:0|0:0,0:0:0:0:
200,192,54667,1,8,0:1:0:0:
328,192,54833,1,2,0:0:0:0:
80,112,55000,5,10,0:0:0:0:
224,112,55167,2,8,L|280:112,1,47.5,10|8,0:0|0:0,0:0:0:0:
80,192,55333,1,8,0:1:0:0:
328,192,55500,2,0,P|416:192|416:280,1,190,10|2,0:0|0:0,0:0:0:0:
280,272,56000,1,8,0:1:0:0:
419,275,56167,1,2,0:0:0:0:
120,192,56333,6,0,L|16:192,1,95,14|0,0:0|0:0,0:0:0:0:
304,192,56667,2,0,L|360:192,1,47.5,8|10,0:1|0:0,0:0:0:0:
184,64,56833,2,0,P|96:64|96:152,1,190,10|2,0:0|0:0,0:0:0:0:
344,96,57333,2,0,L|448:96,1,95,8|0,0:1|0:0,0:0:0:0:
176,192,57667,6,0,L|72:192,1,95,10|8,0:0|0:0,0:0:0:0:
152,232,57917,1,8,0:0:0:0:
336,288,58000,1,10,0:1:0:0:
96,192,58167,2,0,L|96:296,1,95,2|8,0:0|0:0,0:0:0:0:
352,104,58500,1,2,0:0:0:0:
224,104,58667,1,8,0:1:0:0:
96,104,58833,1,10,0:0:0:0:
432,192,59000,5,14,0:0:0:0:
296,192,59167,2,0,L|240:192,1,47.5,8|8,0:0|0:0,0:0:0:0:
432,192,59333,1,8,0:1:0:0:
184,192,59500,2,0,P|120:256|184:304,1,190,10|2,0:0|0:0,0:0:0:0:
304,192,60000,1,8,0:1:0:0:
432,192,60167,1,2,0:0:0:0:
176,192,60333,5,10,0:0:0:0:
448,24,60500,2,0,L|496:24,1,47.5,10|8,0:0|0:0,0:0:0:0:
312,72,60667,1,8,0:1:0:0:
176,72,60833,2,0,L|368:72,1,190,10|8,0:0|0:0,0:0:0:0:
136,152,61333,1,10,0:1:0:0:
288,152,61500,1,0,0:0:0:0:
48,192,61667,6,0,P|48:280|136:280,1,190,14|8,0:0|0:1,0:0:0:0:
368,288,62167,2,0,L|256:288,1,95,2|8,0:0|0:0,0:0:0:0:
416,192,62500,2,0,L|416:88,1,95,2|8,0:0|0:1,0:0:0:0:
144,48,62833,6,0,L|344:48,1,190,14|8,0:0|0:0,0:0:0:0:
72,136,63333,2,0,L|264:136,1,190,14|2,0:1|0:0,0:0:0:0:
312,136,63750,1,8,0:0:0:0:
128,192,63833,2,8,L|128:272,1,47.5,8|8,0:1|0:1,0:0:0:0:
320,192,64000,2,8,L|368:192,1,47.5,8|8,0:3|0:3,0:0:0:0:
152,296,64167,2,8,L|104:296,1,47.5,4|4,0:3|0:3,0:0:0:0:
344,312,64333,5,6,0:0:0:0:
488,312,64500,1,2,0:0:0:0:
344,312,64667,1,8,0:1:0:0:
56,56,64833,2,0,L|256:56,1,190,2|2,0:0|0:0,0:0:0:0:
136,104,65333,1,8,0:1:0:0:
24,104,65499,1,2,0:0:0:0:
288,104,65666,5,10,0:0:0:0:
168,104,65833,2,8,L|112:104,1,47.5,0|0,0:0|0:0,0:0:0:0:
288,176,65999,1,8,0:1:0:0:
48,192,66167,6,0,P|48:280|136:280,1,190,2|2,0:0|0:0,0:0:0:0:
256,256,66666,1,8,0:1:0:0:
384,256,66833,1,2,0:0:0:0:
120,64,67000,6,0,L|16:64,1,95,14|8,0:0|0:0,0:0:0:0:
80,112,67250,1,8,0:0:0:0:
280,136,67333,1,10,0:1:0:0:
160,136,67500,2,0,L|160:232,1,95,2|8,0:0|0:0,0:0:0:0:
424,200,67833,2,0,L|328:200,1,95,2|8,0:0|0:1,0:0:0:0:
80,192,68167,1,6,0:0:0:0:
192,192,68333,6,0,L|296:192,1,95,10|0,0:0|0:0,0:0:0:0:
56,104,68667,1,10,0:1:0:0:
336,104,68833,1,2,0:0:0:0:
88,192,69167,2,0,L|88:288,1,95,2|8,0:0|0:1,0:0:0:0:
336,104,69500,5,6,0:0:0:0:
472,104,69667,1,8,0:0:0:0:
336,160,69833,1,2,0:0:0:0:
472,152,70000,1,8,0:1:0:0:
160,96,70167,6,0,P|96:144|160:208,1,190,2|2,0:0|0:0,0:0:0:0:
264,208,70666,1,8,0:1:0:0:
496,64,70833,6,0,L|392:64,1,95,2|8,0:0|0:0,0:0:0:0:
256,64,71167,2,0,L|168:64,1,47.5,8|8,0:0|0:0,0:0:0:0:
376,192,71333,2,0,L|376:304,1,95,8|0,0:1|0:0,0:0:0:0:
136,256,71667,2,0,L|16:256,1,95,10|8,0:0|0:0,0:0:0:0:
320,264,72000,2,0,L|440:264,1,95,8|0,0:1|0:0,0:0:0:0:
160,192,72333,6,0,P|96:248|160:312,1,190,14|8,0:0|0:1,0:0:0:0:
272,304,72833,1,2,0:0:0:0:
136,304,73000,1,10,0:0:0:0:
272,208,73167,1,8,0:0:0:0:
32,208,73333,1,10,0:1:0:0:
312,48,73500,6,0,P|400:48|400:136,1,190,6|2,0:0|0:0,0:0:0:0:
160,96,74000,2,0,P|72:96|72:184,1,190,14|8,0:1|0:0,0:0:0:0:
288,192,74416,1,8,0:0:0:0:
344,192,74499,1,8,0:1:0:0:
400,192,74583,1,8,0:1:0:0:
184,256,74666,1,8,0:3:0:0:
128,256,74749,1,8,0:3:0:0:
344,64,74833,1,8,0:0:0:0:
400,64,74916,1,8,0:0:0:0:
160,64,74999,5,10,0:0:0:0:
360,192,75333,1,0,0:0:0:0:
112,192,75500,2,0,P|112:288|272:288,1,285,2|0,0:0|0:0,0:0:0:0:
416,192,76167,2,0,L|472:192,1,47.5,0|0,0:0|0:0,0:0:0:0:
296,80,76333,5,2,0:0:0:0:
96,80,76667,1,0,0:0:0:0:
336,80,76833,2,0,P|480:160|368:304,1,380,2|0,0:0|0:0,0:0:0:0:
152,80,77667,6,0,P|48:216|192:320,1,380,2|0,0:0|0:0,0:0:0:0:
472,72,78667,1,2,0:0:0:0:
48,192,79000,6,0,L|144:192,1,95,2|0,0:0|0:0,0:0:0:0:
288,192,79333,2,0,L|288:296,1,95,2|0,0:0|0:0,0:0:0:0:
136,288,79667,2,0,L|248:288,1,95,2|0,0:0|0:0,0:0:0:0:
376,56,80000,2,0,L|480:56,1,95,2|0,0:0|0:0,0:0:0:0:
216,56,80333,6,0,P|136:104|280:256,2,380,2|0|2,0:0|0:0|0:0,0:0:0:0:
416,48,82000,1,2,0:0:0:0:
272,48,82167,1,0,0:0:0:0:
416,112,82333,2,0,P|416:200|328:200,1,190,2|2,0:0|0:0,0:0:0:0:
48,192,83000,6,0,P|216:264|392:192,1,380,2|0,0:0|0:0,0:0:0:0:
272,192,83833,1,0,0:0:0:0:
224,120,84000,1,2,0:0:0:0:
296,120,84167,1,0,0:0:0:0:
56,184,84333,6,0,P|56:272|144:272,1,190,2|0,0:0|0:0,0:0:0:0:
40,320,84833,1,0,0:0:0:0:
312,56,85000,6,0,L|368:56,1,47.5,6|0,0:0|0:0,0:0:0:0:
192,144,85167,2,8,L|192:200,1,47.5,8|8,0:1|0:1,0:0:0:0:
360,192,85333,2,8,L|432:192,1,47.5,8|8,0:3|0:3,0:0:0:0:
240,248,85500,2,8,L|176:248,1,47.5,0|0,0:0|0:0,0:0:0:0:
407,192,85667,6,0,P|464:256|408:328,1,190,14|2,0:0|0:0,0:0:0:0:
280,192,86167,1,2,0:0:0:0:
407,192,86333,2,0,L|408:88,1,95,0|2,0:0|0:0,0:0:0:0:
288,96,86667,1,0,0:0:0:0:
407,97,86833,1,2,0:0:0:0:
160,192,87000,6,0,L|96:264,2,95,0|2|2,0:0|0:0|0:0,0:0:0:0:
280,192,87500,1,0,0:0:0:0:
160,192,87667,2,0,L|160:96,1,95,2|0,0:0|0:0,0:0:0:0:
24,192,88000,2,0,L|24:97,1,95,2|0,0:0|0:0,0:0:0:0:
288,256,88333,6,0,L|96:256,1,190,2|2,0:0|0:0,0:0:0:0:
208,192,88833,1,2,0:0:0:0:
352,192,89000,2,0,L|464:192,1,95,0|2,0:0|0:0,0:0:0:0:
328,96,89333,1,0,0:0:0:0:
208,96,89500,1,2,0:0:0:0:
456,32,89667,6,0,L|344:32,2,95,2|2|0,0:0|0:0|0:0,0:0:0:0:
312,96,90167,1,2,0:0:0:0:
456,88,90333,2,0,L|456:200,1,95,2|0,0:0|0:0,0:0:0:0:
304,240,90667,2,0,L|408:240,1,95,2|0,0:0|0:0,0:0:0:0:
160,56,91000,6,0,P|96:112|168:160,1,190,2|0,0:0|0:0,0:0:0:0:
280,160,91500,1,0,0:0:0:0:
168,240,91667,2,0,L|64:240,1,95,2|2,0:0|0:0,0:0:0:0:
208,192,92000,1,0,0:0:0:0:
448,192,92167,6,0,L|448:96,1,95,2|0,0:0|0:0,0:0:0:0:
328,64,92500,1,0,0:0:0:0:
208,64,92667,2,0,L|96:64,1,95,2|0,0:0|0:0,0:0:0:0:
280,192,93000,2,0,L|280:296,1,95,2|0,0:0|0:0,0:0:0:0:
136,192,93333,2,0,L|32:192,1,95,2|0,0:0|0:0,0:0:0:0:
328,56,93667,6,0,P|384:120|320:192,1,190,2|2,0:0|0:0,0:0:0:0:
208,192,94167,1,0,0:0:0:0:
88,192,94333,2,0,L|88:288,1,95,2|2,0:0|0:0,0:0:0:0:
208,240,94667,1,0,0:0:0:0:
448,272,94833,1,2,0:0:0:0:
352,272,95000,6,0,L|144:272,1,190,8|8,0:0|0:1,0:0:0:0:
64,272,95500,1,0,0:0:0:0:
336,96,95667,2,0,L|432:96,1,95,10|8,0:0|0:0,0:0:0:0:
272,40,96000,2,0,L|376:40,1,95,8|0,0:1|0:0,0:0:0:0:
112,96,96333,6,0,P|48:152|120:208,1,190,14|8,0:0|0:1,0:0:0:0:
240,208,96833,1,2,0:0:0:0:
104,336,97000,2,0,P|104:248|192:248,1,190,8|8,0:0|0:1,0:0:0:0:
304,248,97499,1,2,0:0:0:0:
64,104,97667,6,0,L|256:104,1,190,8|10,0:0|0:1,0:0:0:0:
160,152,98166,1,8,0:0:0:0:
312,40,98333,2,0,L|408:40,1,95,10|0,0:0|0:0,0:0:0:0:
160,96,98666,2,0,L|48:96,1,95,8|8,0:1|0:0,0:0:0:0:
312,128,99000,6,0,P|376:192|312:248,1,190,10|8,0:0|0:1,0:0:0:0:
208,248,99499,1,2,0:0:0:0:
328,248,99666,2,0,L|328:144,1,95,8|2,0:0|0:0,0:0:0:0:
208,152,99999,1,8,0:1:0:0:
88,152,100166,1,2,0:0:0:0:
352,40,100333,6,0,P|440:40|440:128,1,190,8|8,0:0|0:1,0:0:0:0:
320,112,100833,1,2,0:0:0:0:
448,176,101000,2,0,L|448:280,1,95,10|8,0:0|0:0,0:0:0:0:
192,176,101333,2,0,L|96:176,1,95,8|0,0:1|0:0,0:0:0:0:
344,48,101667,6,0,L|144:48,1,190,14|8,0:0|0:1,0:0:0:0:
272,104,102166,1,0,0:0:0:0:
392,104,102333,2,0,L|392:208,1,95,10|2,0:0|0:0,0:0:0:0:
272,208,102666,1,8,0:1:0:0:
33,282,102833,6,0,L|160:280,2,95,2|8|2,0:0|0:0|0:0,0:0:0:0:
184,48,103333,2,0,P|248:96|184:160,1,190,8|10,0:1|0:0,0:0:0:0:
72,160,103833,1,8,0:0:0:0:
216,320,104000,2,0,L|112:320,1,95,10|0,0:1|0:0,0:0:0:0:
384,136,104333,6,0,P|448:192|384:248,1,190,14|10,0:0|0:1,0:0:0:0:
136,72,104833,2,0,P|48:72|48:160,1,190,12|2,0:0|0:0,0:0:0:0:
136,152,105333,1,8,0:1:0:0:
392,192,105500,5,6,0:0:0:0:
264,192,105667,1,8,0:0:0:0:
392,272,105833,1,8,0:0:0:0:
152,80,106000,1,14,0:1:0:0:
296,80,106166,1,0,0:0:0:0:
56,192,106333,6,0,L|56:248,1,47.5,10|8,0:0|0:0,0:0:0:0:
224,160,106500,2,8,L|288:160,1,47.5,8|8,0:1|0:1,0:0:0:0:
432,160,106667,2,8,L|432:216,1,47.5,8|8,0:3|0:3,0:0:0:0:
264,232,106833,2,8,L|200:232,1,47.5,0|0,0:0|0:0,0:0:0:0:
360,192,107000,6,0,P|424:240|352:304,1,190,14|8,0:0|0:1,0:0:0:0:
224,240,107500,1,2,0:0:0:0:
336,232,107667,2,0,L|336:128,1,95,8|2,0:0|0:0,0:0:0:0:
224,128,108000,1,8,0:1:0:0:
472,80,108167,1,2,0:0:0:0:
376,80,108333,6,0,L|264:80,1,95,8|2,0:0|0:0,0:0:0:0:
432,192,108667,2,0,L|432:296,1,95,10|0,0:1|0:0,0:0:0:0:
184,288,109000,1,10,0:0:0:0:
88,248,109167,1,8,0:0:0:0:
88,160,109333,1,8,0:1:0:0:
184,136,109500,1,2,0:0:0:0:
416,192,109667,6,0,P|416:104|328:104,1,190,10|8,0:0|0:1,0:0:0:0:
88,56,110167,1,2,0:0:0:0:
200,56,110333,1,8,0:0:0:0:
312,56,110500,1,2,0:0:0:0:
200,120,110667,1,8,0:1:0:0:
425,191,110833,6,0,P|489:247|425:303,1,190,2|2,0:0|0:0,0:0:0:0:
304,304,111333,1,8,0:1:0:0:
427,304,111500,5,0,0:0:0:0:
280,64,111667,2,0,L|280:176,1,95,10|2,0:0|0:0,0:0:0:0:
424,72,112000,2,0,L|424:176,1,95,8|2,0:1|0:0,0:0:0:0:
176,232,112333,6,0,L|368:232,1,190,14|8,0:0|0:1,0:0:0:0:
216,80,112833,2,0,L|152:168,2,95,2|0|10,0:0|0:0|0:0,0:0:0:0:
336,80,113333,1,8,0:1:0:0:
112,296,113500,6,0,L|312:296,1,190,14|0,0:0|0:0,0:0:0:0:
184,256,114000,1,8,0:1:0:0:
304,248,114167,2,0,L|304:128,1,95,2|8,0:0|0:0,0:0:0:0:
184,152,114500,1,2,0:0:0:0:
64,152,114667,1,8,0:1:0:0:
304,56,114833,6,0,L|416:56,1,95,6|0,0:0|0:0,0:0:0:0:
240,112,115167,2,0,L|128:112,1,95,2|8,0:0|0:1,0:0:0:0:
392,208,115500,1,2,0:0:0:0:
264,208,115667,2,0,L|264:320,1,95,10|8,0:0|0:0,0:0:0:0:
496,272,116000,1,8,0:1:0:0:
208,192,116167,5,10,0:0:0:0:
464,192,116500,1,2,0:0:0:0:
168,192,116833,1,2,0:0:0:0:
464,192,117000,1,10,0:0:0:0:
168,192,117333,6,8,L|120:192,1,47.5,8|8,0:1|0:1,0:0:0:0:
328,288,117500,2,8,L|376:288,1,47.5,0|0,0:0|0:0,0:0:0:0:
184,64,117667,6,0,L|89:64,1,95,14|8,0:0|0:0,0:0:0:0:
144,104,117917,1,8,0:0:0:0:
304,192,118000,1,8,0:1:0:0:
80,192,118167,2,0,P|80:280|168:280,1,190,2|2,0:0|0:0,0:0:0:0:
288,192,118667,1,8,0:1:0:0:
160,192,118833,1,2,0:0:0:0:
432,112,119000,5,10,0:0:0:0:
288,112,119167,2,0,L|232:112,1,47.5,8|8,0:0|0:0,0:0:0:0:
432,192,119333,1,8,0:1:0:0:
184,192,119500,2,0,P|96:192|96:280,1,190,2|2,0:0|0:0,0:0:0:0:
232,272,120000,1,8,0:1:0:0:
368,272,120167,1,2,0:0:0:0:
111,136,120333,6,0,L|16:136,1,95,14|8,0:0|0:0,0:0:0:0:
72,176,120583,1,8,0:0:0:0:
272,192,120667,1,8,0:1:0:0:
152,192,120833,2,0,P|88:248|152:304,1,190,10|8,0:0|0:0,0:0:0:0:
400,64,121333,2,0,L|495:64,1,95,8|0,0:1|0:0,0:0:0:0:
232,192,121667,6,0,L|344:192,1,95,10|8,0:0|0:0,0:0:0:0:
376,192,121917,1,8,0:0:0:0:
200,192,122000,1,8,0:1:0:0:
456,192,122167,2,0,L|456:296,1,95,2|0,0:0|0:0,0:0:0:0:
160,104,122500,1,2,0:0:0:0:
288,104,122667,1,8,0:1:0:0:
416,104,122833,1,8,0:0:0:0:
80,192,123000,5,14,0:0:0:0:
216,192,123167,2,8,L|280:192,1,47.5,0|0,0:0|0:0,0:0:0:0:
80,192,123333,1,8,0:1:0:0:
328,192,123500,2,0,P|392:256|328:304,1,190,2|2,0:0|0:0,0:0:0:0:
208,192,124000,1,8,0:1:0:0:
80,192,124167,1,2,0:0:0:0:
336,192,124333,5,10,0:0:0:0:
208,88,124500,2,8,L|152:88,1,47.5,0|0,0:0|0:0,0:0:0:0:
336,192,124667,1,8,0:1:0:0:
80,192,124833,2,0,B|80:288|80:288|184:288,1,190,2|2,0:0|0:0,0:0:0:0:
320,152,125333,1,10,0:1:0:0:
176,152,125500,1,0,0:0:0:0:
464,192,125667,6,0,P|464:280|376:280,1,190,14|8,0:0|0:1,0:0:0:0:
144,288,126167,2,0,L|256:288,1,95,2|0,0:0|0:0,0:0:0:0:
96,192,126500,2,0,L|96:88,1,95,2|8,0:0|0:1,0:0:0:0:
368,48,126833,6,0,L|168:48,1,190,14|2,0:0|0:0,0:0:0:0:
248,88,127250,1,2,0:0:0:0:
440,136,127333,2,0,L|248:136,1,190,14|10,0:1|0:0,0:0:0:0:
200,136,127750,1,8,0:0:0:0:
384,192,127833,2,8,L|384:272,1,47.5,8|8,0:1|0:1,0:0:0:0:
184,192,128000,2,8,L|136:192,1,47.5,8|8,0:3|0:3,0:0:0:0:
352,296,128167,2,8,L|400:296,1,47.5,0|0,0:0|0:0,0:0:0:0:
184,312,128333,5,14,0:0:0:0:
312,312,128500,2,8,L|376:312,1,47.5,0|0,0:0|0:0,0:0:0:0:
184,312,128667,1,8,0:1:0:0:
456,56,128833,2,0,L|256:56,1,190,2|2,0:0|0:0,0:0:0:0:
376,104,129333,1,8,0:1:0:0:
488,104,129499,1,2,0:0:0:0:
224,104,129666,5,10,0:0:0:0:
344,104,129833,2,8,L|400:104,1,47.5,0|0,0:0|0:0,0:0:0:0:
224,176,129999,1,8,0:1:0:0:
464,192,130167,2,0,P|464:280|376:280,1,190,2|2,0:0|0:0,0:0:0:0:
256,256,130666,1,8,0:1:0:0:
128,256,130833,1,2,0:0:0:0:
376,64,131000,6,0,L|512:64,1,95,14|8,0:0|0:0,0:0:0:0:
416,104,131250,1,8,0:0:0:0:
240,136,131333,1,8,0:1:0:0:
360,136,131500,2,0,L|360:232,1,95,2|0,0:0|0:0,0:0:0:0:
88,200,131833,2,0,L|184:200,1,95,2|8,0:0|0:1,0:0:0:0:
432,192,132167,1,6,0:0:0:0:
320,192,132333,6,0,L|216:192,1,95,10|0,0:0|0:0,0:0:0:0:
456,104,132667,1,10,0:1:0:0:
176,104,132833,1,2,0:1:0:0:
424,192,133167,2,0,L|424:288,1,95,2|8,0:0|0:1,0:0:0:0:
176,104,133500,5,6,0:0:0:0:
288,104,133667,1,8,0:0:0:0:
176,160,133833,2,0,L|120:160,1,47.5,8|8,0:0|0:0,0:0:0:0:
296,160,134000,1,8,0:1:0:0:
176,160,134167,6,0,P|112:208|176:272,1,190,2|2,0:0|0:0,0:0:0:0:
272,272,134666,1,8,0:1:0:0:
16,64,134833,1,2,0:0:0:0:
160,192,135000,5,8,0:0:0:0:
112,192,135083,1,8,0:0:0:0:
64,192,135167,1,8,0:0:0:0:
16,192,135250,1,8,0:0:0:0:
184,248,135333,2,0,L|288:248,1,95,10|0,0:1|0:0,0:0:0:0:
136,160,135667,2,0,L|40:160,1,95,10|8,0:0|0:0,0:0:0:0:
192,264,136000,2,0,L|72:264,1,95,8|0,0:1|0:0,0:0:0:0:
352,192,136333,6,0,P|416:248|352:312,1,190,14|8,0:0|0:1,0:0:0:0:
240,304,136833,1,2,0:0:0:0:
376,304,137000,1,8,0:0:0:0:
240,208,137167,1,8,0:0:0:0:
480,208,137333,1,8,0:1:0:0:
200,48,137500,6,0,P|112:48|112:136,1,190,14|2,0:0|0:0,0:0:0:0:
352,96,138000,2,0,P|440:96|440:184,1,190,14|10,0:0|0:0,0:0:0:0:
224,192,138416,1,8,0:0:0:0:
168,192,138499,1,8,0:1:0:0:
224,248,138583,1,8,0:1:0:0:
440,256,138666,1,8,0:3:0:0:
384,256,138749,1,8,0:3:0:0:
168,64,138833,1,8,0:0:0:0:
112,64,138916,1,8,0:0:0:0:
352,64,139000,6,0,P|408:136|288:224,1,273.125,14|0,0:0|0:0,0:0:0:0:
272,224,139500,2,0,P|176:288|272:360,1,273.125,2|0,0:0|0:0,0:0:0:0:
288,344,140000,2,0,P|384:344|432:280,1,178.125,2|0,0:0|0:0,0:0:0:0:
416,232,140333,6,0,L|136:232,1,273.125,10|0,0:0|0:0,0:0:0:0:
160,152,140833,2,0,P|256:224|160:296,1,273.125,2|0,0:0|0:0,0:0:0:0:
144,296,141333,2,0,P|88:232|144:176,1,178.125,2|0,0:0|0:0,0:0:0:0:
160,128,141667,6,0,L|440:128,1,273.125,10|0,0:0|0:0,0:0:0:0:
416,88,142167,2,0,L|136:88,1,273.125,2|0,0:0|0:0,0:0:0:0:
160,128,142667,2,0,L|344:128,1,178.125,2|0,0:0|0:0,0:0:0:0:
320,168,143000,6,0,P|224:232|320:296,1,273.125,2|0,0:0|0:0,0:0:0:0:
352,288,143500,2,0,P|480:216|424:152,1,273.125,2|0,0:0|0:0,0:0:0:0:
408,152,144000,1,2,0:0:0:0:
24,96,144333,6,0,L|24:208,1,95,14|0,0:0|0:0,0:0:0:0:
192,136,144667,1,0,0:0:0:0:
336,192,144833,2,0,P|400:248|336:304,1,190,2|0,0:0|0:0,0:0:0:0:
192,192,145333,1,2,0:0:0:0:
48,191,145500,1,0,0:0:0:0:
288,48,145667,6,2,L|80:48,1,190,2|0,0:0|0:0,0:0:0:0:
240,96,146167,1,2,0:0:0:0:
376,96,146333,2,0,L|280:96,1,95,0|0,0:0|0:0,0:0:0:0:
432,192,146667,2,0,L|432:296,1,95,2|0,0:0|0:0,0:0:0:0:
176,192,147000,6,0,L|376:192,1,190,10|0,0:0|0:0,0:0:0:0:
248,144,147500,1,2,0:0:0:0:
128,104,147667,2,0,L|224:104,1,95,0|0,0:0|0:0,0:0:0:0:
392,104,148000,1,2,0:0:0:0:
128,184,148333,6,0,P|64:240|128:296,1,190,2|0,0:0|0:0,0:0:0:0:
240,296,148833,1,2,0:0:0:0:
72,224,149000,1,0,0:0:0:0:
192,224,149167,1,0,0:0:0:0:
72,152,149333,1,2,0:0:0:0:
464,64,149667,6,0,P|464:152|376:152,1,190,14|0,0:0|0:0,0:0:0:0:
256,152,150167,1,10,0:0:0:0:
384,184,150333,2,0,L|384:288,1,95,0|0,0:0|0:0,0:0:0:0:
240,240,150667,1,8,0:3:0:0:
96,240,150833,1,8,0:0:0:0:
352,112,151000,6,0,P|448:192|352:280,1,285,14|0,0:0|0:0,0:0:0:0:
96,192,151667,2,0,L|48:192,1,47.5,14|0,0:0|0:0,0:0:0:0:
216,224,151833,2,8,L|280:224,1,47.5,8|8,0:1|0:1,0:0:0:0:
432,224,152000,2,8,L|432:288,1,47.5,8|8,0:3|0:3,0:0:0:0:
256,96,152167,2,8,L|192:96,1,47.5,0|0,0:0|0:0,0:0:0:0:
400,48,152333,6,0,L|296:48,2,95,14|2|8,0:0|0:0|0:1,0:0:0:0:
256,128,152833,2,0,P|256:216|344:216,1,190,2|10,0:0|0:0,0:0:0:0:
392,216,153250,1,8,0:0:0:0:
240,192,153333,1,8,0:1:0:0:
112,192,153500,1,2,0:0:0:0:
360,72,153667,6,0,L|464:72,2,95,8|2|8,0:0|0:0|0:1,0:0:0:0:
192,72,154167,2,0,P|128:128|192:184,1,190,2|8,0:0|0:0,0:0:0:0:
248,184,154583,1,8,0:0:0:0:
392,184,154667,2,0,L|496:184,1,95,8|0,0:1|0:0,0:0:0:0:
224,272,155000,5,14,0:0:0:0:
344,272,155167,1,2,0:0:0:0:
464,272,155333,1,8,0:1:0:0:
224,160,155500,1,10,0:0:0:0:
80,160,155667,2,0,L|80:264,1,95,0|10,0:0|0:0,0:0:0:0:
144,160,155917,1,8,0:0:0:0:
312,80,156000,1,8,0:1:0:0:
80,80,156167,1,6,0:0:0:0:
312,192,156333,5,10,0:0:0:0:
464,192,156499,1,2,0:0:0:0:
224,272,156667,1,8,0:1:0:0:
392,64,156833,1,2,0:0:0:0:
248,120,157000,2,0,L|376:120,1,95,8|8,0:0|0:0,0:0:0:0:
288,160,157250,1,8,0:0:0:0:
120,192,157333,1,8,0:1:0:0:
376,192,157500,1,2,0:0:0:0:
120,192,157667,6,0,P|120:280|208:280,1,190,14|8,0:0|0:1,0:0:0:0:
304,280,158167,1,2,0:0:0:0:
176,240,158333,2,0,L|176:136,1,95,8|2,0:0|0:0,0:0:0:0:
248,144,158583,1,2,0:0:0:0:
448,152,158667,2,0,L|448:256,1,95,8|2,0:1|0:0,0:0:0:0:
184,192,159000,5,8,0:0:0:0:
280,192,159167,1,0,0:0:0:0:
376,192,159333,1,8,0:1:0:0:
88,160,159500,2,0,P|24:216|96:272,1,190,2|2,0:0|0:0,0:0:0:0:
136,272,159917,1,8,0:0:0:0:
312,56,160000,2,0,L|424:56,1,95,8|0,0:1|0:0,0:0:0:0:
152,136,160333,5,14,0:0:0:0:
304,136,160500,1,2,0:0:0:0:
456,136,160667,1,8,0:1:0:0:
208,232,160833,2,0,L|424:232,1,190,2|10,0:0|0:0,0:0:0:0:
336,272,161250,1,8,0:0:0:0:
168,80,161333,1,8,0:1:0:0:
424,192,161500,6,0,L|424:288,1,95,6|0,0:0|0:0,0:0:0:0:
168,152,161833,1,14,0:0:0:0:
424,144,162000,1,8,0:1:0:0:
168,224,162167,2,0,L|64:224,1,95,6|10,0:0|0:0,0:0:0:0:
136,272,162417,1,8,0:0:0:0:
328,224,162500,6,8,L|392:224,1,47.5,0|0,0:0|0:0,0:0:0:0:
208,72,162667,2,8,L|144:72,1,47.5,8|8,0:1|0:1,0:0:0:0:
360,56,162833,2,8,L|432:56,1,47.5,8|8,0:1|0:1,0:0:0:0:
192,192,163000,6,0,L|56:192,1,95,14|2,0:0|0:0,0:0:0:0:
352,304,163333,1,8,0:1:0:0:
224,304,163500,1,2,0:0:0:0:
352,240,163667,1,10,0:0:0:0:
256,80,163833,1,10,0:0:0:0:
320,80,163917,1,8,0:0:0:0:
384,80,164000,1,8,0:1:0:0:
120,136,164167,6,0,P|56:192|128:240,1,190,2|2,0:0|0:0,0:0:0:0:
344,192,164667,1,8,0:1:0:0:
488,192,164833,1,2,0:0:0:0:
344,240,165000,1,8,0:0:0:0:
176,80,165167,2,8,L|240:80,1,47.5,0|0,0:0|0:0,0:0:0:0:
384,80,165333,1,8,0:1:0:0:
216,192,165500,1,2,0:0:0:0:
472,192,165667,5,14,0:0:0:0:
344,256,165833,1,2,0:0:0:0:
216,256,166000,1,10,0:1:0:0:
472,328,166167,2,0,L|472:224,1,95,2|8,0:0|0:0,0:0:0:0:
184,48,166500,2,0,L|184:112,1,47.5,10|8,0:0|0:0,0:0:0:0:
248,96,166667,1,8,0:1:0:0:
16,192,166833,6,0,L|224:192,1,190,14|2,0:0|0:0,0:0:0:0:
376,192,167333,2,0,L|376:296,1,95,8|2,0:1|0:0,0:0:0:0:
224,192,167667,1,8,0:0:0:0:
376,64,167833,2,8,L|432:64,1,47.5,0|0,0:0|0:0,0:0:0:0:
224,96,168000,2,0,L|104:96,1,95,8|0,0:1|0:0,0:0:0:0:
384,192,168333,6,0,P|408:280|320:304,1,190,14|8,0:0|0:1,0:0:0:0:
216,192,168833,1,2,0:0:0:0:
384,192,169000,2,0,L|384:97,1,95,10|8,0:0|0:0,0:0:0:0:
312,96,169250,1,8,0:0:0:0:
128,192,169333,1,10,0:1:0:0:
376,288,169500,6,0,L|480:288,2,95,2|8|2,0:0|0:0|0:0,0:0:0:0:
216,288,170000,1,8,0:1:0:0:
456,56,170167,2,0,L|456:152,1,95,2|8,0:0|0:0,0:0:0:0:
208,56,170500,2,8,L|208:112,1,47.5,0|0,0:0|0:0,0:0:0:0:
288,104,170667,1,8,0:1:0:0:
48,192,170833,1,2,0:0:0:0:
312,192,171000,5,14,0:0:0:0:
176,192,171167,1,2,0:0:0:0:
448,192,171333,1,8,0:1:0:0:
144,272,171500,1,2,0:0:0:0:
288,272,171667,1,10,0:0:0:0:
432,272,171833,2,10,L|432:216,1,47.5,2|2,0:0|0:0,0:0:0:0:
240,192,172000,1,10,0:1:0:0:
16,192,172167,5,14,0:0:0:0:
176,72,172333,1,2,0:0:0:0:
336,72,172500,1,10,0:0:0:0:
96,192,172667,2,0,L|96:304,1,95,10|2,0:1|0:0,0:0:0:0:
320,280,173000,1,10,0:0:0:0:
96,192,173167,2,8,L|96:240,1,47.5,10|8,0:0|0:0,0:0:0:0:
320,192,173333,1,8,0:1:0:0:
192,192,173500,1,2,0:0:0:0:
480,192,173667,6,0,L|480:304,1,95,14|2,0:0|0:0,0:0:0:0:
240,88,174000,1,8,0:1:0:0:
464,88,174167,1,2,0:0:0:0:
176,160,174333,1,10,0:0:0:0:
336,160,174500,1,8,0:0:0:0:
96,160,174667,1,10,0:1:0:0:
384,160,174833,1,14,0:0:0:0:
88,288,175167,5,14,0:0:0:0:
232,287,175333,1,10,0:0:0:0:
480,112,175500,1,2,0:0:0:0:
240,192,175667,2,0,L|144:192,1,95,14|8,0:0|0:1,0:0:0:0:
208,240,175917,1,8,0:1:0:0:
400,232,176000,2,8,L|472:232,1,47.5,8|8,0:3|0:3,0:0:0:0:
232,328,176167,2,8,L|168:328,1,47.5,0|0,0:0|0:0,0:0:0:0:
376,64,176333,6,0,L|480:64,1,95,10|2,0:0|0:0,0:0:0:0:
360,112,176667,1,0,0:0:0:0:
264,112,176833,2,0,P|200:168|272:216,1,190,2|0,0:0|0:0,0:0:0:0:
360,216,177333,1,2,0:0:0:0:
456,216,177500,1,0,0:0:0:0:
200,224,177667,6,0,L|160:224,1,23.75,2|0,0:0|0:0,0:0:0:0:
240,48,177833,2,0,P|304:104|232:152,1,190,2|2,0:0|0:0,0:0:0:0:
40,192,178500,2,0,L|152:192,2,95,2|0|0,0:0|0:0|0:0,0:0:0:0:
288,136,179000,6,0,P|352:192|280:240,1,190,2|0,0:0|0:0,0:0:0:0:
160,88,179500,2,0,P|96:144|168:192,1,190,2|0,0:0|0:0,0:0:0:0:
256,192,180000,1,2,0:0:0:0:
152,248,180167,1,0,0:0:0:0:
408,40,180333,6,0,L|448:40,1,23.75,2|0,0:0|0:0,0:0:0:0:
256,104,180667,1,2,0:0:0:0:
360,104,180833,2,0,L|360:208,1,95,2|0,0:0|0:0,0:0:0:0:
256,184,181167,1,0,0:0:0:0:
104,192,181333,2,0,L|104:296,1,95,2|0,0:0|0:0,0:0:0:0:
360,296,181667,5,6,0:0:0:0:
264,296,181833,2,0,P|199:243|263:189,1,190,2|0,0:0|0:0,0:0:0:0:
456,96,182500,1,0,0:0:0:0:
312,96,182667,1,2,0:0:0:0:
456,40,182833,1,0,0:0:0:0:
200,40,183000,6,0,L|80:40,1,95,2|0,0:0|0:0,0:0:0:0:
256,120,183333,2,0,L|376:120,1,95,2|0,0:0|0:0,0:0:0:0:
96,120,183667,2,0,L|96:240,1,95,2|0,0:0|0:0,0:0:0:0:
360,48,184000,2,0,L|488:48,1,95,2|0,0:0|0:0,0:0:0:0:
192,296,184333,6,0,P|127:243|191:189,1,190,2|0,0:0|0:0,0:0:0:0:
384,192,185000,1,0,0:0:0:0:
240,56,185167,2,0,L|352:56,1,95,2|0,0:0|0:0,0:0:0:0:
184,144,185500,1,2,0:0:0:0:
448,96,185667,6,0,L|448:288,1,190,8|2,0:0|0:0,0:0:0:0:
160,192,186333,1,0,0:0:0:0:
328,192,186500,1,2,0:0:0:0:
72,272,186667,2,8,L|144:272,1,47.5,10|10,0:1|0:1,0:0:0:0:
312,264,186833,2,8,L|376:264,1,47.5,10|10,0:1|0:1,0:0:0:0:
120,48,187000,6,0,L|120:152,1,95,10|0,0:0|0:0,0:0:0:0:
456,48,187333,2,0,L|240:48,1,190,14|0,0:0|0:0,0:0:0:0:
400,128,187833,1,4,0:3:0:0:
152,128,188000,1,4,0:3:0:0:
400,192,188167,6,0,L|504:192,2,95,10|0|2,0:0|0:0|0:0,0:0:0:0:
144,192,188667,2,0,P|81:246|146:299,1,190,14|0,0:0|0:0,0:0:0:0:
280,192,189167,1,4,0:3:0:0:
416,192,189333,1,4,0:3:0:0:
128,64,189500,2,0,L|32:64,2,95,10|2|0,0:0|0:0|0:0,0:0:0:0:
432,192,190000,5,14,0:0:0:0:
176,192,190166,2,0,L|280:192,1,95,0|0,0:0|0:0,0:0:0:0:
424,104,190500,1,2,0:0:0:0:
176,104,190666,1,10,0:1:0:0:
424,192,191000,6,0,L|424:288,1,95,10|0,0:0|0:0,0:0:0:0:
176,104,191333,1,8,0:1:0:0:
448,104,191500,1,2,0:0:0:0:
40,192,191833,2,0,L|40:288,1,95,10|0,0:0|0:0,0:0:0:0:
288,48,192166,5,6,0:0:0:0:
152,48,192333,1,8,0:0:0:0:
288,120,192499,1,2,0:0:0:0:
152,120,192666,1,8,0:1:0:0:
408,192,192833,6,0,P|472:240|408:304,1,190,2|2,0:0|0:0,0:0:0:0:
312,192,193332,1,8,0:1:0:0:
64,64,193500,6,0,L|168:64,2,95,2|8|8,0:0|0:0|0:0,0:0:0:0:
128,112,193917,1,8,0:0:0:0:
304,72,194000,2,0,L|424:72,1,95,10|0,0:1|0:0,0:0:0:0:
248,192,194333,2,0,L|152:192,1,95,10|8,0:0|0:0,0:0:0:0:
408,264,194666,2,0,L|408:168,1,95,10|0,0:1|0:0,0:0:0:0:
120,192,194999,6,0,P|56:248|120:312,1,190,14|8,0:0|0:1,0:0:0:0:
240,312,195499,1,2,0:0:0:0:
376,312,195666,1,8,0:0:0:0:
240,216,195833,1,2,0:0:0:0:
480,216,195999,1,10,0:1:0:0:
200,48,196166,6,0,P|112:48|112:136,1,190,14|2,0:0|0:0,0:0:0:0:
352,96,196666,2,0,P|440:96|440:184,1,190,14|10,0:0|0:0,0:0:0:0:
152,192,197167,2,8,L|224:192,1,47.5,8|8,0:1|0:1,0:0:0:0:
360,192,197333,2,8,L|416:192,1,47.5,8|8,0:3|0:3,0:0:0:0:
192,272,197500,2,8,L|120:272,1,47.5,0|0,0:0|0:0,0:0:0:0:
336,40,197667,5,14,0:0:0:0:
208,40,197833,2,8,L|144:40,1,47.5,10|8,0:0|0:0,0:0:0:0:
304,104,198000,1,8,0:1:0:0:
416,176,198167,1,2,0:0:0:0:
416,232,198333,1,8,0:0:0:0:
304,160,198500,1,8,0:0:0:0:
56,160,198667,2,0,L|56:264,1,95,8|0,0:1|0:0,0:0:0:0:
200,264,199000,5,10,0:0:0:0:
448,264,199167,2,0,L|504:264,1,47.5,10|8,0:0|0:0,0:0:0:0:
344,152,199334,1,8,0:1:0:0:
240,152,199500,2,0,P|208:72|296:40,1,190,2|2,0:0|0:0,0:0:0:0:
392,40,200000,1,8,0:1:0:0:
496,40,200167,1,0,0:0:0:0:
208,192,200333,6,0,L|160:192,1,47.5,14|8,0:0|0:0,0:0:0:0:
336,192,200500,1,8,0:0:0:0:
192,256,200667,1,8,0:1:0:0:
336,256,200834,1,2,0:0:0:0:
424,192,201000,1,8,0:0:0:0:
424,136,201166,1,8,0:0:0:0:
176,144,201333,1,8,0:1:0:0:
56,144,201500,1,0,0:0:0:0:
320,192,201667,5,14,0:0:0:0:
56,192,201833,1,10,0:0:0:0:
456,192,202167,1,2,0:0:0:0:
168,256,202500,2,0,L|64:256,1,95,2|0,0:0|0:0,0:0:0:0:
352,192,202833,6,0,L|480:192,2,104.500003189087,14|0|8,0:0|0:0|0:0,0:0:0:0:
192,192,203333,1,8,0:1:0:0:
304,192,203500,1,0,0:0:0:0:
192,192,203667,2,0,L|192:312,1,104.500003189087,10|8,0:0|0:0,0:0:0:0:
352,288,204000,1,8,0:1:0:0:
72,192,204167,2,0,L|72:296,1,104.500003189087,0|8,0:0|0:0,0:0:0:0:
344,192,204500,5,2,0:0:0:0:
72,192,204667,1,8,0:1:0:0:
344,192,204833,2,0,P|376:104|288:64,1,209.000006378174,2|2,0:0|0:0,0:0:0:0:
168,64,205333,1,10,0:1:0:0:
48,64,205500,1,2,0:0:0:0:
392,192,205667,5,14,0:0:0:0:
256,192,205833,1,0,0:0:0:0:
112,200,206000,1,8,0:1:0:0:
256,256,206167,1,2,0:0:0:0:
16,56,206333,1,8,0:0:0:0:
168,48,206499,1,2,0:0:0:0:
16,112,206666,1,8,0:1:0:0:
344,192,206833,6,0,P|416:248|344:312,1,209.000006378174,14|2,0:0|0:0,0:0:0:0:
216,312,207333,1,8,0:1:0:0:
464,48,207500,2,0,L|464:152,1,104.500003189087,2|8,0:0|0:0,0:0:0:0:
336,152,207833,1,2,0:0:0:0:
464,200,208000,1,14,0:1:0:0:
192,144,208167,1,2,0:0:0:0:
424,192,208333,6,0,P|496:248|424:312,1,209.000006378174,14|8,0:0|0:1,0:0:0:0:
288,192,208833,1,2,0:0:0:0:
424,192,209000,1,8,0:0:0:0:
144,56,209167,2,0,L|32:56,1,104.500003189087,2|8,0:0|0:1,0:0:0:0:
304,56,209500,1,2,0:0:0:0:
40,192,209667,6,0,L|40:296,1,104.500003189087,10|0,0:0|0:0,0:0:0:0:
168,192,210000,2,0,L|304:192,1,104.500003189087,8|2,0:1|0:0,0:0:0:0:
136,264,210333,1,8,0:0:0:0:
384,80,210500,2,0,L|488:80,2,104.500003189087,2|8|2,0:0|0:1|0:0,0:0:0:0:
140,192,211000,6,0,L|352:192,1,209.000006378174,14|8,0:0|0:1,0:0:0:0:
216,136,211500,1,2,0:0:0:0:
344,136,211667,1,8,0:0:0:0:
216,136,211833,1,2,0:0:0:0:
88,136,212000,1,8,0:1:0:0:
408,192,212167,5,14,0:0:0:0:
136,192,212500,1,6,0:0:0:0:
384,192,212667,1,8,0:1:0:0:
112,192,212833,1,2,0:0:0:0:
408,192,213000,1,14,0:0:0:0:
272,192,213167,2,0,L|272:244,1,52.2500015945435,8|8,0:0|0:1,0:0:0:0:
440,272,213333,2,0,L|440:328,1,52.2500015945435,8|8,0:0|0:0,0:0:0:0:
168,192,213500,5,14,0:0:0:0:
440,80,213833,1,14,0:0:0:0:
192,80,214000,1,8,0:1:0:0:
464,80,214166,1,2,0:0:0:0:
168,80,214333,1,14,0:0:0:0:
304,192,214500,2,8,L|304:256,1,52.2500015945435,8|8,0:1|0:1,0:0:0:0:
136,192,214667,2,8,L|136:248,1,52.2500015945435,8|8,0:3|0:3,0:0:0:0:
392,192,214833,5,14,0:0:0:0:
256,192,215000,12,0,218833,0:0:0:0:
