osu file format v14

[General]
AudioFilename: audio.mp3
AudioLeadIn: 0
PreviewTime: 53583
Countdown: 0
SampleSet: Soft
StackLeniency: 0.7
Mode: 2
LetterboxInBreaks: 0
WidescreenStoryboard: 1

[Editor]
Bookmarks: 21653,53653,74986,117653,138986,176319
DistanceSpacing: 0.7
BeatDivisor: 4
GridSize: 8
TimelineZoom: 1.7

[Metadata]
Title:Colorful precious life
TitleUnicode:Colorful precious life
Artist:solfa feat. Chata
ArtistUnicode:solfa feat. 茶太
Creator:Dapuluous
Version:Lumi's Platter
Source:恋妹SWEET☆DAYS
Tags:featured artist fa mappers guild mpg SWEET*DAYS colourful opening full version parasol album chronicle ~cat side~ j-pop japanese pop jpop video game eroge vn visual novel Koiimo こいいも -luminate kukkai
BeatmapID:3322046
BeatmapSetID:1627187

[Difficulty]
HPDrainRate:4
CircleSize:3.5
OverallDifficulty:8
ApproachRate:8
SliderMultiplier:1.6
SliderTickRate:2

[Events]
//Background and Video events
0,0,"wangiwangiwangiaaaa.jpg",0,0
//Break Periods
//Storyboard Layer 0 (Background)
//Storyboard Layer 1 (Fail)
//Storyboard Layer 2 (Pass)
//Storyboard Layer 3 (Foreground)
//Storyboard Layer 4 (Overlay)
//Storyboard Sound Samples

[TimingPoints]
334,333.333333333333,4,2,1,50,1,0
334,-90.9090909090909,4,2,1,50,0,0
11000,-90.9090909090909,4,2,1,65,0,0
21667,-90.9090909090909,4,2,2,50,0,0
40333,-90.9090909090909,4,2,2,60,0,0
41500,-90.9090909090909,4,2,1,65,0,0
53667,-90.9090909090909,4,2,1,75,0,1
75000,-90.9090909090909,4,2,1,47,0,0
85667,-90.9090909090909,4,2,1,39,0,0
96333,-90.9090909090909,4,2,1,55,0,0
104333,-90.9090909090909,4,2,1,65,0,0
107000,-90.9090909090909,4,2,1,50,0,0
117667,-90.9090909090909,4,2,1,75,0,1
139000,-90.9090909090909,4,2,1,50,0,0
139417,-90.9090909090909,4,2,1,5,0,0
139500,-90.9090909090909,4,2,1,50,0,0
139917,-90.9090909090909,4,2,1,5,0,0
140000,-90.9090909090909,4,2,1,50,0,0
140250,-90.9090909090909,4,2,1,5,0,0
140333,-90.9090909090909,4,2,1,50,0,0
140750,-90.9090909090909,4,2,1,5,0,0
140833,-90.9090909090909,4,2,1,50,0,0
141250,-90.9090909090909,4,2,1,5,0,0
141333,-90.9090909090909,4,2,1,50,0,0
141583,-90.9090909090909,4,2,1,5,0,0
141667,-90.9090909090909,4,2,1,50,0,0
142083,-90.9090909090909,4,2,1,5,0,0
142167,-90.9090909090909,4,2,1,50,0,0
142583,-90.9090909090909,4,2,1,5,0,0
142667,-90.9090909090909,4,2,1,50,0,0
142917,-90.9090909090909,4,2,1,5,0,0
143000,-90.9090909090909,4,2,1,50,0,0
143417,-90.9090909090909,4,2,1,5,0,0
143500,-90.9090909090909,4,2,1,50,0,0
143917,-90.9090909090909,4,2,1,5,0,0
144000,-90.9090909090909,4,2,1,50,0,0
152333,-90.9090909090909,4,2,1,70,0,0
176333,-90.9090909090909,4,2,1,48,0,0
186667,-90.9090909090909,4,2,1,55,0,0
187333,-90.9090909090909,4,2,1,65,0,0
190000,-90.9090909090909,4,2,1,65,0,1
191500,-90.9090909090909,4,2,1,75,0,1
197667,-90.9090909090909,4,2,1,65,0,0
202833,-90.9090909090909,4,2,1,65,0,0
215000,-90.9090909090909,4,2,1,30,0,0
218833,-90.9090909090909,4,2,1,15,0,0

[Colours]
Combo1 : 247,208,214
Combo2 : 199,48,98
Combo3 : 241,175,138
Combo4 : 188,116,84

[HitObjects]
208,288,334,5,2,0:0:0:0:
208,224,500,1,0,0:0:0:0:
208,288,667,1,0,0:0:0:0:
208,224,833,1,2,0:0:0:0:
360,184,1167,1,0,0:0:0:0:
208,152,1500,1,0,0:0:0:0:
272,152,1667,5,2,0:0:0:0:
272,96,1833,1,0,0:0:0:0:
272,152,2000,1,0,0:0:0:0:
272,96,2167,1,2,0:0:0:0:
120,96,2500,1,0,0:0:0:0:
272,96,2833,1,0,0:0:0:0:
208,96,3000,5,2,0:0:0:0:
208,160,3167,1,0,0:0:0:0:
208,96,3333,1,0,0:0:0:0:
208,160,3500,1,2,0:0:0:0:
368,232,3833,1,0,0:0:0:0:
208,304,4167,1,0,0:0:0:0:
280,272,4333,5,2,0:0:0:0:
208,256,4500,1,0,0:0:0:0:
136,232,4667,1,0,0:0:0:0:
208,200,4833,1,2,0:0:0:0:
360,128,5167,1,0,0:0:0:0:
208,88,5500,1,0,0:0:0:0:
360,96,5667,5,14,0:0:0:0:
360,168,5833,1,0,0:0:0:0:
288,176,6000,1,0,0:0:0:0:
288,248,6167,1,2,0:0:0:0:
136,256,6500,1,0,0:0:0:0:
288,248,6833,1,8,0:0:0:0:
136,256,7000,5,10,0:0:0:0:
64,224,7167,1,0,0:0:0:0:
136,192,7333,1,0,0:0:0:0:
208,176,7500,1,2,0:0:0:0:
56,104,7833,1,0,0:0:0:0:
208,80,8167,1,0,0:0:0:0:
56,104,8333,5,10,0:0:0:0:
56,160,8500,1,0,0:0:0:0:
128,176,8667,1,0,0:0:0:0:
128,248,8833,1,2,0:0:0:0:
272,280,9167,1,0,0:0:0:0:
128,320,9500,1,8,0:0:0:0:
272,280,9667,5,10,0:0:0:0:
272,216,9833,1,2,0:0:0:0:
128,168,10167,1,2,0:0:0:0:
128,168,10333,1,10,0:0:0:0:
272,160,10500,2,8,L|344:88,2,88.000002685547,8|8|8,0:1|0:3|0:0,0:0:0:0:
40,256,11000,6,0,P|48:176|128:128,1,176.000005371094,14|8,0:0|0:1,0:0:0:0:
200,128,11500,1,8,0:0:0:0:
272,32,11667,2,8,L|80:32,1,176.000005371094,10|8,0:0|0:1,0:0:0:0:
224,104,12333,5,8,0:0:0:0:
72,144,12500,2,0,P|24:208|88:280,1,176.000005371094,2|2,0:0|0:0,0:0:0:0:
200,280,13167,1,2,0:0:0:0:
160,240,13333,1,8,0:1:0:0:
200,200,13500,1,2,0:0:0:0:
432,200,13667,6,0,P|416:120|328:80,1,176.000005371094,14|8,0:0|0:1,0:0:0:0:
112,328,14333,2,0,P|72:272|136:184,1,176.000005371094,10|8,0:0|0:1,0:0:0:0:
352,176,14833,6,0,P|400:104|344:32,1,176.000005371094,14|2,0:0|0:0,0:0:0:0:
280,168,15333,1,8,0:1:0:0:
208,152,15500,1,2,0:0:0:0:
64,232,15833,1,2,0:0:0:0:
64,168,16000,1,14,0:0:0:0:
112,144,16167,1,2,0:0:0:0:
272,144,16333,6,0,L|432:56,2,176.000005371094,14|8|10,0:0|0:1|0:0,0:0:0:0:
352,168,17166,1,2,0:0:0:0:
352,248,17333,1,8,0:1:0:0:
280,288,17500,1,2,0:0:0:0:
112,288,17667,6,0,P|64:216|120:152,1,176.000005371094,10|8,0:0|0:1,0:0:0:0:
248,144,18333,1,10,0:0:0:0:
192,112,18500,1,10,0:0:0:0:
192,56,18667,1,8,0:1:0:0:
248,32,18833,1,2,0:0:0:0:
480,32,19000,6,0,P|472:104|360:136,1,176.000005371094,14|8,0:0|0:1,0:0:0:0:
248,136,19667,1,10,0:0:0:0:
385,144,20000,1,8,0:1:0:0:
152,288,20167,5,14,0:0:0:0:
280,288,20500,1,6,0:0:0:0:
208,264,20666,1,10,0:1:0:0:
280,224,20833,1,2,0:0:0:0:
208,200,21000,1,14,0:0:0:0:
336,144,21333,1,8,0:3:0:0:
72,248,21667,6,0,P|96:144|168:120,1,176.000005371094,14|8,0:0|0:1,0:0:0:0:
232,104,22167,2,0,L|48:64,1,176.000005371094,2|2,0:0|0:0,0:0:0:0:
240,304,22833,1,2,0:0:0:0:
56,320,23167,5,0,0:0:0:0:
128,304,23333,2,0,L|264:184,2,176.000005371094,8|10|8,0:1|0:0|0:1,0:0:0:0:
400,312,24333,5,8,0:0:0:0:
256,264,24667,1,10,0:1:0:0:
400,224,25000,1,10,0:0:0:0:
400,176,25167,1,2,0:0:0:0:
144,280,25500,6,0,P|96:224|160:144,1,176.000005371094,2|2,0:0|0:0,0:0:0:0:
224,120,26000,1,10,0:1:0:0:
143,147,26167,1,2,0:0:0:0:
64,120,26333,1,10,0:0:0:0:
312,104,26667,1,10,0:1:0:0:
176,104,27000,6,0,L|176:312,1,176.000005371094,10|8,0:0|0:1,0:0:0:0:
320,280,27667,1,10,0:0:0:0:
248,280,27833,2,0,P|160:240|144:160,1,176.000005371094,2|2,0:0|0:0,0:0:0:0:
280,160,28500,5,2,0:0:0:0:
280,104,28667,1,10,0:1:0:0:
136,88,29000,2,0,L|320:88,1,176.000005371094,10|10,0:0|0:1,0:0:0:0:
48,320,29667,6,0,L|216:184,2,176.000005371094,10|8|10,0:0|0:1|0:0,0:0:0:0:
128,320,30500,2,0,P|168:248|112:168,1,176.000005371094,2|2,0:0|0:0,0:0:0:0:
48,160,31000,6,0,L|240:160,1,176.000005371094,8|0,0:0|1:0,0:0:0:0:
408,160,31667,2,0,L|408:352,1,176.000005371094,10|0,0:0|1:0,0:0:0:0:
336,336,32167,1,8,0:0:0:0:
176,336,32333,5,14,0:0:0:0:
304,256,32667,1,8,0:1:0:0:
240,248,32833,2,0,L|240:64,1,176.000005371094,2|2,0:0|0:0,0:0:0:0:
480,304,33500,6,0,P|464:224|360:176,1,176.000005371094,2|0,0:0|0:0,0:0:0:0:
320,160,34000,2,0,L|480:56,2,176.000005371094,10|10|10,0:1|0:0|0:1,0:0:0:0:
64,160,35000,5,10,0:0:0:0:
184,184,35333,1,8,0:1:0:0:
184,184,35500,2,0,P|160:264|48:296,1,176.000005371094,2|2,0:0|0:0,0:0:0:0:
328,328,36167,6,0,L|328:112,1,176.000005371094,2|2,0:0|0:0,0:0:0:0:
192,152,36833,1,2,0:0:0:0:
264,152,37000,2,0,P|344:112|352:32,1,176.000005371094,10|10,0:0|0:1,0:0:0:0:
88,40,37667,5,14,0:0:0:0:
200,88,38000,1,8,0:1:0:0:
88,160,38333,1,10,0:0:0:0:
88,160,38500,2,0,L|272:120,1,176.000005371094,2|2,0:0|0:0,0:0:0:0:
136,352,39167,6,0,L|128:160,1,176.000005371094,2|2,0:0|0:0,0:0:0:0:
200,168,39667,2,0,L|24:96,1,176.000005371094,10|0,0:0|1:2,0:0:0:0:
432,352,40333,6,0,P|480:288|416:224,1,176.000005371094,14|2,0:0|1:2,0:0:0:0:
288,192,40833,2,0,P|392:192|448:112,1,176.000005371094,6|2,0:0|0:0,0:0:0:0:
40,320,41500,6,0,P|40:208|104:176,1,176.000005371094,6|0,0:0|0:0,0:0:0:0:
248,184,42000,2,0,P|128:160|88:120,1,176.000005371094,6|0,1:2|1:2,0:0:0:0:
304,80,42667,2,0,L|368:80,2,44.0000013427735,8|8|8,0:3|0:3|0:0,0:0:0:0:
72,80,43000,6,0,P|32:136|80:232,1,176.000005371094,14|8,0:0|0:1,0:0:0:0:
160,224,43500,2,0,L|344:184,1,176.000005371094,2|2,0:0|0:0,0:0:0:0:
456,264,44167,6,0,L|456:72,1,176.000005371094,2|2,0:0|0:0,0:0:0:0:
384,88,44667,1,8,0:1:0:0:
256,344,45000,1,10,0:0:0:0:
304,320,45167,1,8,0:0:0:0:
320,256,45333,1,8,0:1:0:0:
304,208,45500,1,0,0:0:0:0:
144,200,45667,6,0,P|96:136|168:56,1,176.000005371094,10|8,0:0|0:1,0:0:0:0:
232,64,46167,2,0,P|280:144|224:208,1,176.000005371094,2|2,0:0|0:0,0:0:0:0:
88,208,46833,1,2,0:0:0:0:
352,200,47167,5,2,0:0:0:0:
352,200,47333,1,8,0:1:0:0:
200,336,47667,1,10,0:0:0:0:
136,288,47833,1,2,0:0:0:0:
136,208,48000,1,8,0:1:0:0:
208,176,48167,1,2,0:0:0:0:
376,176,48333,6,0,P|432:128|432:24,1,176.000005371094,14|8,0:0|0:1,0:0:0:0:
360,32,48833,2,0,P|272:48|152:16,1,176.000005371094,2|8,0:0|0:0,0:0:0:0:
448,344,49500,6,0,P|448:256|352:200,1,176.000005371094,6|0,0:0|0:0,0:0:0:0:
304,208,50000,1,8,0:1:0:0:
384,203,50167,2,0,P|448:152|456:56,1,176.000005371094,2|10,0:0|0:0,0:0:0:0:
48,48,50833,6,0,L|200:168,2,176.000005371094,14|2|2,0:0|0:0|0:0,0:0:0:0:
112,72,51667,1,10,0:0:0:0:
112,136,51833,1,8,0:0:0:0:
48,160,52000,1,8,0:1:0:0:
280,184,52167,5,10,0:0:0:0:
168,216,52500,1,2,0:0:0:0:
280,264,52833,1,2,0:0:0:0:
280,264,53000,1,10,0:0:0:0:
80,320,53333,2,8,L|32:320,2,44.0000013427735,8|8|0,0:1|0:1|0:0,0:0:0:0:
312,328,53667,5,14,0:0:0:0:
392,304,53833,2,0,L|400:200,1,88.000002685547,2|8,0:0|0:1,0:0:0:0:
232,224,54167,2,0,P|168:200|128:104,1,176.000005371094,2|2,0:0|0:0,0:0:0:0:
128,64,54667,1,8,0:1:0:0:
184,32,54833,1,2,0:0:0:0:
416,32,55000,5,10,0:0:0:0:
344,64,55167,2,8,L|344:152,1,88.000002685547,10|8,0:0|0:1,0:0:0:0:
480,160,55500,2,0,P|456:232|352:272,1,176.000005371094,10|2,0:0|0:0,0:0:0:0:
304,272,56000,1,8,0:1:0:0:
370,273,56167,1,2,0:0:0:0:
136,264,56333,5,14,0:0:0:0:
248,264,56667,1,8,0:1:0:0:
328,224,56833,2,0,P|328:160|232:88,1,176.000005371094,10|2,0:0|0:0,0:0:0:0:
176,104,57333,1,8,0:1:0:0:
440,312,57667,6,0,P|488:256|432:176,1,176.000005371094,10|10,0:0|0:1,0:0:0:0:
368,208,58167,2,0,P|440:184|472:80,1,176.000005371094,2|2,0:0|0:0,0:0:0:0:
472,64,58667,1,8,0:1:0:0:
32,96,59000,5,14,0:0:0:0:
32,184,59167,2,0,L|112:248,1,88.000002685547,8|8,0:0|0:1,0:0:0:0:
264,312,59500,2,0,P|352:280|384:208,1,176.000005371094,10|2,0:0|0:0,0:0:0:0:
384,144,60000,1,8,0:1:0:0:
344,96,60167,1,2,0:0:0:0:
112,320,60333,5,10,0:0:0:0:
40,296,60500,2,0,L|32:192,1,88.000002685547,10|8,0:0|0:1,0:0:0:0:
176,248,60833,2,0,L|192:48,1,176.000005371094,10|8,0:0|0:0,0:0:0:0:
48,120,61333,2,0,L|40:32,1,88.000002685547,10|0,0:1|0:0,0:0:0:0:
272,32,61667,6,0,P|320:96|264:160,1,176.000005371094,14|8,0:0|0:1,0:0:0:0:
200,216,62167,2,0,L|384:192,1,176.000005371094,2|2,0:0|0:0,0:0:0:0:
104,344,62833,2,0,P|56:296|120:216,1,176.000005371094,14|8,0:0|0:0,0:0:0:0:
344,224,63333,6,0,P|392:176|320:88,1,176.000005371094,14|2,0:1|0:0,0:0:0:0:
272,88,63833,1,8,0:1:0:0:
216,128,64000,1,8,0:3:0:0:
216,192,64167,1,4,0:3:0:0:
448,304,64333,5,6,0:0:0:0:
448,224,64500,2,0,L|368:160,1,88.000002685547,2|8,0:0|0:1,0:0:0:0:
232,288,64833,2,0,P|328:248|352:168,1,176.000005371094,2|2,0:0|0:0,0:0:0:0:
352,112,65333,1,8,0:1:0:0:
288,80,65500,1,2,0:0:0:0:
56,80,65667,5,10,0:0:0:0:
56,168,65833,2,8,L|128:232,1,88.000002685547,0|8,0:0|0:1,0:0:0:0:
272,312,66167,2,0,P|149:251|138:197,1,176.000005371094,2|2,0:0|0:0,0:0:0:0:
144,136,66667,1,8,0:1:0:0:
208,80,66833,1,2,0:0:0:0:
440,80,67000,5,14,0:0:0:0:
312,152,67333,1,10,0:1:0:0:
384,152,67500,2,0,L|392:336,1,176.000005371094,2|2,0:0|0:0,0:0:0:0:
128,352,68167,6,0,L|120:168,1,176.000005371094,6|0,0:0|0:0,0:0:0:0:
184,168,68667,1,10,0:1:0:0:
320,152,68833,1,2,0:0:0:0:
72,144,69167,1,2,0:0:0:0:
472,200,69500,6,0,P|464:112|352:80,1,176.000005371094,6|2,0:0|0:0,0:0:0:0:
320,72,70000,1,8,0:1:0:0:
400,328,70167,2,0,P|440:264|384:176,1,176.000005371094,2|2,0:0|0:0,0:0:0:0:
152,160,70833,6,0,L|368:160,1,176.000005371094,2|8,0:0|0:0,0:0:0:0:
248,152,71333,2,0,L|240:48,1,88.000002685547,8|0,0:1|0:0,0:0:0:0:
408,304,71667,2,0,P|456:272|464:160,1,176.000005371094,10|8,0:0|0:1,0:0:0:0:
32,208,72333,6,0,L|192:72,2,176.000005371094,14|8|10,0:0|0:1|0:0,0:0:0:0:
32,272,73167,1,8,0:0:0:0:
96,304,73333,1,10,0:1:0:0:
328,328,73500,6,0,P|368:280|312:184,1,176.000005371094,6|2,0:0|0:0,0:0:0:0:
88,200,74000,2,0,L|80:104,1,88.000002685547,14|0,0:1|0:0,0:0:0:0:
160,104,74333,1,8,0:0:0:0:
392,216,74500,2,0,L|472:152,2,88.000002685547,8|8|8,0:1|0:3|0:0,0:0:0:0:
160,216,75000,5,10,0:0:0:0:
336,352,75500,2,0,P|416:256|312:168,1,264.000008056641,2|0,0:0|0:0,0:0:0:0:
432,176,76333,5,2,0:0:0:0:
264,312,76833,2,0,P|168:224|288:56,1,352.000010742188,2|0,0:0|0:0,0:0:0:0:
192,352,77667,6,0,B|120:344|80:320|88:248|88:248|192:232|176:112,1,352.000010742188,2|0,0:0|0:0,0:0:0:0:
48,96,78667,1,2,0:0:0:0:
296,336,79000,6,0,L|304:128,1,176.000005371094,2|2,0:0|0:0,0:0:0:0:
160,264,79667,2,0,L|152:64,1,176.000005371094,2|2,0:0|0:0,0:0:0:0:
392,56,80333,6,0,L|96:256,1,352.000010742188,2|0,0:0|0:0,0:0:0:0:
376,344,81667,2,0,P|456:280|344:88,1,352.000010742188,2|2,0:0|0:0,0:0:0:0:
224,96,82667,1,2,0:0:0:0:
456,344,83000,6,0,B|456:240|448:152|280:216|208:280|96:112|200:8,1,528.000016113282,2|2,0:0|0:0,0:0:0:0:
304,344,84333,2,0,P|216:208|328:64,1,352.000010742188,2|6,0:0|0:0,0:0:0:0:
472,192,85167,2,8,L|472:104,1,88.000002685547,8|8,0:1|0:3,0:0:0:0:
400,96,85500,1,0,0:0:0:0:
240,88,85667,5,14,0:0:0:0:
112,208,86000,1,2,0:0:0:0:
112,208,86167,2,0,P|152:296|248:296,1,176.000005371094,2|2,0:0|0:0,0:0:0:0:
80,344,86833,6,0,L|72:144,1,176.000005371094,2|2,0:0|0:0,0:0:0:0:
152,176,87333,2,0,P|248:136|264:56,2,176.000005371094,2|2|2,0:0|0:0|0:0,0:0:0:0:
288,264,88333,5,2,0:0:0:0:
152,176,88667,1,2,0:0:0:0:
216,272,88833,2,0,L|224:72,1,176.000005371094,2|2,0:0|0:0,0:0:0:0:
368,200,89500,5,2,0:0:0:0:
424,144,89667,1,2,0:0:0:0:
368,96,89833,1,2,0:0:0:0:
240,80,90167,1,2,0:0:0:0:
176,88,90333,2,0,L|168:264,1,176.000005371094,2|2,0:0|0:0,0:0:0:0:
408,336,91000,6,0,L|264:200,2,176.000005371094,2|0|2,0:0|0:0|0:0,0:0:0:0:
472,312,91833,2,0,L|328:176,1,176.000005371094,2|2,0:0|0:0,0:0:0:0:
112,256,92667,6,0,L|264:136,2,176.000005371094,2|2|2,0:0|0:0|0:0,0:0:0:0:
216,312,93667,6,0,L|224:112,1,176.000005371094,2|2,0:0|0:0,0:0:0:0:
80,216,94333,1,2,0:0:0:0:
80,120,94500,2,0,L|240:8,1,176.000005371094,2|2,0:0|0:0,0:0:0:0:
232,344,95000,6,0,L|64:248,1,176.000005371094,8|8,0:0|0:1,0:0:0:0:
344,344,95667,2,0,P|432:312|472:216,1,176.000005371094,10|8,0:0|0:1,0:0:0:0:
72,328,96333,6,0,L|64:144,1,176.000005371094,14|8,0:0|0:1,0:0:0:0:
152,176,96833,2,0,P|200:112|136:56,1,176.000005371094,2|0,0:0|0:0,0:0:0:0:
376,352,97500,6,0,L|384:136,1,176.000005371094,2|0,0:0|0:0,0:0:0:0:
456,160,98000,2,0,L|304:32,2,176.000005371094,10|10|8,0:1|0:0|0:1,0:0:0:0:
208,352,99000,6,0,L|200:152,1,176.000005371094,10|8,0:0|0:1,0:0:0:0:
272,200,99500,2,0,P|352:168|368:72,1,176.000005371094,2|2,0:0|0:0,0:0:0:0:
96,344,100167,6,0,P|48:256|112:200,1,176.000005371094,2|0,0:0|0:0,0:0:0:0:
160,176,100667,1,8,0:1:0:0:
88,208,100833,2,0,L|88:120,1,88.000002685547,2|10,0:0|0:0,0:0:0:0:
336,48,101333,1,8,0:1:0:0:
88,120,101667,6,0,P|40:208|104:256,1,176.000005371094,14|8,0:0|0:1,0:0:0:0:
224,328,102333,1,10,0:0:0:0:
304,328,102500,2,0,L|280:136,1,176.000005371094,2|2,0:0|0:0,0:0:0:0:
152,184,103167,5,2,0:0:0:0:
160,120,103333,1,8,0:1:0:0:
216,80,103500,1,0,0:0:0:0:
360,80,103667,2,0,P|432:104|464:216,1,176.000005371094,10|10,0:0|0:1,0:0:0:0:
40,264,104333,6,0,P|40:184|136:136,1,176.000005371094,14|10,0:0|0:1,0:0:0:0:
192,120,104833,2,0,L|40:32,1,176.000005371094,12|2,0:0|0:0,0:0:0:0:
280,304,105500,2,0,P|320:264|256:168,1,176.000005371094,6|8,0:0|0:0,0:0:0:0:
32,176,106000,6,0,L|232:176,1,176.000005371094,14|10,0:1|0:0,0:0:0:0:
136,144,106500,1,8,0:1:0:0:
136,80,106667,1,8,0:3:0:0:
208,64,106833,1,0,0:0:0:0:
440,64,107000,5,14,0:0:0:0:
320,296,107333,1,8,0:1:0:0:
392,296,107500,2,0,P|472:264|496:168,1,176.000005371094,2|2,0:0|0:0,0:0:0:0:
264,232,108167,6,0,P|224:184|288:96,1,176.000005371094,2|2,0:0|0:0,0:0:0:0:
352,96,108667,1,10,0:1:0:0:
216,352,109000,1,10,0:0:0:0:
144,328,109167,1,8,0:0:0:0:
144,256,109333,1,8,0:1:0:0:
208,224,109500,1,2,0:0:0:0:
368,224,109667,6,0,P|416:168|360:88,1,176.000005371094,10|8,0:0|0:1,0:0:0:0:
296,88,110167,2,0,L|488:32,1,176.000005371094,2|2,0:0|0:0,0:0:0:0:
216,344,110833,6,0,L|208:144,1,176.000005371094,2|2,0:0|0:0,0:0:0:0:
128,168,111333,1,8,0:1:0:0:
288,168,111667,1,10,0:0:0:0:
224,136,111833,1,2,0:0:0:0:
224,72,112000,1,8,0:1:0:0:
288,40,112167,1,2,0:0:0:0:
448,32,112333,5,14,0:0:0:0:
336,40,112667,1,8,0:1:0:0:
400,312,112833,2,0,L|408:128,1,176.000005371094,2|10,0:0|0:0,0:0:0:0:
128,328,113500,6,0,P|80:272|144:192,1,176.000005371094,14|0,0:0|0:0,0:0:0:0:
200,192,114000,1,8,0:1:0:0:
272,152,114167,2,0,L|80:144,1,176.000005371094,2|2,0:0|0:0,0:0:0:0:
496,72,114833,6,0,L|336:192,2,176.000005371094,6|2|2,0:0|0:0|0:0,0:0:0:0:
424,96,115667,1,10,0:0:0:0:
424,168,115833,1,8,0:0:0:0:
496,208,116000,1,8,0:1:0:0:
256,208,116167,5,10,0:0:0:0:
360,248,116500,1,2,0:0:0:0:
240,320,116833,1,2,0:0:0:0:
240,320,117000,1,10,0:0:0:0:
456,320,117333,2,8,L|520:320,2,44.0000013427735,8|8|0,0:1|0:1|0:0,0:0:0:0:
224,320,117667,5,14,0:0:0:0:
144,296,117833,2,0,L|136:192,1,88.000002685547,8|8,0:0|0:1,0:0:0:0:
304,216,118167,2,0,P|368:192|408:96,1,176.000005371094,2|2,0:0|0:0,0:0:0:0:
344,72,118667,1,8,0:1:0:0:
408,48,118833,1,2,0:0:0:0:
168,32,119000,5,10,0:0:0:0:
96,56,119167,2,0,L|96:144,1,88.000002685547,8|8,0:0|0:1,0:0:0:0:
240,144,119500,2,0,P|328:176|360:264,1,176.000005371094,2|2,0:0|0:0,0:0:0:0:
232,288,120000,1,8,0:1:0:0:
166,265,120167,1,2,0:0:0:0:
400,248,120333,5,14,0:0:0:0:
272,232,120667,1,8,0:1:0:0:
352,208,120833,2,0,P|400:144|328:72,1,176.000005371094,10|8,0:0|0:0,0:0:0:0:
272,72,121333,1,8,0:1:0:0:
40,72,121667,5,10,0:0:0:0:
208,304,122000,1,8,0:1:0:0:
136,304,122167,2,0,P|40:248|32:184,1,176.000005371094,2|2,0:0|0:0,0:0:0:0:
32,136,122667,1,8,0:1:0:0:
448,88,123000,5,14,0:0:0:0:
448,168,123167,2,8,L|376:224,1,88.000002685547,0|8,0:0|0:1,0:0:0:0:
216,296,123500,2,0,P|128:264|96:192,1,176.000005371094,2|2,0:0|0:0,0:0:0:0:
160,144,124000,1,8,0:1:0:0:
96,112,124167,1,2,0:0:0:0:
328,328,124333,5,10,0:0:0:0:
408,296,124500,2,8,L|416:192,1,88.000002685547,0|8,0:0|0:1,0:0:0:0:
280,216,124833,2,0,P|240:128|296:88,1,176.000005371094,2|2,0:0|0:0,0:0:0:0:
432,88,125333,2,0,L|352:24,1,88.000002685547,10|0,0:1|0:0,0:0:0:0:
128,40,125667,6,0,P|80:104|136:168,1,176.000005371094,14|8,0:0|0:1,0:0:0:0:
208,240,126167,2,0,L|24:216,1,176.000005371094,2|2,0:0|0:0,0:0:0:0:
432,336,126833,2,0,P|480:288|416:208,1,176.000005371094,14|2,0:0|0:0,0:0:0:0:
192,216,127333,6,0,P|144:168|216:80,1,176.000005371094,14|10,0:1|0:0,0:0:0:0:
264,80,127833,1,8,0:1:0:0:
188,83,128000,1,8,0:3:0:0:
112,64,128167,1,0,0:0:0:0:
344,320,128333,5,14,0:0:0:0:
424,296,128500,2,8,L|432:192,1,88.000002685547,0|8,0:0|0:1,0:0:0:0:
280,176,128833,2,0,L|472:120,1,176.000005371094,2|2,0:0|0:0,0:0:0:0:
384,96,129333,1,8,0:1:0:0:
448,72,129500,1,2,0:0:0:0:
216,56,129667,5,10,0:0:0:0:
136,64,129833,2,8,L|144:176,1,88.000002685547,0|8,0:0|0:1,0:0:0:0:
288,304,130167,2,0,P|232:216|144:208,1,176.000005371094,2|2,0:0|0:0,0:0:0:0:
88,184,130667,1,8,0:1:0:0:
80,96,130833,1,2,0:0:0:0:
312,104,131000,5,14,0:0:0:0:
440,152,131333,1,8,0:1:0:0:
352,160,131500,2,0,L|168:248,1,176.000005371094,2|2,0:0|0:0,0:0:0:0:
432,328,132167,6,0,L|440:144,1,176.000005371094,6|0,0:0|0:0,0:0:0:0:
360,144,132667,1,10,0:1:0:0:
216,136,132833,1,2,0:1:0:0:
464,136,133167,1,2,0:0:0:0:
64,192,133500,6,0,P|72:104|184:72,1,176.000005371094,6|8,0:0|0:0,0:0:0:0:
216,64,134000,1,8,0:1:0:0:
136,320,134167,2,0,P|96:256|152:168,1,176.000005371094,2|2,0:0|0:0,0:0:0:0:
384,152,134833,6,0,L|168:152,1,176.000005371094,2|8,0:0|0:0,0:0:0:0:
288,144,135333,2,0,L|296:40,1,88.000002685547,10|0,0:1|0:0,0:0:0:0:
128,296,135667,2,0,P|64:272|48:152,1,176.000005371094,10|8,0:0|0:1,0:0:0:0:
480,200,136333,6,0,L|320:64,2,176.000005371094,14|8|8,0:0|0:1|0:0,0:0:0:0:
480,264,137167,1,8,0:0:0:0:
440,320,137333,1,8,0:1:0:0:
208,320,137500,6,0,P|168:272|224:176,1,176.000005371094,14|2,0:0|0:0,0:0:0:0:
352,168,138000,2,0,L|440:104,2,88.000002685547,14|0|10,0:0|0:0|0:0,0:0:0:0:
120,144,138500,2,0,L|40:96,2,88.000002685547,8|8|8,0:1|0:3|0:0,0:0:0:0:
352,312,139000,6,0,P|464:224|424:88,2,264.000008056641,14|2|2,0:0|0:0|0:0,0:0:0:0:
136,320,140333,2,0,P|24:232|48:96,2,264.000008056641,10|2|2,0:0|0:0|0:0,0:0:0:0:
384,336,141667,6,0,P|376:256|224:128,2,264.000008056641,10|2|2,0:0|0:0|0:0,0:0:0:0:
115,336,143000,2,0,P|123:256|275:128,2,264.000008056641,2|2|2,0:0|0:0|0:0,0:0:0:0:
408,344,144333,6,0,L|416:56,1,264.000008056641,14|2,0:0|0:0,0:0:0:0:
216,80,145333,1,2,0:0:0:0:
352,208,145667,2,0,L|120:48,2,264.000008056641,2|2|2,0:0|0:0|0:0,0:0:0:0:
80,344,147000,6,0,L|304:168,2,264.000008056641,10|2|2,0:0|0:0|0:0,0:0:0:0:
304,336,148333,2,0,L|320:64,1,264.000008056641,2|2,0:0|0:0,0:0:0:0:
496,72,149333,1,2,0:0:0:0:
80,344,149667,6,0,P|40:288|160:168,2,264.000008056641,14|10|8,0:0|0:0|0:3,0:0:0:0:
152,344,150833,1,8,0:0:0:0:
384,352,151000,6,0,P|440:304|368:160,1,264.000008056641,14|0,0:0|0:0,0:0:0:0:
224,160,151667,1,14,0:0:0:0:
304,144,151833,1,8,0:1:0:0:
360,88,152000,1,8,0:3:0:0:
368,24,152167,1,0,0:0:0:0:
128,328,152333,6,0,L|40:328,2,88.000002685547,14|2|8,0:0|0:0|0:1,0:0:0:0:
272,320,152833,2,0,P|208:304|168:176,1,176.000005371094,2|10,0:0|0:0,0:0:0:0:
184,136,153333,1,8,0:1:0:0:
416,208,153500,6,0,P|464:160|400:72,1,176.000005371094,2|2,0:0|0:0,0:0:0:0:
336,64,154000,1,8,0:1:0:0:
424,72,154167,2,0,L|424:256,1,176.000005371094,2|8,0:0|0:0,0:0:0:0:
288,336,154667,2,0,L|200:288,1,88.000002685547,8|0,0:1|0:0,0:0:0:0:
440,248,155000,6,0,P|480:216|424:112,1,176.000005371094,14|8,0:0|0:1,0:0:0:0:
352,336,155500,2,0,P|416:312|440:200,1,176.000005371094,10|10,0:0|0:0,0:0:0:0:
368,216,156000,1,8,0:1:0:0:
136,208,156167,6,0,P|88:168|152:80,1,176.000005371094,6|2,0:0|0:0,0:0:0:0:
216,80,156667,1,8,0:1:0:0:
376,256,156833,2,0,P|424:192|376:120,1,176.000005371094,2|8,0:0|0:0,0:0:0:0:
304,96,157333,1,8,0:1:0:0:
376,64,157500,1,2,0:0:0:0:
144,312,157667,6,0,L|56:312,2,88.000002685547,14|0|8,0:0|0:0|0:1,0:0:0:0:
288,216,158167,2,0,L|112:104,1,176.000005371094,2|2,0:0|0:0,0:0:0:0:
416,48,158833,6,0,P|464:96|400:184,1,176.000005371094,2|2,0:0|0:0,0:0:0:0:
344,184,159333,1,8,0:1:0:0:
200,264,159500,2,0,P|152:216|208:128,1,176.000005371094,2|2,0:0|0:0,0:0:0:0:
344,184,160000,2,0,L|352:72,1,88.000002685547,8|0,0:1|0:0,0:0:0:0:
120,336,160333,6,0,P|120:264|232:224,1,176.000005371094,14|8,0:0|0:1,0:0:0:0:
280,192,160833,2,0,L|72:192,1,176.000005371094,2|10,0:0|0:0,0:0:0:0:
176,160,161333,1,8,0:1:0:0:
408,304,161500,6,0,P|472:272|496:176,1,176.000005371094,6|14,0:0|0:0,0:0:0:0:
264,256,162000,1,8,0:1:0:0:
184,232,162167,1,6,0:0:0:0:
328,200,162333,2,8,P|416:168|440:80,1,176.000005371094,10|8,0:0|0:1,0:0:0:0:
368,96,162833,1,8,0:1:0:0:
136,328,163000,5,14,0:0:0:0:
80,304,163167,1,2,0:0:0:0:
136,272,163333,1,8,0:1:0:0:
216,248,163500,1,2,0:0:0:0:
136,224,163667,1,10,0:0:0:0:
136,152,163833,1,10,0:0:0:0:
376,128,164167,6,0,L|160:128,1,176.000005371094,2|2,0:0|0:0,0:0:0:0:
288,208,164667,2,0,L|296:104,1,88.000002685547,8|2,0:1|0:0,0:0:0:0:
144,208,165000,2,0,P|112:184|160:72,1,176.000005371094,8|8,0:0|0:1,0:0:0:0:
224,72,165500,1,2,0:0:0:0:
456,80,165667,5,14,0:0:0:0:
472,160,165833,1,2,0:0:0:0:
456,240,166000,1,10,0:1:0:0:
384,288,166167,2,0,L|208:232,1,176.000005371094,2|10,0:0|0:0,0:0:0:0:
296,240,166667,1,8,0:1:0:0:
64,264,166833,6,0,P|24:224|96:128,1,176.000005371094,14|2,0:0|0:0,0:0:0:0:
152,128,167333,1,8,0:1:0:0:
224,96,167500,2,8,L|40:56,1,176.000005371094,2|0,0:0|0:0,0:0:0:0:
192,288,168000,2,0,L|272:232,1,88.000002685547,8|0,0:1|0:0,0:0:0:0:
496,224,168333,5,14,0:0:0:0:
496,144,168500,1,0,0:0:0:0:
456,80,168667,1,8,0:1:0:0:
376,64,168833,1,2,0:0:0:0:
456,80,169000,1,10,0:0:0:0:
456,80,169167,1,8,0:0:0:0:
184,360,169500,6,0,L|176:168,1,176.000005371094,2|2,0:0|0:0,0:0:0:0:
256,176,170000,1,8,0:1:0:0:
104,192,170167,2,8,P|48:136|120:64,1,176.000005371094,2|0,0:0|0:0,0:0:0:0:
176,56,170667,1,8,0:1:0:0:
96,56,170833,1,2,0:0:0:0:
328,320,171000,6,0,L|424:320,2,88.000002685547,14|2|8,0:0|0:0|0:1,0:0:0:0:
176,320,171500,2,10,L|88:320,2,88.000002685547,2|10|2,0:0|0:0|0:0,0:0:0:0:
328,320,172000,2,0,L|336:208,1,88.000002685547,10|14,0:1|0:0,0:0:0:0:
96,216,172333,6,0,L|88:128,1,88.000002685547,2|10,0:0|0:0,0:0:0:0:
160,120,172667,1,10,0:1:0:0:
312,152,172833,2,0,L|320:64,1,88.000002685547,2|10,0:0|0:0,0:0:0:0:
248,56,173167,1,10,0:0:0:0:
96,232,173333,1,8,0:1:0:0:
168,256,173500,1,2,0:0:0:0:
416,312,173667,5,14,0:0:0:0:
480,264,173833,1,2,0:0:0:0:
480,184,174000,1,8,0:1:0:0:
416,128,174167,1,2,0:0:0:0:
264,320,174333,2,0,P|192:296|160:192,1,176.000005371094,10|10,0:0|0:1,0:0:0:0:
392,224,174833,6,0,P|432:192|384:88,1,176.000005371094,14|14,0:0|0:0,0:0:0:0:
152,168,175333,1,10,0:0:0:0:
64,136,175500,1,2,0:0:0:0:
296,72,175667,1,14,0:0:0:0:
368,112,175833,1,8,0:1:0:0:
368,192,176000,1,8,0:3:0:0:
296,240,176167,1,0,0:0:0:0:
144,240,176333,5,10,0:0:0:0:
144,240,176500,1,2,0:0:0:0:
296,240,176833,2,0,L|304:56,1,176.000005371094,2|0,0:0|0:0,0:0:0:0:
384,96,177333,1,2,0:0:0:0:
384,32,177500,1,0,0:0:0:0:
304,40,177667,5,2,0:0:0:0:
384,32,177833,1,2,0:0:0:0:
232,320,178167,2,0,L|224:120,1,176.000005371094,2|2,0:0|0:0,0:0:0:0:
136,144,178667,1,0,0:0:0:0:
136,64,178833,1,0,0:0:0:0:
224,56,179000,6,0,L|40:24,1,176.000005371094,2|0,0:0|0:0,0:0:0:0:
56,32,179500,2,0,P|184:72|216:208,1,264.000008056641,2|2,0:0|0:0,0:0:0:0:
384,320,180333,6,0,P|376:224|288:184,1,176.000005371094,2|2,0:0|0:0,0:0:0:0:
240,240,180833,2,0,P|344:208|376:56,1,264.000008056641,2|2,0:0|0:0,0:0:0:0:
120,80,181667,5,6,0:0:0:0:
120,80,181833,1,2,0:0:0:0:
280,96,182167,2,0,L|288:296,1,176.000005371094,0|0,0:0|0:0,0:0:0:0:
216,304,182667,1,2,0:0:0:0:
288,312,182833,1,0,0:0:0:0:
368,296,183000,6,0,L|208:192,2,176.000005371094,2|2|2,0:0|0:0|0:0,0:0:0:0:
96,336,184000,1,2,0:0:0:0:
368,296,184333,6,0,P|456:240|352:56,1,352.000010742188,2|0,0:0|0:0,0:0:0:0:
296,112,185167,1,2,0:0:0:0:
368,160,185333,1,0,0:0:0:0:
368,240,185500,1,2,0:0:0:0:
208,320,185667,6,0,P|128:264|224:72,1,352.000010742188,8|0,0:0|0:0,0:0:0:0:
296,72,186500,1,2,0:0:0:0:
448,72,186667,2,8,L|448:168,1,88.000002685547,10|10,0:1|0:1,0:0:0:0:
48,312,187333,6,0,P|48:200|112:144,1,176.000005371094,14|0,0:0|0:0,0:0:0:0:
264,144,187833,1,4,0:3:0:0:
248,56,188000,1,4,0:3:0:0:
88,128,188167,1,10,0:0:0:0:
464,312,188667,6,0,P|464:200|400:144,1,176.000005371094,14|0,0:0|0:0,0:0:0:0:
248,160,189167,1,4,0:3:0:0:
264,80,189334,1,4,0:3:0:0:
424,112,189501,1,10,0:0:0:0:
48,328,190000,6,0,L|248:296,1,176.000005371094,14|0,0:0|0:0,0:0:0:0:
160,232,190500,1,2,0:0:0:0:
232,216,190667,2,0,L|240:112,1,88.000002685547,10|0,0:1|0:0,0:0:0:0:
80,312,191000,6,0,L|88:216,1,88.000002685547,10|0,0:0|0:0,0:0:0:0:
160,232,191333,1,8,0:1:0:0:
304,232,191500,1,2,0:0:0:0:
64,160,191833,1,10,0:0:0:0:
480,336,192167,6,0,P|456:232|368:184,1,176.000005371094,6|2,0:0|0:0,0:0:0:0:
328,200,192667,1,8,0:1:0:0:
184,200,192833,2,0,P|144:128|216:64,1,176.000005371094,2|2,0:0|0:0,0:0:0:0:
272,64,193333,1,8,0:1:0:0:
504,344,193500,6,0,P|496:256|392:216,1,176.000005371094,2|8,0:0|0:0,0:0:0:0:
280,304,194000,2,0,L|448:168,1,176.000005371094,10|10,0:1|0:0,0:0:0:0:
344,176,194500,1,8,0:0:0:0:
416,192,194667,2,0,L|416:88,1,88.000002685547,10|0,0:1|0:0,0:0:0:0:
176,312,195000,6,0,L|16:184,2,176.000005371094,14|8|8,0:0|0:1|0:0,0:0:0:0:
328,272,195833,2,0,L|248:216,1,88.000002685547,2|10,0:0|0:1,0:0:0:0:
24,184,196167,6,0,P|32:120|136:64,1,176.000005371094,14|2,0:0|0:0,0:0:0:0:
272,64,196667,1,14,0:0:0:0:
336,128,196833,1,0,0:0:0:0:
264,224,197000,2,8,L|112:120,1,176.000005371094,10|8,0:0|0:3,0:0:0:0:
120,56,197500,1,0,0:0:0:0:
352,344,197667,5,14,0:0:0:0:
440,312,197833,2,8,P|384:208|304:184,1,176.000005371094,10|2,0:0|0:0,0:0:0:0:
335,186,198333,2,0,L|504:64,1,176.000005371094,8|8,0:0|0:1,0:0:0:0:
208,336,199000,5,10,0:0:0:0:
296,296,199167,2,0,P|280:224|176:168,1,176.000005371094,10|2,0:0|0:0,0:0:0:0:
112,176,199667,2,0,P|48:128|48:32,1,176.000005371094,0|8,0:0|0:1,0:0:0:0:
440,40,200333,5,14,0:0:0:0:
360,40,200500,2,0,P|272:80|256:184,1,176.000005371094,8|2,0:0|0:0,0:0:0:0:
336,152,201000,2,0,P|424:192|432:272,1,176.000005371094,8|8,0:0|0:1,0:0:0:0:
40,256,201667,5,14,0:0:0:0:
40,256,201833,1,10,0:0:0:0:
272,176,202167,1,2,0:0:0:0:
40,128,202500,1,2,0:0:0:0:
448,296,202833,6,0,P|440:216|336:160,1,176.000005371094,14|8,0:0|0:0,0:0:0:0:
280,56,203333,2,0,L|424:176,2,176.000005371094,8|10|8,0:1|0:0|0:1,0:0:0:0:
168,88,204333,5,8,0:0:0:0:
320,128,204500,2,0,P|368:192|304:264,1,176.000005371094,2|2,0:0|0:0,0:0:0:0:
176,328,205167,1,2,0:0:0:0:
256,312,205333,1,10,0:1:0:0:
256,240,205500,1,2,0:0:0:0:
24,208,205667,6,0,P|40:128|128:88,1,176.000005371094,14|8,0:0|0:1,0:0:0:0:
384,328,206333,2,0,P|424:272|376:168,1,176.000005371094,8|8,0:0|0:1,0:0:0:0:
160,176,206833,6,0,P|112:104|168:32,1,176.000005371094,14|2,0:0|0:0,0:0:0:0:
232,168,207333,1,8,0:1:0:0:
304,152,207500,1,2,0:0:0:0:
448,232,207833,1,2,0:0:0:0:
448,168,208000,1,14,0:1:0:0:
400,144,208167,1,2,0:0:0:0:
240,144,208333,6,0,L|80:56,2,176.000005371094,14|8|8,0:0|0:1|0:0,0:0:0:0:
160,168,209167,1,2,0:0:0:0:
160,248,209334,1,8,0:1:0:0:
232,288,209501,1,2,0:0:0:0:
400,288,209668,6,0,P|448:216|392:152,1,176.000005371094,10|8,0:0|0:1,0:0:0:0:
264,144,210334,1,8,0:0:0:0:
328,112,210501,1,2,0:0:0:0:
328,56,210668,1,8,0:1:0:0:
264,32,210834,1,2,0:0:0:0:
32,32,211001,6,0,P|40:104|152:136,1,176.000005371094,14|8,0:0|0:1,0:0:0:0:
264,136,211668,1,8,0:0:0:0:
127,144,212001,1,8,0:1:0:0:
360,288,212168,5,14,0:0:0:0:
232,288,212501,1,6,0:0:0:0:
312,256,212667,1,8,0:1:0:0:
232,224,212834,1,2,0:0:0:0:
152,200,213001,1,14,0:0:0:0:
280,152,213334,1,8,0:0:0:0:
48,152,213500,5,14,0:0:0:0:
184,120,213833,1,14,0:0:0:0:
104,96,213999,1,8,0:1:0:0:
184,64,214166,1,2,0:0:0:0:
264,40,214333,1,14,0:0:0:0:
128,24,214667,1,8,0:3:0:0:
360,24,214833,5,14,0:0:0:0:
256,192,215000,12,0,218833,0:0:0:0:
