osu file format v14

[General]
AudioFilename: audio.mp3
AudioLeadIn: 0
PreviewTime: 48162
Countdown: 0
SampleSet: Normal
StackLeniency: 0.7
Mode: 1
LetterboxInBreaks: 0
WidescreenStoryboard: 0

[Editor]
Bookmarks: 7764,22310,33219,49582,57310,64128,78673
DistanceSpacing: 0.4
BeatDivisor: 4
GridSize: 32
TimelineZoom: 0.6999999

[Metadata]
Title:Amaku Amai Mama (Cut Ver.)
TitleUnicode:甘く甘いまま (Cut Ver.)
Artist:solfa feat. Chata
ArtistUnicode:solfa feat. 茶太
Creator:BlackBN
Version:Oni
Source:あまママほりっく
Tags:BlackBq Eroge Visual Novel VN ギャルゲーム galgame gyaru gēmu geemu ama mama horikku holic 主題歌 オープニングテーマ opening theme thema 天ヶ咲麗 Amagasaki Urara 橋咲透 Hashizaki Tōru Tooru Toru chronicle ~hot dream~ ~hot dream~ works best album video game videogame japanese jpop j-pop pop osu! featured artist fa mappers' guild mpg mg
BeatmapID:3394219
BeatmapSetID:1662680

[Difficulty]
HPDrainRate:5.5
CircleSize:2
OverallDifficulty:5
ApproachRate:10
SliderMultiplier:1.4
SliderTickRate:1

[Events]
//Background and Video events
0,0,"bg.jpg",0,60
//Break Periods
//Storyboard Layer 0 (Background)
//Storyboard Layer 1 (Fail)
//Storyboard Layer 2 (Pass)
//Storyboard Layer 3 (Foreground)
//Storyboard Layer 4 (Overlay)
//Storyboard Sound Samples

[TimingPoints]
492,454.545454545455,4,1,0,60,1,0
7651,-100,4,1,0,70,0,0
33105,-100,4,1,0,75,0,0
33219,454.545454545455,4,1,0,75,1,0
49469,-100,4,1,0,80,0,0
49582,454.545454545455,4,1,0,80,1,1
49582,-100,4,1,0,80,0,1
78672,-100,4,1,0,80,0,0
78787,-100,4,1,0,75,0,0
94128,-100,4,1,0,70,0,0
95037,-105.263157894737,4,1,0,65,0,0
95946,-105.263157894737,4,1,0,60,0,0
96855,-111.111111111111,4,1,0,55,0,0
97764,-111.111111111111,4,1,0,50,0,0
98673,-117.647058823529,4,1,0,50,0,0
100492,-125,4,1,0,50,0,0

[HitObjects]
256,192,492,5,0,0:0:0:0:
256,192,946,1,8,0:0:0:0:
256,192,1401,1,0,0:0:0:0:
256,192,1855,1,8,0:0:0:0:
256,192,2082,1,8,0:0:0:0:
256,192,2537,1,0,0:0:0:0:
256,192,4128,1,0,0:0:0:0:
256,192,4582,1,8,0:0:0:0:
256,192,5037,1,8,0:0:0:0:
256,192,5492,1,0,0:0:0:0:
256,192,5719,1,8,0:0:0:0:
256,192,6173,1,0,0:0:0:0:
384,96,7764,1,4,0:0:0:0:
256,192,8219,1,8,0:0:0:0:
256,192,8446,1,8,0:0:0:0:
256,192,8673,1,0,0:0:0:0:
256,192,9128,1,8,0:0:0:0:
256,192,9355,1,0,0:0:0:0:
256,192,9582,1,0,0:0:0:0:
256,192,9696,1,0,0:0:0:0:
256,192,9810,1,0,0:0:0:0:
256,192,10037,1,8,0:0:0:0:
256,192,10264,1,0,0:0:0:0:
256,192,10492,1,8,0:0:0:0:
256,192,10946,1,8,0:0:0:0:
256,192,11401,1,0,0:0:0:0:
256,192,11855,1,8,0:0:0:0:
256,192,12082,1,8,0:0:0:0:
256,192,12310,1,0,0:0:0:0:
256,192,12764,1,8,0:0:0:0:
256,192,12992,1,0,0:0:0:0:
256,192,13105,1,0,0:0:0:0:
256,192,13219,1,0,0:0:0:0:
256,192,13446,1,0,0:0:0:0:
256,192,13673,1,8,0:0:0:0:
256,192,13901,1,0,0:0:0:0:
256,192,14014,1,0,0:0:0:0:
256,192,14128,1,8,0:0:0:0:
256,192,14355,1,0,0:0:0:0:
256,192,14582,1,8,0:0:0:0:
384,96,15037,1,4,0:0:0:0:
256,192,15492,1,8,0:0:0:0:
256,192,15719,1,8,0:0:0:0:
256,192,15946,1,0,0:0:0:0:
256,192,16401,1,8,0:0:0:0:
256,192,16628,1,0,0:0:0:0:
256,192,16742,1,0,0:0:0:0:
256,192,16855,1,0,0:0:0:0:
256,192,17082,1,0,0:0:0:0:
256,192,17310,1,8,0:0:0:0:
256,192,17764,1,0,0:0:0:0:
256,192,18219,1,0,0:0:0:0:
256,192,18446,1,8,0:0:0:0:
256,192,18673,1,0,0:0:0:0:
256,192,19128,1,0,0:0:0:0:
256,192,19582,1,8,0:0:0:0:
256,192,19810,1,0,0:0:0:0:
256,192,19923,1,0,0:0:0:0:
256,192,20037,1,8,0:0:0:0:
256,192,20264,1,8,0:0:0:0:
256,192,20492,1,0,0:0:0:0:
256,192,20719,1,0,0:0:0:0:
256,192,20832,1,0,0:0:0:0:
256,192,20946,1,0,0:0:0:0:
256,192,21173,1,8,0:0:0:0:
256,192,21401,1,0,0:0:0:0:
256,192,21514,1,0,0:0:0:0:
256,192,21628,1,8,0:0:0:0:
256,192,21855,1,0,0:0:0:0:
384,96,22310,1,4,0:0:0:0:
256,192,22764,1,8,0:0:0:0:
256,192,22992,1,0,0:0:0:0:
256,192,23105,1,0,0:0:0:0:
256,192,23219,1,8,0:0:0:0:
256,192,23446,1,8,0:0:0:0:
256,192,23673,1,0,0:0:0:0:
256,192,23901,1,8,0:0:0:0:
256,192,24014,1,8,0:0:0:0:
256,192,24128,1,0,0:0:0:0:
256,192,24355,1,0,0:0:0:0:
256,192,24469,1,0,0:0:0:0:
256,192,24582,1,0,0:0:0:0:
256,192,24810,1,8,0:0:0:0:
256,192,25264,1,0,0:0:0:0:
256,192,25492,1,8,0:0:0:0:
256,192,25946,1,0,0:0:0:0:
256,192,26401,1,8,0:0:0:0:
256,192,26628,1,0,0:0:0:0:
256,192,26742,1,0,0:0:0:0:
256,192,26855,1,8,0:0:0:0:
256,192,27082,1,8,0:0:0:0:
256,192,27310,1,0,0:0:0:0:
256,192,27537,1,8,0:0:0:0:
256,192,27651,1,0,0:0:0:0:
256,192,27764,1,8,0:0:0:0:
256,192,27992,1,0,0:0:0:0:
256,192,28105,1,0,0:0:0:0:
256,192,28219,1,0,0:0:0:0:
256,192,28446,1,8,0:0:0:0:
256,192,28901,1,8,0:0:0:0:
256,192,29128,1,8,0:0:0:0:
384,96,29582,1,4,0:0:0:0:
256,192,30037,1,8,0:0:0:0:
256,192,30264,1,0,0:0:0:0:
256,192,30378,1,0,0:0:0:0:
256,192,30492,1,0,0:0:0:0:
256,192,30719,1,8,0:0:0:0:
256,192,31173,1,0,0:0:0:0:
256,192,31401,1,0,0:0:0:0:
256,192,31514,1,0,0:0:0:0:
256,192,31628,1,0,0:0:0:0:
256,192,31855,1,8,0:0:0:0:
256,192,32082,1,0,0:0:0:0:
256,192,32196,1,0,0:0:0:0:
256,192,32310,1,0,0:0:0:0:
256,192,32537,1,8,0:0:0:0:
256,192,32992,1,8,0:0:0:0:
256,192,33219,1,0,0:0:0:0:
256,192,33446,1,0,0:0:0:0:
256,192,33559,1,0,0:0:0:0:
256,192,33673,1,8,0:0:0:0:
256,192,33900,1,0,0:0:0:0:
256,192,34128,1,8,0:0:0:0:
256,192,34355,1,8,0:0:0:0:
256,192,34469,1,8,0:0:0:0:
256,192,34582,1,0,0:0:0:0:
256,192,34809,1,0,0:0:0:0:
256,192,34923,1,0,0:0:0:0:
256,192,35037,1,8,0:0:0:0:
256,192,35264,1,0,0:0:0:0:
256,192,35491,1,8,0:0:0:0:
256,192,35719,1,0,0:0:0:0:
256,192,35832,1,0,0:0:0:0:
256,192,35946,1,8,0:0:0:0:
256,192,36173,1,8,0:0:0:0:
256,192,36287,1,8,0:0:0:0:
256,192,36400,1,0,0:0:0:0:
256,192,36855,1,0,0:0:0:0:
256,192,37082,1,8,0:0:0:0:
256,192,37196,1,8,0:0:0:0:
256,192,37309,1,0,0:0:0:0:
256,192,37537,1,0,0:0:0:0:
256,192,37650,1,0,0:0:0:0:
256,192,37764,1,8,0:0:0:0:
256,192,37991,1,8,0:0:0:0:
256,192,38219,1,0,0:0:0:0:
256,192,38446,1,8,0:0:0:0:
256,192,38559,1,0,0:0:0:0:
256,192,38673,1,8,0:0:0:0:
256,192,38900,1,0,0:0:0:0:
256,192,39128,1,8,0:0:0:0:
256,192,39355,1,0,0:0:0:0:
256,192,39469,1,0,0:0:0:0:
256,192,39582,1,8,0:0:0:0:
256,192,39809,1,0,0:0:0:0:
256,192,40037,1,8,0:0:0:0:
256,192,40150,1,8,0:0:0:0:
256,192,40264,1,0,0:0:0:0:
256,192,40378,1,0,0:0:0:0:
256,192,40491,1,8,0:0:0:0:
256,192,40946,1,0,0:0:0:0:
256,192,41173,1,0,0:0:0:0:
256,192,41287,1,0,0:0:0:0:
256,192,41400,1,8,0:0:0:0:
256,192,41628,1,0,0:0:0:0:
256,192,41855,1,8,0:0:0:0:
256,192,41969,1,8,0:0:0:0:
256,192,42082,1,0,0:0:0:0:
256,192,42309,1,8,0:0:0:0:
256,192,42537,1,0,0:0:0:0:
256,192,42764,1,8,0:0:0:0:
256,192,42878,1,8,0:0:0:0:
256,192,42991,1,0,0:0:0:0:
256,192,43219,1,8,0:0:0:0:
256,192,43446,1,0,0:0:0:0:
256,192,43559,1,0,0:0:0:0:
256,192,43673,1,8,0:0:0:0:
256,192,43787,1,8,0:0:0:0:
256,192,43900,1,0,0:0:0:0:
384,96,44128,1,12,0:0:0:0:
256,192,44582,1,8,0:0:0:0:
384,96,44809,1,4,0:0:0:0:
256,192,45264,1,0,0:0:0:0:
384,96,45491,1,12,0:0:0:0:
256,192,48219,1,0,0:0:0:0:
256,192,48673,1,8,0:0:0:0:
256,192,49128,1,8,0:0:0:0:
256,192,49355,1,8,0:0:0:0:
384,96,49582,1,4,0:0:0:0:
256,192,50036,1,8,0:0:0:0:
256,192,50263,1,8,0:0:0:0:
256,192,50377,1,8,0:0:0:0:
256,192,50491,1,8,0:0:0:0:
256,192,50718,1,0,0:0:0:0:
256,192,50832,1,0,0:0:0:0:
256,192,50945,1,8,0:0:0:0:
256,192,51172,1,8,0:0:0:0:
256,192,51400,1,0,0:0:0:0:
256,192,51627,1,0,0:0:0:0:
256,192,51741,1,0,0:0:0:0:
256,192,51854,1,8,0:0:0:0:
256,192,52082,1,0,0:0:0:0:
256,192,52309,1,0,0:0:0:0:
256,192,52422,1,8,0:0:0:0:
256,192,52536,1,8,0:0:0:0:
256,192,52763,1,8,0:0:0:0:
256,192,52991,1,0,0:0:0:0:
256,192,53104,1,0,0:0:0:0:
256,192,53218,1,0,0:0:0:0:
256,192,53672,1,8,0:0:0:0:
256,192,53900,1,0,0:0:0:0:
256,192,54013,1,0,0:0:0:0:
256,192,54127,1,8,0:0:0:0:
256,192,54354,1,0,0:0:0:0:
256,192,54582,1,8,0:0:0:0:
256,192,54695,1,8,0:0:0:0:
256,192,54809,1,0,0:0:0:0:
256,192,55036,1,8,0:0:0:0:
256,192,55263,1,0,0:0:0:0:
256,192,55491,1,8,0:0:0:0:
256,192,55604,1,8,0:0:0:0:
256,192,55718,1,0,0:0:0:0:
256,192,55945,1,0,0:0:0:0:
256,192,56059,1,8,0:0:0:0:
256,192,56286,1,8,0:0:0:0:
256,192,56400,1,0,0:0:0:0:
256,192,56627,1,8,0:0:0:0:
384,96,56854,1,4,0:0:0:0:
256,192,57309,1,8,0:0:0:0:
256,192,57536,1,8,0:0:0:0:
256,192,57650,1,8,0:0:0:0:
256,192,57763,1,8,0:0:0:0:
256,192,57991,1,0,0:0:0:0:
256,192,58104,1,0,0:0:0:0:
256,192,58218,1,8,0:0:0:0:
256,192,58445,1,0,0:0:0:0:
256,192,58672,1,0,0:0:0:0:
256,192,58900,1,8,0:0:0:0:
256,192,59013,1,0,0:0:0:0:
256,192,59127,1,8,0:0:0:0:
256,192,59354,1,0,0:0:0:0:
256,192,59582,1,0,0:0:0:0:
256,192,59695,1,8,0:0:0:0:
256,192,59809,1,8,0:0:0:0:
256,192,60036,1,8,0:0:0:0:
256,192,60263,1,0,0:0:0:0:
256,192,60377,1,0,0:0:0:0:
256,192,60491,1,0,0:0:0:0:
256,192,60945,1,8,0:0:0:0:
256,192,61172,1,0,0:0:0:0:
256,192,61286,1,0,0:0:0:0:
256,192,61400,1,8,0:0:0:0:
256,192,61627,1,0,0:0:0:0:
256,192,61854,1,8,0:0:0:0:
256,192,61968,1,8,0:0:0:0:
256,192,62082,1,0,0:0:0:0:
256,192,62309,1,8,0:0:0:0:
256,192,62536,1,0,0:0:0:0:
256,192,62763,1,8,0:0:0:0:
256,192,62991,1,8,0:0:0:0:
256,192,63104,1,8,0:0:0:0:
256,192,63218,1,8,0:0:0:0:
256,192,63445,1,0,0:0:0:0:
256,192,63559,1,0,0:0:0:0:
256,192,63672,1,8,0:0:0:0:
256,192,63786,1,8,0:0:0:0:
256,192,63900,1,0,0:0:0:0:
384,96,64127,1,4,0:0:0:0:
256,192,64582,1,8,0:0:0:0:
256,192,64809,1,0,0:0:0:0:
256,192,64922,1,0,0:0:0:0:
256,192,65036,1,0,0:0:0:0:
256,192,65263,1,8,0:0:0:0:
256,192,65491,1,8,0:0:0:0:
256,192,65604,1,8,0:0:0:0:
256,192,65718,1,0,0:0:0:0:
256,192,65945,1,0,0:0:0:0:
256,192,66172,1,0,0:0:0:0:
256,192,66286,1,0,0:0:0:0:
256,192,66400,1,8,0:0:0:0:
256,192,66627,1,0,0:0:0:0:
256,192,66741,1,0,0:0:0:0:
256,192,66854,1,8,0:0:0:0:
256,192,66968,1,8,0:0:0:0:
256,192,67082,1,0,0:0:0:0:
256,192,67309,1,8,0:0:0:0:
256,192,67536,1,8,0:0:0:0:
256,192,67650,1,8,0:0:0:0:
256,192,67763,1,0,0:0:0:0:
256,192,68218,1,8,0:0:0:0:
256,192,68445,1,8,0:0:0:0:
256,192,68559,1,8,0:0:0:0:
256,192,68672,1,0,0:0:0:0:
256,192,68900,1,0,0:0:0:0:
256,192,69013,1,0,0:0:0:0:
256,192,69127,1,8,0:0:0:0:
256,192,69354,1,8,0:0:0:0:
256,192,69582,1,0,0:0:0:0:
256,192,70036,1,8,0:0:0:0:
256,192,70263,1,0,0:0:0:0:
256,192,70491,1,8,0:0:0:0:
256,192,70604,1,8,0:0:0:0:
256,192,70718,1,0,0:0:0:0:
256,192,70945,1,8,0:0:0:0:
256,192,71059,1,0,0:0:0:0:
256,192,71172,1,8,0:0:0:0:
384,96,71400,1,4,0:0:0:0:
256,192,71854,1,0,0:0:0:0:
384,96,72082,1,12,0:0:0:0:
256,192,72536,1,8,0:0:0:0:
384,96,72763,1,4,0:0:0:0:
256,192,73218,1,0,0:0:0:0:
256,192,73445,1,8,0:0:0:0:
256,192,73559,1,0,0:0:0:0:
256,192,73672,1,8,0:0:0:0:
256,192,73900,1,8,0:0:0:0:
256,192,74127,1,0,0:0:0:0:
256,192,74354,1,8,0:0:0:0:
256,192,74468,1,8,0:0:0:0:
256,192,74582,1,0,0:0:0:0:
256,192,74695,1,0,0:0:0:0:
256,192,74809,1,8,0:0:0:0:
384,96,75036,1,4,0:0:0:0:
256,192,75491,1,0,0:0:0:0:
384,96,75718,1,12,0:0:0:0:
256,192,76172,1,0,0:0:0:0:
384,96,76400,1,12,0:0:0:0:
256,192,76854,1,8,0:0:0:0:
256,192,77195,1,0,0:0:0:0:
256,192,77309,1,0,0:0:0:0:
256,192,77536,1,8,0:0:0:0:
256,192,77763,1,0,0:0:0:0:
256,192,77877,1,0,0:0:0:0:
256,192,77991,1,8,0:0:0:0:
256,192,78218,1,0,0:0:0:0:
256,192,78445,1,0,0:0:0:0:
384,96,78672,1,12,0:0:0:0:
256,192,79127,1,8,0:0:0:0:
256,192,79354,1,0,0:0:0:0:
256,192,79468,1,0,0:0:0:0:
256,192,79582,1,8,0:0:0:0:
256,192,79809,1,0,0:0:0:0:
256,192,80036,1,8,0:0:0:0:
256,192,80263,1,8,0:0:0:0:
256,192,80377,1,0,0:0:0:0:
256,192,80491,1,8,0:0:0:0:
256,192,80718,1,0,0:0:0:0:
256,192,80945,1,8,0:0:0:0:
256,192,81059,1,8,0:0:0:0:
256,192,81172,1,0,0:0:0:0:
256,192,81400,1,0,0:0:0:0:
256,192,81513,1,8,0:0:0:0:
256,192,81741,1,8,0:0:0:0:
256,192,81854,1,0,0:0:0:0:
256,192,82082,1,0,0:0:0:0:
256,192,82309,1,0,0:0:0:0:
256,192,82763,1,8,0:0:0:0:
256,192,82991,1,0,0:0:0:0:
256,192,83104,1,0,0:0:0:0:
256,192,83218,1,8,0:0:0:0:
256,192,83445,1,0,0:0:0:0:
256,192,83672,1,8,0:0:0:0:
256,192,83900,1,0,0:0:0:0:
256,192,84013,1,0,0:0:0:0:
256,192,84127,1,0,0:0:0:0:
256,192,84354,1,0,0:0:0:0:
256,192,84582,1,8,0:0:0:0:
256,192,84695,1,8,0:0:0:0:
256,192,84809,1,0,0:0:0:0:
256,192,85036,1,0,0:0:0:0:
256,192,85150,1,8,0:0:0:0:
256,192,85491,1,8,0:0:0:0:
256,192,85604,1,0,0:0:0:0:
256,192,85718,1,8,0:0:0:0:
384,96,85945,1,12,0:0:0:0:
256,192,86400,1,8,0:0:0:0:
256,192,86627,1,0,0:0:0:0:
256,192,86741,1,0,0:0:0:0:
256,192,86854,1,8,0:0:0:0:
256,192,87082,1,0,0:0:0:0:
256,192,87309,1,8,0:0:0:0:
256,192,87536,1,8,0:0:0:0:
256,192,87650,1,0,0:0:0:0:
256,192,87763,1,8,0:0:0:0:
256,192,87991,1,0,0:0:0:0:
256,192,88218,1,8,0:0:0:0:
256,192,88332,1,8,0:0:0:0:
256,192,88445,1,0,0:0:0:0:
256,192,88672,1,0,0:0:0:0:
256,192,88786,1,8,0:0:0:0:
256,192,89013,1,8,0:0:0:0:
256,192,89127,1,0,0:0:0:0:
256,192,89354,1,0,0:0:0:0:
256,192,89582,1,0,0:0:0:0:
384,96,90036,1,12,0:0:0:0:
256,192,90263,1,0,0:0:0:0:
256,192,90377,1,0,0:0:0:0:
256,192,90491,1,8,0:0:0:0:
256,192,90718,1,0,0:0:0:0:
384,96,90945,1,12,0:0:0:0:
256,192,91400,1,0,0:0:0:0:
256,192,91627,1,8,0:0:0:0:
256,192,91741,1,8,0:0:0:0:
256,192,91854,1,0,0:0:0:0:
256,192,92082,1,0,0:0:0:0:
256,192,92309,1,8,0:0:0:0:
256,192,92422,1,8,0:0:0:0:
256,192,92536,1,0,0:0:0:0:
256,192,92650,1,0,0:0:0:0:
256,192,92763,1,8,0:0:0:0:
256,192,92991,1,0,0:0:0:0:
384,96,93218,1,12,0:0:0:0:
256,192,93445,12,0,100491,0:0:0:0:
