osu file format v14

[General]
AudioFilename: smile again.mp3
AudioLeadIn: 1500
PreviewTime: 39530
Countdown: 0
SampleSet: Soft
StackLeniency: 0.7
Mode: 0
LetterboxInBreaks: 0
WidescreenStoryboard: 1

[Editor]
Bookmarks: 369,7554,19051,33422,39171,40608,52105,63602,72045,73662,86596,95937
DistanceSpacing: 0.2
BeatDivisor: 4
GridSize: 16
TimelineZoom: 1.8

[Metadata]
Title:smile again
TitleUnicode:smile again
Artist:solfa feat. Ceui
ArtistUnicode:solfa feat. Ceui
Creator:tomatas95
Version:Sawayaka na Hana wa Kimi no Kokoro ni Saiteiru
Source:PRIMAL×HEARTS2
Tags:eroge marmalade プライマルハーツ2 ま~まれぇど PxH 2 visual novel vn video game galgame riven op opening japanese jpop j-pop pop games
BeatmapID:3932405
BeatmapSetID:1857772

[Difficulty]
HPDrainRate:5.5
CircleSize:4
OverallDifficulty:8.5
ApproachRate:9
SliderMultiplier:1.8
SliderTickRate:1

[Events]
//Background and Video events
Video,0,"erogeisbest.mp4"
0,0,"UsagiIdol.jpg",0,0
//Break Periods
//Storyboard Layer 0 (Background)
//Storyboard Layer 1 (Fail)
//Storyboard Layer 2 (Pass)
//Storyboard Layer 3 (Foreground)
//Storyboard Layer 4 (Overlay)
//Storyboard Sound Samples

[TimingPoints]
369,359.281437125748,4,2,1,50,1,0
369,-142.857142857143,4,2,1,50,0,0
907,-333.333333333333,4,2,1,55,0,0
1267,-142.857142857143,4,2,1,5,0,0
1446,-142.857142857143,4,2,1,50,0,0
1984,-333.333333333333,4,2,1,55,0,0
2345,-142.857142857143,4,2,1,5,0,0
2524,-142.857142857143,4,2,1,60,0,0
2704,-142.857142857143,4,2,1,55,0,0
2883,-142.857142857143,4,2,1,50,0,0
3063,-142.857142857143,4,2,1,45,0,0
3243,-142.857142857143,4,2,1,50,0,0
3602,-142.857142857143,4,2,1,40,0,0
3782,-142.857142857143,4,2,1,50,0,0
4141,-142.857142857143,4,2,1,40,0,0
4321,-142.857142857143,4,2,1,50,0,0
4680,-142.857142857143,4,2,1,45,0,0
4860,-166.666666666667,4,2,2,55,0,0
4949,-166.666666666667,4,2,1,30,0,0
5578,-166.666666666667,4,2,1,50,0,0
7554,-142.857142857143,4,2,1,60,0,0
8991,-142.857142857143,4,2,1,40,0,0
10428,-142.857142857143,4,2,1,60,0,0
11865,-142.857142857143,4,2,1,40,0,0
13303,-142.857142857143,4,2,1,60,0,0
14740,-142.857142857143,4,2,1,40,0,0
16177,-142.857142857143,4,2,1,60,0,0
18333,-142.857142857143,4,2,1,55,0,0
18871,-142.857142857143,4,2,1,60,0,0
19051,-100,4,2,1,70,0,0
19410,-111.111111111111,4,2,1,65,0,0
20488,-111.111111111111,4,2,1,60,0,0
21925,-111.111111111111,4,2,1,65,0,0
23363,-111.111111111111,4,2,1,60,0,0
23901,-111.111111111111,4,2,1,55,0,0
24081,-111.111111111111,4,2,1,60,0,0
24620,-111.111111111111,4,2,1,55,0,0
24800,-111.111111111111,4,2,1,70,0,0
25159,-111.111111111111,4,2,1,65,0,0
26237,-111.111111111111,4,2,1,60,0,0
27315,-166.666666666666,4,2,1,60,0,0
27584,-166.666666666666,4,2,1,5,0,0
27674,-99.9999999999999,4,2,1,70,0,0
28033,-111.111111111111,4,2,1,65,0,0
30189,-111.111111111111,4,2,1,60,0,0
30548,-111.111111111111,4,2,1,70,0,0
30907,-111.111111111111,4,2,1,65,0,0
32524,-111.111111111111,4,2,1,60,0,0
32704,-111.111111111111,4,2,1,70,0,0
32883,-111.111111111111,4,2,1,65,0,0
33063,-111.111111111111,4,2,2,60,0,0
33243,-111.111111111111,4,2,3,55,0,0
33422,-90.9090909090909,4,2,3,75,0,0
33782,-100,4,2,1,70,0,0
34860,-100,4,2,1,75,0,0
35219,-100,4,2,1,70,0,0
36297,-90.9090909090909,4,2,1,75,0,0
36656,-100,4,2,1,70,0,0
37734,-100,4,2,1,75,0,0
38093,-100,4,2,1,70,0,0
39171,-100,4,2,9,50,0,0
39261,-100,4,2,1,20,0,0
39710,-142.857142857143,4,2,1,40,0,0
39889,-200,4,2,1,50,0,0
40159,-166.666666666666,4,2,1,5,0,0
40249,-111.111111111111,4,2,1,60,0,0
40518,-166.666666666666,4,2,1,5,0,0
40608,-76.9230769230769,4,2,4,85,0,1
40967,-90.9090909090909,4,2,1,80,0,1
42045,-83.3333333333333,4,2,1,85,0,1
42404,-90.9090909090909,4,2,1,80,0,1
42764,-76.9230769230769,4,2,1,80,0,1
43123,-111.111111111111,4,2,1,80,0,1
43482,-83.3333333333333,4,2,3,85,0,1
43841,-90.9090909090909,4,2,1,80,0,1
44919,-83.3333333333333,4,2,5,85,0,1
45278,-90.9090909090909,4,2,1,80,0,1
46177,-90.9090909090909,4,2,2,80,0,1
46357,-83.3333333333333,4,2,7,85,0,1
46716,-76.9230769230769,4,2,1,80,0,1
47075,-90.9090909090909,4,2,1,80,0,1
47794,-90.9090909090909,4,2,1,85,0,1
48153,-90.9090909090909,4,2,1,80,0,1
49231,-90.9090909090909,4,2,1,85,0,1
49590,-90.9090909090909,4,2,1,80,0,1
50668,-90.9090909090909,4,2,3,80,0,1
50848,-90.9090909090909,4,2,1,75,0,1
51027,-90.9090909090909,4,2,3,75,0,1
51207,-90.9090909090909,4,2,1,80,0,1
51566,-90.9090909090909,4,2,1,85,0,1
51746,-90.9090909090909,4,2,1,80,0,0
52105,-76.9230769230769,4,2,4,85,0,1
52464,-90.9090909090909,4,2,1,80,0,1
53542,-83.3333333333333,4,2,1,85,0,1
53901,-90.9090909090909,4,2,1,80,0,1
54261,-76.9230769230769,4,2,1,80,0,1
54620,-111.111111111111,4,2,1,80,0,1
54979,-83.3333333333333,4,2,3,85,0,1
55339,-90.9090909090909,4,2,1,80,0,1
56416,-83.3333333333333,4,2,5,85,0,1
56775,-90.9090909090909,4,2,1,80,0,1
57674,-90.9090909090909,4,2,2,80,0,1
57854,-83.3333333333333,4,2,7,85,0,1
58213,-90.9090909090909,4,2,1,80,0,1
59291,-90.9090909090909,4,2,1,85,0,1
59650,-90.9090909090909,4,2,1,80,0,1
60729,-90.9090909090909,4,2,1,85,0,1
61087,-90.9090909090909,4,2,1,80,0,1
62165,-90.9090909090909,4,2,1,85,0,1
62345,-90.9090909090909,4,2,1,75,0,1
62434,-90.9090909090909,4,2,2,75,0,1
62524,-90.9090909090909,4,2,3,75,0,1
62704,-90.9090909090909,4,2,1,70,0,1
62883,-90.9090909090909,4,2,1,70,0,1
62973,-90.9090909090909,4,2,2,70,0,1
63063,-90.9090909090909,4,2,3,75,0,1
63153,-90.9090909090909,4,2,4,75,0,1
63243,-90.9090909090909,4,2,1,80,0,0
63422,-90.9090909090909,4,2,1,80,0,0
63602,-66.6666666666667,4,2,4,85,0,1
63782,-66.6666666666667,4,2,1,80,0,1
63961,-76.9230769230769,4,2,1,80,0,1
64141,-83.3333333333333,4,2,3,85,0,1
64321,-71.4285714285714,4,2,1,80,0,1
64500,-90.9090909090909,4,2,1,75,0,1
64680,-90.9090909090909,4,2,1,80,0,1
64860,-71.4285714285714,4,2,7,85,0,1
65219,-90.9090909090909,4,2,1,80,0,1
65758,-90.9090909090909,4,2,1,75,0,1
66297,-90.9090909090909,4,2,1,80,0,1
66476,-90.9090909090909,4,2,5,85,0,1
66656,-90.9090909090909,4,2,1,80,0,1
67015,-83.3333333333333,4,2,3,85,0,1
67374,-71.4285714285714,4,2,1,80,0,1
67734,-76.9230769230769,4,2,4,85,0,1
68093,-90.9090909090909,4,2,1,80,0,1
68632,-90.9090909090909,4,2,1,75,0,1
68722,-90.9090909090909,4,2,2,75,0,1
68812,-90.9090909090909,4,2,3,75,0,1
68991,-90.9090909090909,4,2,1,75,0,1
69081,-90.9090909090909,4,2,2,75,0,1
69171,-90.9090909090909,4,2,3,75,0,1
69351,-66.6666666666667,4,2,7,85,0,1
69530,-66.6666666666667,4,2,2,80,0,1
69710,-90.9090909090909,4,2,2,80,0,1
70788,-90.9090909090909,4,2,4,85,0,1
70967,-90.9090909090909,4,2,1,80,0,1
71237,-90.9090909090909,4,2,1,75,0,1
71506,-90.9090909090909,4,2,2,80,0,1
71596,-90.9090909090909,4,2,1,75,0,1
71955,-90.9090909090909,4,2,3,75,0,1
72045,-166.666666666667,4,2,3,85,0,0
72135,-166.666666666667,4,2,1,20,0,0
72584,-166.666666666667,4,2,1,50,0,0
73662,-90.9090909090909,4,2,4,75,0,0
74021,-100,4,2,1,70,0,0
74919,-100,4,2,1,75,0,0
75279,-100,4,2,1,70,0,0
76536,-100,4,2,1,75,0,0
76896,-100,4,2,1,70,0,0
77794,-100,4,2,1,75,0,0
78154,-100,4,2,1,70,0,0
78333,-100,4,2,3,75,0,0
78512,-100,4,2,1,70,0,0
78692,-100,4,2,1,80,0,0
78931,-100,4,2,1,75,0,0
79051,-100,4,2,2,75,0,0
79171,-100,4,2,3,70,0,0
79291,-100,4,2,4,70,0,0
79410,-100,4,2,4,75,0,0
79590,-100,4,2,1,70,0,0
81027,-100,4,2,1,75,0,0
81387,-100,4,2,1,70,0,0
82285,-100,4,2,1,75,0,0
83183,-100,4,2,2,75,0,0
83363,-100,4,2,1,75,0,0
83542,-153.846153846154,4,2,7,75,0,0
83722,-153.846153846154,4,2,1,30,0,0
84979,-153.846153846154,4,2,1,65,0,0
85069,-100,4,2,1,65,0,0
85159,-100,4,2,1,65,0,0
85339,-142.857142857143,4,2,2,60,0,0
85698,-142.857142857143,4,2,3,55,0,0
86057,-142.857142857143,4,2,4,50,0,0
86596,-400,4,2,4,75,0,0
87315,-400,4,2,1,75,0,0
88033,-400,4,2,1,70,0,0
88752,-400,4,2,1,65,0,0
89470,-400,4,2,1,60,0,0
90189,-400,4,2,1,55,0,0
90907,-400,4,2,1,50,0,0
91626,-400,4,2,1,45,0,0
92345,-400,4,2,1,40,0,0
93063,-400,4,2,1,35,0,0
93782,-400,4,2,1,25,0,0
94500,-400,4,2,1,15,0,0
95219,-400,4,2,1,10,0,0
95937,-100,4,2,1,15,0,0

[Colours]
Combo1 : 255,155,235
Combo2 : 39,231,124
Combo3 : 232,139,0
Combo4 : 1,197,254
Combo5 : 255,255,140

[HitObjects]
238,152,369,6,0,P|233:106|204:2,1,125.999996154785,2|0,0:0|0:0,0:0:0:0:
243,188,907,2,0,P|246:155|261:114,1,67.4999979400635,2|0,0:0|0:0,0:0:0:0:
238,224,1446,6,0,P|233:178|204:74,1,125.999996154785,2|0,0:0|0:0,0:0:0:0:
243,260,1985,2,0,P|246:219|258:189,1,67.4999979400635,2|0,0:0|0:0,0:0:0:0:
339,211,2524,6,0,P|330:241|328:272,2,62.9999980773926,2|0|0,0:0|0:0|0:0,0:0:0:0:
256,195,3063,2,0,L|245:237,1,31.4999990386963,2|2,0:3|0:3,0:0:0:0:
222,302,3243,6,0,P|174:297|97:332,1,125.999996154785,2|0,0:0|0:0,0:0:0:0:
167,135,3782,2,0,P|186:179|255:228,1,125.999996154785,2|0,0:0|0:0,0:0:0:0:
50,267,4321,2,0,P|78:227|86:143,1,125.999996154785,2|0,0:0|0:0,0:0:0:0:
25,67,4860,6,0,B|69:39|111:79|111:79|75:67|42:88,1,161.999995056153,2|0,0:3|0:0,0:0:0:0:
9,153,5578,1,2,0:0:0:0:
511,124,7554,6,0,P|450:118|417:47,1,125.999996154785,2|0,0:0|0:0,0:0:0:0:
246,126,8093,2,0,P|306:120|339:49,1,125.999996154785,2|0,0:0|0:0,0:0:0:0:
376,0,8632,1,2,0:0:0:0:
483,367,10428,6,0,P|493:302|456:252,1,125.999996154785,2|0,0:0|0:0,0:0:0:0:
305,286,10967,2,0,P|351:325|413:322,1,125.999996154785,2|0,0:0|0:0,0:0:0:0:
377,248,11506,1,2,0:0:0:0:
50,384,13303,6,0,P|38:335|-13:254,1,125.999996154785,2|0,0:0|0:0,0:0:0:0:
140,382,13842,2,0,P|151:333|203:252,1,125.999996154785,2|0,0:0|0:0,0:0:0:0:
95,269,14380,1,2,0:0:0:0:
151,145,16177,6,0,P|169:85|148:27,1,125.999996154785,2|0,0:0|0:0,0:0:0:0:
69,26,16716,2,0,P|44:83|58:143,1,125.999996154785,2|0,0:0|0:0,0:0:0:0:
95,286,17255,2,0,L|104:216,1,62.9999980773926,2|0,0:0|0:0,0:0:0:0:
16,217,17614,6,0,L|0:341,1,125.999996154785,2|2,0:0|0:0,0:0:0:0:
180,348,18153,2,0,L|196:223,1,125.999996154785,2|0,0:0|0:0,0:0:0:0:
103,224,18692,1,2,0:0:0:0:
72,45,18871,2,0,L|67:76,1,31.4999990386963,2|2,0:3|0:3,0:0:0:0:
59,150,19051,6,0,B|104:161|131:112|131:112|166:78|225:107,1,180,6|0,3:2|3:2,0:0:0:0:
422,96,19590,2,0,P|423:51|445:-8,1,80.9999975280763,2|2,0:0|3:2,0:0:0:0:
329,92,19949,1,2,0:0:0:0:
329,92,20039,1,2,0:0:0:0:
329,92,20129,2,0,P|328:47|306:-12,1,80.9999975280763,0|2,3:0|0:0,0:0:0:0:
399,175,20488,5,0,3:2:0:0:
385,165,20668,1,2,0:0:0:0:
483,177,20848,5,0,3:2:0:0:
497,169,21027,1,2,0:0:0:0:
439,248,21206,5,0,3:2:0:0:
439,264,21386,1,2,0:0:0:0:
374,160,21566,5,2,3:2:0:0:
508,162,21746,1,2,0:0:0:0:
439,306,21925,6,0,L|427:390,1,80.9999975280763,2|0,3:2|0:0,0:0:0:0:
263,334,22285,1,0,3:0:0:0:
337,378,22464,2,0,L|348:297,1,80.9999975280763,2|0,0:0|3:0,0:0:0:0:
176,370,22824,1,2,0:0:0:0:
176,370,22913,1,2,0:0:0:0:
176,370,23003,6,0,L|201:192,1,161.999995056153,0|0,3:0|3:0,0:0:0:0:
173,40,23542,5,2,0:0:0:0:
173,57,23722,1,0,3:0:0:0:
130,149,23901,5,2,0:0:0:0:
144,141,24081,1,0,3:0:0:0:
245,132,24261,5,2,0:0:0:0:
232,124,24440,1,0,3:0:0:0:
76,86,24620,1,2,0:3:0:0:
76,86,24710,1,2,0:3:0:0:
76,86,24800,6,0,P|88:131|95:183,1,80.9999975280763,2|0,3:2|0:0,0:0:0:0:
51,376,25159,1,0,3:0:0:0:
15,309,25339,2,0,B|54:292|54:292|88:308,1,80.9999975280763,2|2,0:0|3:2,0:0:0:0:
201,372,25698,1,0,0:0:0:0:
201,372,25788,1,2,0:0:0:0:
201,372,25877,2,0,B|167:356|167:356|128:373,1,80.9999975280763,2|2,3:2|0:0,0:0:0:0:
270,291,26237,5,0,3:0:0:0:
270,307,26416,1,2,0:0:0:0:
203,247,26596,5,0,3:0:0:0:
189,255,26776,1,2,0:0:0:0:
337,247,26955,5,0,3:0:0:0:
351,254,27135,1,2,0:0:0:0:
269,197,27315,2,0,P|266:157|250:96,1,80.9999975280763,0|0,3:0|0:0,0:0:0:0:
224,47,27674,6,0,B|271:25|311:64|311:64|364:79|403:22,1,180,2|0,3:2|3:2,0:0:0:0:
493,26,28213,1,2,0:0:0:0:
493,26,28303,1,2,0:0:0:0:
493,26,28392,2,0,P|486:65|482:119,1,80.9999975280763,0|2,3:0|0:0,0:0:0:0:
501,257,28752,1,0,3:0:0:0:
362,198,28931,1,2,0:0:0:0:
445,183,29111,6,0,L|401:345,1,161.999995056153,2|2,3:2|3:2,0:0:0:0:
401,350,29560,1,2,0:0:0:0:
398,361,29650,2,0,P|357:348|311:363,1,80.9999975280763,2|0,0:0|3:0,0:0:0:0:
203,227,30009,1,2,0:2:0:0:
216,352,30189,1,0,3:0:0:0:
323,272,30368,1,2,0:0:0:0:
214,130,30548,6,0,L|252:288,1,161.999995056153,2|0,3:2|3:0,0:0:0:0:
91,331,31087,2,0,L|48:152,1,161.999995056153,2|0,0:0|0:0,0:0:0:0:
108,60,31626,1,2,3:2:0:0:
145,217,31806,6,0,L|102:38,1,161.999995056153,2|2,0:0|0:0,0:0:0:0:
187,27,32345,1,0,3:0:0:0:
20,71,32524,1,2,0:3:0:0:
163,222,32704,5,8,0:0:0:0:
251,103,32883,1,8,3:0:0:0:
399,123,33063,1,8,3:0:0:0:
447,263,33243,1,8,3:0:0:0:
296,348,33422,6,0,P|305:253|325:128,1,198.000006042481,6|10,3:2|0:0,0:0:0:0:
325,51,33961,1,0,0:0:0:0:
400,201,34141,1,2,3:2:0:0:
487,147,34321,1,0,3:2:0:0:
325,51,34500,1,10,0:0:0:0:
238,105,34680,1,2,0:0:0:0:
238,105,34770,1,8,0:0:0:0:
238,105,34860,6,0,B|161:88|161:88|157:77|157:77|46:51,1,180,2|10,3:2|0:0,0:0:0:0:
71,226,35398,2,0,L|82:131,1,90,2|0,3:2|0:0,0:0:0:0:
5,109,35758,1,2,3:2:0:0:
151,202,35937,1,10,0:0:0:0:
29,356,36117,1,2,0:0:0:0:
29,356,36207,1,8,0:0:0:0:
29,356,36297,6,0,B|-36:314|-5:239|-5:239|-1:277|27:290,1,198.000006042481,2|10,3:2|0:0,0:0:0:0:
115,296,36836,1,0,0:0:0:0:
239,188,37015,5,2,3:2:0:0:
180,119,37195,1,2,3:2:0:0:
336,15,37374,5,10,0:0:0:0:
416,70,37554,1,2,0:0:0:0:
416,70,37644,1,8,0:0:0:0:
416,70,37734,6,0,L|446:257,1,180,2|10,3:2|0:0,0:0:0:0:
316,131,38273,1,2,3:2:0:0:
444,247,38452,1,2,0:0:0:0:
312,117,38632,1,2,3:2:0:0:
304,305,38812,1,8,0:0:0:0:
353,225,38991,1,8,0:0:0:0:
353,225,39081,1,8,0:0:0:0:
353,225,39171,1,2,0:0:0:0:
104,372,39710,5,2,0:0:0:0:
71,302,39889,2,0,P|102:295|146:307,1,67.5,2|0,0:0|0:0,0:0:0:0:
158,227,40249,2,0,P|102:218|18:245,1,121.499996292114,2|0,0:0|0:0,0:0:0:0:
0,161,40608,6,0,P|76:141|240:175,1,233.999989288331,6|8,3:2|0:0,0:0:0:0:
447,300,41147,1,2,0:0:0:0:
278,326,41327,1,0,3:0:0:0:
337,166,41506,1,2,3:2:0:0:
353,261,41686,1,10,0:0:0:0:
467,84,41866,1,2,0:0:0:0:
467,84,41955,1,2,0:0:0:0:
467,84,42045,6,0,B|421:62|377:72|377:72|357:91|357:91|287:102|260:56,1,215.999993408203,2|10,3:2|0:0,0:0:0:0:
40,86,42584,1,2,3:2:0:0:
40,86,42674,1,8,0:0:0:0:
40,86,42764,2,0,P|38:52|22:17,1,58.4999973220826,2|8,3:2|0:0,0:0:0:0:
201,22,42943,2,0,P|191:49|190:78,1,58.4999973220826,0|0,3:0|3:0,0:0:0:0:
100,296,43123,1,12,0:0:0:0:
100,322,43482,6,0,P|103:205|121:101,1,215.999993408203,6|8,3:2|0:0,0:0:0:0:
186,187,44021,1,2,0:0:0:0:
26,191,44201,1,0,3:2:0:0:
118,31,44380,1,2,3:2:0:0:
186,187,44560,2,0,L|294:174,1,99.0000030212403,8|0,0:0|0:0,0:0:0:0:
498,69,44919,6,0,B|444:82|419:131|419:131|413:66|364:36,1,215.999993408203,2|8,3:2|0:0,0:0:0:0:
512,168,45458,1,2,3:2:0:0:
512,168,45548,1,8,0:0:0:0:
512,168,45638,1,2,0:0:0:0:
448,7,45818,1,2,3:2:0:0:
322,127,45998,1,8,0:0:0:0:
395,346,46177,1,8,3:0:0:0:
395,346,46267,1,8,3:0:0:0:
395,346,46357,6,0,L|423:106,2,215.999993408203,6|10|2,3:2|0:0|3:2,0:0:0:0:
275,363,47255,1,2,3:2:0:0:
226,284,47434,1,10,0:0:0:0:
322,127,47614,1,2,0:0:0:0:
273,48,47794,6,0,B|240:24|188:56|188:56|136:89|87:57,1,198.000006042481,0|8,3:2|0:0,0:0:0:0:
45,202,48333,1,0,3:0:0:0:
45,202,48422,1,8,0:0:0:0:
45,202,48512,1,2,0:0:0:0:
213,137,48692,1,2,3:2:0:0:
50,216,48871,1,8,0:0:0:0:
218,151,49051,1,2,0:0:0:0:
168,284,49231,6,0,P|155:237|136:191,1,99.0000030212403,2|0,3:2|0:0,0:0:0:0:
130,177,49500,1,2,0:0:0:0:
124,163,49590,1,8,0:0:0:0:
304,247,49770,2,0,P|285:292|272:340,1,99.0000030212403,2|0,0:0|3:0,0:0:0:0:
486,74,50129,5,2,3:2:0:0:
304,247,50309,1,10,0:0:0:0:
352,22,50488,1,0,3:0:0:0:
455,320,50668,5,14,0:0:0:0:
376,134,50848,1,8,3:0:0:0:
376,134,50937,1,8,3:0:0:0:
376,134,51027,1,8,3:0:0:0:
368,358,51207,1,8,0:0:0:0:
369,376,51566,5,12,0:0:0:0:
218,207,51746,1,10,0:0:0:0:
183,183,51835,1,8,0:0:0:0:
142,185,51925,1,8,0:0:0:0:
110,208,52015,1,8,0:0:0:0:
94,245,52105,6,0,B|43:277|43:277|5:226|0:159|57:93,1,233.999989288331,6|8,3:2|0:0,0:0:0:0:
131,89,52644,1,2,0:0:0:0:
167,260,52824,1,0,3:0:0:0:
40,114,53003,1,2,3:2:0:0:
169,270,53183,1,10,0:0:0:0:
221,54,53363,1,2,0:0:0:0:
221,54,53452,1,2,0:0:0:0:
221,54,53542,6,0,B|320:71|320:71|334:83|334:83|440:103,1,215.999993408203,2|10,3:2|0:0,0:0:0:0:
501,186,54081,1,2,3:2:0:0:
501,186,54171,1,8,0:0:0:0:
501,186,54261,2,0,P|503:152|520:116,1,58.4999973220826,2|8,3:2|0:0,0:0:0:0:
341,66,54440,2,0,P|350:93|351:122,1,58.4999973220826,0|0,3:0|3:0,0:0:0:0:
437,335,54620,1,12,0:0:0:0:
439,355,54979,6,0,B|371:359|371:359|322:287|382:204,1,215.999993408203,6|8,3:2|0:0,0:0:0:0:
434,117,55518,1,2,0:0:0:0:
272,216,55698,1,0,3:0:0:0:
462,279,55877,1,0,3:0:0:0:
371,220,56057,2,0,P|362:175|351:122,1,99.0000030212403,10|0,0:0|0:0,0:0:0:0:
252,352,56416,6,0,B|176:339|176:339|161:315|161:315|39:294,1,215.999993408203,2|8,3:2|0:0,0:0:0:0:
10,44,56955,1,2,3:2:0:0:
10,44,57045,1,8,0:0:0:0:
10,44,57135,1,2,0:0:0:0:
112,162,57315,1,2,3:2:0:0:
171,16,57494,1,8,0:0:0:0:
123,255,57674,1,8,3:0:0:0:
123,255,57764,1,8,3:0:0:0:
123,255,57854,6,0,P|111:138|88:29,2,215.999993408203,6|10|2,3:2|0:0|3:2,0:0:0:0:
133,350,58752,1,2,3:2:0:0:
46,312,58931,1,10,0:2:0:0:
198,152,59111,1,2,0:0:0:0:
284,183,59291,6,0,L|489:152,1,198.000006042481,2|8,3:2|0:0,0:0:0:0:
355,16,59830,1,8,0:0:0:0:
355,16,59919,1,8,0:0:0:0:
355,16,60009,1,2,0:0:0:0:
291,89,60189,1,2,3:2:0:0:
406,250,60368,1,8,0:0:0:0:
342,323,60548,1,2,0:0:0:0:
207,132,60728,6,0,L|187:13,1,99.0000030212403,2|0,3:2|0:0,0:0:0:0:
188,19,60997,1,2,0:0:0:0:
185,0,61087,1,8,0:0:0:0:
33,42,61267,2,0,L|53:161,1,99.0000030212403,2|0,0:0|3:0,0:0:0:0:
75,355,61626,5,2,3:2:0:0:
232,228,61806,1,8,0:0:0:0:
52,246,61985,1,0,3:0:0:0:
253,336,62165,5,14,0:0:0:0:
150,295,62345,1,8,3:0:0:0:
149,277,62434,1,8,3:0:0:0:
146,257,62524,2,0,P|141:208|132:148,1,99.0000030212403,8|8,3:0|0:0,0:0:0:0:
24,21,62884,5,2,3:2:0:0:
25,43,62973,1,8,3:0:0:0:
29,66,63063,1,8,3:0:0:0:
35,92,63152,1,8,3:0:0:0:
40,117,63243,6,0,P|45:145|56:209,1,49.5000015106202,8|8,0:0|0:0,0:0:0:0:
146,257,63422,2,0,P|150:232|155:208,1,49.5000015106202,8|8,0:0|0:0,0:0:0:0:
345,53,63602,5,6,3:2:0:0:
281,141,63782,1,0,3:0:0:0:
234,42,63961,1,10,0:0:0:0:
247,310,64141,6,0,L|481:293,1,215.999993408203,6|0,3:2|3:0,0:0:0:0:
379,384,64680,1,8,0:0:0:0:
283,159,64860,6,0,B|216:136|167:182|167:182|131:253|37:212,1,251.999992309571,6|0,3:2|3:0,0:0:0:0:
74,27,65398,2,0,L|99:153,1,99.0000030212403,10|0,0:0|3:0,0:0:0:0:
97,138,65668,1,8,0:0:0:0:
100,152,65758,1,2,0:0:0:0:
0,102,65937,1,0,3:0:0:0:
170,65,66117,1,8,0:0:0:0:
149,367,66297,1,8,0:0:0:0:
149,367,66386,1,8,0:0:0:0:
149,367,66476,5,6,3:2:0:0:
124,259,66656,1,0,3:0:0:0:
100,152,66836,1,8,0:0:0:0:
316,343,67015,6,0,B|264:362|264:362|233:305|297:258|244:179,1,215.999993408203,6|0,3:2|3:0,0:0:0:0:
358,97,67554,1,8,0:0:0:0:
404,354,67734,6,0,B|472:373|472:373|503:313|427:273|476:194,1,233.999989288331,6|0,3:2|3:0,0:0:0:0:
358,97,68273,2,0,L|368:222,1,99.0000030212403,8|0,0:0|3:0,0:0:0:0:
433,53,68632,5,8,3:0:0:0:
441,47,68722,1,8,3:0:0:0:
449,41,68812,1,8,3:0:0:0:
283,54,68991,5,8,3:0:0:0:
275,47,69081,1,8,3:0:0:0:
266,41,69171,1,8,3:0:0:0:
237,315,69351,5,14,0:0:0:0:
256,34,69530,1,0,3:0:0:0:
101,315,69710,5,8,0:0:0:0:
120,34,69889,1,0,3:0:0:0:
168,353,70069,5,10,0:0:0:0:
188,73,70249,1,0,3:0:0:0:
305,353,70428,5,10,0:0:0:0:
323,73,70608,1,0,3:0:0:0:
98,237,70788,2,0,L|-4:246,1,99.0000030212403,14|0,0:0|3:0,0:0:0:0:
178,259,71147,5,4,3:0:0:0:
199,230,71236,1,0,3:0:0:0:
232,221,71326,1,0,3:0:0:0:
266,229,71416,1,0,3:0:0:0:
289,256,71506,1,4,3:0:0:0:
307,283,71596,1,0,3:0:0:0:
340,297,71686,1,0,3:0:0:0:
374,292,71776,1,0,3:0:0:0:
400,268,71866,2,0,L|407:206,1,49.5000015106202,8|4,0:0|3:0,0:0:0:0:
406,0,72045,6,0,B|470:24|498:117|461:187|435:171|405:219|405:219|386:184|345:179|345:118|390:77,1,431.999986816407,6|0,3:2|0:0,0:0:0:0:
390,76,73662,6,0,B|345:57|302:66|302:66|287:87|287:87|223:100|195:59,1,198.000006042481,6|2,3:2|0:0,0:0:0:0:
136,22,74201,1,2,3:2:0:0:
113,196,74380,2,0,L|128:94,1,90,8|0,0:0|0:0,0:0:0:0:
208,74,74740,1,2,0:0:0:0:
50,9,74919,6,0,L|22:193,1,180,2|0,3:2|3:0,0:0:0:0:
55,380,75458,2,0,L|70:278,1,90,2|2,0:0|3:2,0:0:0:0:
71,277,75728,1,2,0:0:0:0:
73,263,75818,1,8,0:0:0:0:
246,321,75997,1,8,0:0:0:0:
151,367,76177,2,0,L|165:278,1,90,2|0,0:0|0:0,0:0:0:0:
292,119,76536,5,2,3:2:0:0:
223,191,76716,1,2,3:2:0:0:
216,50,76895,1,2,0:0:0:0:
358,43,77075,1,2,3:2:0:0:
364,185,77255,2,0,L|456:175,1,90,8|2,0:0|0:0,0:0:0:0:
406,104,77614,1,2,0:0:0:0:
512,285,77794,6,0,L|309:304,1,180,2|0,3:2|3:0,0:0:0:0:
159,350,78333,1,12,0:0:0:0:
332,301,78512,1,2,3:2:0:0:
191,146,78692,5,14,0:0:0:0:
191,146,78812,2,0,P|185:109|172:75,1,60,8|8,0:0|3:0,0:0:0:0:
244,294,79051,5,8,3:0:0:0:
244,294,79171,2,0,P|249:330|263:365,1,60,8|8,3:0|3:0,0:0:0:0:
291,203,79410,6,0,P|207:220|105:241,1,180,6|2,3:2|0:0,0:0:0:0:
42,377,79949,2,0,B|75:333|49:282|49:282|22:232|56:190,1,180,2|0,3:2|0:0,0:0:0:0:
108,163,80488,1,2,0:0:0:0:
0,31,80668,6,0,L|190:43,1,180,2|0,3:2|3:0,0:0:0:0:
380,55,81207,2,0,L|277:48,1,90,2|2,0:0|3:2,0:0:0:0:
276,49,81476,1,2,0:0:0:0:
261,47,81566,1,8,0:0:0:0:
306,271,81746,1,8,0:0:0:0:
260,202,81925,2,0,B|304:188|304:188|364:212,1,90,2|0,0:0|0:0,0:0:0:0:
217,132,82285,5,8,0:0:0:0:
218,312,82464,1,4,3:0:0:0:
400,309,82644,1,4,3:0:0:0:
397,129,82824,2,0,P|400:87|418:28,1,90,8|4,0:0|3:0,0:0:0:0:
456,219,83183,5,4,3:0:0:0:
295,74,83363,1,8,0:0:0:0:
307,345,83542,6,0,B|243:288|164:290|138:345|146:345|143:390|74:448|-21:408|-26:298|25:238|88:264,1,467.999978576661,4|8,3:2|0:0,0:0:0:0:
99,267,85069,1,8,0:0:0:0:
112,269,85159,5,8,3:2:0:0:
109,186,85339,2,0,P|114:124|126:61,2,125.999996154785,4|4|4,3:0|3:0|3:0,0:0:0:0:
182,224,86237,1,4,3:0:0:0:
486,167,86596,6,0,B|455:221|358:245|358:245|305:247|229:315|264:475|413:432|521:351|353:199|358:197|358:197|238:63|294:-57|414:-52|525:54|400:200|227:152,1,1170,6|0,3:2|0:0,0:0:0:0:
