osu file format v14

[General]
AudioFilename: smile again.mp3
AudioLeadIn: 1500
PreviewTime: 39530
Countdown: 0
SampleSet: Soft
StackLeniency: 0.7
Mode: 0
LetterboxInBreaks: 0
WidescreenStoryboard: 1

[Editor]
Bookmarks: 369,7554,19051,33422,39171,40608,52105,63602,72045,73662,86596,95937
DistanceSpacing: 0.8
BeatDivisor: 4
GridSize: 4
TimelineZoom: 1.8

[Metadata]
Title:smile again
TitleUnicode:smile again
Artist:solfa feat. Ceui
ArtistUnicode:solfa feat. Ceui
Creator:tomatas95
Version:Normal
Source:PRIMAL×HEARTS2
Tags:eroge marmalade プライマルハーツ2 ま~まれぇど PxH 2 visual novel vn video game galgame riven op opening japanese jpop j-pop pop games
BeatmapID:3932404
BeatmapSetID:1857772

[Difficulty]
HPDrainRate:3
CircleSize:3
OverallDifficulty:4
ApproachRate:5
SliderMultiplier:1.1
SliderTickRate:1

[Events]
//Background and Video events
Video,0,"erogeisbest.mp4"
0,0,"UsagiDate.jpg",0,0
//Break Periods
//Storyboard Layer 0 (Background)
//Storyboard Layer 1 (Fail)
//Storyboard Layer 2 (Pass)
//Storyboard Layer 3 (Foreground)
//Storyboard Layer 4 (Overlay)
//Storyboard Sound Samples

[TimingPoints]
369,359.281437125748,4,2,1,50,1,0
369,-111.111111111111,4,2,1,50,0,0
907,-111.111111111111,4,2,1,55,0,0
1267,-111.111111111111,4,2,1,30,0,0
1446,-111.111111111111,4,2,1,50,0,0
1984,-111.111111111111,4,2,1,55,0,0
2345,-111.111111111111,4,2,1,30,0,0
2524,-111.111111111111,4,2,1,60,0,0
2704,-111.111111111111,4,2,1,55,0,0
2883,-111.111111111111,4,2,1,50,0,0
3063,-111.111111111111,4,2,1,45,0,0
3243,-111.111111111111,4,2,1,50,0,0
3602,-111.111111111111,4,2,1,40,0,0
3782,-111.111111111111,4,2,1,50,0,0
4141,-111.111111111111,4,2,1,40,0,0
4321,-111.111111111111,4,2,1,50,0,0
4680,-111.111111111111,4,2,1,45,0,0
4860,-111.111111111111,4,2,2,55,0,0
4949,-111.111111111111,4,2,1,30,0,0
5578,-111.111111111111,4,2,1,50,0,0
7554,-111.111111111111,4,2,1,60,0,0
8991,-111.111111111111,4,2,1,40,0,0
10428,-111.111111111111,4,2,1,60,0,0
11865,-111.111111111111,4,2,1,40,0,0
13303,-111.111111111111,4,2,1,60,0,0
14740,-111.111111111111,4,2,1,40,0,0
16177,-111.111111111111,4,2,1,60,0,0
18333,-111.111111111111,4,2,1,55,0,0
18871,-111.111111111111,4,2,1,60,0,0
19051,-100,4,2,1,70,0,0
19410,-100,4,2,1,65,0,0
20488,-100,4,2,1,60,0,0
21925,-100,4,2,1,65,0,0
23363,-100,4,2,1,60,0,0
23901,-100,4,2,1,55,0,0
24081,-100,4,2,1,60,0,0
24620,-100,4,2,1,55,0,0
24800,-100,4,2,1,70,0,0
25159,-100,4,2,1,65,0,0
26237,-100,4,2,1,60,0,0
27674,-100,4,2,1,70,0,0
28033,-100,4,2,1,65,0,0
30189,-100,4,2,1,60,0,0
30548,-100,4,2,1,70,0,0
30907,-100,4,2,1,65,0,0
32524,-100,4,2,1,60,0,0
32704,-100,4,2,1,70,0,0
32883,-100,4,2,1,65,0,0
33063,-100,4,2,2,60,0,0
33243,-100,4,2,3,55,0,0
33422,-100,4,2,3,75,0,0
33782,-100,4,2,1,70,0,0
34860,-100,4,2,1,75,0,0
35219,-100,4,2,1,70,0,0
36297,-100,4,2,1,75,0,0
36656,-100,4,2,1,70,0,0
37734,-100,4,2,1,75,0,0
38093,-100,4,2,1,70,0,0
39171,-100,4,2,9,50,0,0
39261,-100,4,2,1,20,0,0
39710,-100,4,2,1,40,0,0
39889,-100,4,2,1,50,0,0
40249,-100,4,2,1,60,0,0
40608,-90.9090909090909,4,2,4,85,0,1
40967,-90.9090909090909,4,2,1,80,0,1
42045,-90.9090909090909,4,2,1,85,0,1
42404,-90.9090909090909,4,2,1,80,0,1
43482,-90.9090909090909,4,2,3,85,0,1
43841,-90.9090909090909,4,2,1,80,0,1
44919,-90.9090909090909,4,2,5,85,0,1
45278,-90.9090909090909,4,2,1,80,0,1
46177,-90.9090909090909,4,2,2,80,0,1
46357,-90.9090909090909,4,2,7,85,0,1
46716,-90.9090909090909,4,2,1,80,0,1
47794,-90.9090909090909,4,2,1,85,0,1
48153,-90.9090909090909,4,2,1,80,0,1
49231,-90.9090909090909,4,2,1,85,0,1
49590,-90.9090909090909,4,2,1,80,0,1
50668,-90.9090909090909,4,2,3,80,0,1
50848,-90.9090909090909,4,2,1,75,0,1
51027,-90.9090909090909,4,2,3,75,0,1
51207,-90.9090909090909,4,2,1,80,0,1
51566,-90.9090909090909,4,2,1,85,0,1
51746,-90.9090909090909,4,2,1,80,0,0
52105,-90.9090909090909,4,2,4,85,0,1
52464,-90.9090909090909,4,2,1,80,0,1
53542,-90.9090909090909,4,2,1,85,0,1
53901,-90.9090909090909,4,2,1,80,0,1
54979,-90.9090909090909,4,2,3,85,0,1
55338,-90.9090909090909,4,2,1,80,0,1
56416,-90.9090909090909,4,2,5,85,0,1
56775,-90.9090909090909,4,2,1,80,0,1
57674,-90.9090909090909,4,2,2,80,0,1
57854,-90.9090909090909,4,2,7,85,0,1
58213,-90.9090909090909,4,2,1,80,0,1
59291,-90.9090909090909,4,2,1,85,0,1
59650,-90.9090909090909,4,2,1,80,0,1
60728,-90.9090909090909,4,2,1,85,0,1
61087,-90.9090909090909,4,2,1,80,0,1
62165,-90.9090909090909,4,2,1,85,0,1
62345,-90.9090909090909,4,2,1,75,0,1
62434,-90.9090909090909,4,2,2,75,0,1
62524,-90.9090909090909,4,2,3,75,0,1
62704,-90.9090909090909,4,2,1,70,0,1
62973,-90.9090909090909,4,2,2,70,0,1
63063,-90.9090909090909,4,2,3,75,0,1
63153,-90.9090909090909,4,2,4,75,0,1
63243,-90.9090909090909,4,2,1,80,0,0
63422,-90.9090909090909,4,2,1,80,0,0
63602,-90.9090909090909,4,2,4,85,0,1
63782,-90.9090909090909,4,2,1,80,0,1
64141,-90.9090909090909,4,2,3,85,0,1
64321,-90.9090909090909,4,2,1,80,0,1
64500,-90.9090909090909,4,2,1,75,0,1
64680,-90.9090909090909,4,2,1,80,0,1
64860,-90.9090909090909,4,2,7,85,0,1
65219,-90.9090909090909,4,2,1,80,0,1
65758,-90.9090909090909,4,2,1,75,0,1
66297,-90.9090909090909,4,2,1,80,0,1
66476,-90.9090909090909,4,2,5,85,0,1
66656,-90.9090909090909,4,2,1,80,0,1
67015,-90.9090909090909,4,2,3,85,0,1
67374,-90.9090909090909,4,2,1,80,0,1
67734,-90.9090909090909,4,2,4,85,0,1
68093,-90.9090909090909,4,2,1,80,0,1
68632,-90.9090909090909,4,2,1,75,0,1
68722,-90.9090909090909,4,2,2,75,0,1
68812,-90.9090909090909,4,2,3,75,0,1
68991,-90.9090909090909,4,2,1,75,0,1
69081,-90.9090909090909,4,2,2,75,0,1
69171,-90.9090909090909,4,2,3,75,0,1
69351,-90.9090909090909,4,2,7,85,0,1
69530,-90.9090909090909,4,2,2,80,0,1
70788,-90.9090909090909,4,2,4,85,0,1
70967,-90.9090909090909,4,2,1,80,0,1
71237,-90.9090909090909,4,2,1,75,0,1
71506,-90.9090909090909,4,2,2,80,0,1
71596,-90.9090909090909,4,2,1,75,0,1
71955,-90.9090909090909,4,2,3,75,0,1
72045,-100,4,2,3,85,0,0
72135,-100,4,2,1,20,0,0
72584,-100,4,2,1,50,0,0
73662,-100,4,2,4,75,0,0
74021,-100,4,2,1,70,0,0
74919,-100,4,2,1,75,0,0
75279,-100,4,2,1,70,0,0
76536,-100,4,2,1,75,0,0
76896,-100,4,2,1,70,0,0
77794,-100,4,2,1,75,0,0
78154,-100,4,2,1,70,0,0
78333,-100,4,2,3,75,0,0
78512,-100,4,2,1,70,0,0
78692,-100,4,2,1,80,0,0
78931,-100,4,2,1,75,0,0
79051,-100,4,2,2,75,0,0
79171,-100,4,2,3,70,0,0
79291,-100,4,2,4,70,0,0
79410,-100,4,2,4,75,0,0
79590,-100,4,2,1,70,0,0
81027,-100,4,2,1,75,0,0
81387,-100,4,2,1,70,0,0
83183,-100,4,2,2,75,0,0
83363,-100,4,2,1,75,0,0
83542,-111.111111111111,4,2,7,75,0,0
83722,-111.111111111111,4,2,1,30,0,0
84979,-111.111111111111,4,2,1,65,0,0
85159,-100,4,2,1,65,0,0
85339,-100,4,2,2,60,0,0
85698,-100,4,2,3,55,0,0
86057,-100,4,2,4,50,0,0
86596,-100,4,2,4,75,0,0
87315,-100,4,2,1,75,0,0
88033,-100,4,2,1,70,0,0
88752,-100,4,2,1,65,0,0
89470,-100,4,2,1,60,0,0
90189,-100,4,2,1,55,0,0
90907,-100,4,2,1,50,0,0
91626,-100,4,2,1,45,0,0
92345,-100,4,2,1,40,0,0
93063,-100,4,2,1,35,0,0
93782,-100,4,2,1,25,0,0
94500,-100,4,2,1,15,0,0
95219,-100,4,2,1,10,0,0
95937,-100,4,2,1,15,0,0

[Colours]
Combo1 : 255,155,235
Combo2 : 39,231,124
Combo3 : 232,139,0
Combo4 : 1,197,254
Combo5 : 255,255,140

[HitObjects]
23,18,369,6,0,P|33:64|39:130,1,98.9999969787599,2|0,0:0|0:0,0:0:0:0:
44,159,907,1,2,0:0:0:0:
177,145,1446,2,0,P|182:95|192:47,1,98.9999969787599,2|0,0:0|0:0,0:0:0:0:
204,4,1984,1,2,0:0:0:0:
329,51,2524,2,0,P|331:26|336:2,2,49.4999984893799,2|2|2,0:0|0:0|0:0,0:0:0:0:
284,128,3243,6,0,P|315:140|385:124,1,98.9999969787599,2|0,0:0|0:0,0:0:0:0:
422,127,3782,2,0,P|432:189|520:241,1,148.49999546814,2|2,0:0|0:0,0:0:0:0:
503,331,4680,1,0,0:0:0:0:
503,331,4860,2,0,B|454:353|389:337|432:302|372:273|320:293,1,197.99999395752,2|2,0:3|0:0,0:0:0:0:
38,369,7554,6,0,P|35:304|19:203,2,148.49999546814,2|2|2,0:0|0:0|0:0,0:0:0:0:
474,369,10428,2,0,P|477:304|493:203,2,148.49999546814,2|2|2,0:0|0:0|0:0,0:0:0:0:
44,61,13303,6,0,P|110:87|185:50,2,148.49999546814,2|2|2,0:0|0:0|0:0,0:0:0:0:
468,61,16177,2,0,P|402:87|327:50,2,148.49999546814,2|2|2,0:0|0:0|0:0,0:0:0:0:
497,145,17614,2,0,P|487:190|477:263,1,98.9999969787599,2|2,0:0|0:0,0:0:0:0:
469,285,18153,1,2,0:0:0:0:
356,357,18692,1,2,0:0:0:0:
257,361,19051,6,0,L|134:345,1,110,6|0,3:2|3:2,0:0:0:0:
49,357,19770,2,0,P|51:297|21:242,1,110,2|0,3:2|3:0,0:0:0:0:
5,209,20309,2,0,P|3:149|33:94,1,110,2|2,0:0|0:0,0:0:0:0:
34,63,20848,1,0,3:2:0:0:
122,18,21207,1,0,3:2:0:0:
199,79,21566,2,0,L|191:141,1,55,2|2,3:2|0:0,0:0:0:0:
191,183,21925,6,0,P|247:170|308:204,1,110,2|0,3:2|3:0,0:0:0:0:
329,223,22464,2,0,P|385:236|446:202,1,110,2|2,0:0|0:0,0:0:0:0:
475,192,23003,1,0,3:0:0:0:
504,97,23363,1,0,3:0:0:0:
437,25,23722,2,0,L|376:31,1,55,0|2,3:0|0:3,0:0:0:0:
333,40,24081,1,0,3:0:0:0:
257,104,24440,1,0,3:0:0:0:
184,35,24800,6,0,B|132:54|132:54|74:22,1,110,2|0,3:2|3:0,0:0:0:0:
39,21,25339,1,2,0:0:0:0:
39,21,25518,2,0,L|54:137,1,110,2|2,3:2|3:2,0:0:0:0:
23,170,26057,2,0,L|38:286,1,110,2|2,0:0|0:0,0:0:0:0:
24,327,26596,1,0,3:0:0:0:
111,373,26955,1,0,3:0:0:0:
195,321,27315,1,0,3:0:0:0:
192,223,27674,6,0,B|243:244|243:244|311:215,1,110,2|0,3:2|3:2,0:0:0:0:
340,207,28213,1,2,0:0:0:0:
279,128,28572,1,2,0:0:0:0:
317,36,28931,1,2,0:0:0:0:
317,36,29111,2,0,L|444:28,1,110,2|2,3:2|3:2,0:0:0:0:
476,24,29650,1,2,0:0:0:0:
501,119,30009,2,0,P|495:155|488:243,1,110,2|2,0:0|0:0,0:0:0:0:
488,277,30548,5,2,3:2:0:0:
445,366,30907,1,0,3:0:0:0:
347,373,31267,1,2,3:2:0:0:
292,292,31626,2,0,L|300:231,1,55,2|2,3:2|0:0,0:0:0:0:
280,191,31985,2,0,L|294:79,1,110,2|0,3:2|3:0,0:0:0:0:
215,21,32704,2,0,P|185:29|149:15,1,55,8|8,0:0|3:0,0:0:0:0:
113,16,33063,2,0,P|83:8|47:22,1,55,8|8,3:0|3:0,0:0:0:0:
22,45,33422,6,0,B|20:88|20:88|25:105|25:105|16:170,1,110,6|10,3:2|0:0,0:0:0:0:
53,246,34141,2,0,P|25:243|-8:252,2,55,2|0|10,3:2|3:2|0:0,0:0:0:0:
97,272,34680,1,2,0:0:0:0:
97,272,34860,2,0,L|220:259,1,110,2|10,3:2|0:0,0:0:0:0:
255,255,35398,1,2,3:2:0:0:
226,350,35758,2,0,L|103:363,1,110,2|2,3:2|0:0,0:0:0:0:
67,368,36297,5,2,3:2:0:0:
97,272,36656,1,10,0:0:0:0:
61,179,37015,2,0,P|33:184|0:178,2,55,2|2|10,3:2|3:2|0:0,0:0:0:0:
103,153,37554,1,2,0:0:0:0:
103,153,37734,2,0,P|111:98|81:44,1,110,2|10,3:2|0:0,0:0:0:0:
69,4,38273,1,2,3:2:0:0:
167,6,38632,2,0,P|210:40|272:41,1,110,2|8,3:2|0:0,0:0:0:0:
312,45,39171,1,2,0:0:0:0:
487,342,40608,6,0,B|432:322|432:322|366:349,1,121.000003692627,6|8,3:2|0:0,0:0:0:0:
327,359,41147,2,0,P|315:293|352:238,1,121.000003692627,2|2,0:0|3:2,0:0:0:0:
375,215,41686,1,10,0:0:0:0:
468,238,42045,2,0,L|483:105,1,121.000003692627,2|10,3:2|0:0,0:0:0:0:
484,73,42584,1,2,3:2:0:0:
484,73,42764,1,2,3:2:0:0:
407,14,43123,1,8,0:0:0:0:
319,54,43482,6,0,P|267:75|196:40,1,121.000003692627,6|8,3:2|0:0,0:0:0:0:
165,30,44021,2,0,P|113:9|42:44,1,121.000003692627,2|2,0:0|3:2,0:0:0:0:
13,56,44560,1,8,0:0:0:0:
37,149,44919,2,0,P|45:188|56:275,1,121.000003692627,2|8,3:2|0:0,0:0:0:0:
84,314,45458,1,2,3:2:0:0:
84,314,45638,2,0,L|156:305,1,60.5000018463135,2|2,0:0|3:2,0:0:0:0:
181,275,45997,2,0,L|253:266,1,60.5000018463135,8|8,0:0|3:0,0:0:0:0:
278,236,46357,5,6,3:2:0:0:
349,171,46716,1,10,0:0:0:0:
445,181,47075,2,0,L|454:109,2,60.5000018463135,2|2|10,3:2|3:2|0:0,0:0:0:0:
493,203,47614,1,2,0:0:0:0:
493,203,47794,2,0,L|477:329,1,121.000003692627,0|8,3:2|0:0,0:0:0:0:
391,366,48512,2,0,P|358:356|313:367,1,60.5000018463135,2|2,0:0|3:2,0:0:0:0:
283,365,48871,2,0,P|249:371|206:358,1,60.5000018463135,8|2,0:0|0:0,0:0:0:0:
175,358,49231,6,0,L|53:347,1,121.000003692627,2|8,3:2|0:0,0:0:0:0:
7,335,49770,1,2,0:0:0:0:
57,252,50129,2,0,P|23:254|-3:242,2,60.5000018463135,2|10|0,3:2|0:0|3:0,0:0:0:0:
73,206,50668,2,0,P|82:149|43:83,1,121.000003692627,14|8,0:0|3:0,0:0:0:0:
26,54,51207,1,8,0:0:0:0:
110,12,51566,1,12,0:0:0:0:
110,12,51746,2,0,L|185:20,1,60.5000018463135,10|8,0:0|0:0,0:0:0:0:
218,17,52105,6,0,B|209:67|209:67|213:87|213:87|202:143,1,121.000003692627,6|8,3:2|0:0,0:0:0:0:
210,183,52644,2,0,P|267:164|329:197,1,121.000003692627,2|2,0:0|3:2,0:0:0:0:
361,212,53183,1,10,0:0:0:0:
457,216,53542,2,0,P|461:166|480:77,1,121.000003692627,2|10,3:2|0:0,0:0:0:0:
489,53,54081,1,2,3:2:0:0:
489,53,54261,1,2,3:2:0:0:
404,5,54620,1,8,0:0:0:0:
330,68,54979,6,0,L|193:55,1,121.000003692627,6|8,3:2|0:0,0:0:0:0:
166,79,55518,2,0,L|29:66,1,121.000003692627,2|2,0:0|3:2,0:0:0:0:
4,94,56057,1,8,0:0:0:0:
5,190,56416,2,0,P|23:232|11:321,1,121.000003692627,2|8,3:2|0:0,0:0:0:0:
20,354,56955,1,2,3:2:0:0:
20,354,57135,2,0,P|48:348|87:356,1,60.5000018463135,2|2,0:0|3:2,0:0:0:0:
127,354,57494,2,0,P|135:326|162:296,1,60.5000018463135,8|8,0:0|3:0,0:0:0:0:
189,266,57854,5,6,3:2:0:0:
252,339,58213,1,10,0:0:0:0:
326,277,58572,2,0,P|361:281|392:273,2,60.5000018463135,2|2|10,3:2|3:2|0:0,0:0:0:0:
296,238,59111,1,2,0:0:0:0:
296,238,59291,2,0,L|279:93,1,121.000003692627,2|8,3:2|0:0,0:0:0:0:
324,30,60009,2,0,P|359:34|388:25,1,60.5000018463135,2|2,0:0|3:2,0:0:0:0:
431,24,60368,2,0,P|445:56|467:76,1,60.5000018463135,8|2,0:0|0:0,0:0:0:0:
502,101,60728,6,0,P|494:143|482:226,1,121.000003692627,2|8,3:2|0:0,0:0:0:0:
499,266,61267,1,2,0:0:0:0:
504,362,61626,2,0,L|383:347,1,121.000003692627,2|0,3:2|3:0,0:0:0:0:
338,331,62165,2,0,P|340:298|329:259,2,60.5000018463135,14|8|8,0:0|3:0|3:0,0:0:0:0:
312,373,62704,1,8,0:0:0:0:
312,373,62883,1,2,3:2:0:0:
220,341,63243,2,0,P|218:308|229:269,1,60.5000018463135,8|8,0:0|0:0,0:0:0:0:
238,235,63602,6,0,P|187:214|118:245,1,121.000003692627,6|8,3:2|0:0,0:0:0:0:
82,252,64141,2,0,P|74:197|13:153,1,121.000003692627,6|0,3:2|3:0,0:0:0:0:
16,113,64680,1,8,0:0:0:0:
16,113,64860,1,6,3:2:0:0:
46,23,65219,1,0,3:0:0:0:
46,23,65398,2,0,L|121:13,1,60.5000018463135,10|0,0:0|3:0,0:0:0:0:
154,7,65758,1,2,0:0:0:0:
241,48,66117,2,0,L|316:38,1,60.5000018463135,8|8,0:0|0:0,0:0:0:0:
347,27,66476,6,0,P|356:77|368:174,1,121.000003692627,6|8,3:2|0:0,0:0:0:0:
397,182,67015,2,0,P|388:232|376:329,1,121.000003692627,6|0,3:2|3:0,0:0:0:0:
391,353,67554,1,8,0:0:0:0:
391,353,67734,1,6,3:2:0:0:
491,349,68093,1,0,3:0:0:0:
491,349,68273,2,0,P|494:319|500:289,1,60.5000018463135,8|0,0:0|3:0,0:0:0:0:
507,241,68632,1,8,3:0:0:0:
477,148,68991,1,8,3:0:0:0:
493,52,69351,6,0,L|364:39,1,121.000003692627,14|8,0:0|0:0,0:0:0:0:
327,55,69889,2,0,L|198:42,1,121.000003692627,2|2,3:2|3:2,0:0:0:0:
159,53,70428,1,10,0:0:0:0:
68,17,70788,2,0,B|60:55|60:55|64:78|64:78|48:147,1,121.000003692627,14|4,0:0|3:0,0:0:0:0:
59,183,71327,1,0,3:0:0:0:
59,183,71506,2,0,P|25:175|-17:190,2,60.5000018463135,4|0|8,3:0|3:0|0:0,0:0:0:0:
78,222,72045,1,6,3:2:0:0:
449,358,73662,6,0,B|454:313|454:313|449:299|449:299|456:229,1,110,6|2,3:2|0:0,0:0:0:0:
474,204,74201,2,0,P|430:221|364:193,1,110,2|0,3:2|0:0,0:0:0:0:
328,196,74740,1,2,0:0:0:0:
328,196,74919,2,0,P|320:242|263:285,1,110,2|0,3:2|3:0,0:0:0:0:
213,360,75638,2,0,L|97:349,1,110,2|8,3:2|0:0,0:0:0:0:
54,359,76177,1,2,0:0:0:0:
61,260,76536,6,0,P|35:265|3:256,2,55,2|2|2,3:2|3:2|0:0,0:0:0:0:
99,228,77075,2,0,P|101:170|63:116,1,110,2|2,3:2|0:0,0:0:0:0:
34,108,77614,1,2,0:0:0:0:
34,108,77794,2,0,P|84:81|112:21,1,110,2|0,3:2|3:0,0:0:0:0:
150,7,78333,1,12,0:0:0:0:
247,22,78692,2,0,L|236:87,1,55,14|0,0:0|0:0,0:0:0:0:
265,117,79051,2,0,L|254:182,1,55,8|0,3:0|0:0,0:0:0:0:
242,218,79410,5,6,3:2:0:0:
246,321,79770,1,2,0:0:0:0:
246,321,79949,2,0,P|290:301|356:320,1,110,2|0,3:2|0:0,0:0:0:0:
391,348,80488,1,2,0:0:0:0:
391,348,80668,2,0,P|435:368|501:349,1,110,2|0,3:2|3:0,0:0:0:0:
444,268,81386,2,0,L|456:155,1,110,2|8,3:2|0:0,0:0:0:0:
462,105,81925,1,2,0:0:0:0:
370,66,82285,6,0,L|377:-1,2,55,8|4|4,0:0|3:0|3:0,0:0:0:0:
364,115,82824,2,0,P|319:102|251:127,1,110,8|4,0:0|3:0,0:0:0:0:
219,148,83363,1,8,0:0:0:0:
219,148,83542,2,0,B|300:235|235:379|96:356|81:249|152:229,1,346.49998942566,4|0,3:2|0:0,0:0:0:0:
118,147,85159,6,0,P|118:126|128:71,1,55,8|4,3:2|3:0,0:0:0:0:
62,27,85698,1,4,3:0:0:0:
0,89,86057,2,0,P|3:116|4:143,1,55,4|4,3:0|3:0,0:0:0:0:
55,215,86596,1,6,3:2:0:0:
256,192,86776,12,0,95937,0:0:0:0:
