osu file format v14

[General]
AudioFilename: smile again.mp3
AudioLeadIn: 1500
PreviewTime: 39530
Countdown: 0
SampleSet: None
StackLeniency: 0.7
Mode: 0
LetterboxInBreaks: 0
WidescreenStoryboard: 1

[Editor]
Bookmarks: 369,7554,19051,33422,39171,40608,52105,63602,72045,73662,86596,95937
DistanceSpacing: 0.2
BeatDivisor: 4
GridSize: 8
TimelineZoom: 1.8

[Metadata]
Title:smile again
TitleUnicode:smile again
Artist:solfa feat. Ceui
ArtistUnicode:solfa feat. Ceui
Creator:tomatas95
Version:Light Insane
Source:PRIMAL×HEARTS2
Tags:eroge marmalade プライマルハーツ2 ま~まれぇど PxH 2 visual novel vn video game galgame riven op opening japanese jpop j-pop pop games
BeatmapID:3932403
BeatmapSetID:1857772

[Difficulty]
HPDrainRate:4.5
CircleSize:3.5
OverallDifficulty:7.5
ApproachRate:8.3
SliderMultiplier:1.4
SliderTickRate:1

[Events]
//Background and Video events
Video,0,"erogeisbest.mp4"
0,0,"MashiroSmug.jpg",0,0
//Break Periods
//Storyboard Layer 0 (Background)
//Storyboard Layer 1 (Fail)
//Storyboard Layer 2 (Pass)
//Storyboard Layer 3 (Foreground)
//Storyboard Layer 4 (Overlay)
//Storyboard Sound Samples

[TimingPoints]
369,359.281437125748,4,2,1,50,1,0
369,-125,4,2,1,50,0,0
907,-125,4,2,1,55,0,0
1267,-125,4,2,1,5,0,0
1446,-125,4,2,1,50,0,0
1984,-125,4,2,1,55,0,0
2345,-125,4,2,1,5,0,0
2524,-125,4,2,1,60,0,0
2704,-125,4,2,1,55,0,0
2883,-125,4,2,1,50,0,0
3063,-125,4,2,1,45,0,0
3243,-125,4,2,1,50,0,0
3602,-125,4,2,1,40,0,0
3782,-125,4,2,1,50,0,0
4141,-125,4,2,1,40,0,0
4321,-125,4,2,1,50,0,0
4680,-125,4,2,1,45,0,0
4860,-125,4,2,2,55,0,0
4949,-125,4,2,1,30,0,0
5578,-125,4,2,1,50,0,0
7554,-125,4,2,1,60,0,0
8991,-125,4,2,1,40,0,0
10428,-125,4,2,1,60,0,0
11865,-125,4,2,1,40,0,0
13303,-125,4,2,1,60,0,0
14740,-125,4,2,1,40,0,0
16177,-125,4,2,1,60,0,0
18333,-125,4,2,1,55,0,0
18871,-125,4,2,1,60,0,0
19051,-111.111111111111,4,2,1,70,0,0
19410,-111.111111111111,4,2,1,65,0,0
20488,-111.111111111111,4,2,1,60,0,0
21925,-111.111111111111,4,2,1,65,0,0
23363,-111.111111111111,4,2,1,60,0,0
23901,-111.111111111111,4,2,1,55,0,0
24081,-111.111111111111,4,2,1,60,0,0
24620,-111.111111111111,4,2,1,55,0,0
24800,-111.111111111111,4,2,1,70,0,0
25159,-111.111111111111,4,2,1,65,0,0
26237,-111.111111111111,4,2,1,60,0,0
27584,-111.111111111111,4,2,1,5,0,0
27674,-111.111111111111,4,2,1,70,0,0
28033,-111.111111111111,4,2,1,65,0,0
30189,-111.111111111111,4,2,1,60,0,0
30548,-111.111111111111,4,2,1,70,0,0
30907,-111.111111111111,4,2,1,65,0,0
32524,-111.111111111111,4,2,1,60,0,0
32704,-111.111111111111,4,2,1,70,0,0
32883,-111.111111111111,4,2,1,65,0,0
33063,-111.111111111111,4,2,2,60,0,0
33243,-111.111111111111,4,2,3,55,0,0
33422,-100,4,2,3,75,0,0
33782,-100,4,2,1,70,0,0
34860,-100,4,2,1,75,0,0
35219,-100,4,2,1,70,0,0
36297,-100,4,2,1,75,0,0
36656,-100,4,2,1,70,0,0
37734,-100,4,2,1,75,0,0
38093,-100,4,2,1,70,0,0
39171,-100,4,2,9,50,0,0
39261,-100,4,2,1,20,0,0
39710,-100,4,2,1,40,0,0
39889,-100,4,2,1,50,0,0
40249,-100,4,2,1,60,0,0
40608,-90.9090909090909,4,2,4,85,0,1
40967,-90.9090909090909,4,2,1,80,0,1
41955,-90.9090909090909,4,2,1,5,0,1
42045,-90.9090909090909,4,2,1,85,0,1
42404,-90.9090909090909,4,2,1,80,0,1
43392,-90.9090909090909,4,2,1,5,0,1
43482,-90.9090909090909,4,2,3,85,0,1
43841,-90.9090909090909,4,2,1,80,0,1
44830,-90.9090909090909,4,2,1,5,0,1
44919,-90.9090909090909,4,2,5,85,0,1
45278,-90.9090909090909,4,2,1,80,0,1
46177,-90.9090909090909,4,2,2,80,0,1
46357,-90.9090909090909,4,2,7,85,0,1
46716,-90.9090909090909,4,2,1,80,0,1
47794,-90.9090909090909,4,2,1,85,0,1
48153,-90.9090909090909,4,2,1,80,0,1
49231,-90.9090909090909,4,2,1,85,0,1
49590,-90.9090909090909,4,2,1,80,0,1
50668,-90.9090909090909,4,2,3,80,0,1
50848,-90.9090909090909,4,2,1,75,0,1
51027,-90.9090909090909,4,2,3,75,0,1
51207,-90.9090909090909,4,2,1,80,0,1
51566,-90.9090909090909,4,2,1,85,0,1
51746,-90.9090909090909,4,2,1,80,0,0
52105,-90.9090909090909,4,2,4,85,0,1
52464,-90.9090909090909,4,2,1,80,0,1
53452,-90.9090909090909,4,2,1,5,0,1
53542,-90.9090909090909,4,2,1,85,0,1
53901,-90.9090909090909,4,2,1,80,0,1
54889,-90.9090909090909,4,2,1,5,0,1
54979,-90.9090909090909,4,2,3,85,0,1
55338,-90.9090909090909,4,2,1,80,0,1
56327,-90.9090909090909,4,2,1,5,0,1
56416,-90.9090909090909,4,2,5,85,0,1
56775,-90.9090909090909,4,2,1,80,0,1
57674,-90.9090909090909,4,2,2,80,0,1
57854,-90.9090909090909,4,2,7,85,0,1
58213,-90.9090909090909,4,2,1,80,0,1
59291,-90.9090909090909,4,2,1,85,0,1
59650,-90.9090909090909,4,2,1,80,0,1
60728,-90.9090909090909,4,2,1,85,0,1
61087,-90.9090909090909,4,2,1,80,0,1
62165,-90.9090909090909,4,2,1,85,0,1
62345,-90.9090909090909,4,2,1,75,0,1
62434,-90.9090909090909,4,2,2,75,0,1
62524,-90.9090909090909,4,2,3,75,0,1
62704,-90.9090909090909,4,2,1,70,0,1
62973,-90.9090909090909,4,2,2,70,0,1
63063,-90.9090909090909,4,2,3,75,0,1
63153,-90.9090909090909,4,2,4,75,0,1
63243,-90.9090909090909,4,2,1,80,0,0
63422,-90.9090909090909,4,2,1,80,0,0
63602,-90.9090909090909,4,2,4,85,0,1
63782,-90.9090909090909,4,2,1,80,0,1
64141,-83.3333333333333,4,2,3,85,0,1
64321,-83.3333333333333,4,2,1,80,0,1
64500,-90.9090909090909,4,2,1,75,0,1
64680,-90.9090909090909,4,2,1,80,0,1
64860,-76.9230769230769,4,2,7,85,0,1
65219,-90.9090909090909,4,2,1,80,0,1
65758,-90.9090909090909,4,2,1,75,0,1
66297,-90.9090909090909,4,2,1,80,0,1
66476,-90.9090909090909,4,2,5,85,0,1
66656,-90.9090909090909,4,2,1,80,0,1
67015,-83.3333333333333,4,2,3,85,0,1
67374,-90.9090909090909,4,2,1,80,0,1
67734,-76.9230769230769,4,2,4,85,0,1
68093,-90.9090909090909,4,2,1,80,0,1
68632,-90.9090909090909,4,2,1,75,0,1
68722,-90.9090909090909,4,2,2,75,0,1
68812,-90.9090909090909,4,2,3,75,0,1
68991,-90.9090909090909,4,2,1,75,0,1
69081,-90.9090909090909,4,2,2,75,0,1
69171,-90.9090909090909,4,2,3,75,0,1
69351,-90.9090909090909,4,2,7,85,0,1
69530,-90.9090909090909,4,2,2,80,0,1
70788,-90.9090909090909,4,2,4,85,0,1
70967,-90.9090909090909,4,2,1,80,0,1
71237,-90.9090909090909,4,2,1,75,0,1
71506,-90.9090909090909,4,2,2,80,0,1
71596,-90.9090909090909,4,2,1,75,0,1
71955,-90.9090909090909,4,2,3,75,0,1
72045,-142.857142857143,4,2,3,85,0,0
72135,-142.857142857143,4,2,1,20,0,0
72584,-142.857142857143,4,2,1,50,0,0
73662,-100,4,2,4,75,0,0
74021,-100,4,2,1,70,0,0
74919,-100,4,2,1,75,0,0
75279,-100,4,2,1,70,0,0
76536,-100,4,2,1,75,0,0
76896,-100,4,2,1,70,0,0
77794,-100,4,2,1,75,0,0
78154,-100,4,2,1,70,0,0
78333,-100,4,2,3,75,0,0
78512,-100,4,2,1,70,0,0
78692,-100,4,2,1,80,0,0
78931,-100,4,2,1,75,0,0
79051,-100,4,2,2,75,0,0
79171,-100,4,2,3,70,0,0
79291,-100,4,2,4,70,0,0
79410,-100,4,2,4,75,0,0
79590,-100,4,2,1,70,0,0
81027,-100,4,2,1,75,0,0
81387,-100,4,2,1,70,0,0
82285,-100,4,2,1,75,0,0
83183,-100,4,2,2,75,0,0
83363,-100,4,2,1,75,0,0
83542,-125,4,2,7,75,0,0
83722,-125,4,2,1,30,0,0
84979,-125,4,2,1,65,0,0
85069,-100,4,2,1,65,0,0
85159,-100,4,2,1,65,0,0
85339,-125,4,2,2,60,0,0
85698,-125,4,2,3,55,0,0
86057,-125,4,2,4,50,0,0
86596,-285.714285714286,4,2,4,75,0,0
87315,-285.714285714286,4,2,1,75,0,0
88033,-285.714285714286,4,2,1,70,0,0
88752,-285.714285714286,4,2,1,65,0,0
89470,-285.714285714286,4,2,1,60,0,0
90189,-285.714285714286,4,2,1,55,0,0
90907,-285.714285714286,4,2,1,50,0,0
91626,-285.714285714286,4,2,1,45,0,0
92345,-285.714285714286,4,2,1,40,0,0
93063,-285.714285714286,4,2,1,35,0,0
93782,-285.714285714286,4,2,1,25,0,0
94500,-285.714285714286,4,2,1,15,0,0
95219,-285.714285714286,4,2,1,10,0,0
95937,-100,4,2,1,15,0,0

[Colours]
Combo1 : 255,155,235
Combo2 : 39,231,124
Combo3 : 232,139,0
Combo4 : 1,197,254
Combo5 : 255,255,140

[HitObjects]
106,351,369,6,0,P|106:321|117:280,2,56,2|2|2,0:0|0:0|0:0,0:0:0:0:
17,356,907,2,0,P|17:302|-2:228,1,112,2|0,0:0|0:0,0:0:0:0:
61,82,1446,2,0,L|117:88,2,56,2|2|0,0:0|0:0|0:0,0:0:0:0:
20,160,1985,2,0,L|132:172,1,112,2|0,0:0|0:0,0:0:0:0:
275,169,2524,2,0,P|278:141|285:114,1,56,2|0,0:0|0:3,0:0:0:0:
203,211,2883,2,0,P|209:238|213:265,1,56,2|0,0:0|0:3,0:0:0:0:
349,384,3243,6,0,P|335:335|272:294,1,112,2|0,0:0|0:0,0:0:0:0:
444,384,3782,2,0,P|457:335|520:294,1,112,2|0,0:0|0:0,0:0:0:0:
395,287,4321,2,0,L|381:176,1,112,2|0,0:0|0:0,0:0:0:0:
390,50,4860,6,0,B|420:-2|528:15|538:112|467:132|448:108,1,224,2|2,0:3|0:0,0:0:0:0:
7,25,7554,6,0,P|20:72|24:136,1,112,2|0,0:0|0:0,0:0:0:0:
87,193,8093,1,2,0:0:0:0:
87,193,8273,2,0,P|121:158|174:122,1,112,0|2,0:0|0:0,0:0:0:0:
104,66,8812,1,2,0:0:0:0:
397,21,10069,2,0,L|405:77,1,56,2|0,0:0|0:0,0:0:0:0:
443,183,10428,6,0,P|454:146|527:91,1,112,2|0,0:0|0:0,0:0:0:0:
359,183,10967,2,0,P|347:146|274:91,1,112,2|0,0:0|0:0,0:0:0:0:
405,77,11506,1,2,0:0:0:0:
495,378,13303,6,0,P|449:355|385:371,1,112,2|0,0:0|0:0,0:0:0:0:
329,212,13842,1,2,0:0:0:0:
352,293,14021,2,0,P|394:264|413:201,1,112,2|0,0:0|0:0,0:0:0:0:
369,138,14560,1,2,0:0:0:0:
71,381,15818,2,0,L|64:326,1,56,2|0,0:0|0:0,0:0:0:0:
103,148,16177,6,0,P|56:165|-14:130,1,112,2|0,0:0|0:0,0:0:0:0:
14,264,16716,1,2,0:0:0:0:
14,264,16895,2,0,P|59:245|131:280,1,112,2|0,0:0|0:0,0:0:0:0:
183,379,17434,6,0,P|182:347|172:309,1,56,2|0,0:0|0:0,0:0:0:0:
280,329,17794,2,0,P|274:356|274:384,1,56,2|0,0:0|0:0,0:0:0:0:
231,260,18153,2,0,L|217:133,1,112,2|0,0:0|0:0,0:0:0:0:
225,55,18692,1,2,0:0:0:0:
330,33,18871,1,2,0:3:0:0:
330,33,18961,1,2,0:3:0:0:
330,33,19051,6,0,B|378:31|378:31|400:21|400:21|462:21,1,125.999996154785,6|0,3:2|3:2,0:0:0:0:
499,134,19590,1,2,0:0:0:0:
499,134,19770,2,0,L|373:142,1,125.999996154785,2|0,3:2|3:0,0:0:0:0:
387,273,20309,6,0,L|518:264,1,125.999996154785,2|2,0:0|0:0,0:0:0:0:
496,352,20848,2,0,P|465:349|430:356,1,62.9999980773926,0|2,3:2|0:0,0:0:0:0:
284,356,21207,2,0,P|314:353|349:360,1,62.9999980773926,0|2,3:2|0:0,0:0:0:0:
313,221,21566,1,2,3:2:0:0:
387,273,21746,5,2,0:0:0:0:
230,243,21925,2,0,L|220:175,1,62.9999980773926,2|0,3:2|0:0,0:0:0:0:
378,278,22285,5,0,3:0:0:0:
221,248,22464,2,0,L|211:180,1,62.9999980773926,2|0,0:0|3:0,0:0:0:0:
369,283,22824,5,2,0:0:0:0:
212,253,23003,2,0,L|193:127,1,125.999996154785,0|0,3:0|3:0,0:0:0:0:
93,116,23542,1,2,0:0:0:0:
37,208,23722,2,0,P|28:177|15:149,1,62.9999980773926,0|2,3:0|0:3,0:0:0:0:
193,128,24081,2,0,P|170:151|152:177,1,62.9999980773926,0|2,3:0|0:0,0:0:0:0:
51,23,24440,2,0,P|82:32|113:34,1,62.9999980773926,0|2,3:0|0:3,0:0:0:0:
122,37,24710,1,2,0:3:0:0:
131,38,24800,6,0,L|213:26,1,62.9999980773926,2|0,3:2|0:0,0:0:0:0:
364,79,25159,1,0,3:0:0:0:
364,79,25339,1,2,0:0:0:0:
265,175,25518,2,0,P|267:112|278:51,1,125.999996154785,2|2,3:2|3:2,0:0:0:0:
139,156,26057,6,0,P|149:217|151:280,1,125.999996154785,2|2,0:0|0:0,0:0:0:0:
66,323,26596,2,0,P|50:287|31:258,1,62.9999980773926,0|2,3:0|0:0,0:0:0:0:
237,321,26955,2,0,P|252:285|271:256,1,62.9999980773926,0|2,3:0|0:0,0:0:0:0:
151,375,27315,2,0,P|150:326|152:264,1,94.499997116089,0|2,3:0|0:0,0:0:0:0:
152,273,27674,6,0,P|100:292|26:253,1,125.999996154785,2|0,3:2|3:2,0:0:0:0:
89,145,28213,2,0,P|94:176|97:208,1,62.9999980773926,2|0,0:0|3:0,0:0:0:0:
62,64,28572,2,0,P|32:53|3:40,1,62.9999980773926,2|0,0:0|3:0,0:0:0:0:
146,81,28931,1,2,0:0:0:0:
146,81,29111,6,0,P|197:38|251:-1,1,125.999996154785,2|2,3:2|3:2,0:0:0:0:
417,16,29650,2,0,L|404:87,1,62.9999980773926,2|0,0:0|3:0,0:0:0:0:
320,64,30009,2,0,L|331:2,1,62.9999980773926,2|0,0:0|3:0,0:0:0:0:
503,30,30368,1,2,0:0:0:0:
503,30,30548,6,0,L|478:164,1,125.999996154785,2|0,3:2|3:0,0:0:0:0:
458,333,31087,1,2,0:0:0:0:
512,268,31267,2,0,P|459:248|396:275,1,125.999996154785,2|2,3:2|3:2,0:0:0:0:
243,330,31806,6,0,P|190:350|127:323,1,125.999996154785,2|2,0:0|0:0,0:0:0:0:
335,379,32345,2,0,L|312:229,1,125.999996154785,0|8,3:0|0:0,0:0:0:0:
305,100,32883,1,8,3:0:0:0:
384,155,33063,1,8,3:0:0:0:
318,2,33243,1,8,3:0:0:0:
217,136,33422,6,0,B|177:160|177:160|148:113|177:42,1,140,6|10,3:2|0:0,0:0:0:0:
17,7,33961,1,0,0:0:0:0:
78,106,34141,2,0,P|83:71|92:38,1,70,2|0,3:2|3:2,0:0:0:0:
0,160,34500,2,0,P|8:193|13:228,1,70,10|2,0:0|0:0,0:0:0:0:
29,384,34860,6,0,L|175:362,1,140,2|10,3:2|0:0,0:0:0:0:
152,207,35398,2,0,L|6:229,1,140,2|2,3:2|3:2,0:0:0:0:
72,300,35937,2,0,L|141:289,1,70,10|2,0:0|0:0,0:0:0:0:
151,288,36207,1,8,0:0:0:0:
161,287,36297,6,0,P|158:241|131:144,1,140,2|10,3:2|0:0,0:0:0:0:
191,82,36836,1,0,0:0:0:0:
242,214,37015,2,0,P|245:179|256:146,1,70,2|2,3:2|3:2,0:0:0:0:
444,173,37374,2,0,P|433:206|430:241,1,70,10|2,0:0|0:0,0:0:0:0:
323,305,37734,6,0,P|331:264|351:158,1,140,2|10,3:2|0:0,0:0:0:0:
388,19,38273,2,0,L|372:111,1,70,2|2,3:2|0:0,0:0:0:0:
464,67,38632,1,2,3:2:0:0:
300,38,38812,1,8,0:0:0:0:
350,168,38991,1,8,0:0:0:0:
350,168,39081,1,8,0:0:0:0:
350,168,39171,1,2,0:0:0:0:
509,349,40608,6,0,B|483:342|455:343|455:343|426:359|426:359|394:360|359:338,1,154.000004699707,6|8,3:2|0:0,0:0:0:0:
183,373,41147,2,0,P|191:293|146:226,1,154.000004699707,2|2,0:0|3:2,0:0:0:0:
289,379,41686,2,0,P|283:320|316:269,1,115.50000352478,10|2,0:0|0:0,0:0:0:0:
320,267,42045,6,0,L|424:257,1,77.0000023498536,2|0,3:2|0:0,0:0:0:0:
512,155,42404,1,10,0:0:0:0:
340,119,42584,1,2,3:2:0:0:
419,171,42764,2,0,P|421:134|441:69,1,77.0000023498536,2|0,3:2|3:0,0:0:0:0:
256,162,43123,2,0,P|252:99|237:37,1,115.50000352478,8|0,0:0|0:0,0:0:0:0:
235,38,43482,6,0,B|192:34|161:66|161:66|108:79|80:33,1,154.000004699707,6|8,3:2|0:0,0:0:0:0:
15,167,44021,2,0,P|11:93|-12:4,1,154.000004699707,2|2,0:0|3:2,0:0:0:0:
119,146,44560,2,0,P|103:207|100:270,1,115.50000352478,8|0,0:0|0:0,0:0:0:0:
97,270,44919,6,0,B|61:256|61:256|15:272,1,77.0000023498536,2|0,3:2|0:0,0:0:0:0:
20,357,45279,2,0,B|56:371|56:371|102:355,1,77.0000023498536,8|2,0:0|3:2,0:0:0:0:
256,316,45638,5,2,0:0:0:0:
183,365,45818,1,2,3:2:0:0:
338,352,45997,1,8,0:0:0:0:
249,225,46177,1,8,3:0:0:0:
249,225,46267,1,8,3:0:0:0:
249,225,46357,6,0,L|229:61,2,154.000004699707,6|8|2,3:2|0:0|3:2,0:0:0:0:
338,352,47255,1,2,3:2:0:0:
338,352,47434,2,0,P|335:313|329:275,1,77.0000023498536,10|2,0:2|0:0,0:0:0:0:
501,140,47794,6,0,P|489:218|484:300,1,154.000004699707,0|8,3:2|0:0,0:0:0:0:
338,352,48333,1,0,3:0:0:0:
338,202,48512,1,2,0:0:0:0:
338,202,48602,1,8,0:0:0:0:
338,202,48692,1,2,3:2:0:0:
250,231,48871,1,8,0:0:0:0:
392,277,49051,1,2,0:0:0:0:
250,323,49231,6,0,L|157:332,1,77.0000023498536,2|0,3:2|0:0,0:0:0:0:
0,318,49590,1,8,0:0:0:0:
80,369,49770,2,0,L|91:292,1,77.0000023498536,2|0,0:0|3:0,0:0:0:0:
34,127,50129,1,2,3:2:0:0:
178,237,50309,1,10,0:0:0:0:
27,214,50488,1,0,3:0:0:0:
185,150,50668,5,14,0:0:0:0:
106,182,50848,1,8,3:0:0:0:
106,193,50937,1,8,3:0:0:0:
106,204,51027,1,8,3:0:0:0:
123,23,51207,2,0,L|116:100,1,77.0000023498536,8|2,0:0|0:0,0:0:0:0:
41,0,51566,1,12,0:0:0:0:
200,55,51746,1,10,0:0:0:0:
211,54,51836,1,8,0:0:0:0:
222,52,51925,2,0,L|273:42,1,38.5000011749268,8|8,0:0|0:0,0:0:0:0:
425,0,52105,6,0,B|378:-22|335:9|335:9|346:35|339:68,1,154.000004699707,6|8,3:2|0:0,0:0:0:0:
297,276,52644,2,0,P|296:221|276:107,1,154.000004699707,2|2,0:0|3:2,0:0:0:0:
426,78,53183,2,0,P|413:138|410:199,1,115.50000352478,10|2,0:0|0:0,0:0:0:0:
407,203,53542,6,0,B|444:194|444:194|491:217,1,77.0000023498536,2|0,3:2|0:0,0:0:0:0:
512,331,53901,1,10,0:0:0:0:
345,300,54081,1,2,3:2:0:0:
433,277,54261,2,0,L|424:363,1,77.0000023498536,2|0,3:2|3:0,0:0:0:0:
252,360,54620,2,0,L|264:245,1,115.50000352478,8|0,0:0|0:0,0:0:0:0:
266,233,54979,6,0,B|223:219|190:254|190:254|158:288|128:277,1,154.000004699707,6|8,3:2|0:0,0:0:0:0:
1,323,55518,2,0,B|41:305|77:336|77:336|113:367|143:357,1,154.000004699707,2|2,0:0|3:2,0:0:0:0:
133,200,56057,2,0,P|134:143|167:61,1,115.50000352478,8|0,0:0|0:0,0:0:0:0:
157,77,56416,6,0,L|241:67,1,77.0000023498536,2|0,3:2|0:0,0:0:0:0:
84,37,56776,2,0,L|0:27,1,77.0000023498536,8|2,0:0|3:2,0:0:0:0:
35,248,57135,5,2,0:0:0:0:
80,125,57315,1,2,3:2:0:0:
124,292,57494,1,10,0:0:0:0:
169,169,57674,1,8,3:0:0:0:
169,169,57764,1,8,3:0:0:0:
169,169,57854,6,0,P|212:132|309:169,2,154.000004699707,6|8|2,3:2|0:0|3:2,0:0:0:0:
250,288,58752,1,2,3:2:0:0:
250,288,58931,2,0,L|239:211,1,77.0000023498536,10|2,0:2|3:2,0:0:0:0:
382,103,59291,6,0,L|404:262,1,154.000004699707,2|8,3:2|0:0,0:0:0:0:
322,368,59830,1,8,0:0:0:0:
322,368,59919,1,8,0:0:0:0:
322,368,60009,1,2,0:0:0:0:
236,364,60189,1,2,3:2:0:0:
402,352,60368,1,8,0:0:0:0:
309,215,60548,1,2,0:0:0:0:
322,368,60728,6,0,L|306:192,1,154.000004699707,2|8,3:2|0:0,0:0:0:0:
393,91,61267,2,0,P|386:129|385:180,1,77.0000023498536,2|0,0:0|3:0,0:0:0:0:
228,180,61626,2,0,P|226:141|219:103,1,77.0000023498536,2|8,3:2|0:0,0:0:0:0:
125,9,61985,1,0,3:0:0:0:
55,158,62165,5,14,0:0:0:0:
19,79,62345,1,8,3:0:0:0:
19,79,62434,1,8,3:0:0:0:
25,81,62524,2,0,B|65:72|65:72|106:94,1,77.0000023498536,8|8,3:0|0:0,0:0:0:0:
142,221,62883,1,2,3:2:0:0:
141,209,62973,1,8,3:0:0:0:
139,197,63063,2,0,L|131:131,1,38.5000011749268,8|8,3:0|3:0,0:0:0:0:
5,225,63243,1,8,0:0:0:0:
6,237,63333,1,8,0:0:0:0:
8,249,63423,2,0,L|16:315,1,38.5000011749268,8|8,0:0|0:0,0:0:0:0:
177,348,63602,6,0,B|137:381|101:360|101:360|81:320|114:281,1,154.000004699707,6|8,3:2|0:0,0:0:0:0:
266,352,64141,2,0,B|305:384|341:363|341:363|361:324|328:285,1,167.999994873047,6|0,3:2|3:0,0:0:0:0:
152,122,64680,1,8,0:0:0:0:
226,273,64860,6,0,B|230:153|230:153|215:192|176:200,1,181.999991668702,6|0,3:2|3:0,0:0:0:0:
28,200,65398,2,0,L|107:189,1,77.0000023498536,10|0,0:0|3:0,0:0:0:0:
82,77,65758,2,0,L|5:87,1,77.0000023498536,2|0,0:0|3:0,0:0:0:0:
162,128,66117,1,8,0:0:0:0:
162,128,66207,1,8,0:0:0:0:
162,128,66297,2,0,L|167:70,1,38.5000011749268,8|8,0:0|0:0,0:0:0:0:
132,8,66476,6,0,B|179:2|179:2|213:24|213:24|286:5,1,154.000004699707,6|8,3:2|0:0,0:0:0:0:
453,22,67015,2,0,B|410:-4|410:-4|401:32|433:59|416:115,1,167.999994873047,6|0,3:2|3:0,0:0:0:0:
357,277,67554,1,8,0:0:0:0:
510,216,67734,6,0,B|463:246|425:225|425:225|382:180|344:198,1,181.999991668702,6|0,3:2|3:0,0:0:0:0:
190,184,68273,2,0,L|178:286,1,77.0000023498536,8|0,0:0|3:0,0:0:0:0:
271,151,68632,2,0,L|275:112,2,38.5000011749268,8|8|8,3:0|3:0|3:0,0:0:0:0:
259,298,68991,1,8,3:0:0:0:
261,286,69081,1,8,3:0:0:0:
261,274,69171,2,0,L|265:235,1,38.5000011749268,8|8,3:0|3:0,0:0:0:0:
191,97,69351,6,0,B|150:88|150:88|105:104,1,77.0000023498536,14|0,0:0|3:0,0:0:0:0:
60,199,69710,5,8,0:0:0:0:
26,45,69889,1,2,3:2:0:0:
151,253,70069,5,8,0:0:0:0:
117,99,70248,1,2,3:2:0:0:
242,307,70429,5,8,0:0:0:0:
208,153,70608,1,2,3:2:0:0:
27,324,70788,6,0,B|64:307|100:339|100:339|134:370|168:356,1,154.000004699707,14|4,0:0|3:0,0:0:0:0:
356,313,71327,1,0,3:0:0:0:
356,324,71416,1,0,3:0:0:0:
354,336,71506,2,0,P|348:363|346:380,1,38.5000011749268,4|0,3:0|3:0,0:0:0:0:
256,372,71686,1,0,3:0:0:0:
256,361,71775,1,0,3:0:0:0:
256,349,71865,2,0,P|253:329|248:311,1,38.5000011749268,8|4,0:0|3:0,0:0:0:0:
267,213,72045,6,0,B|300:170|378:207|335:240|351:249|442:328|523:255|547:172|505:187|484:140|434:128|408:153,1,391.99998803711,6|0,3:2|0:0,0:0:0:0:
414,149,73662,6,0,P|405:83|459:18,1,140,6|2,3:2|0:0,0:0:0:0:
292,142,74201,2,0,P|301:76|247:11,1,140,2|0,3:2|0:0,0:0:0:0:
356,0,74740,1,2,0:0:0:0:
219,94,74919,6,0,L|73:68,1,140,2|0,3:2|3:0,0:0:0:0:
62,244,75458,1,2,0:0:0:0:
1,180,75638,2,0,B|59:149|59:149|145:193,1,140,2|8,3:2|0:0,0:0:0:0:
157,336,76177,2,0,L|144:253,1,70,2|0,0:0|0:0,0:0:0:0:
66,329,76536,5,2,3:2:0:0:
66,329,76716,1,2,3:2:0:0:
243,323,76895,1,2,0:0:0:0:
243,323,77075,2,0,L|218:164,1,140,2|2,3:2|0:0,0:0:0:0:
318,52,77614,1,2,0:0:0:0:
198,103,77794,6,0,B|234:87|264:115|264:115|294:143|329:127,1,140,2|0,3:2|3:0,0:0:0:0:
470,41,78333,1,12,0:0:0:0:
391,8,78512,1,2,3:2:0:0:
466,131,78692,6,0,L|518:126,2,46.6666666666667,14|8|8,0:0|0:0|3:0,0:0:0:0:
373,135,79051,2,0,L|326:128,2,46.6666666666667,8|8|8,3:0|3:0|3:0,0:0:0:0:
431,207,79410,6,0,P|417:276|412:361,1,140,6|2,3:2|0:0,0:0:0:0:
324,383,79949,2,0,P|270:337|199:289,1,140,2|2,3:2|0:0,0:0:0:0:
225,202,80488,1,2,0:0:0:0:
225,202,80668,6,0,P|291:178|368:140,1,140,2|0,3:2|3:0,0:0:0:0:
256,60,81207,1,2,0:0:0:0:
256,60,81386,2,0,B|207:50|188:75|188:75|167:100|114:87,1,140,2|8,3:2|0:0,0:0:0:0:
14,129,81925,2,0,L|23:198,1,70,2|0,0:0|0:0,0:0:0:0:
169,295,82285,5,8,0:0:0:0:
112,218,82464,1,4,3:0:0:0:
144,384,82644,1,4,3:0:0:0:
271,273,82824,2,0,L|285:181,1,70,8|4,0:0|3:0,0:0:0:0:
191,64,83183,1,4,3:0:0:0:
191,64,83363,1,8,0:0:0:0:
400,127,83542,6,0,B|417:62|364:1|287:27|269:91|269:91|252:157|175:183|103:131|106:70,1,448,4|8,3:2|0:0,0:0:0:0:
99,78,85069,1,8,0:0:0:0:
91,70,85159,5,8,3:2:0:0:
17,122,85339,2,0,L|36:232,2,112,4|4|4,3:0|3:0|3:0,0:0:0:0:
14,38,86237,1,4,3:0:0:0:
256,192,86596,1,6,3:2:0:0:
256,192,86686,12,0,95937,0:0:0:0:
