osu file format v14

[General]
AudioFilename: audio.mp3
AudioLeadIn: 0
PreviewTime: 71020
Countdown: 0
SampleSet: Soft
StackLeniency: 0.4
Mode: 0
LetterboxInBreaks: 0
WidescreenStoryboard: 1

[Editor]
Bookmarks: 10737,21115,31494,41872,52250,62629,68466,71061,76250,81439,86628,91817,102196,112574,122952,133331,141763,146952,152141,157331,162520,172898,178087,183277,193655,204358,209223,214412,219601,224790,235168,240358,245547,248141,255925
DistanceSpacing: 1.2
BeatDivisor: 4
GridSize: 32
TimelineZoom: 2.3

[Metadata]
Title:primal
TitleUnicode:primal
Artist:solfa feat. Ceui
ArtistUnicode:solfa feat. Ceui
Creator:Lasse
Version:Blossom
Source:PRIMAL×HEARTS
Tags:marmalade eroge visual novel opening full version japanese pop rock primal hearts プライマルハーツ akashic records sapphire アカシックレコード~サファイア~ white beat
BeatmapID:2345617
BeatmapSetID:1122445

[Difficulty]
HPDrainRate:6
CircleSize:4.2
OverallDifficulty:8.7
ApproachRate:9.2
SliderMultiplier:1.8
SliderTickRate:1

[Events]
//Background and Video events
0,0,"e.jpg",0,0
//Break Periods
//Storyboard Layer 0 (Background)
//Storyboard Layer 1 (Fail)
//Storyboard Layer 2 (Pass)
//Storyboard Layer 3 (Foreground)
//Storyboard Layer 4 (Overlay)
//Storyboard Sound Samples

[TimingPoints]
359,648.648648648649,4,2,1,30,1,0
359,-100,4,2,1,30,0,0
5548,-90.9090909090909,4,2,1,35,0,0
8142,-90.9090909090909,4,2,1,40,0,0
9764,-83.3333333333333,4,2,1,42,0,0
9926,-83.3333333333333,4,2,1,32,0,0
10088,-83.3333333333333,4,2,1,44,0,0
10250,-83.3333333333333,4,2,1,34,0,0
10413,-83.3333333333333,4,2,1,46,0,0
10575,-83.3333333333333,4,2,1,36,0,0
10737,324.324324324324,4,2,1,62,1,0
10737,-100,4,2,1,62,0,0
13250,-100,4,2,1,30,0,0
13331,-100,4,2,1,62,0,0
15764,-100,4,2,2,62,0,0
15926,-100,4,2,1,62,0,0
17304,-100,4,2,1,30,0,0
17385,-100,4,2,1,62,0,0
18439,-100,4,2,1,30,0,0
18520,-100,4,2,1,62,0,0
20628,-100,4,2,1,50,0,0
20709,-100,4,2,1,60,0,0
21115,-90.9090909090909,4,2,1,64,0,0
25980,-90.9090909090909,4,2,1,62,0,0
26304,-90.9090909090909,4,2,1,64,0,0
28574,-90.9090909090909,4,2,1,62,0,0
28899,-90.9090909090909,4,2,1,64,0,0
31169,-90.9090909090909,4,2,1,62,0,0
31250,-90.9090909090909,4,2,1,60,0,0
31331,-90.9090909090909,4,2,1,58,0,0
31412,-90.9090909090909,4,2,1,56,0,0
31494,-100,4,2,1,54,0,0
32142,-133.333333333333,4,2,1,48,0,0
41223,-133.333333333333,4,2,1,50,0,0
41547,-133.333333333333,4,2,1,52,0,0
41872,-111.111111111111,4,2,1,55,0,0
52250,-133.333333333333,4,2,1,60,0,0
52574,-133.333333333333,4,2,1,54,0,0
54845,-133.333333333333,4,2,1,60,0,0
55169,-133.333333333333,4,2,1,54,0,0
57439,-133.333333333333,4,2,1,60,0,0
57764,-133.333333333333,4,2,1,54,0,0
60034,-133.333333333333,4,2,1,60,0,0
60358,-133.333333333333,4,2,1,54,0,0
62629,324.324324324324,6,2,1,36,1,0
62629,-200,6,2,1,36,0,0
64574,-200,6,2,1,38,0,0
66520,-181.818181818182,6,2,1,40,0,0
67818,-166.666666666667,6,2,1,42,0,0
68142,-166.666666666667,6,2,1,44,0,0
68466,324.324324324324,4,2,1,60,1,0
68466,-133.333333333333,4,2,1,60,0,0
68628,-133.333333333333,4,2,1,5,0,0
69438,-133.333333333333,4,2,1,50,0,0
69601,-133.333333333333,4,2,1,62,0,0
70249,-133.333333333333,4,2,1,64,0,0
70736,-133.333333333333,4,2,1,66,0,0
71061,324.324324324324,4,2,1,70,1,0
71061,-83.3333333333333,4,2,1,70,0,1
73574,-83.3333333333333,4,2,1,30,0,1
73655,-83.3333333333333,4,2,1,70,0,1
76493,-83.3333333333333,4,2,1,30,0,1
76574,-83.3333333333333,4,2,1,70,0,1
79087,-83.3333333333333,4,2,1,30,0,1
79169,-83.3333333333333,4,2,1,70,0,1
80952,-83.3333333333333,4,2,1,50,0,1
81033,-83.3333333333333,4,2,1,65,0,1
81439,-83.3333333333333,4,2,1,70,0,1
83952,-83.3333333333333,4,2,1,30,0,1
84033,-83.3333333333333,4,2,1,70,0,1
90682,-83.3333333333333,4,2,1,66,0,1
91006,-83.3333333333333,4,2,1,64,0,1
91331,-83.3333333333333,4,2,2,62,0,1
91493,-83.3333333333333,4,2,1,60,0,1
91655,-83.3333333333333,4,2,1,58,0,1
91817,-100,4,2,1,62,0,0
94331,-100,4,2,1,30,0,0
94412,-100,4,2,1,62,0,0
96682,-100,4,2,1,60,0,0
97006,-90.9090909090909,4,2,1,64,0,0
101871,-90.9090909090909,4,2,1,62,0,0
101952,-90.9090909090909,4,2,1,60,0,0
102033,-90.9090909090909,4,2,1,58,0,0
102115,-90.9090909090909,4,2,1,56,0,0
102196,-133.333333333333,4,2,1,45,0,0
102520,-133.333333333333,4,2,2,45,0,0
111115,-133.333333333333,4,2,2,46,0,0
111277,-133.333333333333,4,2,2,47,0,0
111439,-133.333333333333,4,2,2,48,0,0
111601,-133.333333333333,4,2,2,49,0,0
112574,-111.111111111111,4,2,1,55,0,0
122952,-133.333333333333,4,2,1,60,0,0
123277,-133.333333333333,4,2,1,54,0,0
125547,-133.333333333333,4,2,1,60,0,0
125871,-133.333333333333,4,2,1,54,0,0
128142,-133.333333333333,4,2,1,60,0,0
128466,-133.333333333333,4,2,1,54,0,0
130736,-133.333333333333,4,2,1,60,0,0
131060,-133.333333333333,4,2,1,54,0,0
133331,324.324324324324,6,2,1,36,1,0
133331,-200,6,2,1,36,0,0
135276,-200,6,2,1,38,0,0
137222,-181.818181818182,6,2,1,40,0,0
138520,-166.666666666667,6,2,1,42,0,0
138844,-166.666666666667,6,2,1,44,0,0
139169,324.324324324324,4,2,1,60,1,0
139169,-133.333333333333,4,2,1,60,0,0
139250,-133.333333333333,4,2,1,5,0,0
140304,-133.333333333333,4,2,1,50,0,0
140466,-133.333333333333,4,2,1,60,0,0
140790,-133.333333333333,4,2,1,62,0,0
141114,-133.333333333333,4,2,1,66,0,0
141439,-133.333333333333,4,2,1,68,0,0
141763,324.324324324324,4,2,1,70,1,1
141763,-83.3333333333333,4,2,1,70,0,1
144276,-83.3333333333333,4,2,1,30,0,1
144357,-83.3333333333333,4,2,1,70,0,1
147195,-83.3333333333333,4,2,1,30,0,1
147276,-83.3333333333333,4,2,1,70,0,1
149790,-83.3333333333333,4,2,1,30,0,1
149871,-83.3333333333333,4,2,1,70,0,1
151654,-83.3333333333333,4,2,1,50,0,1
151735,-83.3333333333333,4,2,1,65,0,1
152141,-83.3333333333333,4,2,1,70,0,1
154654,-83.3333333333333,4,2,1,30,0,1
154735,-83.3333333333333,4,2,1,70,0,1
161384,-83.3333333333333,4,2,1,66,0,1
161708,-83.3333333333333,4,2,1,64,0,1
162033,-83.3333333333333,4,2,2,62,0,1
162195,-83.3333333333333,4,2,1,60,0,1
162357,-83.3333333333333,4,2,1,58,0,1
162519,-125,4,2,1,54,0,0
172573,-125,4,2,1,56,0,0
172654,-125,4,2,1,58,0,0
172735,-125,4,2,1,60,0,0
172817,-125,4,2,1,62,0,0
172898,-83.3333333333333,4,2,1,65,0,0
173627,-83.3333333333333,4,2,1,30,0,0
173708,-83.3333333333333,4,2,1,60,0,0
174195,-83.3333333333333,4,2,1,65,0,0
176222,-83.3333333333333,4,2,1,30,0,0
176303,-83.3333333333333,4,2,1,60,0,0
176790,-83.3333333333333,4,2,1,65,0,0
177479,-83.3333333333333,4,2,1,5,0,0
177600,-83.3333333333333,4,2,1,65,0,0
177641,-83.3333333333333,4,2,1,5,0,0
177762,-83.3333333333333,4,2,1,65,0,0
177803,-83.3333333333333,4,2,1,5,0,0
178087,-83.3333333333333,4,2,1,68,0,0
182790,-83.3333333333333,4,2,1,50,0,0
182871,-83.3333333333333,4,2,1,68,0,0
183276,-76.9230769230769,4,2,1,70,0,0
183519,-76.9230769230769,4,2,1,60,0,0
183600,-76.9230769230769,4,2,1,70,0,0
186600,-76.9230769230769,4,2,1,30,0,0
186681,-76.9230769230769,4,2,1,70,0,0
188465,-71.4285714285714,4,2,1,71,0,0
191060,-66.6666666666667,4,2,1,72,0,0
192357,-66.6666666666667,4,2,1,73,0,0
193006,-66.6666666666667,4,2,1,74,0,0
193654,-250,4,2,1,48,0,0
202735,-250,4,2,1,50,0,0
202898,-133.333333333333,4,2,1,56,0,0
203222,-133.333333333333,4,2,1,48,0,0
203384,-133.333333333333,4,2,1,58,0,0
203546,-133.333333333333,4,2,1,59,0,0
203708,-133.333333333333,4,2,1,60,0,0
203871,-133.333333333333,4,2,1,61,0,0
204195,-133.333333333333,4,2,1,60,0,0
204249,-133.333333333333,4,2,1,62,0,0
204303,-133.333333333333,4,2,1,66,0,0
204357,-76.9230769230769,4,2,1,72,0,1
206546,-76.9230769230769,4,2,1,30,0,1
206627,-76.9230769230769,4,2,1,72,0,1
209465,-76.9230769230769,4,2,1,30,0,1
209546,-76.9230769230769,4,2,1,72,0,1
212060,-76.9230769230769,4,2,1,30,0,1
212141,-76.9230769230769,4,2,1,72,0,1
213925,-76.9230769230769,4,2,1,50,0,1
214006,-76.9230769230769,4,2,1,67,0,1
214411,-76.9230769230769,4,2,1,72,0,1
216925,-76.9230769230769,4,2,1,30,0,1
217006,-76.9230769230769,4,2,1,72,0,1
223654,-76.9230769230769,4,2,1,66,0,1
223979,-76.9230769230769,4,2,1,64,0,1
224303,-76.9230769230769,4,2,2,62,0,1
224465,-76.9230769230769,4,2,1,60,0,1
224627,-76.9230769230769,4,2,1,58,0,1
224790,-90.9090909090909,4,2,1,65,0,0
227303,-90.9090909090909,4,2,1,30,0,0
227384,-90.9090909090909,4,2,1,65,0,0
228600,-90.9090909090909,4,2,1,30,0,0
228681,-90.9090909090909,4,2,1,65,0,0
229654,-90.9090909090909,4,2,1,62,0,0
229979,-90.9090909090909,4,2,1,65,0,0
232492,-90.9090909090909,4,2,1,30,0,0
232573,-90.9090909090909,4,2,1,65,0,0
234844,-90.9090909090909,4,2,1,64,0,0
235168,-83.3333333333333,4,2,1,68,0,0
236384,-83.3333333333333,4,2,1,30,0,0
236465,-83.3333333333333,4,2,1,68,0,0
237438,-83.3333333333333,4,2,1,65,0,0
237762,-83.3333333333333,4,2,1,68,0,0
238979,-83.3333333333333,4,2,1,30,0,0
239060,-83.3333333333333,4,2,1,68,0,0
240033,-83.3333333333333,4,2,1,65,0,0
240357,-83.3333333333333,4,2,1,68,0,0
242627,-83.3333333333333,4,2,1,65,0,0
242952,-83.3333333333333,4,2,1,70,0,0
245546,-83.3333333333333,4,2,3,72,0,0
245708,-83.3333333333333,4,2,1,72,0,0
246844,-83.3333333333333,4,2,3,72,0,0
247006,-83.3333333333333,4,2,1,70,0,0
247330,-83.3333333333333,4,2,1,68,0,0
247654,-83.3333333333333,4,2,2,66,0,0
247979,-83.3333333333333,4,2,2,64,0,0
248141,-285.714285714286,4,2,1,62,0,0
248303,-285.714285714286,4,2,99,5,0,0
255925,-285.714285714286,4,2,99,8,0,0

[Colours]
Combo1 : 250,180,240
Combo2 : 120,200,230
Combo3 : 255,230,130
Combo4 : 160,230,150

[HitObjects]
65,208,359,6,0,P|35:239|26:287,1,90,2|0,0:0|0:0,0:0:0:0:
104,277,845,2,0,P|115:318|152:350,1,90,0|0,0:0|0:0,0:0:0:0:
183,277,1331,2,0,P|224:287|270:271,1,90,0|0,0:0|0:0,0:0:0:0:
222,208,1818,2,0,P|252:177|260:129,1,90,0|0,0:0|0:0,0:0:0:0:
181,139,2304,2,0,P|169:97|132:65,1,90,0|0,0:0|0:0,0:0:0:0:
89,149,2953,6,0,P|100:190|137:222,1,90,2|0,0:0|0:0,0:0:0:0:
159,295,3440,2,0,P|202:296|243:271,1,90,0|0,0:0|0:0,0:0:0:0:
319,273,3926,2,0,P|333:232|322:184,1,90,0|0,0:0|0:0,0:0:0:0:
347,114,4413,2,0,P|313:87|264:83,1,90,0|0,0:0|0:0,0:0:0:0:
204,38,4899,2,0,P|168:62|149:107,1,90,0|0,0:0|0:0,0:0:0:0:
226,203,5548,6,0,L|335:185,1,99.0000030212403,2|0,0:0|0:0,0:0:0:0:
331,207,6034,2,0,L|233:223,1,99.0000030212403,0|0,0:0|0:0,0:0:0:0:
338,305,6521,2,0,L|447:323,1,99.0000030212403,0|0,0:0|0:0,0:0:0:0:
443,301,7007,2,0,L|345:285,1,99.0000030212403,0|0,0:0|0:0,0:0:0:0:
423,205,7494,2,0,P|423:181|430:157,1,49.5000015106202,0|0,0:0|0:0,0:0:0:0:
448,162,7818,2,0,P|448:186|441:210,1,49.5000015106202,0|0,0:0|0:0,0:0:0:0:
345,285,8142,6,0,P|299:290|247:301,1,99.0000030212403,2|0,0:0|0:0,0:0:0:0:
261,132,8629,2,0,P|288:169|323:208,1,99.0000030212403,0|0,0:0|0:0,0:0:0:0:
171,282,9115,2,0,P|189:239|206:189,1,99.0000030212403,0|0,0:0|0:0,0:0:0:0:
206,189,9602,1,0,0:0:0:0:
158,82,9764,6,0,L|97:55,1,53.9999983520508,2|0,0:0|0:0,0:0:0:0:
253,28,10088,2,0,L|192:1,1,53.9999983520508,2|0,0:0|0:0,0:0:0:0:
210,193,10413,2,0,L|149:166,1,53.9999983520508,2|0,0:0|0:0,0:0:0:0:
307,130,10737,6,0,P|317:197|442:197,1,180,14|0,0:1|0:0,0:0:0:0:
355,270,11223,1,8,0:0:0:0:
484,175,11385,2,0,P|497:139|487:76,1,90,2|8,0:0|0:1,0:0:0:0:
308,0,11709,5,10,0:1:0:0:
263,96,11872,2,0,P|313:87|384:81,1,90,8|0,0:1|0:0,0:0:0:0:
498,201,12196,2,0,P|409:181|285:177,1,180,8|8,0:0|0:1,0:0:0:0:
477,302,12682,1,8,0:1:0:0:
477,302,12845,1,8,0:1:0:0:
352,380,13007,2,0,B|340:335|340:335|351:305|351:305|333:240,1,135,10|0,0:0|0:0,0:0:0:0:
320,175,13331,6,0,B|358:221|430:201|430:201|443:161|412:129,1,180,10|2,0:1|0:0,0:0:0:0:
321,26,13818,1,8,0:0:0:0:
235,172,13980,2,0,B|224:206|246:231|246:231|254:218|248:198,1,90,2|8,0:0|0:1,0:0:0:0:
127,110,14304,5,10,0:1:0:0:
250,205,14466,2,0,P|331:196|329:91,1,180,8|8,0:1|0:0,0:0:0:0:
244,6,14953,1,2,0:0:0:0:
222,98,15115,1,8,0:1:0:0:
61,168,15277,1,8,0:3:0:0:
82,58,15439,1,4,0:3:0:0:
163,261,15601,1,12,0:0:0:0:
54,318,15764,1,8,0:3:0:0:
233,384,15926,6,0,P|248:266|270:193,1,180,14|0,0:1|0:0,0:0:0:0:
363,369,16412,1,8,0:0:0:0:
450,293,16574,2,0,P|443:248|431:205,1,90,2|0,0:0|0:0,0:0:0:0:
320,78,16899,5,10,0:1:0:0:
249,200,17061,2,0,P|184:226|114:208,1,135,8|0,0:1|0:0,0:0:0:0:
72,146,17385,2,0,B|106:73|66:15|66:15|71:84,1,180,8|8,0:0|0:1,0:0:0:0:
72,146,17872,1,8,0:1:0:0:
72,146,18034,1,8,0:1:0:0:
198,70,18196,2,0,B|237:44|231:2|231:2|203:16|201:45,1,135,10|0,0:0|0:0,0:0:0:0:
170,147,18520,6,0,B|156:169|151:201|151:201|159:258|211:314,1,180,10|2,0:1|0:0,0:0:0:0:
315,381,19007,1,8,0:0:0:0:
257,219,19169,2,0,P|292:191|340:183,1,90,2|8,0:0|0:1,0:0:0:0:
170,147,19493,5,10,0:1:0:0:
335,182,19655,1,8,0:1:0:0:
211,53,19818,5,10,0:0:0:0:
244,240,19980,1,8,0:1:0:0:
208,37,20142,5,10,0:0:0:0:
247,256,20304,1,8,0:1:0:0:
447,124,20466,6,0,L|332:106,1,90,8|0,0:3|0:0,0:0:0:0:
297,150,20709,1,0,1:0:0:0:
304,193,20791,1,0,1:0:0:0:
286,233,20872,1,0,1:0:0:0:
247,256,20953,1,0,1:0:0:0:
203,253,21034,1,0,1:0:0:0:
168,226,21115,6,0,B|201:187|181:126|137:98|137:98|69:131,1,198.000006042481,14|8,0:1|0:0,0:0:0:0:
19,244,21601,1,8,0:1:0:0:
114,359,21764,2,0,L|219:349,1,99.0000030212403,2|0,0:0|0:0,0:0:0:0:
439,344,22088,6,0,B|454:357|459:391|402:388|357:336|423:229,1,198.000006042481,10|8,0:0|0:1,0:0:0:0:
491,95,22574,2,0,P|512:147|511:208,1,99.0000030212403,10|8,0:1|0:0,0:0:0:0:
388,53,22899,1,8,0:1:0:0:
306,228,23061,2,0,P|309:178|329:133,1,99.0000030212403,2|8,0:0|0:1,0:0:0:0:
262,320,23385,2,0,P|229:282|211:236,1,99.0000030212403,10|0,0:0|0:0,0:0:0:0:
269,46,23709,6,0,B|289:101|349:97|349:97|375:54|431:45,1,198.000006042481,10|10,0:1|0:0,0:2:0:0:
329,133,24196,1,8,0:1:0:0:
425,46,24358,2,0,P|472:51|520:84,1,99.0000030212403,2|8,0:0|0:1,0:0:0:0:
328,218,24682,6,0,B|352:286|341:326|309:361|309:361|311:312,1,198.000006042481,10|8,0:0|0:1,0:0:0:0:
328,218,25169,1,10,0:1:0:0:
417,176,25331,1,8,0:0:0:0:
510,208,25493,1,8,0:1:0:0:
337,87,25655,5,2,0:0:0:0:
238,153,25818,1,8,0:1:0:0:
142,83,25980,1,8,3:2:0:0:
130,67,26061,1,0,3:0:0:0:
115,53,26142,1,0,3:0:0:0:
96,45,26223,1,0,3:0:0:0:
76,40,26304,6,0,B|43:38|12:66|12:66|0:139|68:220,1,198.000006042481,14|8,0:1|0:0,0:0:0:0:
133,292,26791,1,8,0:1:0:0:
242,169,26953,2,0,L|253:64,1,99.0000030212403,2|0,0:0|0:3,0:0:0:0:
449,290,27277,6,0,P|357:286|341:195,1,198.000006042481,10|8,0:0|0:1,0:0:0:0:
298,284,27764,1,8,0:1:0:0:
386,135,27926,2,0,P|403:81|389:32,1,99.0000030212403,10|8,0:0|0:1,0:0:0:0:
298,284,28250,2,0,P|289:332|305:378,1,99.0000030212403,2|8,0:0|0:1,0:0:0:0:
180,214,28574,5,10,0:0:0:0:
153,243,28682,1,2,0:0:0:0:
115,255,28791,1,2,0:0:0:0:
75,248,28899,5,10,0:1:0:0:
162,124,29061,1,2,0:0:0:0:
195,304,29223,5,10,0:0:0:0:
162,124,29385,2,0,B|168:86|137:63|137:63|136:96|144:109,1,99.0000030212403,10|0,0:1|0:0,0:0:0:0:
285,212,29709,5,10,0:1:0:0:
162,124,29872,1,10,0:0:0:0:
203,325,30034,5,10,0:1:0:0:
208,343,30115,1,8,0:1:0:0:
214,361,30196,1,8,0:0:0:0:
285,212,30358,1,8,0:3:0:0:
162,124,30520,1,4,0:3:0:0:
101,263,30682,5,8,0:0:0:0:
28,109,30845,1,4,0:3:0:0:
153,11,31007,1,8,0:3:0:0:
259,124,31169,5,14,0:2:0:0:
258,163,31250,5,2,0:0:0:0:
277,191,31331,5,2,0:0:0:0:
304,202,31412,5,2,0:0:0:0:
328,197,31493,5,14,0:1:0:0:
512,61,32142,6,0,P|423:50|371:50,1,135.000005149842,10|0,0:0|0:0,0:0:0:0:
304,66,32628,1,10,0:1:0:0:
304,66,32953,1,8,0:1:0:0:
377,72,33115,2,0,P|444:70|511:60,2,135.000005149842,8|8|0,0:1|0:0|0:0,0:0:0:0:
174,39,34088,6,0,P|107:29|39:26,1,135.000005149842,10|0,0:1|0:0,0:0:0:0:
129,110,34574,2,0,P|102:121|62:146,1,67.5000025749208,2|8,0:0|0:0,0:0:0:0:
69,140,35061,1,2,0:0:0:0:
142,191,35223,2,0,P|209:188|276:178,1,135.000005149842,8|8,0:1|0:1,0:0:0:0:
352,138,35709,2,0,P|354:70|364:3,2,135.000005149842,8|8|0,0:1|0:0|0:0,0:0:0:0:
493,281,36682,6,0,P|426:271|358:268,1,135.000005149842,10|0,0:1|0:0,0:0:0:0:
393,342,37169,1,2,0:0:0:0:
303,372,37331,2,0,P|236:381|168:384,1,135.000005149842,8|0,0:0|0:0,0:0:0:0:
59,349,37818,2,0,P|49:282|46:214,1,135.000005149842,10|8,0:1|0:1,0:0:0:0:
118,134,38304,2,0,P|127:67|130:0,2,135.000005149842,8|8|0,0:1|0:0|0:0,0:0:0:0:
0,292,39277,6,0,P|66:282|134:279,1,135.000005149842,10|0,0:1|0:0,0:0:0:0:
226,314,39764,2,0,P|231:341|246:385,1,67.5000025749208,2|8,0:0|0:0,0:0:0:0:
243,379,40250,1,2,0:0:0:0:
304,277,40412,2,0,P|313:210|316:142,1,135.000005149842,8|8,0:1|0:1,0:0:0:0:
292,75,40899,1,8,0:1:0:0:
292,75,41223,5,8,0:0:0:0:
241,173,41385,1,8,0:1:0:0:
180,111,41547,5,8,0:0:0:0:
211,251,41709,1,8,0:1:0:0:
127,305,41872,6,0,P|90:296|47:289,1,80.9999975280763,14|0,0:1|0:0,0:0:0:0:
264,363,42196,2,0,P|227:371|184:378,1,80.9999975280763,10|0,0:0|0:0,0:0:0:0:
317,229,42520,1,10,0:1:0:0:
436,326,42682,2,0,P|399:317|356:310,1,80.9999975280763,10|8,0:1|0:0,0:0:0:0:
237,245,43007,5,2,0:0:0:0:
237,245,43088,1,2,0:0:0:0:
237,245,43169,2,0,P|277:238|316:229,1,80.9999975280763,10|8,0:1|0:1,0:0:0:0:
188,95,43493,2,0,P|174:133|162:171,1,80.9999975280763,10|8,0:0|0:1,0:0:0:0:
342,127,43818,2,0,P|315:95|288:66,1,80.9999975280763,2|8,0:0|0:1,0:0:0:0:
237,245,44142,5,10,0:0:0:0:
333,271,44304,1,2,0:0:0:0:
179,347,44466,6,0,P|194:274|186:181,1,161.999995056153,10|8,0:1|0:0,0:0:0:0:
91,89,44953,2,0,P|49:99|6:106,1,80.9999975280763,2|8,0:0|0:1,0:0:0:0:
187,187,45277,2,0,P|229:197|272:204,1,80.9999975280763,10|8,0:1|0:0,0:0:0:0:
401,103,45601,5,2,0:0:0:0:
401,103,45682,1,2,0:0:0:0:
401,103,45764,2,0,P|397:47|387:2,1,80.9999975280763,10|8,0:1|0:1,0:0:0:0:
316,134,46088,1,10,0:0:0:0:
266,203,46250,2,0,P|270:259|280:304,1,80.9999975280763,10|0,0:1|0:0,0:0:0:0:
177,110,46574,2,0,P|173:54|163:9,1,80.9999975280763,10|8,0:1|0:0,0:0:0:0:
106,200,46899,5,2,0:0:0:0:
106,200,46980,1,2,0:0:0:0:
106,200,47061,2,0,P|54:214|19:217,1,80.9999975280763,14|0,0:1|0:0,0:0:0:0:
233,348,47385,2,0,P|194:336|154:331,1,80.9999975280763,10|0,0:0|0:0,0:0:0:0:
306,190,47709,5,10,0:1:0:0:
403,248,47872,1,8,0:1:0:0:
511,216,48034,1,8,0:0:0:0:
426,95,48196,5,2,0:0:0:0:
426,95,48277,1,2,0:0:0:0:
426,95,48358,2,0,P|413:56|409:16,1,80.9999975280763,10|8,0:1|0:1,0:0:0:0:
306,190,48682,2,0,P|287:225|276:263,1,80.9999975280763,10|8,0:0|0:1,0:0:0:0:
195,81,49007,2,0,P|184:41|165:6,1,80.9999975280763,2|8,0:0|0:1,0:0:0:0:
78,119,49331,5,10,0:0:0:0:
78,119,49493,1,2,0:0:0:0:
172,240,49655,6,0,P|174:165|196:76,1,161.999995056153,10|8,0:1|0:0,0:0:0:0:
326,0,50142,1,2,0:0:0:0:
326,0,50304,2,0,P|331:50|352:98,1,80.9999975280763,10|8,0:1|0:1,0:0:0:0:
449,226,50628,2,0,P|461:187|464:147,1,80.9999975280763,10|0,0:0|0:0,0:0:0:0:
302,302,50953,5,10,0:1:0:0:
372,338,51115,2,0,P|416:336|462:329,1,80.9999975280763,8|8,0:1|0:0,0:0:0:0:
230,211,51439,5,10,0:1:0:0:
156,240,51601,2,0,P|115:238|75:232,1,80.9999975280763,2|8,0:0|0:1,0:0:0:0:
256,39,51926,5,2,1:2:0:0:
251,78,52007,1,0,1:0:0:0:
273,111,52088,1,0,1:0:0:0:
311,123,52169,1,0,1:0:0:0:
347,107,52250,5,14,0:1:0:0:
230,211,52412,1,10,0:1:0:0:
378,294,52574,2,0,P|452:281|519:275,1,135.000005149842,8|0,0:0|0:0,0:0:0:0:
449,360,53061,2,0,P|482:366|512:380,1,67.5000025749208,8|8,0:1|0:0,0:0:0:0:
293,286,53547,5,10,0:1:0:0:
293,286,53709,1,8,0:1:0:0:
383,203,53872,1,8,0:0:0:0:
325,93,54034,1,10,0:1:0:0:
320,76,54358,5,10,0:1:0:0:
274,179,54520,1,8,0:0:0:0:
218,30,54845,5,10,0:1:0:0:
266,160,55007,1,10,0:1:0:0:
147,256,55169,2,0,P|93:241|12:229,1,135.000005149842,8|0,0:0|0:0,0:0:0:0:
67,319,55655,2,0,P|34:326|-5:341,1,67.5000025749208,8|8,0:1|0:0,0:0:0:0:
245,239,56142,5,10,0:1:0:0:
191,318,56304,1,8,0:1:0:0:
284,384,56466,1,8,0:0:0:0:
338,305,56628,1,8,0:1:0:0:
339,295,56709,1,0,3:0:0:0:
432,354,56872,1,0,3:0:0:0:
441,350,56953,2,0,P|455:320|454:286,1,67.5000025749208,8|8,2:1|0:0,0:0:0:0:
405,87,57439,5,14,0:1:0:0:
302,178,57601,1,10,0:1:0:0:
214,29,57764,2,0,P|281:22|353:11,1,135.000005149842,8|0,0:0|0:0,0:0:0:0:
347,11,58250,1,8,0:1:0:0:
294,102,58412,1,8,0:0:0:0:
198,45,58574,6,0,P|168:30|127:17,1,67.5000025749208,2|8,0:0|0:1,0:0:0:0:
125,127,58899,2,0,P|97:145|65:174,1,67.5000025749208,10|8,0:1|0:0,0:0:0:0:
170,233,59223,2,0,B|149:247|141:274|141:274|146:315|180:362,1,135.000005149842,10|8,0:1|0:1,0:0:0:0:
333,383,59709,5,10,0:0:0:0:
337,360,59818,1,2,0:0:0:0:
341,337,59926,1,2,0:0:0:0:
345,314,60034,5,10,0:1:0:0:
469,384,60196,1,10,0:1:0:0:
512,251,60358,2,0,P|510:219|500:184,1,67.5000025749208,10|0,0:0|0:0,0:0:0:0:
316,203,60682,2,0,P|318:169|327:137,1,67.5000025749208,2|8,0:0|0:1,0:0:0:0:
512,173,61007,2,0,P|509:139|500:107,1,67.5000025749208,10|0,0:0|0:0,0:0:0:0:
421,0,61331,5,10,0:1:0:0:
413,127,61493,1,8,0:1:0:0:
299,65,61655,1,8,0:0:0:0:
211,145,61818,5,8,3:1:0:0:
227,174,61899,1,0,3:0:0:0:
234,207,61980,1,0,3:0:0:0:
229,240,62061,1,0,3:0:0:0:
214,270,62142,1,8,3:1:0:0:
82,316,62304,5,8,0:0:0:0:
124,205,62466,1,8,0:0:0:0:
214,270,62629,5,2,0:0:0:0:
298,301,62953,1,0,0:0:0:0:
386,285,63277,1,0,0:0:0:0:
454,227,63601,1,0,0:0:0:0:
484,143,63926,1,0,0:0:0:0:
467,55,64250,1,0,0:0:0:0:
383,0,64574,5,2,0:0:0:0:
359,92,64899,1,0,0:0:0:0:
292,159,65223,1,0,0:0:0:0:
200,184,65547,1,0,0:0:0:0:
108,159,65872,1,0,0:0:0:0:
40,91,66196,1,0,0:0:0:0:
155,0,66520,6,0,P|158:35|172:114,1,99.0000030212403,2|0,0:0|0:0,0:0:0:0:
168,97,67007,1,0,0:0:0:0:
236,153,67169,2,0,P|233:188|219:267,1,99.0000030212403,2|0,0:0|0:0,0:0:0:0:
222,250,67656,1,0,0:0:0:0:
149,291,67818,2,0,P|111:283|84:282,1,53.9999983520508,2|0,0:0|0:0,0:0:0:0:
235,344,68142,2,0,P|273:336|300:335,1,53.9999983520508,2|0,0:0|0:0,0:0:0:0:
450,360,68466,6,0,B|447:392|471:391|481:385|490:360|466:327|435:306|429:337|408:358|301:258|316:151|392:75,1,405.000015449525,14|0,0:1|0:0,0:0:0:0:
493,5,69601,5,8,0:1:0:0:
493,5,69682,1,8,0:1:0:0:
493,5,69763,1,8,0:0:0:0:
463,165,69925,1,8,0:1:0:0:
318,0,70087,1,8,0:1:0:0:
270,234,70249,5,12,0:0:0:0:
390,76,70411,1,8,0:1:0:0:
504,287,70574,1,8,0:1:0:0:
325,384,70736,5,0,1:0:0:0:
339,353,70817,1,0,1:0:0:0:
336,320,70898,1,0,1:0:0:0:
318,292,70979,1,0,1:0:0:0:
288,276,71061,6,0,B|216:311|143:262|143:262|153:229|188:210,1,215.999993408203,14|8,0:1|0:0,0:0:0:0:
370,100,71547,2,0,B|442:135|515:86|515:86|505:53|476:38,1,215.999993408203,10|8,0:1|0:1,0:0:0:0:
215,0,72033,2,0,P|229:52|235:105,1,107.999996704102,10|0,0:0|0:0,0:0:0:0:
102,212,72358,5,10,0:1:0:0:
218,326,72520,2,0,B|247:350|279:336|279:336|262:315|225:316,1,107.999996704102,8|8,0:1|0:0,0:0:0:0:
116,189,72844,1,2,0:0:0:0:
61,350,73006,2,0,B|45:362|48:389|48:389|80:376|85:339,1,107.999996704102,2|8,0:0|0:1,0:0:0:0:
125,163,73331,2,0,B|119:105|77:82|77:82|74:126|106:138,1,161.999995056153,10|0,0:0|0:0,0:0:0:0:
185,215,73655,6,0,P|235:234|286:219,1,107.999996704102,10|0,0:1|0:0,0:0:0:0:
459,79,73979,2,0,P|407:92|375:135,1,107.999996704102,10|8,0:0|0:1,0:0:0:0:
319,351,74304,2,0,P|352:309|353:256,1,107.999996704102,2|8,0:0|0:1,0:0:0:0:
273,49,74628,2,0,P|270:101|300:145,1,107.999996704102,10|0,0:0|0:0,0:0:0:0:
488,266,74952,5,10,0:1:0:0:
408,204,75115,1,8,0:1:0:0:
319,351,75277,1,8,0:0:0:0:
308,152,75439,5,10,0:1:0:0:
308,152,75520,1,2,0:1:0:0:
308,152,75601,1,2,0:0:0:0:
405,303,75763,1,8,0:1:0:0:
463,118,75925,1,8,0:0:0:0:
66,63,76250,6,0,B|101:105|152:93|152:93|156:57|181:36,1,161.999995056153,12|0,0:1|0:0,0:0:0:0:
244,0,76574,2,0,P|217:45|222:98,1,107.999996704102,10|8,0:0|0:1,0:0:0:0:
385,220,76898,2,0,L|502:212,1,107.999996704102,2|8,0:0|0:1,0:0:0:0:
322,384,77223,5,10,0:0:0:0:
258,252,77385,1,2,0:0:0:0:
100,331,77547,6,0,L|207:323,1,107.999996704102,10|8,0:1|0:1,0:0:0:0:
82,351,77871,1,10,0:0:0:0:
258,252,78033,2,0,P|274:202|253:128,1,107.999996704102,10|0,0:1|0:0,0:0:0:0:
19,268,78358,2,0,P|2:216|12:164,1,107.999996704102,10|8,0:1|0:0,0:0:0:0:
95,11,78682,5,2,0:0:0:0:
257,130,78844,2,0,B|297:129|335:147|335:147|364:121|403:104,1,161.999995056153,10|0,0:1|0:0,0:0:0:0:
472,71,79169,2,0,B|504:90|524:83|524:83|510:59|480:60,1,107.999996704102,10|8,0:0|0:1,0:0:0:0:
355,234,79493,2,0,B|356:269|375:284|375:284|386:258|367:234,1,107.999996704102,2|8,0:0|0:1,0:0:0:0:
216,39,79817,5,10,0:0:0:0:
170,204,79979,1,8,0:1:0:0:
134,20,80142,5,10,0:0:0:0:
174,230,80304,1,8,0:1:0:0:
50,14,80466,5,10,0:0:0:0:
178,251,80628,1,8,0:1:0:0:
2,143,80790,6,0,B|39:134|39:134|65:145|65:145|105:136,1,107.999996704102,8|0,0:3|0:0,0:0:0:0:
183,115,81033,1,0,1:0:0:0:
170,85,81115,1,0,1:0:0:0:
174,53,81196,1,0,1:0:0:0:
191,26,81277,1,0,1:0:0:0:
219,10,81358,1,0,1:0:0:0:
251,9,81439,6,0,P|333:35|477:24,1,215.999993408203,14|8,0:1|0:0,0:0:0:0:
277,174,81925,2,0,P|173:145|66:154,1,215.999993408203,10|8,0:1|0:1,0:0:0:0:
261,373,82412,2,0,P|268:316|289:266,1,107.999996704102,10|0,0:0|0:0,0:0:0:0:
392,63,82736,5,10,0:1:0:0:
475,200,82898,2,0,B|480:218|504:227|504:227|503:192|473:171,1,107.999996704102,8|8,0:1|0:0,0:0:0:0:
385,36,83223,1,10,0:1:0:0:
282,167,83385,2,0,B|254:192|258:226|258:226|281:215|284:195,1,107.999996704102,2|8,0:0|0:1,0:0:0:0:
204,63,83709,2,0,P|146:11|68:22,1,161.999995056153,10|0,0:0|0:0,0:0:0:0:
10,72,84033,6,0,P|25:112|31:197,1,107.999996704102,10|0,0:1|0:0,0:0:0:0:
103,381,84358,2,0,P|120:330|125:276,1,107.999996704102,10|8,0:0|0:1,0:2:0:0:
204,63,84682,2,0,P|219:103|225:188,1,107.999996704102,2|8,0:0|0:1,0:0:0:0:
297,384,85006,2,0,P|314:333|319:279,1,107.999996704102,10|0,0:0|0:0,0:0:0:0:
388,68,85331,5,10,0:1:0:0:
419,171,85493,1,8,0:1:0:0:
487,26,85655,1,8,0:0:0:0:
309,0,85817,5,10,0:1:0:0:
309,0,85898,1,2,0:1:0:0:
309,0,85979,1,2,0:1:0:0:
405,88,86142,1,8,0:1:0:0:
248,193,86304,1,8,0:0:0:0:
458,358,86628,6,0,B|471:380|495:387|495:387|519:333|505:272|447:233,1,215.999993408203,14|8,0:1|0:0,0:0:0:0:
309,135,87115,1,10,0:1:0:0:
235,310,87277,2,0,P|287:296|347:294,1,107.999996704102,2|8,0:0|0:1,0:0:0:0:
167,232,87601,5,10,0:0:0:0:
316,142,87763,1,2,0:0:0:0:
316,142,87844,1,2,0:0:0:0:
316,142,87925,2,0,B|340:172|393:163|409:106|401:51|314:9,1,215.999993408203,10|8,0:1|0:0,0:0:0:0:
205,147,88412,5,10,0:1:0:0:
272,242,88574,2,0,B|289:278|322:279|322:279|324:262|299:247,1,107.999996704102,2|8,0:0|0:1,0:0:0:0:
194,122,88898,5,10,0:0:0:0:
71,301,89060,1,2,0:0:0:0:
71,301,89142,1,2,0:0:0:0:
71,301,89223,2,0,B|47:331|5:315|5:315|-21:282|-15:222|27:186,1,215.999993408203,10|8,0:1|0:0,0:0:0:0:
299,247,89709,2,0,B|323:277|365:261|365:261|391:228|385:168|342:132,1,215.999993408203,10|8,0:1|0:1,0:0:0:0:
194,14,90196,5,10,0:0:0:0:
169,173,90358,1,8,0:1:0:0:
101,54,90520,5,14,0:1:0:0:
163,267,90682,1,8,0:3:0:0:
163,267,90763,1,8,0:3:0:0:
163,267,90844,1,8,0:3:0:0:
271,84,91006,1,4,0:3:0:0:
271,84,91088,1,4,0:3:0:0:
271,84,91169,1,4,0:3:0:0:
331,230,91331,5,10,0:3:0:0:
401,329,91493,5,12,0:0:0:0:
511,353,91655,5,8,0:1:0:0:
323,209,91817,6,0,B|312:235|280:250|280:250|216:254|172:205,1,180,14|8,0:1|0:0,0:0:0:0:
95,125,92304,1,8,0:1:0:0:
249,109,92466,2,0,B|272:102|284:84|284:84|277:57|264:43,1,90,2|8,0:0|0:1,0:0:0:0:
80,147,92790,6,0,B|57:172|51:197|51:197|59:252|94:310,1,180,10|8,0:0|0:1,0:0:0:0:
196,380,93277,1,8,0:1:0:0:
296,339,93439,1,8,0:0:0:0:
393,384,93601,1,8,0:1:0:0:
510,320,93763,5,8,0:1:0:0:
510,320,93925,1,8,0:1:0:0:
412,239,94088,2,0,P|394:205|394:102,1,135,10|0,0:0|0:0,0:0:0:0:
419,32,94412,6,0,B|398:61|380:71|380:71|317:78|277:14,1,180,10|8,0:1|0:0,0:0:0:0:
209,88,94898,1,8,0:1:0:0:
326,163,95060,1,2,0:0:0:0:
326,163,95223,1,8,0:1:0:0:
207,263,95385,6,0,B|183:290|183:290|164:212|237:168,1,180,10|8,0:0|0:1,0:0:0:0:
365,77,95871,1,8,0:1:0:0:
406,166,96033,1,8,0:0:0:0:
498,200,96196,1,8,0:1:0:0:
364,62,96358,5,10,0:1:0:0:
277,140,96520,1,8,0:1:0:0:
187,64,96682,1,8,3:2:0:0:
171,47,96763,1,0,3:0:0:0:
152,36,96844,1,0,3:0:0:0:
130,31,96925,1,0,3:0:0:0:
106,31,97006,6,0,P|59:115|95:204,1,198.000006042481,14|8,0:1|0:0,0:0:0:0:
176,282,97493,1,8,0:1:0:0:
296,161,97655,2,0,B|268:151|241:168|241:168|217:160|202:130,1,99.0000030212403,2|8,0:0|0:1,0:0:0:0:
365,274,97979,6,0,B|349:343|392:380|436:386|436:386|491:340,1,198.000006042481,10|8,0:0|0:1,0:0:0:0:
512,246,98466,1,8,0:1:0:0:
446,172,98628,1,8,0:0:0:0:
472,76,98790,1,8,0:1:0:0:
323,15,98952,6,0,P|372:16|437:-3,1,99.0000030212403,10|8,0:1|0:1,0:0:0:0:
247,184,99277,2,0,P|296:183|344:194,1,99.0000030212403,10|0,0:0|0:0,0:0:0:0:
196,49,99601,5,10,0:1:0:0:
122,142,99763,1,8,0:1:0:0:
17,85,99925,1,8,0:0:0:0:
206,33,100088,5,10,0:1:0:0:
206,33,100169,1,2,0:0:0:0:
206,33,100250,1,2,0:0:0:0:
274,153,100412,1,8,0:1:0:0:
404,105,100574,1,8,0:0:0:0:
345,270,100736,5,10,0:1:0:0:
349,250,100817,1,10,0:1:0:0:
354,230,100898,1,10,0:0:0:0:
478,272,101060,1,8,0:3:0:0:
404,105,101223,1,4,0:3:0:0:
262,240,101385,5,8,0:0:0:0:
125,286,101547,1,4,0:3:0:0:
208,102,101709,1,8,0:3:0:0:
354,230,101871,5,2,0:0:0:0:
353,269,101952,5,2,0:0:0:0:
372,297,102033,5,2,0:0:0:0:
399,308,102115,5,2,0:0:0:0:
423,303,102196,6,0,B|445:285|448:267|448:267|448:229|421:164,1,135.000005149842,14|8,0:1|0:0,0:0:0:0:
346,64,102844,5,8,0:1:0:0:
318,133,103006,1,8,0:0:0:0:
225,51,103331,5,8,0:0:0:0:
219,38,103493,1,2,0:0:0:0:
211,26,103655,1,8,0:1:0:0:
199,18,103817,1,8,0:0:0:0:
78,67,104142,5,8,0:1:0:0:
119,128,104304,1,8,0:1:0:0:
65,179,104466,2,0,P|32:173|0:170,1,67.5000025749208,8|0,0:0|0:0,0:0:0:0:
103,243,104790,6,0,P|87:304|132:368,1,135.000005149842,10|8,0:1|0:0,0:0:0:0:
277,384,105439,5,8,0:1:0:0:
266,310,105601,1,8,0:0:0:0:
383,245,105925,5,8,0:0:0:0:
393,253,106088,1,2,0:0:0:0:
405,256,106250,1,8,0:1:0:0:
418,256,106412,1,8,0:0:0:0:
501,173,106736,5,8,0:1:0:0:
447,122,106898,1,8,0:1:0:0:
461,49,107060,1,8,0:0:0:0:
461,49,107385,6,0,B|447:77|423:82|423:82|416:37|372:13,1,135.000005149842,10|8,0:1|0:0,0:0:0:0:
256,0,108033,5,8,0:1:0:0:
274,71,108196,1,8,0:0:0:0:
255,209,108520,5,8,0:0:0:0:
252,194,108682,1,2,0:0:0:0:
247,181,108844,1,8,0:1:0:0:
238,170,109006,1,8,0:0:0:0:
172,85,109331,5,8,0:1:0:0:
127,144,109493,1,8,0:1:0:0:
64,101,109655,2,0,P|36:84|3:78,1,67.5000025749208,8|0,0:0|0:0,0:0:0:0:
57,175,109979,6,0,B|38:191|31:213|31:213|27:258|66:312,1,135.000005149842,10|8,0:1|0:0,0:0:0:0:
171,384,110628,5,8,0:1:0:0:
188,312,110790,1,8,0:0:0:0:
346,217,111115,5,8,0:0:0:0:
288,264,111277,1,2,0:0:0:0:
276,190,111439,1,8,0:1:0:0:
346,217,111601,1,8,0:0:0:0:
120,26,112574,6,0,P|79:30|39:32,1,80.9999975280763,14|0,0:1|0:0,0:0:0:0:
183,158,112898,2,0,P|142:153|102:151,1,80.9999975280763,10|0,0:0|0:0,0:0:0:0:
263,38,113223,5,10,0:1:0:0:
342,94,113385,1,8,0:1:0:0:
429,53,113547,1,8,0:0:0:0:
334,189,113709,5,2,0:0:0:0:
334,189,113790,1,2,0:0:0:0:
334,189,113871,2,0,P|322:230|320:274,1,80.9999975280763,10|8,0:1|0:1,0:0:0:0:
405,353,114196,2,0,P|446:342|485:322,1,80.9999975280763,10|8,0:0|0:1,0:0:0:0:
512,209,114520,2,0,P|482:178|445:154,1,80.9999975280763,2|8,0:0|0:1,0:0:0:0:
320,166,114844,5,10,0:0:0:0:
332,288,115006,1,2,0:0:0:0:
211,365,115169,6,0,B|163:344|120:373|120:373|80:365|63:331,1,161.999995056153,10|8,0:1|0:0,0:0:0:0:
201,231,115655,2,0,P|207:198|227:150,1,80.9999975280763,2|8,0:0|0:1,0:0:0:0:
102,77,115979,2,0,P|96:44|76:-4,1,80.9999975280763,10|8,0:1|0:0,0:0:0:0:
231,161,116304,5,2,0:0:0:0:
231,161,116385,1,2,0:0:0:0:
231,161,116466,2,0,P|294:179|329:174,1,80.9999975280763,10|8,0:1|0:1,0:0:0:0:
197,245,116790,1,10,0:0:0:0:
308,177,116952,2,0,P|345:162|385:160,1,80.9999975280763,10|0,0:1|0:0,0:0:0:0:
197,245,117277,2,0,P|156:242|119:227,1,80.9999975280763,10|8,0:1|0:0,0:0:0:0:
277,89,117601,5,2,0:0:0:0:
277,89,117682,1,2,0:0:0:0:
277,89,117763,2,0,P|287:41|313:3,1,80.9999975280763,14|0,0:1|0:0,0:0:0:0:
285,296,118088,2,0,P|274:343|249:382,1,80.9999975280763,10|0,0:0|0:0,0:0:0:0:
68,230,118412,5,10,0:1:0:0:
165,187,118574,1,8,0:1:0:0:
268,204,118736,1,8,0:0:0:0:
379,126,118898,5,2,0:0:0:0:
379,126,118979,1,2,0:0:0:0:
379,126,119060,2,0,P|392:87|390:43,1,80.9999975280763,10|8,0:1|0:1,0:0:0:0:
268,204,119385,2,0,P|295:234|334:255,1,80.9999975280763,10|8,0:0|0:1,0:0:0:0:
255,67,119709,2,0,P|214:75|177:98,1,80.9999975280763,2|8,0:0|0:1,0:0:0:0:
383,130,120033,5,10,0:0:0:0:
383,130,120196,1,2,0:0:0:0:
268,203,120358,6,0,P|298:129|254:67,1,161.999995056153,10|8,0:1|0:0,0:0:0:0:
140,0,120844,1,2,0:0:0:0:
139,0,121006,2,0,P|101:14|61:20,1,80.9999975280763,10|8,0:1|0:1,0:0:0:0:
255,67,121331,2,0,P|292:81|332:87,1,80.9999975280763,10|0,0:0|0:0,0:0:0:0:
139,272,121655,5,10,0:1:0:0:
118,195,121817,2,0,P|105:156|88:120,1,80.9999975280763,8|8,0:1|0:0,0:0:0:0:
229,352,122142,5,10,0:1:0:0:
251,275,122304,2,0,P|263:236|280:200,1,80.9999975280763,2|8,0:0|0:1,0:0:0:0:
399,66,122628,5,0,1:0:0:0:
392,105,122709,1,0,1:0:0:0:
412,139,122790,1,0,1:0:0:0:
449,152,122871,1,0,1:0:0:0:
486,137,122952,5,14,0:1:0:0:
347,236,123115,1,10,0:1:0:0:
488,336,123277,2,0,B|503:355|520:353|520:353|530:298|484:251,1,135.000005149842,8|0,0:0|0:0,0:0:0:0:
421,286,123763,2,0,P|406:316|408:349,1,67.5000025749208,8|8,0:1|0:0,0:0:0:0:
512,164,124250,5,10,0:1:0:0:
512,164,124412,1,8,0:1:0:0:
421,286,124574,1,8,0:0:0:0:
386,182,124736,1,10,0:1:0:0:
376,195,125060,5,10,0:1:0:0:
411,71,125223,1,8,0:0:0:0:
250,0,125547,5,10,0:1:0:0:
304,145,125709,1,10,0:1:0:0:
159,200,125871,2,0,P|86:176|27:172,1,135.000005149842,8|0,0:0|0:0,0:0:0:0:
105,261,126358,2,0,P|72:268|32:287,1,67.5000025749208,8|8,0:1|0:0,0:0:0:0:
242,384,126844,5,10,0:1:0:0:
217,283,127006,1,8,0:1:0:0:
313,214,127169,1,8,0:0:0:0:
338,315,127331,1,8,0:1:0:0:
342,324,127412,1,0,3:0:0:0:
433,358,127574,1,0,3:0:0:0:
439,366,127655,2,0,P|449:334|447:296,1,67.5000025749208,8|8,2:1|0:0,0:0:0:0:
395,92,128142,5,14,0:1:0:0:
313,214,128304,1,10,0:1:0:0:
205,98,128466,2,0,P|145:66|66:60,1,135.000005149842,8|0,0:0|0:0,0:0:0:0:
79,58,128952,1,8,0:1:0:0:
112,167,129115,1,8,0:0:0:0:
233,97,129277,6,0,P|247:66|271:31,1,67.5000025749208,2|8,0:0|0:1,0:0:0:0:
345,125,129601,2,0,P|377:117|420:115,1,67.5000025749208,10|8,0:1|0:0,0:0:0:0:
408,223,129925,2,0,P|439:271|453:352,1,135.000005149842,10|8,0:1|0:1,0:0:0:0:
297,384,130412,5,10,0:0:0:0:
289,362,130520,1,2,0:0:0:0:
275,343,130628,1,2,0:0:0:0:
257,328,130736,5,10,0:1:0:0:
128,384,130898,1,10,0:1:0:0:
55,265,131060,2,0,P|57:231|66:199,1,67.5000025749208,10|0,0:0|0:0,0:0:0:0:
245,261,131385,2,0,P|254:293|256:327,1,67.5000025749208,2|8,0:0|0:1,0:0:0:0:
43,272,131709,2,0,P|46:238|55:206,1,67.5000025749208,10|0,0:0|0:0,0:0:0:0:
164,68,132033,5,10,0:1:0:0:
229,178,132196,1,8,0:1:0:0:
280,38,132358,1,8,0:0:0:0:
356,170,132520,5,8,3:1:0:0:
342,200,132601,1,0,3:0:0:0:
338,233,132682,1,0,3:0:0:0:
346,266,132763,1,0,3:0:0:0:
363,294,132844,1,8,3:1:0:0:
488,349,133006,5,8,0:0:0:0:
461,197,133169,1,8,0:0:0:0:
363,294,133331,5,2,0:0:0:0:
289,345,133655,1,0,0:0:0:0:
200,353,133979,1,0,0:0:0:0:
120,314,134303,1,0,0:0:0:0:
69,241,134628,1,0,0:0:0:0:
62,151,134952,1,0,0:0:0:0:
134,49,135276,5,2,0:0:0:0:
180,131,135601,1,0,0:0:0:0:
263,179,135925,1,0,0:0:0:0:
358,179,136249,1,0,0:0:0:0:
440,131,136574,1,0,0:0:0:0:
488,48,136898,1,0,0:0:0:0:
337,0,137222,6,0,P|324:77|334:117,1,99.0000030212403,2|0,0:0|0:0,0:0:0:0:
327,96,137709,1,0,0:0:0:0:
358,179,137871,2,0,P|371:226|367:275,1,99.0000030212403,2|0,0:0|0:0,0:0:0:0:
366,275,138358,1,0,0:0:0:0:
295,338,138520,2,0,P|268:326|232:322,1,53.9999983520508,2|0,0:0|0:0,0:0:0:0:
394,380,138844,2,0,P|420:375|444:363,1,53.9999983520508,2|0,0:0|0:0,0:0:0:0:
256,242,139169,6,0,B|243:317|146:298|129:240|154:190|193:159|203:160|214:159|317:83|271:-35|126:-21|130:63|158:86,1,472.500018024445,14|0,0:1|0:0,0:0:0:0:
259,134,140466,5,2,3:2:0:0:
285,150,140574,1,2,3:2:0:0:
316,152,140682,1,2,3:2:0:0:
346,143,140790,2,0,L|386:117,3,33.7500012874604,10|0|0|0,3:2|3:0|3:0|3:0,0:0:0:0:
439,80,141114,5,0,1:0:0:0:
411,111,141196,1,0,1:0:0:0:
404,152,141277,1,0,1:0:0:0:
419,191,141358,1,0,1:0:0:0:
451,217,141439,1,0,1:0:0:0:
483,243,141520,1,0,1:0:0:0:
498,282,141601,1,0,1:0:0:0:
491,323,141682,1,0,1:0:0:0:
463,354,141763,6,0,B|354:302|373:409|259:356,1,215.999993408203,14|8,0:1|0:0,0:0:0:0:
148,192,142249,2,0,B|184:164|192:137|192:137|188:55|127:-9,1,215.999993408203,10|8,0:1|0:1,0:0:0:0:
11,169,142735,2,0,P|11:216|35:275,1,107.999996704102,10|0,0:0|0:0,0:0:0:0:
261,354,143060,5,10,0:1:0:0:
128,371,143222,2,0,B|119:381|91:383|91:383|101:353|139:336,1,107.999996704102,8|8,0:1|0:0,0:0:0:0:
289,268,143546,1,2,0:0:0:0:
417,334,143708,2,0,B|424:345|451:349|451:349|445:318|408:298,1,107.999996704102,2|8,0:0|0:1,0:0:0:0:
215,214,144033,2,0,B|203:243|175:252|175:252|178:199|237:168,1,161.999995056153,10|0,0:0|0:0,0:0:0:0:
308,135,144357,6,0,B|329:160|361:157|361:157|348:124|321:122,1,107.999996704102,10|0,0:1|0:0,0:0:0:0:
120,162,144681,2,0,B|88:154|64:175|64:175|94:194|117:180,1,107.999996704102,10|8,0:0|0:1,0:0:0:0:
256,29,145006,2,0,B|286:16|293:-14|293:-14|257:-12|247:12,1,107.999996704102,2|8,0:0|0:1,0:0:0:0:
226,221,145330,2,0,B|208:248|221:278|221:278|248:255|242:229,1,107.999996704102,10|0,0:0|0:0,0:0:0:0:
137,48,145654,5,10,0:1:0:0:
65,175,145817,1,8,0:1:0:0:
3,22,145979,1,8,0:0:0:0:
172,148,146141,5,10,0:1:0:0:
172,148,146222,1,2,0:1:0:0:
172,148,146303,1,2,0:0:0:0:
3,22,146465,1,8,0:1:0:0:
11,254,146627,1,8,0:0:0:0:
388,384,146952,6,0,B|407:363|413:346|413:346|407:282|370:223,1,161.999995056153,12|0,0:1|0:0,0:0:0:0:
304,211,147276,2,0,P|254:232|201:231,1,107.999996704102,10|8,0:0|0:1,0:0:0:0:
395,103,147600,2,0,P|444:81|497:82,1,107.999996704102,2|8,0:0|0:1,0:0:0:0:
299,0,147925,5,10,0:0:0:0:
241,152,148087,1,2,0:0:0:0:
84,99,148249,6,0,P|76:48|28:-19,1,107.999996704102,10|8,0:1|0:1,0:0:0:0:
72,121,148573,1,10,0:0:0:0:
241,152,148735,2,0,B|305:131|285:169|346:155,1,107.999996704102,10|0,0:1|0:0,0:0:0:0:
138,282,149060,2,0,B|74:261|94:299|33:285,1,107.999996704102,10|8,0:1|0:0,0:0:0:0:
261,376,149384,5,2,0:0:0:0:
368,261,149546,2,0,B|397:211|354:131|354:131|345:156,1,161.999995056153,10|0,0:1|0:0,0:0:0:0:
415,184,149871,2,0,B|443:209|471:197|471:197|457:176|431:174,1,107.999996704102,10|8,0:0|0:1,0:0:0:0:
203,98,150195,2,0,B|176:100|163:120|163:120|192:131|219:107,1,107.999996704102,2|8,0:0|0:1,0:0:0:0:
353,28,150519,5,10,0:0:0:0:
156,0,150681,1,8,0:1:0:0:
365,46,150844,5,10,0:0:0:0:
163,120,151006,1,8,0:1:0:0:
378,63,151168,5,10,0:0:0:0:
216,228,151330,1,8,0:1:0:0:
464,351,151492,6,0,B|457:319|457:319|464:285|464:285|449:231,1,107.999996704102,8|0,0:3|0:0,0:0:0:0:
393,193,151735,1,0,1:0:0:0:
382,225,151817,1,0,1:0:0:0:
356,248,151898,1,0,1:0:0:0:
324,259,151979,1,0,1:0:0:0:
290,252,152060,1,0,1:0:0:0:
263,232,152141,6,0,B|296:179|284:112|243:85|243:85|216:92|200:114,1,215.999993408203,14|8,0:1|0:0,0:0:0:0:
80,356,152627,2,0,B|64:378|37:385|37:385|-4:358|-16:291|17:238,1,215.999993408203,10|8,0:1|0:1,0:0:0:0:
228,337,153114,2,0,P|270:348|337:315,1,107.999996704102,10|0,0:0|0:0,0:0:0:0:
435,145,153438,5,10,0:1:0:0:
304,219,153600,2,0,B|296:241|275:246|275:246|276:211|305:189,1,107.999996704102,8|8,0:1|0:0,0:0:0:0:
415,52,153925,1,10,0:1:0:0:
488,212,154087,2,0,B|511:240|503:274|503:274|484:263|482:240,1,107.999996704102,2|8,0:0|0:1,0:0:0:0:
289,80,154411,2,0,B|254:80|232:103|232:103|278:125|329:97,1,161.999995056153,10|0,0:0|0:0,0:0:0:0:
209,80,154735,6,0,P|141:43|79:43,1,107.999996704102,10|0,0:1|0:0,0:0:0:0:
181,275,155060,2,0,P|129:291|76:287,1,107.999996704102,10|8,0:0|0:1,0:2:0:0:
306,97,155384,2,0,P|284:23|240:-20,1,107.999996704102,2|8,0:0|0:1,0:0:0:0:
280,284,155708,2,0,P|255:331|214:366,1,107.999996704102,10|0,0:0|0:0,0:0:0:0:
209,80,156033,5,10,0:1:0:0:
308,185,156195,1,8,0:1:0:0:
391,23,156357,1,8,0:0:0:0:
487,165,156519,5,10,0:1:0:0:
487,165,156600,1,2,0:1:0:0:
487,165,156681,1,2,0:1:0:0:
391,23,156844,1,8,0:1:0:0:
373,261,157006,1,8,0:0:0:0:
3,135,157330,6,0,B|130:88|72:195|204:158,1,215.999993408203,14|8,0:1|0:0,0:0:0:0:
300,66,157817,1,10,0:1:0:0:
222,233,157979,2,0,B|214:239|201:241|201:241|184:204|208:151,1,107.999996704102,2|8,0:0|0:1,0:0:0:0:
304,39,158303,5,10,0:0:0:0:
414,191,158465,1,2,0:0:0:0:
414,191,158546,1,2,0:0:0:0:
414,191,158627,2,0,B|432:247|496:246|496:246|523:188|478:147,1,215.999993408203,10|8,0:1|0:0,0:0:0:0:
287,60,159114,5,10,0:1:0:0:
326,268,159276,2,0,B|316:297|341:316|341:316|361:291|348:264,1,107.999996704102,2|8,0:0|0:1,0:0:0:0:
262,72,159600,5,10,0:0:0:0:
191,268,159762,1,2,0:0:0:0:
191,268,159844,1,2,0:0:0:0:
191,268,159925,2,0,B|164:321|101:313|101:313|80:253|128:217,1,215.999993408203,10|8,0:1|0:0,0:0:0:0:
407,202,160411,2,0,B|438:251|500:233|500:233|511:170|457:142,1,215.999993408203,10|8,0:1|0:1,0:0:0:0:
292,9,160898,5,10,0:0:0:0:
327,201,161060,1,8,0:1:0:0:
385,112,161222,5,14,0:1:0:0:
298,301,161384,1,8,0:3:0:0:
298,301,161465,1,8,0:3:0:0:
298,301,161546,1,8,0:3:0:0:
161,161,161708,1,4,0:3:0:0:
161,161,161790,1,4,0:3:0:0:
161,161,161871,1,4,0:3:0:0:
86,261,162033,5,10,0:3:0:0:
49,134,162195,5,12,0:0:0:0:
106,30,162357,5,8,0:1:0:0:
197,2,162519,5,14,0:1:0:0:
197,2,162681,2,0,P|191:35|190:83,1,72,2|8,3:0|0:2,0:0:0:0:
288,89,163006,2,0,P|290:53|296:17,1,72,2|8,3:2|0:1,0:0:0:0:
408,34,163330,2,0,P|402:70|401:106,1,72,10|0,0:1|3:2,0:0:0:0:
474,205,163654,5,10,0:0:0:0:
474,205,163979,5,10,0:1:0:0:
424,296,164141,1,8,0:0:0:0:
340,250,164303,1,2,3:2:0:0:
340,250,164384,1,0,3:0:0:0:
340,250,164465,2,0,P|346:211|344:167,1,72,8|8,0:1|0:1,0:0:0:0:
208,219,164790,2,0,P|202:258|204:302,1,72,10|0,0:0|3:0,0:0:0:0:
274,365,165114,5,10,0:1:0:0:
274,365,165276,2,0,L|359:355,1,72,2|8,0:0|0:0,0:0:0:0:
202,290,165600,2,0,L|117:280,1,72,2|8,3:2|0:1,0:0:0:0:
340,250,165925,2,0,L|425:240,1,72,10|0,0:1|3:0,0:0:0:0:
256,128,166249,5,10,0:0:0:0:
256,128,166573,5,10,0:1:0:0:
166,187,166735,1,8,0:0:0:0:
101,99,166898,1,2,3:2:0:0:
101,99,166979,1,0,3:0:0:0:
101,99,167060,2,0,B|113:65|113:65|99:30,1,72,8|8,0:1|0:1,0:0:0:0:
18,162,167384,2,0,B|6:196|6:196|19:230,1,72,14|8,0:0|0:1,0:0:0:0:
102,312,167708,5,14,0:1:0:0:
102,312,167871,2,0,P|144:301|201:296,1,72,2|8,3:2|0:0,0:0:0:0:
242,366,168195,2,0,P|276:375|312:380,1,72,2|8,3:2|0:1,0:0:0:0:
344,268,168519,2,0,P|377:254|411:244,1,72,10|0,0:1|3:0,0:0:0:0:
512,328,168844,5,10,0:0:0:0:
512,328,169168,5,10,0:1:0:0:
412,244,169330,1,8,0:0:0:0:
502,151,169492,1,2,3:0:0:0:
502,151,169573,1,0,3:0:0:0:
502,151,169654,2,0,P|511:121|508:78,1,72,8|8,0:1|0:1,0:0:0:0:
398,0,169979,2,0,P|400:35|391:70,1,72,10|0,0:0|3:0,0:0:0:0:
288,144,170303,5,10,0:1:0:0:
288,144,170465,2,0,L|213:146,1,72,2|8,3:2|0:0,0:0:0:0:
334,239,170790,2,0,L|409:241,1,72,2|8,3:2|0:1,0:0:0:0:
279,324,171114,2,0,L|204:326,1,72,10|0,0:1|3:0,0:0:0:0:
138,221,171438,6,0,P|142:183|115:139,1,72,10|8,0:0|0:1,0:0:0:0:
121,145,171681,1,8,0:0:0:0:
112,138,171762,1,8,0:1:0:0:
31,74,171925,1,8,0:0:0:0:
0,211,172087,5,10,0:2:0:0:
0,211,172168,1,8,0:2:0:0:
0,211,172249,2,0,P|-4:249|23:293,1,72,8|8,0:1|0:0,0:0:0:0:
133,360,172573,5,0,1:0:0:0:
148,324,172654,1,0,1:0:0:0:
178,301,172735,1,0,1:0:0:0:
216,296,172817,1,0,1:0:0:0:
252,313,172898,6,2,B|289:363|289:363|466:324,1,215.999993408203,14|8,0:1|0:0,0:1:0:0:
334,179,173384,2,2,B|368:145|368:145|317:18,1,161.999995056153,10|0,0:1|0:0,0:1:0:0:
249,0,173708,5,10,0:1:0:0:
220,128,173871,1,10,0:0:0:0:
191,256,174033,1,2,0:0:0:0:
58,353,174195,5,10,0:1:0:0:
58,353,174357,2,2,B|13:365|13:365|61:321,1,107.999996704102,10|8,0:1|0:0,0:1:0:0:
191,256,174681,1,10,0:1:0:0:
299,350,174844,2,2,B|344:362|344:362|296:318,1,107.999996704102,2|8,0:0|0:1,0:1:0:0:
108,219,175168,2,2,B|63:231|63:231|108:189,1,107.999996704102,10|0,0:0|0:0,0:1:0:0:
287,83,175492,5,10,0:1:0:0:
351,176,175654,2,2,B|367:209|367:209|393:218|393:218|385:190|385:190|367:183,1,107.999996704102,2|8,0:0|0:0,0:1:0:0:
171,50,175979,2,2,B|140:98|140:98|99:106|99:106|116:69|116:69|146:62,1,161.999995056153,10|0,0:1|0:0,0:1:0:0:
231,0,176303,5,10,0:1:0:0:
320,72,176465,1,10,0:0:0:0:
409,145,176627,1,2,0:0:0:0:
307,284,176790,5,10,0:1:0:0:
413,355,176952,1,10,0:1:0:0:
413,355,177033,1,8,0:1:0:0:
413,355,177114,2,0,B|453:368|453:368|514:313,1,107.999996704102,8|8,0:0|0:1,0:0:0:0:
318,59,177438,6,2,L|294:77,1,26.9999991760254,2|0,0:0|0:0,0:1:0:0:
294,193,177600,2,2,L|321:203,1,26.9999991760254,10|0,0:1|0:0,0:1:0:0:
424,145,177762,2,2,L|418:115,1,26.9999991760254,10|0,0:0|0:0,0:1:0:0:
502,324,178087,6,2,B|429:312|429:312|385:347|385:347|300:331,1,215.999993408203,14|8,0:1|0:0,0:1:0:0:
93,186,178573,2,2,B|166:174|166:174|210:209|210:209|294:193,1,215.999993408203,10|8,0:1|0:1,0:1:0:0:
135,349,179060,5,10,0:0:0:0:
135,349,179222,2,0,B|97:362|97:362|137:298,1,107.999996704102,2|8,0:0|0:1,0:0:0:0:
295,193,179546,5,8,0:1:0:0:
382,253,179708,2,0,B|420:266|420:266|380:202,1,107.999996704102,10|8,0:0|0:1,0:0:0:0:
249,86,180033,5,2,0:0:0:0:
181,229,180195,1,10,0:1:0:0:
37,162,180357,1,8,0:0:0:0:
105,18,180519,1,10,0:1:0:0:
105,18,180600,1,8,0:1:0:0:
105,18,180681,1,8,0:1:0:0:
276,174,180844,5,2,0:0:0:0:
78,244,181006,1,10,0:0:0:0:
235,380,181168,1,10,0:1:0:0:
274,152,181330,5,2,0:0:0:0:
332,340,181492,1,8,0:1:0:0:
273,130,181654,5,10,0:0:0:0:
166,311,181817,1,8,0:1:0:0:
272,108,181979,5,10,0:0:0:0:
338,360,182141,1,8,0:1:0:0:
270,86,182303,5,10,0:0:0:0:
155,329,182465,1,8,0:1:0:0:
417,186,182627,6,0,B|431:151|431:151|406:85,1,107.999996704102,10|0,0:1|0:0,0:0:0:0:
358,27,182871,1,0,1:0:0:0:
338,58,182952,1,0,1:0:0:0:
308,80,183033,1,0,1:0:0:0:
270,86,183114,1,0,1:0:0:0:
234,76,183195,1,0,1:0:0:0:
205,51,183276,6,0,P|139:10|36:42,1,175.499991966248,14|0,0:1|0:0,0:1:0:0:
0,92,183600,5,10,0:0:0:0:
173,188,183762,1,10,0:1:0:0:
3,289,183925,1,2,0:0:0:0:
239,384,184087,5,10,0:1:0:0:
239,384,184168,1,8,0:1:0:0:
239,384,184249,2,0,B|246:345|246:345|238:325|238:325|247:264,1,116.999994644165,8|0,0:0|0:0,0:0:0:0:
355,56,184573,5,10,0:1:0:0:
506,226,184735,1,10,0:1:0:0:
475,0,184898,1,10,0:0:0:0:
385,199,185060,1,10,0:1:0:0:
385,199,185141,1,2,0:2:0:0:
385,199,185222,1,2,0:2:0:0:
239,55,185384,5,10,0:1:0:0:
460,135,185546,1,10,0:0:0:0:
246,227,185708,1,2,0:0:0:0:
392,356,185871,6,2,B|414:381|414:381|436:267|436:267|386:200,1,233.999989288331,10|8,0:1|0:0,0:1:0:0:
239,55,186357,2,0,B|201:96|201:96|66:63,1,175.499991966248,10|0,0:1|0:0,0:1:0:0:
6,50,186681,5,10,0:1:0:0:
127,159,186844,1,10,0:0:0:0:
50,307,187006,1,2,0:0:0:0:
50,307,187087,1,2,0:0:0:0:
50,307,187168,1,8,0:1:0:0:
137,145,187330,5,10,0:1:0:0:
197,367,187492,1,10,0:0:0:0:
337,234,187654,1,10,0:1:0:0:
337,234,187735,1,2,0:1:0:0:
337,234,187817,2,0,B|360:203|360:203|323:108,1,116.999994644165,2|8,0:0|0:1,0:0:0:0:
142,40,188141,2,0,B|113:113|113:113|136:144,1,116.999994644165,10|0,0:0|0:0,0:0:0:0:
395,311,188465,6,2,B|426:346|426:346|484:247|484:247|433:171,1,251.999992309571,14|8,0:1|0:0,0:1:0:0:
282,35,188952,1,10,0:1:0:0:
282,35,189033,1,2,0:2:0:0:
282,35,189114,2,2,B|277:48|277:48|154:26,1,125.999996154785,2|8,0:2|0:1,0:1:0:0:
318,177,189438,2,2,B|323:190|323:190|446:168,1,125.999996154785,10|0,0:0|0:0,0:1:0:0:
149,317,189762,5,10,0:1:0:0:
229,384,189925,2,2,B|251:326|251:326|224:248,1,125.999996154785,10|8,0:1|0:0,0:1:0:0:
112,133,190249,1,10,0:1:0:0:
112,133,190330,1,2,0:1:0:0:
112,133,190411,2,2,B|94:170|94:170|64:180|64:180|73:148|73:148|94:140,1,125.999996154785,2|8,0:1|0:1,0:1:0:0:
314,201,190735,2,2,B|332:238|332:238|362:248|362:248|353:216|353:216|332:208,1,125.999996154785,10|0,0:0|0:0,0:1:0:0:
241,16,191060,5,14,0:1:0:0:
85,169,191222,2,2,B|67:207|67:207|31:214|31:214|41:185|41:185|66:177,1,135.000005149842,10|8,0:1|0:0,0:1:0:0:
322,320,191546,2,2,B|340:358|340:358|376:365|376:365|366:336|366:336|341:328,1,135.000005149842,10|8,0:1|0:0,0:1:0:0:
229,143,191871,5,10,0:1:0:0:
76,329,192033,1,10,0:0:0:0:
163,62,192195,1,10,0:1:0:0:
320,191,192357,5,2,3:1:0:0:
339,199,192438,1,0,3:0:0:0:
359,206,192519,1,0,3:0:0:0:
379,210,192600,1,0,3:0:0:0:
401,208,192681,1,2,3:2:0:0:
423,205,192762,1,0,3:0:0:0:
443,198,192844,1,0,3:0:0:0:
462,188,192925,1,0,3:0:0:0:
479,175,193006,5,2,1:2:0:0:
443,134,193087,1,0,1:0:0:0:
394,113,193168,1,0,1:0:0:0:
342,115,193249,1,0,1:0:0:0:
295,138,193330,1,2,1:0:0:0:
263,181,193411,1,0,1:0:0:0:
252,232,193492,1,0,1:0:0:0:
264,284,193573,1,0,1:0:0:0:
298,326,193654,6,0,L|345:316,1,36,10|0,0:1|0:0,0:0:0:0:
414,361,193979,2,0,L|404:314,1,36,10|0,0:1|0:0,0:0:0:0:
449,245,194303,2,2,L|402:255,1,36,10|0,0:1|0:0,0:1:0:0:
333,210,194627,2,0,L|343:257,1,36,10|0,0:1|0:0,0:0:0:0:
241,141,194952,5,10,0:1:0:0:
241,141,195114,2,0,L|275:115,1,36,2|8,0:0|0:1,0:0:0:0:
193,73,195438,1,2,0:0:0:0:
193,73,195600,2,0,L|187:30,1,36,10|0,0:1|0:0,0:0:0:0:
110,80,195925,2,0,L|69:63,1,36,10|0,0:1|0:0,0:0:0:0:
74,184,196249,5,8,0:1:0:0:
74,184,196411,1,0,0:0:0:0:
34,252,196573,2,0,L|-9:264,1,36,10|0,0:1|0:0,0:0:0:0:
85,310,196898,2,0,L|128:322,1,36,10|0,0:1|0:0,0:0:0:0:
126,328,197141,1,0,0:0:0:0:
134,336,197222,2,0,L|177:348,1,36,10|0,0:1|0:0,0:0:0:0:
278,380,197546,6,0,L|285:296,1,72,10|8,0:1|0:1,0:0:0:0:
319,207,198033,1,2,0:0:0:0:
419,252,198195,2,0,L|415:207,1,36,10|0,0:1|0:0,0:0:0:0:
407,206,198438,1,0,0:0:0:0:
401,194,198519,2,0,L|397:149,1,36,10|0,0:1|0:0,0:0:0:0:
329,76,198844,6,0,L|283:67,1,36,10|0,0:1|0:0,0:0:0:0:
400,51,199168,2,0,L|430:15,1,36,10|0,0:1|0:0,0:0:0:0:
386,124,199492,2,0,L|401:168,1,36,10|0,0:1|0:0,0:0:0:0:
425,230,199817,1,10,0:1:0:0:
425,230,199979,1,0,0:0:0:0:
354,297,200141,6,0,L|308:289,1,36,10|0,0:1|0:0,0:0:0:0:
244,298,200465,1,10,0:1:0:0:
226,226,200627,2,0,L|219:182,1,36,2|8,0:0|0:1,0:0:0:0:
169,276,200952,2,0,L|163:311,1,36,2|8,0:0|0:1,0:0:0:0:
116,371,201276,1,2,0:0:0:0:
48,313,201438,6,0,L|35:239,1,72,10|8,0:1|0:1,0:0:0:0:
75,164,201925,1,2,0:0:0:0:
159,202,202087,2,0,L|167:150,1,36,10|0,0:1|0:0,0:0:0:0:
75,164,202411,2,0,L|66:112,1,36,10|0,0:1|0:0,0:0:0:0:
130,11,202735,5,10,0:1:0:0:
256,128,202898,5,10,0:0:0:0:
353,54,203060,2,0,B|366:36|364:13|364:13|346:18|345:38,1,67.5000025749208,10|0,0:1|0:0,0:0:0:0:
249,145,203384,5,10,0:0:0:0:
422,218,203546,1,10,0:0:0:0:
353,54,203708,1,10,0:1:0:0:
310,266,203871,1,10,0:0:0:0:
260,156,204195,5,8,2:1:0:0:
260,156,204249,1,8,2:1:0:0:
260,156,204303,1,8,2:1:0:0:
260,156,204357,2,0,L|249:23,1,116.999994644165,14|0,0:2|0:0,0:0:0:0:
58,225,204681,6,0,P|50:282|75:337,1,116.999994644165,10|8,0:1|0:1,0:0:0:0:
461,193,205006,2,0,P|468:135|443:80,1,116.999994644165,10|0,0:0|0:0,0:0:0:0:
247,17,205330,5,10,0:1:0:0:
94,156,205492,2,0,B|87:174|60:180|60:180|57:144|96:116,1,116.999994644165,8|8,0:1|0:0,0:0:0:0:
242,0,205817,1,2,0:0:0:0:
378,153,205979,2,0,B|389:174|411:177|411:177|414:141|377:116,1,116.999994644165,2|8,0:0|0:1,0:0:0:0:
208,231,206303,2,0,B|200:266|161:276|161:276|159:218|218:189,1,175.499991966248,10|0,0:0|0:0,0:0:0:0:
307,206,206627,6,0,P|364:210|411:178,1,116.999994644165,10|0,0:1|0:0,0:0:0:0:
140,259,206952,2,0,P|90:288|71:342,1,116.999994644165,10|8,0:0|0:1,0:0:0:0:
243,117,207276,2,0,P|265:63|249:8,1,116.999994644165,2|8,0:0|0:1,0:0:0:0:
244,287,207600,2,0,P|257:342|302:378,1,116.999994644165,10|0,0:0|0:0,0:0:0:0:
143,150,207925,5,10,0:1:0:0:
34,106,208087,1,8,0:1:0:0:
140,259,208249,1,8,0:0:0:0:
251,124,208411,5,10,0:1:0:0:
251,124,208492,1,2,0:0:0:0:
251,124,208573,1,2,0:0:0:0:
38,220,208735,1,8,0:1:0:0:
142,0,208898,1,8,0:0:0:0:
440,289,209222,6,0,B|448:305|465:316|465:316|490:237|417:180,1,175.499991966248,14|0,0:1|0:0,0:0:0:0:
366,142,209546,2,0,P|314:136|248:123,1,116.999994644165,10|8,0:0|0:1,0:0:0:0:
130,377,209871,2,0,P|187:365|245:358,1,116.999994644165,2|8,0:0|0:1,0:0:0:0:
85,158,210195,5,10,0:0:0:0:
0,288,210357,1,2,0:0:0:0:
102,140,210519,6,0,P|116:83|112:22,1,116.999994644165,10|8,0:1|0:1,0:0:0:0:
85,158,210844,1,10,0:0:0:0:
289,227,211006,2,0,B|308:223|323:207|323:207|283:188|251:213,1,116.999994644165,10|0,0:1|0:0,0:0:0:0:
35,308,211330,2,0,B|15:304|0:288|0:288|40:269|72:294,1,116.999994644165,10|8,0:1|0:0,0:0:0:0:
305,383,211654,5,2,0:0:0:0:
406,281,211817,2,0,B|417:262|424:232|424:232|422:164|392:109,1,175.499991966248,10|0,0:1|0:0,0:0:0:0:
323,79,212141,2,0,B|291:107|261:101|261:101|274:75|298:72,1,116.999994644165,10|8,0:0|0:1,0:0:0:0:
468,229,212465,2,0,B|491:264|522:266|522:266|516:237|493:228,1,116.999994644165,2|8,0:0|0:1,0:0:0:0:
323,79,212790,5,10,0:0:0:0:
239,282,212952,1,8,0:1:0:0:
214,66,213114,5,10,0:0:0:0:
243,308,213276,1,8,0:1:0:0:
111,69,213438,5,10,0:0:0:0:
247,329,213600,1,8,0:1:0:0:
0,216,213762,6,0,B|70:193|47:237|116:217,1,116.999994644165,8|0,0:3|0:0,0:0:0:0:
169,167,214006,1,0,1:0:0:0:
149,132,214087,1,0,1:0:0:0:
150,95,214168,1,0,1:0:0:0:
166,61,214249,1,0,1:0:0:0:
197,40,214330,1,0,1:0:0:0:
234,34,214411,6,0,B|277:90|350:71|350:71|378:17|436:2,1,233.999989288331,14|8,0:1|0:0,0:0:0:0:
228,176,214898,2,0,B|185:232|111:213|111:213|84:159|36:147,1,233.999989288331,10|8,0:1|0:1,0:0:0:0:
266,379,215384,2,0,B|248:359|243:344|243:344|245:311|264:272,1,116.999994644165,10|0,0:0|0:0,0:0:0:0:
379,103,215708,5,10,0:1:0:0:
471,227,215871,2,0,B|477:248|503:260|503:260|504:220|469:198,1,116.999994644165,8|8,0:1|0:0,0:0:0:0:
372,80,216195,1,10,0:1:0:0:
273,244,216357,2,0,B|242:263|243:303|243:303|269:291|275:270,1,116.999994644165,2|8,0:0|0:1,0:0:0:0:
373,56,216681,2,0,B|383:91|414:102|414:102|419:42|370:5,1,175.499991966248,10|0,0:0|0:0,0:0:0:0:
299,31,217006,6,0,B|280:38|267:53|267:53|258:88|276:128,1,116.999994644165,10|0,0:1|0:0,0:0:0:0:
473,272,217330,2,0,B|489:283|497:301|497:301|496:339|467:371,1,116.999994644165,10|8,0:0|0:1,0:0:0:0:
252,342,217654,2,0,B|233:302|242:266|242:266|255:251|274:244,1,116.999994644165,2|8,0:0|0:1,0:0:0:0:
485,153,217979,2,0,B|514:120|515:83|515:83|507:65|490:53,1,116.999994644165,10|0,0:0|0:0,0:0:0:0:
299,31,218303,5,10,0:1:0:0:
375,207,218465,1,8,0:1:0:0:
490,53,218627,1,8,0:0:0:0:
481,279,218790,5,10,0:1:0:0:
481,279,218871,1,2,0:1:0:0:
481,279,218952,1,2,0:1:0:0:
377,93,219114,1,8,0:1:0:0:
298,338,219276,1,8,0:0:0:0:
149,24,219600,6,0,B|170:85|149:151|85:184|85:184|69:130,1,233.999989288331,14|8,0:1|0:0,0:0:0:0:
161,4,220087,1,10,0:1:0:0:
247,188,220249,2,0,B|258:241|301:248|301:248|302:231|292:220,1,116.999994644165,2|8,0:0|0:1,0:0:0:0:
173,23,220573,5,10,0:0:0:0:
120,253,220735,1,2,0:0:0:0:
120,253,220817,1,2,0:0:0:0:
120,253,220898,2,0,B|104:281|78:291|78:291|36:272|10:188|83:130,1,233.999989288331,10|8,0:1|0:0,0:0:0:0:
187,41,221384,5,10,0:1:0:0:
245,255,221546,2,0,B|250:296|219:316|219:316|208:292|225:272,1,116.999994644165,2|8,0:0|0:1,0:0:0:0:
200,59,221871,5,10,0:0:0:0:
357,249,222033,1,2,0:0:0:0:
357,249,222114,1,2,0:0:0:0:
357,249,222195,2,0,B|378:272|406:275|406:275|442:245|446:157|360:121,1,233.999989288331,10|8,0:1|0:0,0:0:0:0:
89,261,222681,2,0,B|67:284|39:287|39:287|3:257|0:169|85:133,1,233.999989288331,10|8,0:1|0:1,0:0:0:0:
283,0,223168,5,10,0:0:0:0:
308,174,223330,1,8,0:1:0:0:
400,0,223492,5,14,0:1:0:0:
315,182,223654,1,8,0:3:0:0:
315,182,223735,1,8,0:3:0:0:
315,182,223817,1,8,0:3:0:0:
170,29,223979,1,4,0:3:0:0:
170,29,224060,1,4,0:3:0:0:
170,29,224141,1,4,0:3:0:0:
72,139,224303,5,10,0:3:0:0:
63,267,224465,5,12,0:0:0:0:
99,381,224627,5,8,0:1:0:0:
313,339,224790,6,0,B|336:326|352:298|352:298|353:226|310:159,1,198.000006042481,14|8,0:1|0:0,0:0:0:0:
250,52,225276,1,8,0:1:0:0:
126,155,225438,2,0,B|120:175|99:178|99:178|99:142|126:125,1,99.0000030212403,2|8,0:0|0:1,0:0:0:0:
257,33,225762,6,0,B|289:83|340:73|340:73|380:28|437:27,1,198.000006042481,10|8,0:0|0:1,0:0:0:0:
313,164,226249,1,8,0:1:0:0:
421,159,226411,1,8,0:0:0:0:
493,239,226573,1,8,0:1:0:0:
445,363,226735,5,8,0:1:0:0:
445,363,226898,1,8,0:1:0:0:
311,299,227060,2,0,B|289:271|285:262|285:262|283:218|315:158,1,148.50000453186,10|0,0:0|0:0,0:0:0:0:
383,131,227384,6,0,B|399:149|420:160|420:160|464:126|464:62|420:29,1,198.000006042481,10|8,0:1|0:0,0:0:0:0:
313,0,227871,1,8,0:1:0:0:
383,131,228033,1,2,0:0:0:0:
292,172,228195,1,8,0:1:0:0:
169,77,228357,6,0,B|218:115|274:93|274:93|270:76|257:54,1,148.50000453186,10|0,0:0|0:0,0:0:0:0:
209,2,228681,1,10,0:1:0:0:
153,95,228844,1,8,0:1:0:0:
214,184,229006,1,8,0:0:0:0:
156,276,229168,1,8,0:1:0:0:
244,384,229330,5,10,0:1:0:0:
244,384,229492,1,8,0:1:0:0:
153,252,229654,5,10,3:2:0:0:
139,285,229735,1,0,3:0:0:0:
110,308,229817,1,0,3:0:0:0:
74,310,229898,1,0,3:0:0:0:
41,290,229979,6,0,B|19:274|6:247|6:247|8:169|52:107,1,198.000006042481,14|8,0:1|0:0,0:0:0:0:
139,17,230465,1,8,0:1:0:0:
241,163,230627,2,0,B|249:175|268:179|268:179|267:142|236:121,1,99.0000030212403,2|8,0:0|0:1,0:0:0:0:
30,113,230952,6,0,B|-9:168|-11:246|-11:246|1:274|23:289,1,198.000006042481,10|8,0:0|0:1,0:0:0:0:
130,363,231438,1,8,0:1:0:0:
233,328,231600,1,8,0:0:0:0:
332,371,231762,1,8,0:1:0:0:
435,317,231925,6,0,P|447:269|434:221,1,99.0000030212403,2|8,0:0|0:1,0:0:0:0:
233,328,232249,2,0,P|212:263|240:191,1,148.50000453186,10|0,0:0|0:0,0:0:0:0:
305,141,232573,6,0,L|426:94,1,99.0000030212403,10|0,0:1|0:0,0:0:0:0:
136,36,232898,2,0,L|257:-11,1,99.0000030212403,10|8,0:0|0:1,0:0:0:0:
133,150,233222,5,2,0:0:0:0:
33,72,233384,1,8,0:1:0:0:
38,231,233546,1,8,0:0:0:0:
178,319,233708,5,8,0:1:0:0:
184,300,233790,1,8,0:1:0:0:
191,281,233871,1,8,0:0:0:0:
133,150,234033,1,8,0:3:0:0:
72,327,234195,1,4,0:3:0:0:
275,338,234357,5,8,0:0:0:0:
333,207,234519,1,4,0:3:0:0:
394,384,234681,1,8,0:3:0:0:
483,305,234844,5,12,3:2:0:0:
498,271,234925,1,0,3:0:0:0:
503,235,235006,1,0,3:0:0:0:
496,198,235087,1,0,3:0:0:0:
478,165,235168,6,0,B|457:192|414:207|414:207|343:195|290:149,1,215.999993408203,14|8,0:1|0:0,0:0:0:0:
213,39,235654,1,8,0:1:0:0:
378,99,235817,2,0,B|408:101|428:85|428:85|430:59|411:35,1,107.999996704102,2|8,0:0|0:1,0:0:0:0:
199,129,236141,2,0,B|178:145|166:178|166:178|175:232|207:271,1,161.999995056153,10|0,0:0|0:0,0:0:0:0:
262,328,236465,5,10,0:1:0:0:
373,240,236627,1,8,0:1:0:0:
373,240,236708,1,8,0:1:0:0:
373,240,236790,1,8,0:0:0:0:
477,384,236952,2,0,P|491:326|468:274,1,107.999996704102,10|0,0:1|0:0,0:0:0:0:
347,130,237276,5,8,0:1:0:0:
249,204,237438,1,10,3:2:0:0:
213,221,237519,1,0,3:0:0:0:
173,219,237600,1,0,3:0:0:0:
139,197,237681,1,0,3:0:0:0:
121,161,237762,6,0,B|180:85|115:13|115:13|85:29|88:63,1,215.999993408203,10|8,0:1|0:0,0:0:0:0:
187,111,238249,1,8,0:1:0:0:
267,43,238411,1,2,0:0:0:0:
373,53,238573,1,8,0:1:0:0:
440,135,238735,2,0,B|455:158|488:161|488:161|497:101|442:46,1,161.999995056153,10|0,0:0|0:0,0:0:0:0:
385,31,239060,5,10,0:1:0:0:
308,135,239222,1,8,0:1:0:0:
398,227,239384,1,8,0:0:0:0:
314,326,239546,1,8,0:1:0:0:
457,382,239708,5,8,0:1:0:0:
457,382,239871,1,8,0:1:0:0:
399,208,240033,5,10,3:2:0:0:
376,241,240114,1,0,3:0:0:0:
340,258,240195,1,0,3:0:0:0:
300,254,240276,1,0,3:0:0:0:
268,230,240357,6,0,B|219:127|306:136|258:19,1,215.999993408203,14|8,0:1|0:0,0:0:0:0:
162,122,240844,1,8,0:1:0:0:
339,171,241006,2,0,B|356:184|398:184|398:184|384:164|359:161,1,107.999996704102,2|8,0:0|0:1,0:0:0:0:
154,268,241330,6,0,B|131:300|81:305|81:305|106:243|181:224,1,215.999993408203,10|8,0:0|0:1,0:0:0:0:
339,171,241817,1,8,0:1:0:0:
271,304,241979,1,8,0:0:0:0:
246,112,242141,1,8,0:1:0:0:
373,27,242303,5,10,0:1:0:0:
373,27,242465,1,8,0:1:0:0:
493,189,242627,5,10,3:2:0:0:
509,153,242708,1,0,3:2:0:0:
512,115,242790,1,0,3:2:0:0:
502,77,242871,1,0,3:2:0:0:
480,46,242952,6,0,L|350:23,1,107.999996704102,14|0,0:1|0:0,0:0:0:0:
193,207,243276,5,10,0:2:0:0:
344,299,243438,2,0,L|474:276,1,107.999996704102,10|0,0:1|0:0,0:0:0:0:
257,121,243762,5,10,0:1:0:0:
215,368,243925,1,10,0:0:0:0:
50,275,244087,5,2,0:0:0:0:
50,275,244168,1,2,0:0:0:0:
50,275,244249,1,10,0:1:0:0:
293,215,244411,1,10,0:1:0:0:
56,112,244573,1,10,0:0:0:0:
189,26,244735,5,10,0:1:0:0:
189,26,244817,1,2,0:2:0:0:
189,26,244898,1,2,0:2:0:0:
167,278,245060,1,8,0:1:0:0:
319,197,245222,5,2,1:2:0:0:
336,170,245303,1,0,1:0:0:0:
341,139,245384,1,0,1:0:0:0:
334,109,245465,1,0,1:0:0:0:
316,84,245546,5,14,0:0:0:0:
363,267,245708,1,8,0:1:0:0:
239,73,245871,5,10,0:0:0:0:
289,291,246033,1,8,0:1:0:0:
162,62,246195,5,10,0:0:0:0:
215,315,246357,1,8,0:1:0:0:
85,51,246519,5,10,0:0:0:0:
141,339,246681,1,8,0:1:0:0:
8,40,246844,5,14,0:0:0:0:
20,227,247006,5,8,0:3:0:0:
20,227,247087,1,8,0:3:0:0:
20,227,247168,1,8,0:3:0:0:
157,91,247330,5,4,0:3:0:0:
157,91,247411,1,4,0:3:0:0:
157,91,247492,1,4,0:3:0:0:
190,277,247654,5,8,0:3:0:0:
190,277,247735,1,8,0:3:0:0:
190,277,247817,1,8,0:3:0:0:
286,148,247979,5,4,0:3:0:0:
323,277,248141,6,0,B|321:307|346:350|384:370|444:365|444:365|417:316|418:281|432:292|422:251|390:230|390:230|427:241|469:229|499:198|513:140|513:140|462:153|424:139|439:132|399:125|367:151|367:151|392:119|392:74|372:38|322:11|322:11|316:60|291:89|287:72|272:110|285:147|285:147|258:116|218:101|177:110|131:146|131:146|181:169|202:200|185:199|211:225|254:225|254:225|219:239|193:275|187:315|211:370|211:370|228:344|255:328,1,1511.99995385742,14|0,0:1|0:0,0:0:0:0:
