osu file format v14

[General]
AudioFilename: primal.ogg
AudioLeadIn: 0
PreviewTime: 70981
Countdown: 0
SampleSet: Soft
StackLeniency: 0.7
Mode: 0
LetterboxInBreaks: 0
WidescreenStoryboard: 1

[Editor]
Bookmarks: 10693,21071,31450,41828,71017
DistanceSpacing: 1
BeatDivisor: 4
GridSize: 4
TimelineZoom: 0.8999999

[Metadata]
Title:primal
TitleUnicode:primal
Artist:solfa feat. Ceui
ArtistUnicode:solfa feat. Ceui
Creator:Lafayla
Version:Normal
Source:PRIMAL×HEARTS
Tags:hinsvar laurier andrea osuplayer111 featured artist fa japanese pop rock opening terakomari visual novel vn marmalade eroge galgame video game chronicle -white beat- ~white beat~ ま~まれぇど primalxhearts プライマルハーツ akashic records sapphire アカシックレコード~サファイア~
BeatmapID:4525962
BeatmapSetID:2146191

[Difficulty]
HPDrainRate:3.5
CircleSize:3
OverallDifficulty:3.5
ApproachRate:5.5
SliderMultiplier:1.05
SliderTickRate:1

[Events]
//Background and Video events
0,0,"PrimalxHearts.jpg",0,0
Video,-76,"primalop.mp4"
//Break Periods
2,62744,67257
//Storyboard Layer 0 (Background)
//Storyboard Layer 1 (Fail)
//Storyboard Layer 2 (Pass)
//Storyboard Layer 3 (Foreground)
//Storyboard Layer 4 (Overlay)
//Storyboard Sound Samples

[TimingPoints]
274,324.324324324324,4,2,1,40,1,0
274,-111.111111111111,4,2,1,40,0,0
5463,-100,4,2,1,45,0,0
10652,-100,4,2,1,70,0,0
31409,-100,4,2,1,50,0,0
31571,-111.111111111111,4,2,1,50,0,0
41787,-100,4,2,1,60,0,0
62544,324.324324324324,6,2,1,40,1,0
67733,-100,4,2,1,70,0,0
68382,324.324324324324,4,1,1,75,1,0
68625,-100,4,1,1,30,0,0
69192,-100,4,1,1,75,0,0
70976,324.324324324324,4,2,1,80,1,1
70976,-100,4,2,1,80,0,1
91732,-100,4,2,1,70,0,0
109246,-100,4,2,1,40,0,0

[Colours]
Combo1 : 180,108,251
Combo2 : 151,228,253
Combo3 : 234,234,234
Combo4 : 45,120,244

[HitObjects]
230,22,274,6,0,P|186:94|205:164,1,141.749995674133,2|2,0:0|0:0,0:0:0:0:
154,234,1084,1,0,0:0:0:0:
154,234,1246,2,0,P|84:247|13:250,2,141.749995674133,2|2|2,0:0|0:0|0:0,0:0:0:0:
247,249,2544,2,0,P|250:274|249:298,1,47.2499985580445,0|0,0:0|0:0,0:0:0:0:
269,338,2868,6,0,B|340:348|340:348|370:337|430:335,1,141.749995674133,2|2,0:0|0:0,0:0:0:0:
479,272,3679,1,0,0:0:0:0:
479,272,3841,2,0,P|474:188|421:148,1,141.749995674133,2|2,0:0|0:0,0:0:0:0:
344,140,4652,1,0,0:0:0:0:
344,140,4814,1,2,0:0:0:0:
160,40,5463,6,0,L|88:33,1,52.5,2|0,0:0|0:0,0:0:0:0:
58,54,5787,2,0,P|35:98|57:174,1,105,2|0,0:0|0:0,0:0:0:0:
79,188,6273,1,2,0:0:0:0:
187,179,6598,1,0,0:0:0:0:
187,179,6760,2,0,P|239:180|291:188,1,105,2|0,0:0|0:0,0:0:0:0:
342,198,7246,2,0,B|363:244|363:244|344:360,1,157.5,2|2,0:0|0:0,0:0:0:0:
249,306,8057,5,2,0:0:0:0:
160,363,8382,2,0,P|107:367|55:363,1,105,2|0,0:0|0:0,0:0:0:0:
18,326,8868,2,0,B|-7:266|44:253|14:169,1,157.5,2|2,0:0|0:0,0:0:0:0:
29,67,9679,1,2,0:0:0:0:
125,108,10003,1,0,0:0:0:0:
173,14,10328,1,2,0:0:0:0:
276,32,10652,6,0,L|386:25,1,105,4|0,3:2|3:0,0:0:0:0:
437,25,11138,1,8,0:0:0:0:
437,25,11301,1,2,0:0:0:0:
509,101,11625,1,2,3:2:0:0:
462,194,11949,2,0,P|415:216|358:212,1,105,2|2,0:0|0:0,0:0:0:0:
331,178,12436,1,0,3:0:0:0:
331,178,12598,2,0,P|291:144|235:133,1,105,0|8,3:0|0:0,0:0:0:0:
152,189,13246,6,0,P|147:230|150:294,1,105,2|0,3:2|0:0,0:0:0:0:
165,349,13733,1,8,0:0:0:0:
165,349,13895,1,2,0:0:0:0:
267,371,14219,1,2,3:2:0:0:
329,287,14544,1,2,0:0:0:0:
329,287,14706,2,0,L|437:282,1,105,8|0,0:0|0:0,0:0:0:0:
484,268,15192,1,0,3:0:0:0:
491,163,15517,1,12,0:0:0:0:
429,80,15841,6,0,P|380:63|326:65,1,105,4|0,3:2|0:0,0:0:0:0:
279,75,16328,1,8,0:0:0:0:
279,75,16490,2,0,L|285:179,1,105,2|0,0:0|3:0,0:0:0:0:
335,273,17138,2,0,L|387:278,2,52.5,2|8|0,0:0|0:0|0:0,0:0:0:0:
267,353,17787,1,0,3:0:0:0:
175,301,18111,5,8,0:0:0:0:
70,313,18436,2,0,B|52:255|64:196|64:196|94:156,1,157.5,2|8,3:2|0:0,0:0:0:0:
138,153,19084,2,0,L|189:162,1,52.5,2|2,0:0|3:2,0:0:0:0:
242,158,19409,2,0,P|262:109|262:57,1,105,4|8,3:2|0:0,0:0:0:0:
172,3,20057,1,8,0:0:0:0:
69,25,20382,1,8,3:0:0:0:
29,121,20706,1,0,1:0:0:0:
109,188,21030,6,0,P|110:251|106:316,1,105,4|8,3:2|0:0,0:0:0:0:
109,349,21517,1,2,3:2:0:0:
109,349,21679,1,2,0:0:0:0:
211,371,22003,2,0,P|265:356|294:296,1,105,8|0,0:0|3:0,0:0:0:0:
330,282,22490,1,0,3:0:0:0:
330,282,22652,2,0,L|461:291,1,105,8|0,0:0|0:0,0:0:0:0:
487,198,23301,1,10,0:0:0:0:
421,116,23625,6,0,P|368:99|307:99,1,105,2|8,3:2|0:0,0:0:0:0:
272,191,24273,2,0,L|250:238,1,52.5,2|0,0:0|3:0,0:0:0:0:
209,272,24598,2,0,P|157:274|97:263,1,105,8|2,0:0|3:2,0:0:0:0:
62,244,25084,1,0,3:0:0:0:
62,244,25246,1,8,0:0:0:0:
21,146,25571,1,2,0:0:0:0:
89,66,25895,1,8,0:0:0:0:
190,93,26219,6,0,L|294:88,1,105,4|8,3:2|0:0,0:0:0:0:
351,92,26706,1,0,3:0:0:0:
351,92,26868,2,0,P|359:116|364:142,1,52.5,2|0,0:0|3:0,0:0:0:0:
362,195,27192,1,8,0:0:0:0:
266,239,27517,2,0,L|214:234,2,52.5,0|0|8,3:0|3:0|0:0,0:0:0:0:
298,338,28165,1,2,0:0:0:0:
392,291,28490,1,8,0:0:0:0:
496,297,28814,6,0,P|508:245|503:176,1,105,2|8,3:2|0:0,0:0:0:0:
479,155,29301,1,2,3:2:0:0:
479,155,29463,2,0,P|426:156|375:144,1,105,2|8,0:0|0:0,0:0:0:0:
351,42,30111,2,0,L|298:37,1,52.5,8|0,0:0|1:0,0:0:0:0:
250,41,30436,1,0,3:0:0:0:
250,41,30598,2,0,P|211:81|204:134,1,105,8|8,0:0|3:0,0:0:0:0:
219,178,31084,1,8,0:0:0:0:
317,214,31409,5,4,3:2:0:0:
182,346,32057,2,0,B|136:362|136:362|41:346,1,141.749995674133,0|2,1:0|3:2,0:0:0:0:
81,261,32868,1,0,3:0:0:0:
81,261,33030,1,0,3:0:0:0:
1,209,33355,2,0,L|-2:104,1,94.499997116089,0|0,1:0|0:0,0:0:0:0:
62,45,34003,6,0,B|131:49|131:49|178:91|266:75,1,188.999994232178,2|0,3:2|1:0,0:0:0:0:
373,20,35138,2,0,P|390:62|394:111,1,94.499997116089,2|0,3:2|3:0,0:0:0:0:
396,158,35625,1,0,3:0:0:0:
305,183,35949,2,0,P|258:184|200:171,1,94.499997116089,0|0,1:0|0:0,0:0:0:0:
142,110,36598,5,0,3:0:0:0:
4,230,37246,2,0,P|-3:299|28:362,1,141.749995674133,0|2,1:0|3:2,0:0:0:0:
126,362,38057,1,0,3:0:0:0:
126,362,38219,1,0,3:0:0:0:
199,302,38544,2,0,P|250:294|302:305,1,94.499997116089,0|0,1:0|0:0,0:0:0:0:
369,247,39192,6,0,B|396:165|333:147|369:58,1,188.999994232178,2|0,3:2|1:0,0:0:0:0:
502,107,40328,2,0,P|509:153|510:200,1,94.499997116089,0|0,3:0|3:0,0:0:0:0:
508,248,40814,1,0,3:0:0:0:
442,316,41138,2,0,P|419:322|395:326,1,47.2499985580445,0|0,1:0|3:0,0:0:0:0:
349,336,41463,1,0,1:0:0:0:
248,304,41787,6,0,P|239:249|257:198,1,105,4|0,3:2|1:0,0:0:0:0:
329,129,42436,2,0,L|394:138,2,52.5,2|0|0,3:2|3:0|1:0,0:0:0:0:
291,91,42922,2,0,P|238:88|187:71,1,105,2|0,0:0|3:0,0:0:0:0:
145,41,43409,1,0,1:0:0:0:
45,9,43733,1,2,0:0:0:0:
3,105,44057,1,0,1:0:0:0:
72,183,44382,6,0,L|56:305,1,105,2|0,3:2|1:0,0:0:0:0:
51,339,44868,1,2,0:0:0:0:
149,374,45192,1,0,3:0:0:0:
239,321,45517,2,0,P|290:313|343:313,1,105,2|0,0:0|3:0,0:0:0:0:
399,323,46003,1,0,1:0:0:0:
399,323,46165,2,0,L|409:271,1,52.5,2|0,3:2|0:0,0:0:0:0:
414,218,46490,1,0,3:0:0:0:
360,127,46814,6,0,P|343:88|364:21,1,105,2|0,0:0|0:0,0:0:0:0:
405,7,47301,2,0,P|446:11|493:62,1,105,0|0,1:0|3:0,0:0:0:0:
501,110,47787,1,0,3:0:0:0:
501,110,47949,1,0,1:0:0:0:
449,201,48273,2,0,P|390:225|340:224,1,105,2|0,3:2|1:0,0:0:0:0:
254,180,48922,1,2,0:0:0:0:
284,78,49246,1,0,1:0:0:0:
185,40,49571,6,0,L|64:55,1,105,2|0,3:2|1:0,0:0:0:0:
28,48,50057,2,0,L|13:169,1,105,2|0,0:0|3:0,0:0:0:0:
13,204,50544,1,0,1:0:0:0:
96,268,50868,2,0,P|151:272|211:243,1,105,2|0,3:2|1:0,0:0:0:0:
249,252,51355,2,0,L|255:304,1,52.5,2|0,3:2|0:0,0:0:0:0:
282,355,51679,1,0,3:0:0:0:
282,355,51841,1,0,1:0:0:0:
386,356,52165,6,0,P|400:306|395:234,1,105,4|0,3:2|1:0,0:0:0:0:
392,205,52652,1,0,0:0:0:0:
392,205,52814,1,2,0:0:0:0:
297,160,53138,1,0,1:0:0:0:
219,231,53463,2,0,L|103:225,1,105,2|0,3:2|1:0,0:0:0:0:
64,242,53949,1,2,3:2:0:0:
3,156,54273,1,0,3:0:0:0:
52,63,54598,6,0,P|101:43|154:47,1,105,2|0,0:0|3:0,0:0:0:0:
200,66,55084,1,0,1:0:0:0:
238,163,55409,2,0,P|289:168|340:156,1,105,2|0,0:0|1:0,0:0:0:0:
387,130,55895,1,0,0:0:0:0:
387,130,56057,1,2,3:2:0:0:
494,151,56382,1,0,1:0:0:0:
494,151,56544,2,0,P|496:96|500:44,2,105,2|0|0,3:2|3:0|0:0,0:0:0:0:
507,202,57355,6,0,P|480:246|435:273,1,105,4|0,3:2|1:0,0:0:0:0:
369,354,58003,1,0,0:0:0:0:
279,309,58328,1,0,1:0:0:0:
279,309,58490,2,0,B|259:236|304:237|283:151,1,157.5,2|0,0:0|1:0,0:0:0:0:
289,102,59138,2,0,P|236:103|178:98,1,105,0|0,3:0|3:0,0:0:0:0:
131,92,59625,1,0,1:0:0:0:
50,158,59949,6,0,P|50:189|54:223,1,52.5,2|2,3:2|3:2,0:0:0:0:
55,262,60273,1,0,1:0:0:0:
120,343,60598,1,2,0:0:0:0:
206,283,60922,1,0,1:0:0:0:
297,334,61246,2,0,P|349:334|412:329,1,105,2|0,3:2|1:0,0:0:0:0:
450,308,61733,1,2,3:2:0:0:
460,203,62057,2,0,L|525:199,2,52.5,2|0|0,3:2|1:0|1:0,0:0:0:0:
414,175,62544,1,2,0:2:0:0:
13,75,68382,6,0,B|84:90|133:55|133:55|156:89|186:103|186:103|244:70|324:89,1,315,4|0,1:0|0:0,0:0:0:0:
344,123,69517,1,0,3:0:0:0:
344,123,69679,2,0,P|393:138|445:133,1,105,2|0,0:0|3:0,0:0:0:0:
494,115,70165,1,2,0:0:0:0:
511,223,70490,1,0,3:0:0:0:
511,223,70652,2,0,L|501:296,1,52.5,0|0,0:0|0:0,0:0:0:0:
476,319,70976,6,0,P|406:340|364:318,1,105,6|0,3:1|1:0,0:0:0:0:
343,290,71462,2,0,P|292:278|245:300,1,105,2|0,3:1|3:0,0:0:0:0:
212,340,71948,1,10,0:1:0:0:
111,369,72273,1,2,3:1:0:0:
38,301,72597,1,8,0:0:0:0:
38,301,72759,2,0,P|31:251|32:194,1,105,2|0,3:1|3:0,0:0:0:0:
37,144,73246,1,10,0:1:0:0:
96,57,73570,5,2,3:1:0:0:
199,38,73894,1,8,0:0:0:0:
253,128,74219,1,2,0:1:0:0:
188,210,74543,2,0,L|181:262,1,52.5,10|0,0:1|0:0,0:0:0:0:
194,309,74867,2,0,P|234:340|300:341,1,105,2|8,3:1|0:0,0:0:0:0:
338,335,75354,1,0,3:0:0:0:
338,335,75516,2,0,L|390:337,1,52.5,2|0,0:1|3:0,0:0:0:0:
441,326,75840,1,8,0:0:0:0:
501,239,76165,6,0,L|499:116,1,105,4|8,3:1|0:0,0:0:0:0:
484,89,76651,1,0,3:0:0:0:
484,89,76813,1,2,0:1:0:0:
381,63,77138,2,0,P|354:64|328:63,1,52.5,8|0,0:0|0:0,0:0:0:0:
283,37,77462,2,0,P|221:36|179:72,1,105,2|8,3:1|0:0,0:0:0:0:
179,111,77948,1,2,3:1:0:0:
113,193,78273,1,2,3:1:0:0:
19,159,78597,5,0,0:0:0:0:
19,159,78759,2,0,P|18:97|24:43,2,105,2|10|2,3:1|0:1|0:1,0:0:0:0:
45,260,79732,1,10,0:1:0:0:
147,284,80057,2,0,L|144:335,2,52.5,8|0|8,0:0|3:0|0:0,0:0:0:0:
219,208,80705,2,0,L|221:156,1,52.5,0|0,3:0|1:0,0:0:0:0:
225,102,81030,1,0,1:0:0:0:
319,56,81354,6,0,P|383:57|435:45,1,105,6|8,3:1|0:0,0:0:0:0:
472,66,81840,2,0,P|473:130|461:182,1,105,2|0,3:1|3:0,0:0:0:0:
446,218,82327,1,10,0:1:0:0:
496,310,82651,1,2,3:1:0:0:
410,368,82975,1,8,0:0:0:0:
410,368,83138,2,0,P|358:357|320:314,1,105,2|0,3:1|3:0,0:0:0:0:
297,275,83624,1,10,0:1:0:0:
363,193,83948,5,2,3:1:0:0:
366,88,84273,1,8,0:0:0:0:
271,41,84597,1,2,0:1:0:0:
178,90,84921,2,0,P|149:95|125:95,1,52.5,10|0,0:1|0:0,0:0:0:0:
74,85,85246,2,0,P|58:135|55:193,1,105,2|8,3:1|0:0,0:0:0:0:
7,194,85732,1,0,3:0:0:0:
7,194,85894,2,0,P|5:246|16:297,1,105,2|0,0:1|1:0,0:0:0:0:
101,359,86543,6,0,P|156:343|223:345,1,105,4|8,3:1|0:0,0:0:0:0:
255,326,87030,1,0,3:0:0:0:
255,326,87192,2,0,P|263:269|265:210,1,105,2|8,0:1|0:0,0:0:0:0:
217,199,87678,2,0,P|167:158|150:103,1,105,2|0,0:1|3:0,0:0:0:0:
147,69,88165,1,8,0:0:0:0:
227,1,88489,1,2,0:1:0:0:
322,55,88813,5,8,0:0:0:0:
322,55,88975,2,0,L|428:49,1,105,2|0,3:1|0:0,0:0:0:0:
479,47,89462,1,8,0:0:0:0:
477,151,89786,2,0,L|424:154,1,52.5,0|0,0:0|3:0,0:0:0:0:
372,163,90111,1,10,0:1:0:0:
289,227,90435,2,0,P|264:217|242:203,2,52.5,4|0|0,1:0|1:0|1:0,0:0:0:0:
379,279,91084,2,0,P|366:301|347:320,1,52.5,0|0,3:0|1:0,0:0:0:0:
301,345,91408,1,2,1:0:0:0:
196,341,91732,6,0,P|143:340|91:340,1,105,6|8,3:1|0:0,0:0:0:0:
44,356,92219,1,0,3:0:0:0:
44,356,92381,2,0,P|14:306|13:252,1,105,2|8,0:1|0:0,0:0:0:0:
103,210,93030,2,0,P|107:158|87:110,1,105,2|8,3:1|0:0,0:0:0:0:
54,77,93516,1,0,3:0:0:0:
54,77,93678,1,0,0:0:0:0:
141,18,94003,5,10,0:1:0:0:
245,27,94327,2,0,P|258:82|256:135,1,105,2|8,3:1|0:0,0:0:0:0:
269,186,94813,1,0,3:0:0:0:
269,186,94975,1,2,2:0:0:0:
366,224,95300,1,10,0:1:0:0:
464,187,95624,2,0,P|467:212|465:239,1,52.5,2|0,3:1|3:0,0:0:0:0:
465,291,95948,1,10,0:1:0:0:
400,373,96273,1,2,0:1:0:0:
294,347,96597,1,10,0:1:0:0:
294,242,96921,6,0,L|287:133,1,105,6|8,3:1|0:0,0:0:0:0:
284,89,97408,1,2,3:1:0:0:
284,89,97570,1,0,0:0:0:0:
202,22,97894,1,10,0:1:0:0:
104,60,98219,2,0,L|52:55,2,52.5,0|0|10,3:0|3:0|0:1,0:0:0:0:
180,132,98867,1,2,0:1:0:0:
109,210,99192,5,0,1:0:0:0:
4,201,99516,2,0,P|4:253|10:305,1,105,2|8,1:0|0:0,0:0:0:0:
48,350,100003,1,0,3:0:0:0:
48,350,100165,2,0,L|105:352,1,52.5,2|0,3:1|0:0,0:0:0:0:
152,351,100489,1,8,0:0:0:0:
253,324,100813,2,0,P|276:278|273:223,1,105,2|8,3:1|0:0,0:0:0:0:
242,182,101300,2,0,P|236:130|257:80,1,105,2|0,3:1|3:0,0:0:0:0:
295,47,101786,1,0,1:0:0:0:
396,74,102111,5,6,3:1:0:0:
493,35,102435,1,8,0:0:0:0:
509,138,102759,2,0,L|505:193,1,52.5,10|0,0:1|3:0,0:0:0:0:
482,238,103084,1,8,0:0:0:0:
379,216,103408,2,0,P|320:213|266:228,1,105,6|0,3:1|3:1,0:0:0:0:
232,250,103894,1,0,3:1:0:0:
232,250,104057,1,2,3:1:0:0:
174,337,104381,1,2,1:0:0:0:
91,272,104705,5,6,0:1:0:0:
256,192,104867,12,2,109246,0:0:0:0:
