osu file format v14

[General]
AudioFilename: primal.ogg
AudioLeadIn: 0
PreviewTime: 70981
Countdown: 0
SampleSet: Soft
StackLeniency: 0.7
Mode: 0
LetterboxInBreaks: 0
WidescreenStoryboard: 1

[Editor]
Bookmarks: 10693,21071,31450,41828,71017
DistanceSpacing: 1.5
BeatDivisor: 4
GridSize: 4
TimelineZoom: 2.2

[Metadata]
Title:primal
TitleUnicode:primal
Artist:solfa feat. Ceui
ArtistUnicode:solfa feat. Ceui
Creator:Lafayla
Version:Laurier's Insane
Source:PRIMAL×HEARTS
Tags:hinsvar laurier andrea osuplayer111 featured artist fa japanese pop rock opening terakomari visual novel vn marmalade eroge galgame video game chronicle -white beat- ~white beat~ ま~まれぇど primalxhearts プライマルハーツ akashic records sapphire アカシックレコード~サファイア~
BeatmapID:4529498
BeatmapSetID:2146191

[Difficulty]
HPDrainRate:7
CircleSize:4.5
OverallDifficulty:7
ApproachRate:9
SliderMultiplier:1.7
SliderTickRate:1

[Events]
//Background and Video events
0,0,"PrimalxHearts.jpg",0,0
Video,-76,"primalop.mp4"
//Break Periods
//Storyboard Layer 0 (Background)
//Storyboard Layer 1 (Fail)
//Storyboard Layer 2 (Pass)
//Storyboard Layer 3 (Foreground)
//Storyboard Layer 4 (Overlay)
//Storyboard Sound Samples

[TimingPoints]
274,324.324324324324,4,2,1,40,1,0
274,-142.857142857143,4,2,1,40,0,0
5463,-142.857142857143,4,2,1,45,0,0
10652,-100,4,2,1,70,0,0
20544,-100,4,2,1,70,0,0
21031,-100,4,2,1,70,0,0
31409,-125,4,2,1,50,0,0
41787,-100,4,2,1,60,0,0
52814,-125,4,2,1,60,0,0
62544,324.324324324324,6,2,1,40,1,0
62544,-166.666666666667,4,2,1,40,0,0
67733,-166.666666666667,4,2,1,70,0,0
68382,324.324324324324,4,1,1,75,1,0
68382,-125,4,1,1,75,0,0
70976,324.324324324324,4,2,1,80,1,0
70976,-100,4,2,1,80,0,0
91732,-100,4,2,1,70,0,0
109246,-100,4,2,1,40,0,0

[Colours]
Combo1 : 180,108,251
Combo2 : 151,228,253
Combo3 : 234,234,234
Combo4 : 45,120,244

[HitObjects]
464,190,274,6,0,P|406:176|352:198,1,118.999996368408,2|0,0:0|0:0,0:0:0:0:
255,266,760,2,0,P|197:279|143:257,1,118.999996368408,2|0,0:0|0:0,0:0:0:0:
82,154,1247,1,2,0:0:0:0:
77,143,1571,1,0,0:0:0:0:
190,73,1733,1,2,0:0:0:0:
185,62,2057,1,0,0:0:0:0:
202,200,2220,2,0,L|190:322,1,118.999996368408,2|0,0:0|0:0,0:0:0:0:
190,318,2706,1,0,0:0:0:0:
312,281,2868,6,0,P|340:271|369:270,1,59.4999981842042,2|0,0:0|0:0,0:0:0:0:
457,287,3193,1,0,0:0:0:0:
494,159,3355,2,0,P|437:176|378:167,1,118.999996368408,2|0,0:0|0:0,0:0:0:0:
300,94,3841,1,2,0:0:0:0:
295,89,4166,1,0,0:0:0:0:
219,173,4328,1,2,0:0:0:0:
214,168,4653,1,0,0:0:0:0:
186,59,4814,2,0,P|129:42|70:51,1,118.999996368408,2|0,0:0|0:0,0:0:0:0:
4,120,5301,1,0,0:0:0:0:
116,275,5463,5,2,0:0:0:0:
116,168,5625,1,0,0:0:0:0:
24,222,5787,1,2,0:0:0:0:
112,282,5949,1,0,0:0:0:0:
107,174,6112,1,0,0:0:0:0:
17,234,6274,2,0,P|7:261|5:291,1,59.4999981842042,2|0,0:0|0:0,0:0:0:0:
72,373,6598,1,0,0:0:0:0:
230,326,6760,6,0,P|260:323|290:322,1,59.4999981842042,2|0,0:0|0:0,0:0:0:0:
390,362,7085,1,0,0:0:0:0:
306,244,7247,1,2,0:0:0:0:
457,263,7409,1,0,0:0:0:0:
382,115,7571,1,0,0:0:0:0:
380,280,7733,1,2,0:0:0:0:
380,280,7895,1,0,0:0:0:0:
457,169,8058,5,2,0:0:0:0:
324,158,8220,1,0,0:0:0:0:
380,280,8382,1,2,0:0:0:0:
457,169,8544,1,0,0:0:0:0:
324,158,8706,1,0,0:0:0:0:
463,315,8868,1,2,0:0:0:0:
428,150,9031,1,0,0:0:0:0:
304,262,9193,1,0,0:0:0:0:
463,315,9355,6,0,L|472:254,1,59.4999981842042,2|0,0:0|0:0,0:0:0:0:
441,61,9679,2,0,L|428:149,1,89.2499972763062,2|0,0:0|0:0,0:0:0:0:
354,174,10004,2,0,L|341:262,1,89.2499972763062
270,293,10328,2,0,L|261:351,1,59.4999981842042,2|0,0:0|0:0,0:0:0:0:
91,277,10652,5,4,3:2:0:0:
196,177,10814,2,0,P|201:135|197:93,1,85,2|0,0:0|3:0,0:0:0:0:
56,128,11139,1,8,0:0:0:0:
91,277,11301,2,0,L|186:267,1,85,2|0,0:0|3:0,0:0:0:0:
366,251,11625,1,2,3:2:0:0:
424,173,11787,6,0,P|344:153|280:205,1,170,2|8,3:2|0:0,0:0:0:0:
359,334,12274,2,0,P|369:292|365:250,1,85,2|0,0:0|0:0,0:0:0:0:
196,177,12598,1,0,3:0:0:0:
291,69,12760,1,0,3:0:0:0:
270,293,12922,2,0,L|185:301,1,85,8|0,0:0|0:0,0:0:0:0:
75,313,13247,5,2,3:2:0:0:
160,187,13409,2,0,P|166:102|168:17,1,170,2|8,0:0|0:0,0:0:0:0:
39,128,13895,2,0,P|32:169|30:212,1,85,2|0,0:0|3:0,0:0:0:0:
157,281,14220,1,2,3:2:0:0:
267,188,14382,6,0,P|350:173|435:167,1,170,2|8,3:2|0:0,0:0:0:0:
504,293,14868,2,0,P|462:300|419:303,1,85,0|0,0:0|3:0,0:0:0:0:
324,384,15193,2,0,P|288:360|256:332,1,85,0|0,3:0|3:0,0:0:0:0:
160,187,15517,1,12,0:0:0:0:
274,99,15679,1,0,3:0:0:0:
105,72,15841,5,4,3:2:0:0:
190,274,16004,2,0,P|197:188|197:104,2,170,2|8|0,0:0|0:0|3:0,0:0:0:0:
92,325,16814,1,0,3:0:0:0:
16,244,16976,6,0,P|52:222|93:214,1,85,2|2,3:2|0:0,0:0:0:0:
208,303,17301,2,0,P|249:294|285:273,1,85,8|0,0:0|0:0,0:0:0:0:
373,193,17625,1,0,3:0:0:0:
400,308,17787,1,0,3:0:0:0:
485,225,17949,1,0,3:0:0:0:
385,105,18112,2,0,P|344:113|308:135,1,85,8|0,0:0|0:0,0:0:0:0:
208,303,18436,5,2,3:2:0:0:
363,362,18598,2,0,L|372:192,1,170,2|8,0:0|0:0,0:0:0:0:
217,65,19085,2,0,L|213:155,1,85,0|2,0:0|3:2,0:0:0:0:
208,303,19409,1,4,3:2:0:0:
114,216,19571,1,0,0:0:0:0:
12,362,19733,5,8,0:0:0:0:
121,297,19895,1,0,3:0:0:0:
12,229,20058,1,8,0:0:0:0:
122,166,20220,1,0,3:0:0:0:
12,64,20382,2,0,P|52:77|94:72,1,85,8|0,3:0|1:0,0:0:0:0:
129,49,20625,1,0,1:0:0:0:
167,31,20706,1,0,1:0:0:0:
210,29,20787,1,0,1:0:0:0:
249,44,20868,1,0,1:0:0:0:
279,74,20949,1,0,1:0:0:0:
296,112,21031,6,0,P|380:102|463:84,1,170,4|8,3:2|0:0,0:0:0:0:
372,252,21517,2,0,P|329:254|288:263,1,85,2|0,3:2|0:0,0:0:0:0:
227,355,21841,1,0,3:0:0:0:
413,313,22004,2,0,P|444:239|390:180,1,170,8|0,0:0|3:0,0:0:0:0:
254,250,22490,5,0,3:0:0:0:
312,80,22652,1,8,0:0:0:0:
389,180,22814,2,0,P|305:174|221:161,1,170,2|0,3:2|3:0,0:0:0:0:
88,103,23301,1,10,0:0:0:0:
85,99,23463,1,0,0:0:0:0:
144,278,23625,6,0,P|103:268|61:266,1,85,2|0,3:2|0:0,0:0:0:0:
12,352,23949,1,8,0:0:0:0:
149,363,24112,2,0,P|233:369|310:334,1,170,2|0,3:2|3:0,0:0:0:0:
397,230,24598,2,0,P|358:211|317:205,1,85,8|0,0:0|0:0,0:0:0:0:
205,127,24922,6,0,P|186:165|180:206,1,85,2|0,3:2|3:0,0:0:0:0:
243,328,25247,1,8,0:0:0:0:
434,290,25409,2,0,P|465:216|407:161,1,170,0|0,3:0|3:0,0:0:0:0:
263,197,25895,2,0,P|222:209|180:206,1,85,8|0,0:0|0:0,0:0:0:0:
82,316,26220,6,0,P|164:298|242:327,1,170,4|8,3:2|0:0,0:0:0:0:
243,328,26706,1,0,3:0:0:0:
328,244,26868,2,0,P|336:202|330:160,1,85,2|0,0:0|3:0,0:0:0:0:
256,13,27193,1,8,0:0:0:0:
180,104,27355,1,0,0:0:0:0:
328,244,27517,5,0,3:0:0:0:
258,147,27679,1,0,3:0:0:0:
376,132,27841,1,8,0:0:0:0:
322,238,28004,1,0,3:0:0:0:
257,138,28166,2,0,L|257:45,1,85,2|0,0:0|3:0,0:0:0:0:
106,28,28490,2,0,L|62:18,2,42.5,8|0|0,0:0|0:0|0:0,0:0:0:0:
173,187,28814,6,0,P|140:214|102:231,1,85,2|0,3:2|0:0,0:0:0:0:
0,260,29139,1,8,0:0:0:0:
79,366,29301,2,0,P|114:338|228:368,1,170,2|0,3:2|3:0,0:0:0:0:
349,332,29787,1,8,0:0:0:0:
259,241,29949,1,0,3:0:0:0:
259,241,30031,1,0,3:0:0:0:
259,241,30112,5,8,0:0:0:0:
325,349,30274,1,0,1:0:0:0:
451,330,30436,1,0,3:0:0:0:
461,203,30598,1,8,0:0:0:0:
367,289,30760,1,4,3:0:0:0:
489,323,30922,1,8,3:0:0:0:
389,119,31085,1,8,0:0:0:0:
385,111,31409,5,4,3:2:0:0:
385,111,32058,2,0,L|228:99,1,136,0|0,1:0|0:0,0:0:0:0:
96,159,32544,1,2,3:2:0:0:
96,159,32868,5,0,3:0:0:0:
80,260,33031,2,0,P|145:253|185:200,1,136,0|0,3:0|1:0,0:0:0:0:
185,200,33517,1,0,0:0:0:0:
112,94,33679,2,0,P|98:125|95:158,1,68
204,349,34004,6,0,P|228:286|213:221,1,136,2|0,3:2|0:0,0:0:0:0:
213,221,34490,1,2,0:0:0:0:
352,201,34652,2,0,L|419:194,1,68,0|0,1:0|0:0,0:0:0:0:
419,194,34976,1,0,0:0:0:0:
502,63,35139,6,0,P|438:84|371:72,1,136,2|0,3:2|3:0,0:0:0:0:
257,13,35625,2,0,L|247:80,1,68,0|0,3:0|0:0,0:0:0:0:
212,220,35949,2,0,P|179:216|145:215,1,68,0|0,1:0|0:0,0:0:0:0:
98,321,36274,2,0,P|131:325|165:326,1,68
336,266,36598,5,0,3:0:0:0:
335,265,37247,2,0,P|342:198|341:130,1,136,0|0,1:0|0:0,0:0:0:0:
246,40,37733,6,0,P|186:15|128:46,1,136,2|0,3:2|3:0,0:0:0:0:
44,148,38220,2,0,P|71:168|103:177,1,68,0|0,3:0|0:0,0:0:0:0:
194,265,38544,2,0,P|214:237|223:205,1,68,0|0,1:0|0:0,0:0:0:0:
190,87,38868,1,0,0:0:0:0:
279,137,39031,1,0,0:0:0:0:
357,72,39193,6,0,P|424:64|491:51,2,136,2|0|0,3:2|0:0|1:0,0:0:0:0:
256,50,40004,1,0,0:0:0:0:
248,151,40166,1,2,0:0:0:0:
341,297,40328,6,0,P|348:229|351:161,1,136,0|0,3:0|3:0,0:0:0:0:
241,256,40814,2,0,P|236:290|234:324,1,68,0|0,3:0|0:0,0:0:0:0:
490,321,41139,2,0,P|459:306|425:303,1,68,0|0,1:0|3:0,0:0:0:0:
234,324,41463,2,0,P|203:338|169:341,1,68,0|0,1:0|3:0,0:0:0:0:
3,287,41787,5,4,3:2:0:0:
108,234,41949,1,0,0:0:0:0:
82,352,42112,1,0,1:0:0:0:
2,252,42274,1,2,0:0:0:0:
143,259,42436,5,0,3:0:0:0:
26,171,42598,1,0,3:0:0:0:
86,320,42760,1,0,1:0:0:0:
168,240,42922,1,0,0:0:0:0:
234,324,43085,5,2,3:2:0:0:
143,259,43247,1,0,3:0:0:0:
249,106,43409,2,0,P|262:147|264:189,1,85,0|0,1:0|3:0,0:0:0:0:
234,324,43733,2,0,P|274:311|316:309,1,85,2|0,0:0|3:0,0:0:0:0:
461,320,44058,1,0,1:0:0:0:
380,199,44220,1,0,0:0:0:0:
504,83,44382,6,0,P|424:104|358:55,1,170,2|0,3:2|1:0,0:0:0:0:
358,55,44868,1,2,0:0:0:0:
188,40,45031,2,0,P|166:76|162:118,1,85,0|0,0:0|3:0,0:0:0:0:
219,343,45355,1,0,1:0:0:0:
121,248,45517,1,2,0:0:0:0:
251,210,45679,5,0,3:0:0:0:
210,339,45841,1,0,3:0:0:0:
120,236,46004,1,0,1:0:0:0:
255,222,46166,1,0,3:0:0:0:
222,354,46328,2,0,L|126:354,1,85,2|0,0:0|3:0,0:0:0:0:
9,260,46652,2,0,P|71:263|120:224,1,127.5,0|0,1:0|0:0,0:0:0:0:
146,157,46976,5,4,3:2:0:0:
259,233,47139,1,0,0:0:0:0:
226,24,47301,1,0,1:0:0:0:
295,140,47463,1,0,0:0:0:0:
159,141,47625,2,0,P|117:148|75:142,1,85,0|0,3:0|3:0,0:0:0:0:
25,29,47949,2,0,P|66:22|108:28,1,85,0|0,1:0|0:0,0:0:0:0:
295,140,48274,5,2,3:2:0:0:
226,24,48436,1,0,0:0:0:0:
174,273,48598,2,0,L|174:357,1,85,0|0,1:0|3:0,0:0:0:0:
295,225,48922,2,0,L|295:140,1,85,2|0,0:0|3:0,0:0:0:0:
174,22,49247,2,0,L|174:107,1,85,0|0,1:0|0:0,0:0:0:0:
256,294,49571,6,0,P|336:292|372:219,2,170,2|0|0,3:2|1:0|3:0,0:0:0:0:
174,183,50382,1,0,3:0:0:0:
113,353,50544,1,0,1:0:0:0:
113,353,50868,5,2,3:2:0:0:
225,275,51031,1,0,0:0:0:0:
96,230,51193,1,0,1:0:0:0:
192,134,51355,1,2,3:2:0:0:
58,110,51517,1,0,0:0:0:0:
155,15,51679,1,0,3:0:0:0:
96,230,51841,1,0,1:0:0:0:
192,134,52004,1,0,1:0:0:0:
192,134,52085,1,0,1:0:0:0:
192,134,52166,5,4,3:2:0:0:
58,110,52328,1,2,3:2:0:0:
114,321,52490,1,0,1:0:0:0:
113,320,52814,2,0,P|147:322|180:314,1,68,2|0,0:0|3:0,0:0:0:0:
248,228,53139,2,0,P|280:219|314:221,1,68,0|0,1:0|0:0,0:0:0:0:
425,272,53463,5,2,3:2:0:0:
337,357,53625,1,0,3:0:0:0:
338,128,53787,1,0,1:0:0:0:
248,228,53949,1,2,3:2:0:0:
248,228,54274,1,0,3:0:0:0:
355,286,54436,1,0,1:0:0:0:
250,349,54598,1,0,0:0:0:0:
338,128,54760,5,2,3:2:0:0:
437,199,54922,1,0,3:0:0:0:
400,14,55085,1,0,1:0:0:0:
399,14,55409,2,0,P|368:27|331:34,1,68,2|0,0:0|3:0,0:0:0:0:
213,22,55733,2,0,P|179:28|148:41,1,68,0|0,1:0|0:0,0:0:0:0:
48,113,56058,5,2,3:2:0:0:
43,118,56220,1,0,0:0:0:0:
146,206,56382,1,0,1:0:0:0:
27,343,56544,2,0,L|26:275,1,68,2|0,3:2|0:0,0:0:0:0:
26,247,56787,1,0,3:0:0:0:
26,247,56868,1,0,3:0:0:0:
119,304,57031,1,0,1:0:0:0:
219,263,57193,1,0,0:0:0:0:
149,96,57355,5,4,3:2:0:0:
146,206,57517,1,0,3:0:0:0:
248,241,57679,1,0,1:0:0:0:
331,170,57841,2,0,P|395:157|452:192,1,136,2|0,0:0|3:0,0:0:0:0:
332,283,58328,2,0,P|313:311|286:331,1,68,0|0,1:0|0:0,0:0:0:0:
179,351,58652,5,2,3:2:0:0:
92,285,58814,1,0,3:0:0:0:
116,179,58976,1,0,1:0:0:0:
221,147,59139,2,0,P|230:80|233:12,1,136,2|0,3:2|3:0,0:0:0:0:
347,147,59625,2,0,P|336:196|332:247,1,102,0|0,1:0|0:0,0:0:0:0:
332,283,59949,5,2,3:2:0:0:
348,146,60112,1,2,3:2:0:0:
486,230,60274,1,0,1:0:0:0:
492,229,60598,1,2,0:0:0:0:
412,322,60760,1,0,3:0:0:0:
348,146,60922,2,0,L|348:79,1,68,0|0,1:0|0:0,0:0:0:0:
236,25,61247,5,2,3:2:0:0:
155,116,61409,1,0,3:0:0:0:
238,205,61571,1,0,1:0:0:0:
348,146,61733,2,0,L|497:127,1,136,2|0,3:2|3:0,0:0:0:0:
376,66,62220,1,0,1:0:0:0:
356,252,62382,1,0,1:0:0:0:
238,205,62544,5,2,0:2:0:0:
348,146,62868,1,0,0:0:0:0:
342,268,63193,1,0,0:0:0:0:
241,198,63517,1,0,0:0:0:0:
353,150,63841,1,2,0:0:0:0:
334,271,64166,1,0,0:0:0:0:
256,56,64490,5,2,0:0:0:0:
256,56,64814,1,0,0:0:0:0:
382,160,65139,1,0,0:0:0:0:
228,215,65463,1,0,0:0:0:0:
264,56,65787,1,2,0:0:0:0:
382,169,66112,1,0,0:0:0:0:
223,208,66436,6,0,P|198:200|173:197,2,50.9999984436036,2|0|0,0:0|0:0|0:0,0:0:0:0:
300,257,66922,1,0,0:0:0:0:
299,257,67085,2,0,P|310:207|295:159,1,101.999996887207,2|0,0:0|0:0,0:0:0:0:
300,67,67571,2,0,P|252:82|217:119,1,101.999996887207,2|0,0:0|0:0,0:0:0:0:
125,125,68058,6,0,P|100:117|75:114,1,50.9999984436036,2|0,0:0|1:0,0:0:0:0:
75,114,68382,5,4,1:0:0:0:
66,348,69517,1,0,3:0:0:0:
88,341,69598,1,0,3:0:0:0:
110,334,69679,1,2,0:0:0:0:
225,294,69841,1,0,3:0:0:0:
138,207,70004,1,0,3:0:0:0:
307,265,70166,6,0,P|313:298|307:331,1,68,2|0,0:0|3:0,0:0:0:0:
225,294,70490,1,0,3:0:0:0:
280,170,70652,1,0,0:0:0:0:
313,167,70733,1,0,0:0:0:0:
347,164,70814,1,0,0:0:0:0:
381,161,70895,1,0,0:0:0:0:
415,158,70976,6,2,B|448:111|440:35|440:35|428:46|404:56,1,170,6|0,3:1|1:0,0:1:0:0:
223,105,71462,2,2,P|195:182|243:248,1,170,2|0,3:1|3:0,0:1:0:0:
421,341,71948,2,2,L|325:329,1,85,10|0,0:1|0:0,0:1:0:0:
22,246,72273,5,2,3:1:0:0:
22,245,72435,2,0,P|63:236|103:223,1,85,2|8,3:2|0:0,0:0:0:0:
231,40,72759,2,2,P|222:124|216:209,1,170,2|0,3:1|3:0,0:1:0:0:
336,330,73246,2,0,P|343:288|346:245,1,85,10|0,0:1|0:0,0:0:0:0:
312,97,73570,5,2,3:1:0:0:
421,162,73732,1,0,0:0:0:0:
231,295,73894,1,10,0:1:0:0:
326,208,74057,2,0,L|137:184,1,170,2|0,3:2|3:0,0:0:0:0:
21,86,74543,2,2,L|113:73,1,85,10|0,0:1|0:0,0:1:0:0:
377,64,74867,5,2,3:1:0:0:
377,64,75030,2,0,P|363:104|355:146,1,85,2|8,3:2|0:0,0:0:0:0:
482,303,75354,2,2,P|402:281|336:331,1,170,2|0,3:1|3:0,0:1:0:0:
179,366,75840,2,0,L|50:343,1,127.5,8|0,0:0|0:0,0:0:0:0:
21,337,76165,5,4,3:1:0:0:
129,269,76327,1,0,0:0:0:0:
56,80,76489,1,10,0:1:0:0:
13,191,76651,2,0,L|185:169,1,170,2|0,3:2|3:0,0:0:0:0:
326,153,77138,1,10,0:1:0:0:
182,136,77300,1,0,0:0:0:0:
285,34,77462,5,2,3:1:0:0:
250,174,77624,1,0,3:0:0:0:
492,119,77786,1,8,0:0:0:0:
347,120,77948,2,0,P|342:204|345:289,1,170,2|2,3:1|3:1,0:0:0:0:
477,349,78435,2,0,P|482:306|479:264,1,85,8|0,0:0|0:0,0:0:0:0:
341,206,78759,5,2,3:1:0:0:
341,206,78840,1,0,3:0:0:0:
341,206,78921,1,0,3:0:0:0:
257,324,79084,1,10,0:1:0:0:
134,247,79246,2,0,B|16:223|16:223|58:194,1,170,2|0,3:2|3:0,0:0:0:0:
258,239,79732,2,2,P|260:281|256:323,1,85,10|0,0:1|3:0,0:1:0:0:
136,163,80057,6,0,P|133:120|137:78,1,85,8|0,0:0|3:0,0:0:0:0:
290,27,80381,2,0,P|292:69|288:111,1,85,8|0,0:0|3:0,0:0:0:0:
258,239,80705,2,0,P|299:232|342:233,1,85,0|0,3:0|1:0,0:0:0:0:
374,254,80948,1,0,1:0:0:0:
409,269,81030,1,0,1:0:0:0:
447,265,81111,1,0,1:0:0:0:
476,240,81192,1,0,1:0:0:0:
481,202,81273,1,0,1:0:0:0:
470,165,81354,6,2,P|452:248|438:332,1,170,6|8,3:1|0:0,0:1:0:0:
294,331,81840,2,2,P|239:313|149:369,1,170,2|0,3:1|3:0,0:1:0:0:
13,245,82327,2,2,P|54:251|96:245,1,85,10|0,0:1|0:0,0:1:0:0:
269,84,82651,5,2,3:1:0:0:
151,151,82813,1,0,3:0:0:0:
267,221,82975,1,8,0:0:0:0:
269,84,83138,2,2,L|245:278,1,170,2|0,3:1|3:0,0:1:0:0:
338,370,83624,2,0,P|379:362|421:366,1,85,10|0,0:1|0:0,0:0:0:0:
512,241,83948,6,0,P|470:248|428:244,1,85,2|0,3:1|0:0,0:0:0:0:
259,171,84273,1,8,0:0:0:0:
223,24,84435,2,0,P|304:18|349:85,1,170,2|0,3:2|3:0,0:0:0:0:
346,285,84921,2,0,L|337:374,1,85,10|0,0:1|0:0,0:0:0:0:
115,308,85246,5,2,3:1:0:0:
115,308,85408,2,0,P|158:313|199:303,1,85,2|8,3:2|0:0,0:0:0:0:
427,195,85732,2,2,L|258:170,1,170,0|0,3:1|3:0,0:1:0:0:
90,142,86219,1,0,1:0:0:0:
214,69,86381,1,0,1:0:0:0:
199,303,86543,5,4,3:1:0:0:
184,176,86705,1,2,0:0:0:0:
199,303,86867,1,8,0:0:0:0:
81,251,87030,2,2,L|250:276,1,170,2|0,3:1|3:0,0:1:0:0:
414,354,87516,2,0,P|428:314|427:272,1,85,8|2,0:0|0:1,0:0:0:0:
381,117,87840,5,0,3:0:0:0:
314,226,88003,1,0,3:0:0:0:
501,175,88165,1,8,0:0:0:0:
413,47,88327,2,2,P|332:56|306:132,1,170,2|0,3:1|3:0,0:1:0:0:
339,255,88813,2,0,L|239:240,1,85,8|0,0:0|3:0,0:0:0:0:
53,129,89138,6,0,P|131:156|206:121,1,170,2|8,3:2|0:0,0:0:0:0:
492,247,89624,2,0,P|413:219|338:254,1,170,0|0,3:0|3:0,0:0:0:0:
292,311,90030,1,0,3:0:0:0:
292,311,90111,2,2,L|194:310,1,85,10|0,0:1|3:0,0:1:0:0:
57,341,90435,5,4,1:0:0:0:
122,252,90597,1,0,1:0:0:0:
18,139,90759,1,0,1:0:0:0:
18,139,91084,1,0,3:0:0:0:
100,225,91246,1,0,1:0:0:0:
210,180,91408,1,2,1:0:0:0:
193,62,91570,1,0,1:0:0:0:
17,139,91732,6,2,P|-12:217|6:298,1,170,6|8,3:1|0:0,0:1:0:0:
193,326,92219,2,0,B|318:308|318:308|261:280,1,170,2|0,3:2|3:0,0:0:0:0:
209,180,92705,2,0,P|249:165|292:166,1,85,8|0,0:0|0:0,0:0:0:0:
460,193,93030,5,2,3:1:0:0:
489,325,93192,2,0,P|446:325|406:311,1,85,2|8,3:2|0:0,0:0:0:0:
292,166,93516,2,2,B|283:41|283:41|255:75,1,170,2|0,3:1|3:0,0:1:0:0:
99,143,94003,2,2,P|57:150|16:140,1,85,10|0,0:1|0:0,0:1:0:0:
59,292,94327,6,2,L|184:268,1,127.5,2|0,3:1|0:0,0:1:0:0:
260,275,94651,2,0,P|299:278|348:266,1,85,8|0,0:0|3:0,0:0:0:0:
448,157,94975,1,2,0:1:0:0:
320,71,95138,1,0,3:1:0:0:
343,267,95300,2,2,L|347:182,1,85,10|0,0:1|0:0,0:1:0:0:
447,0,95624,6,0,P|440:41|445:84,1,85,2|0,3:1|3:0,0:0:0:0:
427,268,95948,2,0,P|385:261|342:266,1,85,10|0,0:1|3:0,0:0:0:0:
181,323,96273,1,2,0:1:0:0:
258,172,96435,1,0,3:0:0:0:
43,227,96597,1,10,0:1:0:0:
93,344,96759,1,0,0:0:0:0:
261,298,96921,6,2,P|201:242|122:261,1,170,6|8,3:1|0:0,0:1:0:0:
5,143,97408,2,2,P|86:149|137:85,1,170,2|0,3:1|3:0,0:1:0:0:
266,87,97894,2,2,L|257:171,1,85,10|0,0:1|0:0,0:1:0:0:
369,343,98219,6,0,L|377:258,1,85,0|0,3:0|3:0,0:0:0:0:
386,66,98543,1,10,0:1:0:0:
503,193,98705,2,0,P|420:173|335:166,1,170,2|0,3:2|3:0,0:0:0:0:
219,295,99192,2,0,P|176:293|135:282,1,85,2|0,1:0|1:0,0:0:0:0:
32,242,99516,5,2,1:0:0:0:
121,177,99678,1,0,3:0:0:0:
76,339,99840,1,8,0:0:0:0:
204,137,100003,2,2,P|134:92|55:115,1,170,2|0,3:1|0:0,0:1:0:0:
226,267,100489,2,0,L|317:251,1,85,8|0,0:0|0:0,0:0:0:0:
469,225,100813,5,2,3:1:0:0:
385,297,100975,1,0,3:0:0:0:
414,119,101138,1,8,0:0:0:0:
444,356,101300,2,2,P|364:373|303:317,1,170,2|0,3:1|3:0,0:1:0:0:
256,179,101786,2,0,L|255:94,1,85,0|0,1:0|1:0,0:0:0:0:
354,205,102111,5,6,3:1:0:0:
163,148,102273,1,0,3:0:0:0:
257,347,102435,1,8,0:0:0:0:
256,179,102597,1,0,3:0:0:0:
109,264,102759,1,10,0:1:0:0:
270,317,102921,1,0,3:0:0:0:
248,147,103084,1,8,0:0:0:0:
136,275,103246,1,0,3:0:0:0:
304,297,103408,5,6,3:1:0:0:
196,229,103570,1,0,1:0:0:0:
196,229,103651,1,0,1:0:0:0:
196,229,103732,1,0,3:1:0:0:
353,142,103894,1,0,3:1:0:0:
278,37,104057,1,2,3:1:0:0:
297,219,104219,1,0,1:0:0:0:
297,219,104300,1,0,1:0:0:0:
297,219,104381,1,2,1:0:0:0:
202,133,104543,1,8,3:0:0:0:
234,330,104705,5,6,0:1:0:0:
256,192,104786,12,0,109246,0:0:0:0:
