osu file format v14

[General]
AudioFilename: primal.ogg
AudioLeadIn: 0
PreviewTime: 70981
Countdown: 0
SampleSet: Soft
StackLeniency: 0.7
Mode: 0
LetterboxInBreaks: 0
WidescreenStoryboard: 1

[Editor]
Bookmarks: 10693,21071,31450,41828,52206,62585,71017
DistanceSpacing: 1.1
BeatDivisor: 4
GridSize: 8
TimelineZoom: 1.5

[Metadata]
Title:primal
TitleUnicode:primal
Artist:solfa feat. Ceui
ArtistUnicode:solfa feat. Ceui
Creator:Lafayla
Version:Hinsvar's Insane
Source:PRIMAL×HEARTS
Tags:hinsvar laurier andrea osuplayer111 featured artist fa japanese pop rock opening terakomari visual novel vn marmalade eroge galgame video game chronicle -white beat- ~white beat~ ま~まれぇど primalxhearts プライマルハーツ akashic records sapphire アカシックレコード~サファイア~
BeatmapID:4529034
BeatmapSetID:2146191

[Difficulty]
HPDrainRate:5
CircleSize:3.5
OverallDifficulty:7
ApproachRate:8.5
SliderMultiplier:1.6
SliderTickRate:1

[Events]
//Background and Video events
0,0,"PrimalxHearts.jpg",0,0
Video,-76,"primalop.mp4"
//Break Periods
2,62744,67637
//Storyboard Layer 0 (Background)
//Storyboard Layer 1 (Fail)
//Storyboard Layer 2 (Pass)
//Storyboard Layer 3 (Foreground)
//Storyboard Layer 4 (Overlay)
//Storyboard Sound Samples

[TimingPoints]
274,324.324324324324,4,2,1,40,1,0
10652,-100,4,2,1,70,0,0
31409,-166.666666666667,4,2,1,50,0,0
41138,-125,4,2,1,50,0,0
41787,-125,4,2,1,60,0,0
52165,-100,4,2,1,60,0,0
62544,324.324324324324,6,2,1,40,1,0
67733,-166.666666666667,4,2,1,70,0,0
68382,324.324324324324,4,1,1,75,1,0
68382,-166.666666666667,4,1,1,75,0,0
70165,-100,4,1,1,75,0,0
70976,324.324324324324,4,2,1,80,1,1
70976,-83.3333333333333,4,2,1,80,0,1
91732,-100,4,2,1,70,0,0
109246,-100,4,2,1,40,0,0

[Colours]
Combo1 : 180,108,251
Combo2 : 151,228,253
Combo3 : 234,234,234
Combo4 : 45,120,244

[HitObjects]
32,45,10652,6,0,P|103:31|158:94,1,160,4|0,3:2|3:0,0:0:0:0:
176,220,11138,1,8,0:0:0:0:
90,272,11301,2,0,P|79:239|78:188,1,80,2|0,0:0|3:0,0:0:0:0:
257,145,11625,2,0,B|304:134|332:163|330:168|359:193|425:176,1,160,2|2,3:2|0:0,0:0:0:0:
325,264,12111,1,8,0:0:0:0:
507,318,12273,2,0,B|460:307|432:336|434:341|405:366|339:349,2,160,2|0|8,0:0|3:0|0:0,0:0:0:0:
488,23,13246,6,0,P|461:41|436:89,2,80,2|0|0,3:2|0:0|0:0,0:0:0:0:
273,128,13733,1,8,0:0:0:0:
333,45,13895,2,0,P|289:36|260:10,1,80,2|0,0:0|3:0,0:0:0:0:
72,156,14219,1,2,3:2:0:0:
72,156,14544,5,2,0:0:0:0:
0,12,14706,1,8,0:0:0:0:
149,66,14868,2,0,P|180:136|162:228,1,160,0|0,0:0|3:0,0:0:0:0:
97,357,15355,1,0,3:0:0:0:
309,295,15517,1,12,0:0:0:0:
227,341,15679,5,0,3:0:0:0:
227,341,15760,1,0,3:0:0:0:
227,341,15841,2,0,B|273:318|297:353|294:357|318:392|394:358,1,160,4|0,3:2|0:0,0:0:0:0:
476,276,16328,1,8,0:0:0:0:
490,171,16490,2,0,B|467:159|455:177|456:179|444:196|406:179,1,80,2|0,0:0|3:0,0:0:0:0:
277,207,16814,2,0,P|242:138|244:47,1,160,0|2,3:0|0:0,0:0:0:0:
334,97,17301,1,8,0:0:0:0:
150,19,17463,2,0,P|110:87|105:166,2,160,0|0|8,0:0|3:0|0:0,0:0:0:0:
198,362,18436,6,0,P|199:326|192:280,2,80,2|0|0,3:2|0:0|0:0,0:0:0:0:
98,261,18922,1,8,0:0:0:0:
296,282,19084,2,0,P|297:246|290:200,1,80,0|2,0:0|3:2,0:0:0:0:
168,100,19409,1,4,3:2:0:0:
168,100,19733,5,8,0:0:0:0:
133,17,19895,1,0,3:0:0:0:
303,9,20057,5,8,0:0:0:0:
269,92,20219,1,0,3:0:0:0:
346,157,20382,5,8,3:0:0:0:
428,123,20544,2,0,L|474:106,1,40,0|0,1:0|1:0,0:0:0:0:
495,271,20706,5,0,1:0:0:0:
475,267,20787,1,0,1:0:0:0:
455,264,20868,1,0,1:0:0:0:
435,260,20949,1,0,1:0:0:0:
416,257,21030,6,0,B|364:233|342:267|346:266|314:303|253:272,1,160,4|8,3:2|0:0,0:0:0:0:
358,360,21517,1,2,3:2:0:0:
220,197,21679,2,0,P|184:220|178:282,1,80,0|0,0:0|3:0,0:0:0:0:
77,364,22003,2,0,P|11:323|2:247,1,160,8|0,0:0|3:0,0:0:0:0:
90,195,22490,1,0,3:0:0:0:
130,53,22652,2,0,P|54:63|13:129,2,160,8|0|10,0:0|0:0|0:0,0:0:0:0:
415,124,23625,6,0,P|454:125|500:116,2,80,2|0|8,3:2|0:0|0:0,0:0:0:0:
491,19,24111,1,2,3:2:0:0:
306,94,24273,2,0,P|313:133|312:173,1,80,0|0,0:0|3:0,0:0:0:0:
312,354,24598,1,8,0:0:0:0:
312,354,24922,6,0,L|303:264,1,80,2|0,3:2|3:0,0:0:0:0:
132,327,25246,2,0,L|42:336,1,80,8|0,0:0|3:0,0:0:0:0:
93,208,25571,6,0,L|100:128,1,80,2|0,0:0|3:0,0:0:0:0:
272,181,25895,2,0,L|351:188,1,80,8|0,0:0|0:0,0:0:0:0:
498,37,26219,6,0,P|448:21|371:98,1,160,4|8,3:2|0:0,0:0:0:0:
462,131,26706,1,0,3:0:0:0:
275,75,26868,2,0,P|250:83|211:44,1,80,2|0,0:0|3:0,0:0:0:0:
30,28,27192,2,0,P|77:26|115:118,1,160,8|0,0:0|3:0,0:0:0:0:
256,170,27679,1,0,3:0:0:0:
167,215,27841,2,0,P|120:213|82:305,2,160,8|2|8,0:0|0:0|0:0,0:0:0:0:
405,360,28814,6,0,P|387:321|381:274,1,80,2|0,3:2|0:0,0:0:0:0:
284,337,29138,1,8,0:0:0:0:
349,178,29301,2,0,B|382:127|356:97|353:101|323:64|358:19,1,160,2|0,3:2|3:0,0:0:0:0:
447,61,29787,1,8,0:0:0:0:
254,143,29949,1,0,3:0:0:0:
143,28,30111,6,0,L|57:37,1,80,8|0,0:0|1:0,0:0:0:0:
116,122,30436,1,0,3:0:0:0:
208,254,30598,6,0,L|172:332,1,80,8|4,0:0|3:0,0:0:0:0:
275,323,30922,1,8,3:0:0:0:
72,241,31084,5,8,0:0:0:0:
440,143,31409,1,4,3:2:0:0:
440,143,32057,6,0,P|445:119|443:93,2,47.9999985351563,0|0|0,1:0|0:0|0:0,0:0:0:0:
342,213,32544,2,0,P|339:165|349:118,1,95.9999970703126,2|0,3:2|3:0,0:0:0:0:
379,27,33030,1,0,3:0:0:0:
133,27,33355,1,0,1:0:0:0:
133,27,33679,2,0,P|111:35|80:38,1,47.9999985351563,0|0,0:0|0:0,0:0:0:0:
41,199,34003,6,0,P|57:152|112:134,1,95.9999970703126,2|0,3:2|0:0,0:0:0:0:
192,110,34490,2,0,P|238:126|256:181,1,95.9999970703126,2|0,0:0|0:0,0:0:0:0:
281,261,34976,1,0,0:0:0:0:
130,350,35138,6,0,P|83:333|65:278,1,95.9999970703126,2|0,3:2|3:0,0:0:0:0:
156,260,35625,1,0,3:0:0:0:
391,359,35949,2,0,P|369:314|395:262,1,95.9999970703126,0|0,1:0|0:0,0:0:0:0:
493,41,36598,5,0,3:0:0:0:
493,41,37246,2,0,P|494:88|507:141,1,95.9999970703126,0|0,1:0|0:0,0:0:0:0:
419,178,37733,2,0,P|386:143|361:102,1,95.9999970703126,2|0,3:2|3:0,0:0:0:0:
277,220,38219,1,0,3:0:0:0:
277,220,38544,2,0,P|319:243|365:257,1,95.9999970703126,0|0,1:0|0:0,0:0:0:0:
461,272,39030,1,0,0:0:0:0:
295,335,39192,6,0,P|258:335|218:375,1,95.9999970703126,2|0,3:2|0:0,0:0:0:0:
62,353,39679,2,0,P|98:352|138:312,1,95.9999970703126,2|0,0:0|0:0,0:0:0:0:
60,256,40165,2,0,P|27:169|67:84,1,191.999994140625,2|0,0:0|3:0,0:0:0:0:
368,215,41138,6,0,L|362:152,1,64,0|0,1:0|3:0,0:0:0:0:
252,33,41463,2,0,L|258:96,1,64,0|0,1:0|3:0,0:0:0:0:
169,209,41787,6,0,P|149:182|117:169,2,64,4|0|0,3:2|0:0|1:0,0:0:0:0:
85,257,42273,1,2,0:0:0:0:
248,338,42436,2,0,P|258:301|257:260,1,64,0|0,3:0|3:0,0:0:0:0:
365,179,42760,1,0,1:0:0:0:
428,107,42922,2,0,P|373:32|281:47,1,192,0|0,0:0|1:0,0:0:0:0:
190,69,43571,1,0,3:0:0:0:
83,101,43733,2,0,L|89:36,1,64,2|0,0:0|3:0,0:0:0:0:
230,165,44057,2,0,L|224:230,1,64,0|0,1:0|0:0,0:0:0:0:
45,192,44382,6,0,P|93:209|129:274,1,128,2|0,3:2|1:0,0:0:0:0:
266,370,44868,2,0,P|283:321|348:285,1,128,2|0,0:0|3:0,0:0:0:0:
175,356,45355,1,0,1:0:0:0:
309,200,45517,2,0,P|233:190|146:106,1,192,2|0,0:0|1:0,0:0:0:0:
243,88,46165,2,0,P|233:50|234:14,1,64,0|2,3:0|0:0,0:0:0:0:
403,89,46490,2,0,P|401:120|392:151,2,64,0|0|0,3:0|1:0|0:0,0:0:0:0:
333,9,46976,5,4,3:2:0:0:
508,26,47138,1,0,0:0:0:0:
491,201,47301,2,0,B|477:245|491:267|495:262|511:285|494:334,1,128,0|0,1:0|3:0,0:0:0:0:
377,261,47787,1,0,3:0:0:0:
288,298,47949,2,0,P|271:263|241:248,1,64,0|0,1:0|0:0,0:0:0:0:
134,345,48273,5,2,3:2:0:0:
134,345,48598,2,0,L|214:329,1,64,0|0,1:0|3:0,0:0:0:0:
63,266,48922,2,0,L|-17:282,1,64,2|0,0:0|3:0,0:0:0:0:
145,179,49246,2,0,L|129:99,1,64,0|0,1:0|0:0,0:0:0:0:
14,189,49571,6,0,P|37:140|33:63,1,128,2|0,3:2|1:0,0:0:0:0:
256,23,50057,2,0,P|233:72|237:149,1,128,2|0,0:0|3:0,0:0:0:0:
378,96,50544,1,0,1:0:0:0:
378,96,50706,1,0,0:0:0:0:
490,211,50868,6,0,P|423:195|358:186,1,128,2|0,3:2|1:0,0:0:0:0:
340,351,51355,2,0,P|407:367|472:376,1,128,2|0,3:2|3:0,0:0:0:0:
415,281,51841,1,0,1:0:0:0:
256,291,52003,5,0,1:0:0:0:
256,291,52084,1,0,1:0:0:0:
256,291,52165,2,0,B|279:243|250:210|247:214|217:184|242:131,1,160,4|0,3:2|1:0,0:0:0:0:
247,39,52652,1,0,0:0:0:0:
110,71,52814,2,0,P|68:62|36:36,2,80,2|0|0,0:0|3:0|1:0,0:0:0:0:
46,187,53301,1,0,0:0:0:0:
11,281,53463,6,0,L|97:271,1,80,2|0,3:2|3:0,0:0:0:0:
256,374,53787,1,0,1:0:0:0:
133,379,53949,2,0,B|178:345|173:308|172:311|167:274|217:242,1,160,2|0,3:2|3:0,0:0:0:0:
339,71,54436,2,0,B|317:88|319:107|320:105|322:124|300:138,1,80,0|0,1:0|0:0,0:0:0:0:
440,16,54760,6,0,P|498:49|486:145,1,160,2|0,3:2|1:0,0:0:0:0:
399,160,55246,1,0,0:0:0:0:
421,358,55409,2,0,P|418:320|412:276,2,80,2|0|0,0:0|3:0|1:0,0:0:0:0:
512,317,55895,1,0,0:0:0:0:
320,371,56057,6,0,L|236:350,1,80,2|0,3:2|0:0,0:0:0:0:
305,245,56382,1,0,1:0:0:0:
447,102,56544,2,0,L|280:149,1,160,2|0,3:2|3:0,0:0:0:0:
147,82,57030,2,0,P|118:62|114:15,1,80,0|0,1:0|0:0,0:0:0:0:
339,39,57355,5,4,3:2:0:0:
401,209,57517,1,0,3:0:0:0:
339,39,57679,2,0,P|275:84|266:161,1,160,0|0,1:0|0:0,0:0:0:0:
266,161,58328,1,0,1:0:0:0:
215,372,58490,6,0,P|206:313|182:213,1,160,0|0,0:0|3:0,0:0:0:0:
299,283,58976,1,0,1:0:0:0:
168,121,59138,2,0,P|109:130|9:154,1,160,2|0,3:2|3:0,0:0:0:0:
27,353,59625,2,0,P|78:353|100:288,1,120,0|0,1:0|0:0,0:0:0:0:
102,295,59949,5,2,3:2:0:0:
272,185,60111,1,2,3:2:0:0:
111,205,60273,2,0,P|147:216|268:303,1,160,0|2,1:0|0:0,0:0:0:0:
378,370,60760,1,0,3:0:0:0:
386,274,60922,2,0,P|386:254|413:185,1,80,0|0,1:0|0:0,0:0:0:0:
476,24,61246,5,2,3:2:0:0:
476,24,61409,2,0,L|490:107,1,80,0|0,3:0|1:0,0:0:0:0:
325,23,61733,2,0,L|227:160,1,160,2|0,3:2|3:0,0:0:0:0:
384,112,62219,1,0,1:0:0:0:
203,18,62382,2,0,L|120:32,1,80,0|2,1:0|0:2,0:0:0:0:
193,262,68382,5,4,1:0:0:0:
193,262,69517,1,0,3:0:0:0:
193,262,69598,1,0,3:0:0:0:
193,262,69679,2,0,P|171:272|141:269,2,47.9999985351563,2|0|0,0:0|3:0|3:0,0:0:0:0:
319,122,70165,6,0,P|355:104|404:108,2,80,2|0|0,0:0|3:0|3:0,0:0:0:0:
123,176,70652,1,0,0:0:0:0:
83,175,70733,1,0,0:0:0:0:
49,155,70814,1,0,0:0:0:0:
28,121,70895,1,0,0:0:0:0:
26,82,70976,6,2,B|90:92|117:59|116:52|140:17|211:35,1,191.999994140625,6|0,3:1|1:0,0:1:0:0:
261,217,71462,2,0,P|257:269|241:322,1,95.9999970703126,2|0,3:1|0:0,0:0:0:0:
165,254,71786,1,0,3:0:0:0:
353,280,71948,2,0,P|405:283|458:300,1,95.9999970703126,10|0,0:1|0:0,0:0:0:0:
491,136,72273,6,2,P|419:186|326:129,1,191.999994140625,2|8,3:1|0:0,0:1:0:0:
109,61,72759,2,2,P|181:11|274:68,1,191.999994140625,2|0,3:1|3:0,0:1:0:0:
177,228,73246,1,10,0:1:0:0:
78,296,73408,1,0,0:0:0:0:
9,198,73570,6,2,L|106:160,1,95.9999970703126,2|0,3:1|0:0,0:1:0:0:
279,227,73894,2,0,L|314:316,1,95.9999970703126,8|0,0:0|3:0,0:0:0:0:
402,277,74219,2,2,L|367:188,1,95.9999970703126,2|0,0:1|3:0,0:1:0:0:
137,250,74543,2,2,L|48:285,1,95.9999970703126,10|0,0:1|0:0,0:1:0:0:
49,70,74867,6,2,P|123:47|196:133,1,191.999994140625,2|8,3:1|0:0,0:1:0:0:
431,14,75354,1,0,3:0:0:0:
324,67,75516,2,2,P|381:138|470:119,1,191.999994140625,2|8,0:1|0:0,0:1:0:0:
187,373,76165,5,4,3:1:0:0:
187,373,76489,2,2,L|182:275,1,95.9999970703126,8|0,0:0|3:0,0:1:0:0:
112,150,76813,2,2,L|24:105,1,95.9999970703126,2|0,0:1|3:0,0:1:0:0:
280,242,77138,2,0,L|367:286,1,95.9999970703126,8|0,0:0|0:0,0:0:0:0:
209,114,77462,6,2,P|229:31|327:42,1,191.999994140625,2|8,3:1|0:0,0:1:0:0:
451,141,77948,1,2,3:1:0:0:
330,134,78111,1,0,0:0:0:0:
323,255,78273,2,2,B|385:248|405:295|400:296|417:340|493:329,1,191.999994140625,2|0,3:1|0:0,0:1:0:0:
321,358,78759,6,0,P|237:350|132:369,1,191.999994140625,2|10,3:1|0:1,0:0:0:0:
44,184,79246,1,0,0:0:0:0:
0,280,79408,2,2,P|42:284|94:274,1,95.9999970703126,2|0,0:1|3:0,0:1:0:0:
226,190,79732,1,10,0:1:0:0:
226,190,80057,6,0,L|247:88,1,95.9999970703126,8|0,0:0|3:0,0:0:0:0:
122,18,80381,2,0,L|128:121,1,95.9999970703126,8|0,0:0|3:0,0:0:0:0:
348,227,80705,5,0,3:0:0:0:
444,213,80867,2,0,L|428:167,1,47.9999985351563,0|0,1:0|1:0,0:0:0:0:
341,44,81030,5,0,1:0:0:0:
363,36,81111,1,0,1:0:0:0:
386,28,81192,1,0,1:0:0:0:
409,21,81273,1,0,1:0:0:0:
432,13,81354,6,2,P|421:117|344:130,1,191.999994140625,6|8,3:1|0:0,0:1:0:0:
152,17,81840,2,2,P|202:16|244:37,1,95.9999970703126,2|0,3:1|0:0,0:1:0:0:
253,194,82165,1,0,3:0:0:0:
314,271,82327,2,2,P|271:291|223:289,1,95.9999970703126,10|0,0:1|0:0,0:1:0:0:
50,377,82651,6,2,P|31:299|35:183,1,191.999994140625,2|8,3:1|0:0,0:1:0:0:
122,16,83138,2,2,P|141:94|137:210,1,191.999994140625,2|0,3:1|3:0,0:1:0:0:
282,365,83624,1,10,0:1:0:0:
425,343,83786,1,0,0:0:0:0:
403,200,83948,6,2,L|504:186,1,95.9999970703126,2|0,3:1|0:0,0:1:0:0:
381,15,84273,2,0,L|395:116,1,95.9999970703126,8|0,0:0|3:0,0:0:0:0:
198,205,84597,2,2,L|299:217,1,95.9999970703126,2|0,0:1|3:0,0:1:0:0:
223,19,84922,2,2,L|210:120,1,95.9999970703126,10|0,0:1|0:0,0:1:0:0:
0,159,85246,6,2,B|64:185|55:231|51:231|46:278|108:302,1,191.999994140625,2|8,3:1|0:0,0:1:0:0:
323,345,85732,1,0,3:0:0:0:
171,379,85894,2,2,B|233:355|227:307|223:307|215:262|279:235,1,191.999994140625,2|0,0:1|1:0,0:1:0:0:
503,11,86543,5,4,3:1:0:0:
503,11,86867,1,8,0:0:0:0:
389,136,87030,1,0,3:0:0:0:
264,22,87192,2,2,B|216:5|176:40|180:45|135:83|82:53,1,191.999994140625,2|8,0:1|0:0,0:1:0:0:
0,7,87678,1,2,0:1:0:0:
130,164,87840,6,0,P|199:166|243:271,1,191.999994140625,0|8,3:0|0:0,0:0:0:0:
96,369,88327,1,0,3:0:0:0:
29,285,88489,2,2,P|76:276|137:269,1,95.9999970703126,2|0,0:1|3:0,0:1:0:0:
256,374,88813,1,8,0:0:0:0:
389,270,88975,1,2,3:1:0:0:
470,373,89138,6,0,B|507:342|486:288|490:286|470:226|508:177,1,191.999994140625,2|8,3:2|0:0,0:0:0:0:
396,132,89624,1,0,3:0:0:0:
272,18,89786,2,0,B|301:54|281:114|285:116|264:170|301:201,1,191.999994140625,0|10,0:0|0:1,0:0:0:0:
69,371,90435,5,4,1:0:0:0:
8,301,90597,1,0,1:0:0:0:
8,301,90678,1,0,1:0:0:0:
8,301,90759,1,0,1:0:0:0:
55,221,90921,1,2,3:1:0:0:
55,221,91003,1,0,3:0:0:0:
55,221,91084,1,0,3:0:0:0:
145,241,91245,1,0,1:0:0:0:
144,333,91408,2,0,P|189:349|247:344,1,95.9999970703126,2|0,1:0|1:0,0:0:0:0:
439,353,91732,6,2,P|363:355|319:291,1,160,6|8,3:1|0:0,0:1:0:0:
413,159,92219,1,0,3:0:0:0:
426,59,92381,2,2,P|463:57|486:90,1,80,2|0,0:1|3:0,0:1:0:0:
302,197,92705,2,0,B|311:139|282:119|283:115|251:91|263:27,1,160,8|2,0:0|3:1,0:0:0:0:
127,131,93192,1,0,0:0:0:0:
171,18,93354,2,0,B|113:8|93:37|89:36|65:68|1:56,2,160,8|0|10,0:0|0:0|0:1,0:0:0:0:
145,337,94327,6,0,P|135:294|136:254,2,80,2|0|8,3:1|0:0|0:0,0:0:0:0:
71,191,94813,1,0,3:0:0:0:
230,285,94975,2,0,P|264:304|302:316,1,80,2|0,2:0|3:1,0:0:0:0:
477,192,95300,1,10,0:1:0:0:
477,192,95624,5,2,3:1:0:0:
310,225,95786,1,0,3:0:0:0:
298,35,95948,2,2,P|364:66|382:149,1,160,10|2,0:1|0:0,0:1:0:0:
506,362,96435,1,0,3:0:0:0:
413,352,96597,5,10,0:1:0:0:
408,332,96678,1,2,0:0:0:0:
405,312,96759,1,2,0:0:0:0:
403,292,96840,1,2,2:0:0:0:
403,272,96921,6,2,P|315:290|316:368,1,160,6|8,3:1|0:0,0:1:0:0:
145,247,97408,1,2,3:1:0:0:
167,373,97570,2,0,P|123:364|123:325,1,80,2|0,0:0|3:0,0:0:0:0:
32,105,97894,2,2,P|111:108|171:159,1,160,10|0,0:1|3:0,0:1:0:0:
392,108,98381,1,0,3:0:0:0:
314,196,98543,2,0,P|277:126|290:48,2,160,10|2|0,0:1|0:1|1:0,0:0:0:0:
85,359,99516,6,0,P|60:325|3:318,2,80,2|0|8,1:0|3:0|0:0,0:0:0:0:
168,198,100003,2,2,P|164:127|176:24,1,160,2|0,3:1|0:0,0:1:0:0:
257,128,100489,1,8,0:0:0:0:
457,78,100651,2,2,P|460:148|449:252,1,160,2|0,0:1|3:0,0:1:0:0:
368,148,101137,1,8,0:0:0:0:
322,354,101300,6,2,P|234:346|179:278,1,160,2|0,3:1|3:0,0:1:0:0:
15,176,101786,2,0,P|59:180|86:214,1,80,0|0,1:0|1:0,0:0:0:0:
318,253,102111,5,6,3:1:0:0:
214,160,102273,1,0,3:0:0:0:
307,56,102435,1,8,0:0:0:0:
411,149,102597,2,0,P|448:156|492:156,2,80,0|10|0,3:0|0:1|3:0,0:0:0:0:
439,334,103084,2,0,P|446:297|446:253,1,80,8|0,0:0|3:0,0:0:0:0:
454,50,103408,5,6,3:1:0:0:
306,18,103570,1,0,1:0:0:0:
306,18,103651,1,0,1:0:0:0:
306,18,103732,1,0,3:1:0:0:
229,148,103895,1,0,3:1:0:0:
229,148,103976,1,0,3:0:0:0:
229,148,104057,1,2,3:1:0:0:
328,261,104219,1,0,1:0:0:0:
328,261,104300,1,0,1:0:0:0:
328,261,104381,1,2,1:0:0:0:
467,201,104543,1,8,3:0:0:0:
357,135,104705,5,6,0:1:0:0:
256,192,104867,12,2,109246,0:0:0:0:
