osu file format v14

[General]
AudioFilename: primal.ogg
AudioLeadIn: 0
PreviewTime: 70981
Countdown: 0
SampleSet: Soft
StackLeniency: 0.7
Mode: 0
LetterboxInBreaks: 0
WidescreenStoryboard: 0

[Editor]
Bookmarks: 10693,21071,31450,41828,71017
DistanceSpacing: 1
BeatDivisor: 4
GridSize: 4
TimelineZoom: 2.699999

[Metadata]
Title:primal
TitleUnicode:primal
Artist:solfa feat. Ceui
ArtistUnicode:solfa feat. Ceui
Creator:Lafayla
Version:Heart
Source:PRIMAL×HEARTS
Tags:hinsvar laurier andrea osuplayer111 featured artist fa japanese pop rock opening terakomari visual novel vn marmalade eroge galgame video game chronicle -white beat- ~white beat~ ま~まれぇど primalxhearts プライマルハーツ akashic records sapphire アカシックレコード~サファイア~
BeatmapID:4520633
BeatmapSetID:2146191

[Difficulty]
HPDrainRate:6
CircleSize:4.2
OverallDifficulty:8
ApproachRate:9
SliderMultiplier:1.8
SliderTickRate:1

[Events]
//Background and Video events
0,0,"PrimalxHearts.jpg",0,0
Video,-76,"primalop.mp4"
//Break Periods
2,62744,67619
//Storyboard Layer 0 (Background)
//Storyboard Layer 1 (Fail)
//Storyboard Layer 2 (Pass)
//Storyboard Layer 3 (Foreground)
//Storyboard Layer 4 (Overlay)
//Storyboard Sound Samples

[TimingPoints]
274,324.324324324324,4,2,1,40,1,0
274,-133.333333333333,4,2,1,40,0,0
5463,-117.647058823529,4,2,1,45,0,0
10652,-100,4,2,1,70,0,0
31409,-133.333333333333,4,2,1,50,0,0
41787,-111.111111111111,4,2,1,60,0,0
62544,324.324324324324,6,2,1,40,1,0
67733,-100,6,2,1,70,0,0
68382,324.324324324324,4,1,1,75,1,0
70976,324.324324324324,4,2,1,80,1,0
70976,-100,4,2,1,80,0,1
91732,-100,4,2,1,70,0,0
109246,-100,4,2,1,40,0,0

[Colours]
Combo1 : 180,108,251
Combo2 : 151,228,253
Combo3 : 234,234,234
Combo4 : 45,120,244

[HitObjects]
195,138,274,6,0,L|179:208,1,67.5000025749208,2|0,0:0|0:0,0:0:0:0:
250,251,598,1,0,0:0:0:0:
127,285,760,2,0,P|94:295|61:302,1,67.5000025749208,2|0,0:0|0:0,0:0:0:0:
92,204,1084,1,0,0:0:0:0:
279,250,1246,2,0,P|310:192|296:127,1,135.000005149842,2|0,0:0|0:0,0:0:0:0:
401,174,1733,2,0,P|433:166|466:156,1,67.5000025749208,2|0,0:0|0:0,0:0:0:0:
512,48,2057,1,0,0:0:0:0:
399,17,2219,2,0,P|389:49|382:82,1,67.5000025749208,2|0,0:0|0:0,0:0:0:0:
428,292,2544,1,0,0:0:0:0:
481,197,2706,1,0,0:0:0:0:
310,279,2868,6,0,B|265:301|215:285|215:285|180:249,1,135.000005149842,2|0,0:0|0:0,0:0:0:0:
273,178,3355,2,0,B|297:146|297:146|299:51,1,135.000005149842,2|0,0:0|0:0,0:0:0:0:
184,172,3841,2,0,L|188:105,1,67.5000025749208,2|0,0:0|0:0,0:0:0:0:
113,221,4165,1,0,0:0:0:0:
273,178,4328,2,0,L|269:245,1,67.5000025749208,2|0,0:0|0:0,0:0:0:0:
188,360,4652,2,0,P|178:327|172:294,1,67.5000025749208,0|0,0:0|0:0,0:0:0:0:
435,270,4976,2,0,P|385:313|319:310,1,135.000005149842,2|0,0:0|0:0,0:0:0:0:
268,245,5463,5,2,0:0:0:0:
369,149,5625,1,0,0:0:0:0:
436,243,5787,2,0,L|512:234,1,76.5000014591217,2|0,0:0|0:0,0:0:0:0:
507,136,6111,1,0,0:0:0:0:
323,220,6273,2,0,P|276:217|246:211,1,76.5000014591217,2|0,0:0|0:0,0:0:0:0:
82,95,6598,1,0,0:0:0:0:
217,40,6760,5,2,0:0:0:0:
150,170,6922,1,0,0:0:0:0:
82,95,7084,1,0,0:0:0:0:
255,138,7246,2,0,P|254:179|250:214,1,76.5000014591217,2|0,0:0|0:0,0:0:0:0:
108,302,7571,1,0,0:0:0:0:
169,165,7733,1,2,0:0:0:0:
227,303,7895,1,0,0:0:0:0:
108,302,8057,6,0,P|70:296|30:287,1,76.5000014591217,2|0,0:0|0:0,0:0:0:0:
75,128,8382,2,0,L|89:203,1,76.5000014591217,2|0,0:0|0:0,0:0:0:0:
213,278,8706,1,0,0:0:0:0:
254,176,8868,2,0,P|216:165|179:158,1,76.5000014591217,2|0,0:0|0:0,0:0:0:0:
137,288,9192,1,0,0:0:0:0:
295,331,9355,2,0,P|300:289|298:251,1,76.5000014591217,2|0,0:0|0:0,0:0:0:0:
468,158,9679,2,0,P|462:199|464:237,1,76.5000014591217,2|0,0:0|0:0,0:0:0:0:
344,94,10003,2,0,P|349:131|347:169,1,76.5000014591217
372,353,10328,2,0,P|386:317|394:280,1,76.5000014591217,2|0,0:0|0:0,0:0:0:0:
124,236,10652,6,0,P|180:170|267:178,1,180,4|0,3:2|3:0,3:0:0:0:
234,352,11138,1,8,0:0:0:0:
104,345,11301,2,0,P|59:340|15:330,1,90,2|0,0:0|3:0,0:0:0:0:
219,263,11625,2,0,L|233:351,1,90,2|0,3:2|3:0,0:0:0:0:
124,242,11949,5,2,0:0:0:0:
223,134,12111,1,8,0:0:0:0:
139,37,12273,2,0,P|123:153|124:221,1,180,2|0,0:0|3:0,0:0:0:0:
223,134,12760,1,0,3:0:0:0:
51,21,12922,2,0,P|42:72|38:112,1,90,8|0,0:0|0:0,0:0:0:0:
266,256,13246,6,0,B|321:288|384:266|384:266|424:225,1,180,2|0,3:2|0:0,0:0:0:0:
468,68,13733,1,8,0:0:0:0:
512,178,13895,1,0,3:0:0:0:
512,178,13976,1,0,3:0:0:0:
512,178,14057,1,0,3:0:0:0:
349,173,14219,2,0,L|259:156,1,90,2|0,3:2|3:0,0:0:0:0:
29,250,14544,6,0,P|73:247|115:231,1,90,2|8,0:0|0:0,0:0:0:0:
122,33,14868,2,0,P|122:77|128:122,1,90,0|0,0:0|3:0,0:0:0:0:
206,295,15192,1,0,3:0:0:0:
233,301,15273,1,0,3:0:0:0:
261,301,15355,1,0,3:0:0:0:
289,299,15436,1,0,3:0:0:0:
315,288,15517,2,0,L|325:240,1,45,12|0,0:0|0:0,0:0:0:0:
252,161,15679,2,0,L|249:114,1,45,0|0,3:0|0:0,0:0:0:0:
509,166,15841,6,0,P|423:183|350:134,1,180,4|0,3:2|0:0,0:0:0:0:
418,43,16328,1,8,0:0:0:0:
509,166,16490,2,0,L|498:255,1,90,2|0,0:0|3:0,0:0:0:0:
323,114,16814,1,0,3:0:0:0:
359,297,16976,1,2,3:2:0:0:
412,193,17138,5,2,0:0:0:0:
252,192,17301,2,0,P|202:187|163:178,1,90,8|0,0:0|0:0,0:0:0:0:
50,112,17625,1,0,3:0:0:0:
227,71,17787,1,0,3:0:0:0:
168,262,17949,1,0,3:0:0:0:
130,74,18111,1,8,0:0:0:0:
252,192,18273,1,0,0:0:0:0:
45,192,18436,6,0,L|35:397,1,180,2|0,3:2|0:0,0:0:0:0:
238,247,18922,2,0,P|194:235|149:236,1,90,8|0,0:0|0:0,0:0:0:0:
178,365,19246,1,2,3:2:0:0:
365,361,19409,2,0,B|406:324|406:324|410:189,1,180,4|8,3:2|0:0,0:0:0:0:
273,176,19895,1,0,3:0:0:0:
388,120,20057,1,8,0:0:0:0:
179,18,20219,1,0,3:0:0:0:
312,74,20382,1,8,3:0:0:0:
135,231,20544,5,0,1:0:0:0:
108,238,20625,1,0,1:0:0:0:
82,240,20706,1,0,1:0:0:0:
56,235,20787,1,0,1:0:0:0:
34,218,20868,1,0,1:0:0:0:
22,194,20949,1,0,1:0:0:0:
12,170,21030,2,0,P|5:118|5:61,1,90,4|0,3:2|0:0,0:0:0:0:
142,139,21355,1,8,0:0:0:0:
232,45,21517,2,0,L|142:38,1,90,2|0,3:2|0:0,0:0:0:0:
127,169,21841,1,0,3:0:0:0:
316,173,22003,6,0,B|382:165|382:165|417:142|417:142|501:138,1,180,8|0,0:0|3:0,0:0:0:0:
361,298,22490,1,0,3:0:0:0:
241,265,22652,2,0,P|224:218|219:169,1,90,8|0,0:0|3:0,0:0:0:0:
259,0,22976,1,0,0:0:0:0:
308,140,23138,1,0,3:0:0:0:
121,102,23301,2,0,L|210:95,1,90,10|0,0:0|0:0,0:0:0:0:
504,200,23625,6,0,P|440:153|340:174,1,180,2|8,3:2|0:0,0:0:0:0:
338,317,24111,2,0,P|382:314|426:304,1,90,2|0,3:2|0:0,0:0:0:0:
394,192,24436,1,0,3:0:0:0:
205,260,24598,2,0,P|160:257|116:247,1,90,8|0,0:0|0:0,0:0:0:0:
276,208,24922,5,2,3:2:0:0:
207,344,25084,1,0,3:0:0:0:
116,247,25246,2,0,L|102:150,1,90,8|0,0:0|3:0,0:0:0:0:
212,23,25571,2,0,P|226:71|228:112,1,90,2|0,0:0|3:0,0:0:0:0:
25,46,25895,2,0,L|120:56,1,90,8|0,0:0|0:0,0:0:0:0:
296,239,26219,6,0,B|340:227|340:227|369:165|334:95,1,180,4|8,3:2|0:0,0:0:0:0:
195,179,26706,1,0,3:0:0:0:
228,316,26868,2,0,L|317:327,1,90,2|0,0:0|3:0,0:0:0:0:
101,356,27192,2,0,P|54:292|75:192,1,180,8|0,0:0|3:0,0:0:0:0:
202,290,27679,5,0,3:0:0:0:
229,177,27841,2,0,P|232:132|227:87,1,90,8|0,0:0|3:0,0:0:0:0:
63,85,28165,2,0,P|98:112|139:131,1,90,2|0,0:0|3:0,0:0:0:0:
413,55,28490,2,0,L|321:44,1,90,8|0,0:0|0:0,0:0:0:0:
334,140,28733,5,2,0:0:0:0:
334,140,28814,2,0,P|335:183|354:246,1,90,2|0,3:2|0:0,0:0:0:0:
435,160,29138,1,8,0:0:0:0:
260,271,29301,2,0,L|79:258,1,180,2|0,3:2|3:0,0:0:0:0:
183,139,29787,1,8,0:0:0:0:
14,73,29949,5,0,3:0:0:0:
14,73,30030,1,0,3:0:0:0:
14,73,30111,1,8,0:0:0:0:
80,258,30273,1,0,1:0:0:0:
107,102,30436,1,0,3:0:0:0:
0,264,30598,1,8,0:0:0:0:
164,217,30760,1,4,3:0:0:0:
17,110,30922,1,8,3:0:0:0:
133,44,31084,2,0,P|138:88|135:133,1,90,8|0,0:0|0:0,0:0:0:0:
251,154,31409,6,0,L|319:147,1,67.5000025749208,4|0,3:2|0:0,0:0:0:0:
409,67,31733,2,0,L|342:60,1,67.5000025749208
472,142,32057,2,0,P|502:83|496:16,1,135.000005149842,0|0,1:0|0:0,0:0:0:0:
396,174,32544,2,0,L|376:307,1,135.000005149842,2|0,3:2|3:0,0:0:0:0:
450,362,33030,2,0,L|461:295,1,67.5000025749208,0|0,3:0|0:0,0:0:0:0:
295,313,33355,6,0,P|228:324|166:279,1,135.000005149842,0|0,1:0|0:0,0:0:0:0:
193,204,33841,1,0,0:0:0:0:
298,149,34003,2,0,P|291:182|281:214,1,67.5000025749208,2|0,3:2|0:0,0:0:0:0:
173,290,34328,1,0,0:0:0:0:
73,249,34490,2,0,P|79:282|88:314,1,67.5000025749208,2|0,0:0|1:0,0:0:0:0:
157,200,34814,2,0,L|138:135,1,67.5000025749208,0|0,0:0|0:0,0:0:0:0:
234,129,35138,6,0,P|300:121|357:86,1,135.000005149842,2|0,3:2|3:0,0:0:0:0:
505,57,35625,2,0,P|471:51|440:37,1,67.5000025749208,0|0,3:0|0:0,0:0:0:0:
481,137,35949,2,0,P|492:168|496:202,1,67.5000025749208,0|0,1:0|0:0,0:0:0:0:
321,152,36273,2,0,L|395:139,1,67.5000025749208,0|0,0:0|0:0,0:0:0:0:
190,243,36598,1,0,3:0:0:0:
190,243,36922,6,0,L|176:326,1,67.5000025749208,0|0,0:0|0:0,0:0:0:0:
281,220,37246,2,0,P|291:172|234:90,1,135.000005149842,0|0,1:0|0:0,0:0:0:0:
121,127,37733,2,0,P|149:144|180:158,1,67.5000025749208,2|0,3:2|0:0,0:0:0:0:
119,39,38057,1,0,3:0:0:0:
16,137,38219,2,0,P|15:103|18:69,1,67.5000025749208,0|0,3:0|0:0,0:0:0:0:
112,229,38544,6,0,P|108:296|95:362,1,135.000005149842,0|0,1:0|0:0,0:0:0:0:
199,275,39030,1,0,0:0:0:0:
318,347,39192,2,0,P|284:347|250:344,1,67.5000025749208,2|0,3:2|0:0,0:0:0:0:
312,235,39517,1,0,0:0:0:0:
440,324,39679,2,0,B|457:283|457:283|451:189,1,135.000005149842,2|0,0:0|0:0,0:0:0:0:
369,7,40165,2,0,L|374:142,1,135.000005149842,2|0,0:0|0:0,0:0:0:0:
278,137,40652,5,0,3:0:0:0:
169,42,40814,2,0,P|200:53|233:61,1,67.5000025749208,0|0,3:0|0:0,0:0:0:0:
36,46,41138,1,0,1:0:0:0:
112,170,41301,1,0,3:0:0:0:
19,27,41463,1,0,1:0:0:0:
0,192,41625,5,0,3:0:0:0:
0,192,41706,1,0,3:0:0:0:
0,192,41787,2,0,B|65:194|65:194|107:215|107:215|178:204,1,161.999995056153,4|0,3:2|1:0,0:0:0:0:
268,316,42273,2,0,P|215:304|190:289,1,80.9999975280763,2|0,0:0|3:0,0:0:0:0:
283,210,42598,1,0,3:0:0:0:
368,272,42760,2,0,L|363:352,1,80.9999975280763,0|0,1:0|0:0,0:0:0:0:
427,176,43084,6,0,P|423:120|418:91,1,80.9999975280763,2|0,3:2|3:0,0:0:0:0:
371,241,43409,1,0,1:0:0:0:
497,108,43571,1,0,3:0:0:0:
353,140,43733,2,0,P|312:141|272:134,1,80.9999975280763,2|0,0:0|3:0,0:0:0:0:
110,49,44057,2,0,P|112:83|124:129,1,80.9999975280763,0|0,1:0|0:0,0:0:0:0:
191,334,44382,6,0,P|218:248|184:173,1,161.999995056153,2|0,3:2|1:0,0:0:0:0:
0,225,44868,2,0,B|14:254|14:254|83:283|138:252,1,161.999995056153,2|0,0:0|3:0,0:0:0:0:
170,113,45355,1,0,1:0:0:0:
90,49,45517,2,0,P|76:87|72:127,1,80.9999975280763,2|0,0:0|3:0,0:0:0:0:
121,226,45841,1,0,3:0:0:0:
275,177,46003,2,0,L|177:186,1,80.9999975280763,0|0,1:0|3:0,0:0:0:0:
317,308,46328,2,0,P|356:300|393:284,1,80.9999975280763,2|0,0:0|3:0,0:0:0:0:
505,193,46652,2,0,P|467:177|428:169,1,80.9999975280763,0|0,1:0|0:0,0:0:0:0:
232,261,46976,6,0,P|187:196|206:119,1,161.999995056153,4|0,3:2|1:0,0:0:0:0:
346,40,47463,1,0,0:0:0:0:
397,118,47625,2,0,L|387:198,1,80.9999975280763,0|0,3:0|3:0,0:0:0:0:
206,119,47949,2,0,P|245:111|286:108,1,80.9999975280763,0|0,1:0|0:0,0:0:0:0:
161,231,48273,6,0,L|-12:218,1,161.999995056153,2|0,3:2|1:0,0:0:0:0:
109,109,48760,1,0,3:0:0:0:
243,196,48922,2,0,P|256:234|264:276,1,80.9999975280763,2|0,0:0|3:0,0:0:0:0:
103,348,49246,2,0,P|141:334|180:326,1,80.9999975280763,0|0,1:0|0:0,0:0:0:0:
479,357,49571,6,0,P|416:309|338:321,1,161.999995056153,2|0,3:2|1:0,0:0:0:0:
447,227,50057,2,0,L|436:146,1,80.9999975280763,2|0,0:0|3:0,0:0:0:0:
376,11,50382,1,0,3:0:0:0:
335,178,50544,2,0,L|339:97,1,80.9999975280763,0|0,1:0|0:0,0:0:0:0:
97,150,50868,2,0,B|208:162|208:162|248:132,1,161.999995056153,2|0,3:2|1:0,0:0:0:0:
235,253,51355,2,0,P|232:293|236:333,1,80.9999975280763,2|0,3:2|0:0,0:0:0:0:
315,201,51679,1,0,3:0:0:0:
150,333,51841,1,0,1:0:0:0:
334,357,52003,5,0,1:0:0:0:
362,355,52084,1,0,1:0:0:0:
390,349,52165,1,4,3:2:0:0:
235,253,52328,2,0,B|210:209|210:209|199:150|217:97,1,161.999995056153,2|0,3:2|0:0,0:0:0:0:
339,188,52814,1,2,0:0:0:0:
411,66,52976,1,0,3:0:0:0:
297,97,53138,2,0,P|256:100|216:97,1,80.9999975280763,0|0,1:0|0:0,0:0:0:0:
40,39,53463,5,2,3:2:0:0:
188,15,53625,1,0,3:0:0:0:
100,185,53787,1,0,1:0:0:0:
10,138,53949,2,0,L|8:57,1,80.9999975280763,2|0,3:2|0:0,0:0:0:0:
113,100,54273,1,0,3:0:0:0:
17,243,54436,2,0,P|86:281|165:269,1,161.999995056153,0|2,1:0|3:2,0:0:0:0:
329,148,54922,6,0,P|329:188|325:228,1,80.9999975280763,0|0,3:0|1:0,0:0:0:0:
251,299,55246,1,0,0:0:0:0:
163,186,55409,2,0,P|202:178|243:175,1,80.9999975280763,2|0,0:0|3:0,0:0:0:0:
482,296,55733,2,0,L|401:285,1,80.9999975280763,0|0,1:0|0:0,0:0:0:0:
329,148,56057,5,2,3:2:0:0:
439,111,56219,1,0,0:0:0:0:
489,261,56382,1,0,1:0:0:0:
329,148,56544,2,0,P|323:107|322:67,1,80.9999975280763,2|0,3:2|0:0,0:0:0:0:
439,111,56868,1,0,3:0:0:0:
401,285,57030,2,0,P|395:244|394:204,1,80.9999975280763,0|0,1:0|0:0,0:0:0:0:
296,154,57273,5,2,0:0:0:0:
296,154,57355,2,0,L|216:168,1,80.9999975280763,4|0,3:2|3:0,0:0:0:0:
87,342,57679,2,0,B|126:331|126:331|165:278|126:200,1,161.999995056153,0|0,1:0|0:0,0:0:0:0:
170,79,58165,1,0,3:0:0:0:
0,104,58328,2,0,P|38:116|81:124,1,80.9999975280763,0|0,1:0|0:0,0:0:0:0:
242,127,58652,5,2,3:2:0:0:
90,36,58814,1,0,3:0:0:0:
268,149,58976,1,0,1:0:0:0:
170,79,59138,2,0,L|155:158,1,80.9999975280763,2|0,3:2|0:0,0:0:0:0:
232,332,59463,1,0,3:0:0:0:
323,305,59625,2,0,P|337:267|341:226,1,80.9999975280763,0|0,1:0|0:0,0:0:0:0:
327,40,59949,5,2,3:2:0:0:
268,149,60111,1,2,3:2:0:0:
435,140,60273,2,0,P|441:179|443:220,1,80.9999975280763,0|0,1:0|0:0,0:0:0:0:
268,149,60598,2,0,L|348:140,1,80.9999975280763,2|0,0:0|3:0,0:0:0:0:
512,309,60922,2,0,P|419:316|356:242,1,161.999995056153,0|2,1:0|3:2,0:0:0:0:
189,223,61408,5,0,3:0:0:0:
271,146,61571,1,0,1:0:0:0:
284,327,61733,2,0,P|286:286|287:246,1,80.9999975280763,2|0,3:2|0:0,0:0:0:0:
286,246,61976,1,0,3:0:0:0:
286,246,62057,1,0,3:0:0:0:
384,175,62219,1,0,1:0:0:0:
130,154,62382,1,0,1:0:0:0:
130,154,62544,1,2,0:2:0:0:
158,139,68219,6,2,L|160:229,1,90,2|4,1:0|1:0,0:1:0:0:
256,192,68463,12,0,69354,0:0:0:0:
382,259,69517,5,0,3:0:0:0:
382,259,69598,1,0,3:0:0:0:
382,259,69679,1,2,0:0:0:0:
200,193,69841,1,0,3:0:0:0:
297,323,70003,1,0,3:0:0:0:
345,109,70165,1,2,0:0:0:0:
196,280,70327,1,0,3:0:0:0:
416,242,70490,1,0,3:0:0:0:
164,283,70652,5,0,0:0:0:0:
132,282,70733,1,0,0:0:0:0:
101,275,70814,1,0,0:0:0:0:
72,261,70895,1,0,0:0:0:0:
50,237,70976,2,2,B|25:169|39:109|39:109|95:78,1,180,6|0,3:1|1:0,0:1:0:0:
278,188,71462,2,2,P|279:232|272:277,1,90,2|0,3:1|0:0,0:1:0:0:
186,115,71786,1,0,3:0:0:0:
310,72,71948,2,2,L|399:84,1,90,10|0,0:1|0:0,0:1:0:0:
195,230,72273,6,2,B|118:197|74:266|1:210,1,180,2|8,3:1|0:0,0:1:0:0:
52,51,72759,2,2,L|60:159,1,90,2|0,3:1|0:0,0:1:0:0:
195,230,73084,1,0,3:0:0:0:
145,29,73246,1,10,0:1:0:0:
58,140,73408,1,0,0:0:0:0:
231,130,73570,6,2,P|275:131|328:145,1,90,2|0,3:1|0:0,0:1:0:0:
359,325,73894,2,0,P|334:287|318:239,1,90,8|0,0:0|3:0,0:0:0:0:
423,35,74219,2,2,L|415:143,1,90,2|0,0:1|3:0,0:1:0:0:
512,234,74543,2,2,P|467:236|423:227,1,90,10|0,0:1|0:0,0:1:0:0:
147,138,74867,6,2,B|206:123|206:123|261:162|348:132,1,180,2|8,3:1|0:0,0:1:0:0:
167,1,75354,1,0,3:0:0:0:
66,78,75516,2,2,P|50:122|47:169,1,90,2|0,0:1|3:0,0:1:0:0:
94,286,75840,2,0,P|53:305|9:312,1,90,8|0,0:0|0:0,0:0:0:0:
277,242,76165,6,0,P|348:210|460:257,1,180,4|8,3:1|0:0,0:0:0:0:
323,356,76651,1,0,3:0:0:0:
232,262,76813,2,2,L|221:154,1,90,2|0,0:1|3:0,0:1:0:0:
258,18,77138,1,8,0:0:0:0:
332,103,77300,1,0,0:0:0:0:
512,55,77462,6,2,P|459:51|414:55,1,90,2|0,3:1|3:0,0:1:0:0:
264,204,77786,1,8,0:0:0:0:
405,230,77948,2,2,P|448:219|491:200,1,90,2|0,3:1|0:0,0:1:0:0:
304,83,78273,2,2,L|214:91,1,90,2|8,3:1|0:0,0:1:0:0:
161,255,78597,1,0,0:0:0:0:
8,225,78759,6,0,B|-10:169|-10:169|0:120|0:120|0:45,2,180,2|10|2,3:1|0:1|0:1,0:0:0:0:
141,164,79570,1,0,3:0:0:0:
83,361,79732,2,2,L|84:271,1,90,10|0,0:1|3:0,0:1:0:0:
243,129,80057,1,8,0:0:0:0:
162,282,80219,1,0,3:0:0:0:
165,74,80381,1,8,0:0:0:0:
308,227,80543,2,0,L|353:233,1,45,0|0,3:0|3:0,0:0:0:0:
453,172,80705,2,0,L|497:166,1,45,0|0,3:0|3:0,0:0:0:0:
464,327,80867,5,0,1:0:0:0:
434,358,80948,1,0,1:0:0:0:
392,369,81029,1,0,1:0:0:0:
349,372,81110,1,0,1:0:0:0:
305,371,81192,1,0,1:0:0:0:
265,353,81273,1,0,1:0:0:0:
236,321,81354,2,2,B|213:275|213:275|231:143,1,180,6|8,3:1|0:0,0:1:0:0:
453,172,81840,2,2,L|363:184,1,90,2|0,3:1|0:0,0:1:0:0:
238,107,82165,1,0,3:0:0:0:
415,63,82327,2,2,L|325:58,1,90,10|0,0:1|0:0,0:1:0:0:
138,188,82651,5,2,3:1:0:0:
203,268,82813,1,0,3:0:0:0:
193,84,82975,1,8,0:0:0:0:
35,165,83138,2,2,B|10:238|44:294|44:294|86:313,1,180,2|0,3:1|3:0,0:1:0:0:
294,310,83624,1,10,0:1:0:0:
168,179,83786,1,0,0:0:0:0:
339,201,83948,6,0,P|383:205|428:200,1,90,2|0,3:1|0:0,0:0:0:0:
193,84,84273,2,0,L|103:73,1,90,8|0,0:0|3:0,0:0:0:0:
277,144,84597,2,2,P|289:100|293:56,1,90,2|0,0:1|3:0,0:1:0:0:
194,293,84921,2,0,P|189:248|193:203,1,90,10|0,0:1|0:0,0:0:0:0:
489,166,85246,2,2,P|422:221|338:200,1,180,2|8,3:1|0:0,0:1:0:0:
193,84,85732,1,0,3:0:0:0:
279,31,85894,2,2,P|286:75|285:120,1,90,2|0,0:1|3:0,0:1:0:0:
156,296,86219,5,0,1:0:0:0:
112,297,86300,1,0,1:0:0:0:
70,288,86381,1,0,1:0:0:0:
30,270,86462,1,0,1:0:0:0:
5,235,86543,2,0,P|0:187|0:136,1,90,4|0,3:1|0:0,0:0:0:0:
140,202,86867,1,8,0:0:0:0:
30,358,87030,1,0,3:0:0:0:
218,364,87192,2,0,B|255:322|255:322|271:262|241:200,1,180,2|8,0:1|0:0,0:0:0:0:
466,237,87678,6,0,P|421:232|376:225,1,90,2|0,0:1|3:0,0:0:0:0:
336,108,88003,1,0,3:0:0:0:
448,57,88165,2,0,P|456:105|450:151,1,90,8|0,0:0|3:0,0:0:0:0:
368,345,88489,2,2,L|369:255,1,90,2|0,0:1|3:0,0:1:0:0:
285,168,88813,1,8,0:0:0:0:
55,207,88975,6,2,P|145:267|231:230,1,180,2|0,3:1|0:0,0:1:0:0:
236,57,89462,1,8,0:0:0:0:
63,121,89624,1,0,3:0:0:0:
238,238,89786,1,0,0:0:0:0:
141,67,89948,1,0,3:0:0:0:
55,207,90111,2,0,L|143:198,1,90,10|0,0:1|3:0,0:0:0:0:
337,141,90354,5,0,3:0:0:0:
337,141,90435,2,2,P|288:140|245:134,1,90,4|0,1:0|1:0,0:1:0:0:
217,131,90678,1,0,1:0:0:0:
217,131,90759,1,0,1:0:0:0:
306,319,90921,1,2,3:1:0:0:
334,176,91084,1,0,3:0:0:0:
204,307,91246,1,0,1:0:0:0:
409,352,91408,5,2,1:0:0:0:
448,343,91489,1,0,1:0:0:0:
480,319,91570,1,0,1:0:0:0:
502,285,91651,1,0,1:0:0:0:
509,245,91732,2,2,B|518:110|518:110|465:151,1,180,6|8,3:1|0:0,0:1:0:0:
335,179,92219,1,0,3:0:0:0:
334,53,92381,2,2,L|425:41,1,90,2|0,0:1|3:0,0:1:0:0:
233,131,92705,2,0,P|216:89|210:44,1,90,8|0,0:0|0:0,0:0:0:0:
424,181,93030,6,2,B|454:269|395:286|416:366,1,180,2|8,3:1|0:0,0:1:0:0:
496,320,93516,1,0,3:0:0:0:
340,192,93678,1,0,0:0:0:0:
304,316,93840,1,0,3:0:0:0:
164,247,94003,2,2,P|207:236|252:233,1,90,10|0,0:1|0:0,0:1:0:0:
45,352,94327,6,2,B|17:290|31:223|31:223|66:189,1,180,2|8,3:1|0:0,0:1:0:0:
233,193,94813,1,0,3:0:0:0:
158,282,94975,1,2,2:0:0:0:
158,282,95057,1,2,2:0:0:0:
158,282,95138,1,0,3:1:0:0:
77,101,95300,2,2,P|66:144|65:189,1,90,10|0,0:1|0:0,0:1:0:0:
263,64,95624,5,2,3:1:0:0:
123,20,95786,1,0,3:0:0:0:
301,174,95948,1,10,0:1:0:0:
163,178,96111,1,0,3:0:0:0:
348,19,96273,1,2,0:1:0:0:
229,70,96435,1,0,3:0:0:0:
381,226,96597,2,2,P|387:179|380:136,1,90,10|0,0:1|0:0,0:1:0:0:
294,267,96840,5,2,2:0:0:0:
294,267,96921,2,2,P|320:333|433:353,1,180,6|8,3:1|0:0,0:1:0:0:
380,137,97408,2,2,P|333:120|275:114,1,90,2|0,3:1|0:0,0:1:0:0:
89,238,97732,1,0,3:0:0:0:
202,321,97894,2,2,B|182:268|182:268|214:206|205:122,1,180,10|0,0:1|3:0,0:1:0:0:
116,55,98381,1,0,3:0:0:0:
4,169,98543,2,2,P|2:124|1:75,1,90,10|0,0:1|3:0,0:1:0:0:
89,238,98867,2,2,P|50:259|5:271,1,90,2|0,0:1|3:0,0:1:0:0:
193,115,99192,5,0,1:0:0:0:
230,99,99273,1,0,1:0:0:0:
270,94,99354,1,0,1:0:0:0:
310,96,99435,1,0,1:0:0:0:
348,107,99516,1,2,1:0:0:0:
416,256,99678,1,0,3:0:0:0:
484,81,99840,1,8,0:0:0:0:
512,309,100003,5,0,3:0:0:0:
512,309,100084,1,0,3:0:0:0:
512,309,100165,2,2,B|442:309|442:309|407:286|407:286|323:282,1,180,2|8,3:1|0:0,0:1:0:0:
247,329,100651,1,0,0:0:0:0:
424,202,100813,2,2,L|334:201,1,90,2|0,3:1|3:0,0:1:0:0:
123,308,101138,1,8,0:0:0:0:
241,152,101300,1,0,3:0:0:0:
247,365,101462,1,2,0:1:0:0:
134,192,101624,1,0,3:0:0:0:
336,316,101786,5,0,1:0:0:0:
376,324,101868,1,0,1:0:0:0:
416,322,101949,1,0,1:0:0:0:
455,312,102030,1,0,1:0:0:0:
489,290,102111,2,0,P|497:242|495:198,1,90,6|0,3:1|3:0,0:0:0:0:
297,65,102435,1,8,0:0:0:0:
421,25,102597,1,0,3:0:0:0:
264,200,102759,1,10,0:1:0:0:
169,107,102921,1,0,3:0:0:0:
401,183,103084,1,8,0:0:0:0:
212,310,103246,1,0,3:0:0:0:
297,65,103408,6,0,L|294:109,1,45,6|0,3:1|0:0,0:0:0:0:
355,264,103570,1,0,1:0:0:0:
355,264,103651,1,0,1:0:0:0:
355,264,103732,2,0,L|357:308,1,45,0|0,3:1|3:0,0:0:0:0:
433,173,103894,2,0,L|430:128,1,45,0|0,3:1|3:0,0:0:0:0:
222,186,104056,2,0,L|265:195,1,45,2|0,3:1|3:0,0:0:0:0:
270,362,104219,1,0,1:0:0:0:
270,362,104300,1,0,1:0:0:0:
270,362,104381,2,0,L|225:359,1,45,2|0,1:0|0:0,0:0:0:0:
111,283,104543,2,0,L|155:280,1,45,8|0,3:0|0:0,0:0:0:0:
318,268,104705,5,6,0:1:0:0:
256,192,104786,12,2,109246,0:0:0:0:
