osu file format v14

[General]
AudioFilename: primal.ogg
AudioLeadIn: 0
PreviewTime: 70981
Countdown: 0
SampleSet: Soft
StackLeniency: 0.7
Mode: 0
LetterboxInBreaks: 0
WidescreenStoryboard: 1

[Editor]
Bookmarks: 10693,21071,31450,41828,71017
DistanceSpacing: 0.9
BeatDivisor: 4
GridSize: 4
TimelineZoom: 0.8999999

[Metadata]
Title:primal
TitleUnicode:primal
Artist:solfa feat. Ceui
ArtistUnicode:solfa feat. Ceui
Creator:Lafayla
Version:Easy
Source:PRIMAL×HEARTS
Tags:hinsvar laurier andrea osuplayer111 featured artist fa japanese pop rock opening terakomari visual novel vn marmalade eroge galgame video game chronicle -white beat- ~white beat~ ま~まれぇど primalxhearts プライマルハーツ akashic records sapphire アカシックレコード~サファイア~
BeatmapID:4524696
BeatmapSetID:2146191

[Difficulty]
HPDrainRate:2.5
CircleSize:2.7
OverallDifficulty:2.5
ApproachRate:4
SliderMultiplier:0.999999999999999
SliderTickRate:1

[Events]
//Background and Video events
0,0,"PrimalxHearts.jpg",0,0
Video,-76,"primalop.mp4"
//Break Periods
2,62744,67062
//Storyboard Layer 0 (Background)
//Storyboard Layer 1 (Fail)
//Storyboard Layer 2 (Pass)
//Storyboard Layer 3 (Foreground)
//Storyboard Layer 4 (Overlay)
//Storyboard Sound Samples

[TimingPoints]
274,324.324324324324,4,2,1,40,1,0
274,-100,4,2,1,40,0,0
5463,-100,4,2,1,45,0,0
10652,-100,4,2,1,70,0,0
31409,-100,4,2,1,50,0,0
41787,-100,4,2,1,60,0,0
62544,324.324324324324,6,2,1,40,1,0
67733,-100,4,2,1,70,0,0
68382,324.324324324324,4,1,1,75,1,0
70976,324.324324324324,4,2,1,80,1,1
70976,-100,4,2,1,80,0,1
91732,-100,4,2,1,70,0,0
109246,-100,4,2,1,40,0,0

[Colours]
Combo1 : 180,108,251
Combo2 : 151,228,253
Combo3 : 234,234,234
Combo4 : 45,120,244

[HitObjects]
171,181,274,6,0,P|233:217|320:207,1,150,2|2,0:0|0:0,0:0:0:0:
443,212,1246,2,0,L|462:64,2,150,2|2|2,0:0|0:0|0:0,0:0:0:0:
476,295,2544,1,0,0:0:0:0:
405,351,2868,6,0,P|332:357|244:354,1,150,2|2,0:0|0:0,0:0:0:0:
151,268,3841,2,0,P|76:266|1:273,2,150,2|2|2,0:0|0:0|0:0,0:0:0:0:
272,134,5463,5,2,0:0:0:0:
360,147,5787,2,0,P|415:99|421:26,2,150,2|2|2,0:0|0:0|0:0,0:0:0:0:
330,278,7246,2,0,P|375:337|449:336,1,150,2|2,0:0|0:0,0:0:0:0:
508,272,8057,5,2,0:0:0:0:
476,187,8382,2,0,L|480:30,2,150,2|2|2,0:0|0:0|0:0,0:0:0:0:
411,250,9679,2,0,L|417:349,2,99.9999999999999,2|0|2,0:0|0:0|0:0,0:0:0:0:
347,185,10652,6,0,P|335:140|337:76,1,99.9999999999999,4|0,3:2|3:0,0:0:0:0:
273,20,11301,1,2,0:0:0:0:
196,67,11625,1,2,3:2:0:0:
225,151,11949,2,0,B|232:281|232:281|195:349,1,200,2|0,0:0|3:0,0:0:0:0:
110,358,12922,5,8,0:0:0:0:
23,333,13246,2,0,P|12:294|15:230,1,99.9999999999999,2|0,3:2|0:0,0:0:0:0:
89,186,13895,1,2,0:0:0:0:
91,96,14219,2,0,P|47:72|-1:60,2,99.9999999999999,2|2|0,3:2|0:0|0:0,0:0:0:0:
181,97,15192,1,0,3:0:0:0:
249,37,15517,1,12,0:0:0:0:
335,62,15841,6,0,L|329:161,1,99.9999999999999,4|0,3:2|0:0,0:0:0:0:
243,190,16490,2,0,L|237:289,1,99.9999999999999,2|0,0:0|3:0,0:0:0:0:
295,357,17138,2,0,B|361:385|434:367|434:367|476:327,1,200,2|0,0:0|3:0,0:0:0:0:
496,240,18111,5,8,0:0:0:0:
425,183,18436,2,0,P|382:167|321:162,1,99.9999999999999,2|0,3:2|0:0,0:0:0:0:
270,230,19084,1,2,0:0:0:0:
180,237,19409,2,0,P|159:191|150:142,1,99.9999999999999,4|8,3:2|0:0,0:0:0:0:
157,53,20057,1,8,0:0:0:0:
70,28,20382,1,8,3:0:0:0:
2,88,20706,1,0,1:0:0:0:
29,173,21030,6,0,P|30:222|27:272,1,99.9999999999999,4|8,3:2|0:0,0:0:0:0:
59,356,21679,1,2,0:0:0:0:
148,366,22003,2,0,P|231:340|258:239,1,200,8|8,0:0|0:0,0:0:0:0:
192,176,22976,1,0,0:0:0:0:
206,86,23301,1,10,0:0:0:0:
294,71,23625,6,0,B|390:53|414:109|508:80,1,200,2|0,3:2|0:0,0:0:0:0:
495,174,24598,2,0,L|485:273,1,99.9999999999999,8|2,0:0|3:2,0:0:0:0:
429,343,25246,1,8,0:0:0:0:
339,349,25571,2,0,P|312:308|313:245,1,99.9999999999999,2|8,0:0|0:0,0:0:0:0:
251,189,26219,6,0,L|152:178,2,99.9999999999999,4|8|2,3:2|0:0|0:0,0:0:0:0:
293,109,27192,2,0,B|146:91|146:91|110:52,1,200,8|8,0:0|0:0,0:0:0:0:
35,101,28165,1,2,0:0:0:0:
69,184,28490,1,8,0:0:0:0:
8,250,28814,6,0,L|17:349,1,99.9999999999999,2|8,3:2|0:0,0:0:0:0:
104,375,29463,1,2,0:0:0:0:
169,312,29787,1,8,0:0:0:0:
258,321,30111,2,0,P|334:327|421:322,2,150,8|8|8,0:0|0:0|0:0,0:0:0:0:
225,236,31409,5,4,3:2:0:0:
386,156,32057,2,0,B|395:36|395:36|376:-12,2,150,0|2|0,1:0|3:2|3:0,0:0:0:0:
326,224,33355,1,0,1:0:0:0:
167,138,34003,6,0,P|113:151|74:284,1,200,2|0,3:2|1:0,0:0:0:0:
162,374,35138,2,0,L|311:366,1,150,2|0,3:2|3:0,0:0:0:0:
317,276,35949,2,0,L|416:271,1,99.9999999999999,0|0,1:0|0:0,0:0:0:0:
506,265,36598,5,0,3:0:0:0:
475,87,37246,2,0,B|437:104|437:104|370:75|314:96,2,150,0|2|0,1:0|3:2|3:0,0:0:0:0:
510,170,38544,1,0,1:0:0:0:
346,245,39192,6,0,B|255:275|235:205|136:245,1,200,2|0,3:2|1:0,0:0:0:0:
34,309,40328,2,0,P|6:242|20:146,1,150,0|0,3:0|3:0,0:0:0:0:
46,83,41138,1,0,1:0:0:0:
135,70,41463,1,0,1:0:0:0:
146,159,41787,6,0,P|247:164|353:152,1,200,4|0,3:2|3:0,0:0:0:0:
380,70,42760,1,0,1:0:0:0:
468,84,43084,2,0,P|482:132|485:191,1,99.9999999999999,2|0,3:2|1:0,0:0:0:0:
477,271,43733,1,2,0:0:0:0:
391,244,44057,1,0,1:0:0:0:
355,326,44382,6,0,L|146:315,1,200,2|0,3:2|3:0,0:0:0:0:
113,235,45355,1,0,1:0:0:0:
23,244,45679,2,0,P|16:297|15:345,2,99.9999999999999,0|0|2,3:0|1:0|0:0,0:0:0:0:
2,156,46652,1,0,1:0:0:0:
58,85,46976,6,0,B|108:56|108:56|188:42|252:80,1,200,4|0,3:2|3:0,0:0:0:0:
422,41,48273,2,0,B|455:89|455:89|444:232,1,200,2|2,3:2|0:0,0:0:0:0:
387,300,49246,1,0,1:0:0:0:
298,282,49571,6,0,L|308:164,1,99.9999999999999,2|0,3:2|1:0,0:0:0:0:
285,94,50219,2,0,L|178:143,1,99.9999999999999,0|0,3:0|1:0,0:0:0:0:
200,226,50868,2,0,L|191:325,1,99.9999999999999,2|0,3:2|1:0,0:0:0:0:
103,347,51517,1,0,0:0:0:0:
21,309,51841,1,0,1:0:0:0:
17,219,52165,6,0,P|26:167|51:117,1,99.9999999999999,4|0,3:2|1:0,0:0:0:0:
226,127,53138,1,0,1:0:0:0:
312,152,53463,2,0,P|321:77|322:2,2,150,2|2|0,3:2|3:2|1:0,0:0:0:0:
246,213,54760,2,0,L|249:319,1,99.9999999999999,2|0,3:2|1:0,0:0:0:0:
423,269,55733,1,0,1:0:0:0:
421,179,56057,2,0,P|437:105|494:52,2,150,2|2|0,3:2|3:2|1:0,0:0:0:0:
385,262,57355,5,4,3:2:0:0:
301,228,57679,2,0,B|234:237|234:237|176:215|176:215|101:226,1,200,0|0,1:0|1:0,0:0:0:0:
22,258,58652,2,0,L|0:110,2,150,2|2|0,3:2|3:2|1:0,0:0:0:0:
51,343,59949,5,2,3:2:0:0:
140,347,60273,2,0,P|189:345|238:334,1,99.9999999999999,0|2,1:0|0:0,0:0:0:0:
276,252,60922,1,0,1:0:0:0:
201,202,61246,2,0,B|196:144|196:144|211:114|220:56,1,150,2|2,3:2|3:2,0:0:0:0:
304,24,62057,1,0,3:0:0:0:
383,65,62382,2,0,L|442:61,1,50,0|2,1:0|0:2,0:0:0:0:
80,323,68382,5,4,1:0:0:0:
366,105,69679,2,0,B|438:120|438:120|527:97,2,150,2|2|0,0:0|0:0|0:0,0:0:0:0:
290,55,70976,6,0,B|243:76|243:76|203:162|247:217,1,200,6|0,3:1|0:0,0:0:0:0:
335,199,71948,1,10,0:1:0:0:
405,255,72273,2,0,P|405:304|400:354,1,99.9999999999999,2|8,3:1|0:0,0:0:0:0:
315,325,72921,2,0,P|265:320|215:320,1,99.9999999999999,2|10,2:0|0:1,0:0:0:0:
132,355,73570,5,2,3:1:0:0:
48,321,73894,1,8,0:0:0:0:
37,231,74219,1,2,0:1:0:0:
117,191,74543,1,10,0:1:0:0:
205,207,74867,2,0,B|273:228|273:228|327:195|403:202,1,200,2|2,3:1|0:1,0:0:0:0:
480,234,75840,1,8,0:0:0:0:
509,148,76165,6,0,P|510:110|506:42,1,99.9999999999999,4|8,3:1|0:0,0:0:0:0:
420,21,76813,1,2,0:1:0:0:
371,97,77138,1,8,0:0:0:0:
284,75,77462,2,0,B|216:78|216:78|174:152|83:132,1,200,2|0,3:1|0:0,0:0:0:0:
25,175,78435,1,8,0:0:0:0:
23,264,78759,6,0,L|22:364,1,99.9999999999999,2|10,3:1|0:1,0:0:0:0:
109,342,79408,2,0,L|110:242,1,99.9999999999999,2|10,0:1|0:1,0:0:0:0:
164,169,80057,1,8,0:0:0:0:
252,153,80381,1,8,0:0:0:0:
314,218,80705,1,0,3:0:0:0:
288,304,81030,1,0,1:0:0:0:
364,351,81354,6,0,P|453:328|478:227,1,200,6|0,3:1|0:0,0:0:0:0:
403,184,82327,1,10,0:1:0:0:
313,177,82651,2,0,P|309:127|308:77,2,99.9999999999999,2|8|0,3:1|0:0|0:0,0:0:0:0:
278,260,83624,1,10,0:1:0:0:
204,311,83948,6,0,L|86:300,1,99.9999999999999,2|8,3:1|0:0,0:0:0:0:
24,260,84597,1,2,0:1:0:0:
50,174,84921,1,10,0:1:0:0:
133,206,85246,2,0,B|276:219|276:219|336:186,1,200,2|2,3:1|0:1,0:0:0:0:
376,117,86219,1,0,1:0:0:0:
311,53,86543,6,0,P|260:48|212:68,1,99.9999999999999,4|8,3:1|0:0,0:0:0:0:
134,28,87192,2,0,P|108:70|104:120,1,99.9999999999999,2|8,0:1|0:0,0:0:0:0:
133,206,87840,1,0,3:0:0:0:
216,171,88165,1,8,0:0:0:0:
275,238,88489,2,0,P|324:238|375:235,1,99.9999999999999,2|8,0:1|0:0,0:0:0:0:
454,192,89138,6,0,B|497:184|497:184|564:245|496:345,1,200,2|0,3:2|0:0,0:0:0:0:
432,375,90111,1,10,0:1:0:0:
342,365,90435,2,0,L|339:265,1,99.9999999999999,4|0,1:0|1:0,0:0:0:0:
293,187,91084,1,0,3:0:0:0:
348,116,91408,1,2,1:0:0:0:
294,43,91732,6,0,P|244:36|194:40,1,99.9999999999999,6|8,3:1|0:0,0:0:0:0:
144,115,92381,1,2,0:1:0:0:
64,72,92705,1,8,0:0:0:0:
35,157,93030,2,0,B|56:221|27:286|27:286|40:352,1,200,2|0,3:1|0:0,0:0:0:0:
128,372,94003,5,10,0:1:0:0:
207,329,94327,2,0,L|196:229,1,99.9999999999999,2|8,3:1|0:0,0:0:0:0:
216,141,94975,1,2,2:0:0:0:
294,96,95300,2,0,P|386:121|410:213,1,200,10|10,0:1|0:1,0:0:0:0:
338,268,96273,1,2,0:1:0:0:
265,214,96597,1,10,0:1:0:0:
180,245,96921,6,0,P|130:245|80:239,2,99.9999999999999,6|8|0,3:1|0:0|0:0,0:0:0:0:
220,325,97894,2,0,B|361:322|361:322|410:287,1,200,10|10,0:1|0:1,0:0:0:0:
420,198,98867,1,2,0:1:0:0:
336,163,99192,1,0,1:0:0:0:
256,206,99516,6,0,P|229:164|219:115,1,99.9999999999999,2|8,1:0|0:0,0:0:0:0:
245,28,100165,2,0,B|368:-10|329:67|455:20,1,200,2|2,3:1|3:1,0:0:0:0:
436,115,101138,1,8,0:0:0:0:
495,183,101462,2,0,P|492:232|484:282,1,99.9999999999999,2|0,0:1|1:0,0:0:0:0:
410,333,102111,5,6,3:1:0:0:
325,301,102435,1,8,0:0:0:0:
333,211,102759,2,0,P|282:195|233:200,1,99.9999999999999,10|8,0:1|0:0,0:0:0:0:
169,259,103408,1,6,3:1:0:0:
152,347,103732,1,0,3:1:0:0:
63,366,104057,1,2,3:1:0:0:
3,298,104381,1,2,1:0:0:0:
48,220,104705,5,6,0:1:0:0:
256,192,104867,12,2,109246,0:0:0:0:
