osu file format v14

[General]
AudioFilename: primal.ogg
AudioLeadIn: 0
PreviewTime: 70981
Countdown: 0
SampleSet: Soft
StackLeniency: 0.7
Mode: 0
LetterboxInBreaks: 0
WidescreenStoryboard: 1

[Editor]
Bookmarks: 10693,21071,31450,41828,52206,62585,71017
DistanceSpacing: 1.3
BeatDivisor: 4
GridSize: 4
TimelineZoom: 1.5

[Metadata]
Title:primal
TitleUnicode:primal
Artist:solfa feat. Ceui
ArtistUnicode:solfa feat. Ceui
Creator:Lafayla
Version:Andrea's Hard
Source:PRIMAL×HEARTS
Tags:hinsvar laurier andrea osuplayer111 featured artist fa japanese pop rock opening terakomari visual novel vn marmalade eroge galgame video game chronicle -white beat- ~white beat~ ま~まれぇど primalxhearts プライマルハーツ akashic records sapphire アカシックレコード~サファイア~
BeatmapID:4529581
BeatmapSetID:2146191

[Difficulty]
HPDrainRate:4
CircleSize:3.5
OverallDifficulty:6
ApproachRate:8
SliderMultiplier:1.4
SliderTickRate:1

[Events]
//Background and Video events
0,0,"PrimalxHearts.jpg",0,0
Video,-76,"primalop.mp4"
//Break Periods
2,62744,67632
//Storyboard Layer 0 (Background)
//Storyboard Layer 1 (Fail)
//Storyboard Layer 2 (Pass)
//Storyboard Layer 3 (Foreground)
//Storyboard Layer 4 (Overlay)
//Storyboard Sound Samples

[TimingPoints]
274,324.324324324324,4,2,1,40,1,0
5463,-100,4,2,1,45,0,0
10652,-100,4,2,1,70,0,0
31409,-166.666666666667,4,2,1,50,0,0
41138,-125,4,2,1,50,0,0
41787,-125,4,2,1,60,0,0
52165,-100,4,2,1,60,0,0
62544,324.324324324324,6,2,1,60,1,0
62544,-100,4,2,1,40,0,0
67733,-166.666666666667,4,2,1,70,0,0
68382,324.324324324324,4,1,1,75,1,0
68382,-166.666666666667,4,1,1,75,0,0
69679,-125,4,1,1,75,0,0
70165,-100,4,1,1,75,0,0
70976,324.324324324324,4,2,1,80,1,1
70976,-90.9090909090909,4,2,1,80,0,1
91732,-100,4,2,1,70,0,0
109246,-100,4,2,1,40,0,0

[Colours]
Combo1 : 180,108,251
Combo2 : 151,228,253
Combo3 : 234,234,234
Combo4 : 45,120,244

[HitObjects]
152,64,10652,6,0,P|96:72|48:136,1,140,4|0,3:2|3:0,3:0:0:0:
32,232,11138,1,8,0:0:0:0:
96,304,11301,2,0,L|172:292,1,70,2|0,0:0|3:0,0:0:0:0:
248,346,11625,2,0,P|258:278|228:216,1,140,2|2,3:2|0:0,0:0:0:0:
256,124,12111,1,8,0:0:0:0:
344,164,12273,2,0,L|484:120,2,140,2|0|8,0:0|3:0|0:0,0:0:0:0:
184,48,13246,6,0,L|108:40,1,70,2|0,3:2|0:0,0:0:0:0:
32,92,13570,1,0,0:0:0:0:
32,92,13733,1,8,0:0:0:0:
96,168,13895,2,0,L|88:244,1,70,2|0,0:0|3:0,0:0:0:0:
152,312,14219,2,0,B|200:312|220:344|220:344|288:316,1,140,2|2,3:2|0:0,0:0:0:0:
364,276,14706,1,8,0:0:0:0:
452,320,14868,2,0,P|464:272|412:188,1,140,0|0,0:0|3:0,0:0:0:0:
336,148,15355,1,0,3:0:0:0:
404,76,15517,1,12,0:0:0:0:
316,36,15679,5,0,3:0:0:0:
316,36,15760,1,0,3:0:0:0:
316,36,15841,2,0,B|264:8|232:60|176:32,1,140,4|0,3:2|0:0,0:0:0:0:
84,20,16328,1,8,0:0:0:0:
108,116,16490,2,0,L|100:188,1,70,2|0,0:0|3:0,0:0:0:0:
96,284,16814,2,0,P|128:344|196:344,1,140,0|2,3:0|0:0,0:0:0:0:
256,272,17301,1,8,0:0:0:0:
318,345,17463,2,0,P|385:343|416:284,2,140,0|0|8,0:0|3:0|0:0,0:0:0:0:
232,168,18436,6,0,L|240:88,1,70,2|0,3:2|0:0,0:0:0:0:
308,28,18760,1,0,0:0:0:0:
308,28,18922,1,8,0:0:0:0:
376,100,19084,2,0,L|445:106,1,70,0|2,0:0|3:2,0:0:0:0:
484,196,19409,2,0,P|500:264|468:328,1,140,4|8,3:2|0:0,0:0:0:0:
384,368,19895,1,0,3:0:0:0:
368,272,20057,2,0,L|288:284,1,70,8|0,0:0|3:0,0:0:0:0:
200,296,20382,5,8,3:0:0:0:
128,232,20544,1,0,1:0:0:0:
128,232,20625,1,0,1:0:0:0:
128,232,20706,2,0,L|80:224,3,35,0|0|0|0,1:0|1:0|1:0|1:0,0:0:0:0:
44,220,21030,6,0,P|20:176|56:88,1,140,4|8,3:2|0:0,0:0:0:0:
108,20,21517,1,2,3:2:0:0:
176,92,21679,2,0,L|164:176,1,70,0|0,0:0|3:0,0:0:0:0:
196,256,22003,2,0,P|252:296|328:276,1,140,8|0,0:0|3:0,0:0:0:0:
412,248,22490,1,0,3:0:0:0:
344,176,22652,2,0,L|364:32,2,140,8|0|10,0:0|0:0|0:0,0:0:0:0:
456,336,23625,6,0,P|412:348|384:344,1,70,2|0,3:2|0:0,0:0:0:0:
312,280,23949,1,8,0:0:0:0:
312,280,24111,1,2,3:2:0:0:
232,224,24273,2,0,L|220:296,1,70,0|0,0:0|3:0,0:0:0:0:
148,360,24598,6,0,P|80:352|32:296,1,140,8|2,0:0|3:2,0:0:0:0:
8,208,25084,1,0,3:0:0:0:
104,224,25246,2,0,L|120:152,1,70,8|0,0:0|3:0,0:0:0:0:
36,100,25571,2,0,L|20:28,1,70,2|0,0:0|3:0,0:0:0:0:
116,16,25895,2,0,L|188:32,1,70,8|0,0:0|0:0,0:0:0:0:
244,108,26219,6,0,P|232:160|272:232,1,140,4|8,3:2|0:0,0:0:0:0:
352,292,26706,1,0,3:0:0:0:
412,212,26868,2,0,L|484:200,1,70,2|0,0:0|3:0,0:0:0:0:
496,104,27192,2,0,P|460:52|380:48,1,140,8|0,0:0|3:0,0:0:0:0:
324,116,27679,1,0,3:0:0:0:
256,44,27841,2,0,B|200:36|200:36|168:52|168:52|120:44,2,140,8|2|8,0:0|0:0|0:0,0:0:0:0:
120,188,28814,6,0,L|136:256,1,70,2|0,3:2|0:0,0:0:0:0:
88,340,29138,1,8,0:0:0:0:
180,372,29301,2,0,P|248:344|280:280,1,140,2|0,3:2|3:0,0:0:0:0:
316,196,29787,2,0,L|384:224,1,70,8|0,0:0|3:0,0:0:0:0:
476,196,30111,5,8,0:0:0:0:
424,112,30273,1,0,1:0:0:0:
496,44,30436,1,0,3:0:0:0:
404,12,30598,2,0,L|328:32,1,70,8|4,0:0|3:0,0:0:0:0:
256,84,30922,1,8,3:0:0:0:
176,29,31084,2,0,P|120:48|92:120,1,140,8|4,0:0|3:2,0:0:0:0:
256,288,32057,6,0,L|240:336,1,41.9999987182618,0|0,1:0|0:0,0:0:0:0:
164,356,32381,1,0,0:0:0:0:
92,312,32544,2,0,P|48:296|24:264,1,83.9999974365235,2|0,3:2|3:0,0:0:0:0:
64,192,33030,2,0,L|80:104,1,83.9999974365235,0|0,3:0|1:0,0:0:0:0:
212,4,33679,1,0,0:0:0:0:
256,76,33841,1,0,0:0:0:0:
300,4,34003,6,0,L|384:28,1,83.9999974365235,2|0,3:2|0:0,0:0:0:0:
380,112,34490,2,0,L|464:88,1,83.9999974365235,2|0,0:0|0:0,0:0:0:0:
508,156,34976,1,0,0:0:0:0:
444,212,35138,2,0,L|467:292,1,83.9999974365235,2|0,3:2|3:0,0:0:0:0:
416,360,35625,1,0,3:0:0:0:
340,208,35949,1,0,1:0:0:0:
172,208,36273,1,0,0:0:0:0:
96,360,36598,1,0,3:0:0:0:
96,360,37246,6,0,P|60:332|44:292,1,83.9999974365235,0|0,1:0|0:0,0:0:0:0:
112,248,37733,2,0,P|148:276|164:316,1,83.9999974365235,2|0,3:2|3:0,0:0:0:0:
220,372,38219,1,0,3:0:0:0:
312,232,38544,1,0,1:0:0:0:
180,128,38868,1,0,0:0:0:0:
180,128,39030,1,0,0:0:0:0:
144,52,39192,6,0,P|192:48|232:60,1,83.9999974365235,2|0,3:2|0:0,0:0:0:0:
308,36,39679,2,0,L|300:120,1,83.9999974365235,2|0,0:0|0:0,0:0:0:0:
292,204,40165,1,2,0:0:0:0:
284,288,40328,2,0,P|324:312|368:304,1,83.9999974365235,0|0,3:0|3:0,0:0:0:0:
440,288,40813,1,0,3:0:0:0:
460,108,41138,6,0,P|420:120|400:116,1,56,0|0,1:0|3:0,0:0:0:0:
336,60,41463,1,0,1:0:0:0:
308,144,41625,1,0,3:0:0:0:
232,96,41787,6,0,L|220:152,1,56,4|0,3:2|0:0,0:0:0:0:
164,220,42111,2,0,L|176:276,1,56,0|2,1:0|0:0,0:0:0:0:
256,316,42436,1,0,3:0:0:0:
336,274,42598,2,0,L|348:220,1,56,0|0,3:0|1:0,0:0:0:0:
436,224,42922,2,0,P|484:192|488:136,1,112,0|0,0:0|3:0,0:0:0:0:
464,56,43409,2,0,L|344:88,1,112,0|2,1:0|0:0,0:0:0:0:
268,108,43895,1,0,3:0:0:0:
240,24,44057,2,0,P|208:36|188:56,1,56,0|0,1:0|0:0,0:0:0:0:
152,132,44382,6,0,L|176:248,1,112,2|0,3:2|1:0,0:0:0:0:
144,324,44868,2,0,P|84:340|40:320,1,112,2|0,0:0|3:0,0:0:0:0:
4,236,45355,1,0,1:0:0:0:
24,148,45517,2,0,P|88:120|176:160,1,168,2|0,0:0|1:0,0:0:0:0:
212,236,46165,2,0,L|200:296,1,56,0|2,3:0|0:0,0:0:0:0:
288,308,46490,2,0,L|276:368,1,56,0|0,3:0|1:0,0:0:0:0:
368,356,46814,1,0,0:0:0:0:
444,308,46976,5,4,3:2:0:0:
376,248,47138,1,0,0:0:0:0:
452,200,47301,2,0,P|480:156|472:96,1,112,0|0,1:0|3:0,0:0:0:0:
424,24,47787,1,0,3:0:0:0:
376,100,47949,2,0,L|316:92,1,56,0|0,1:0|0:0,0:0:0:0:
256,156,48273,5,2,3:2:0:0:
280,332,48598,1,0,1:0:0:0:
280,332,48760,1,0,3:0:0:0:
196,360,48922,2,0,L|136:352,1,56,2|0,0:0|3:0,0:0:0:0:
148,264,49246,2,0,L|88:272,1,56,0|0,1:0|0:0,0:0:0:0:
8,236,49571,6,0,L|24:124,1,112,2|0,3:2|1:0,0:0:0:0:
100,80,50057,2,0,P|136:112|200:104,1,112,2|0,0:0|3:0,0:0:0:0:
256,36,50544,2,0,L|304:64,1,56,0|0,1:0|0:0,0:0:0:0:
320,152,50868,2,0,L|296:268,1,112,2|0,3:2|1:0,0:0:0:0:
336,344,51355,2,0,L|452:368,1,112,2|0,3:2|3:0,0:0:0:0:
508,300,51841,1,0,1:0:0:0:
460,224,52003,5,0,1:0:0:0:
460,224,52084,1,0,1:0:0:0:
460,224,52165,2,0,P|500:168|488:96,1,140,4|0,3:2|1:0,0:0:0:0:
424,40,52652,1,0,0:0:0:0:
372,112,52814,2,0,L|296:100,1,70,2|0,0:0|3:0,0:0:0:0:
212,88,53138,1,0,1:0:0:0:
248,172,53301,5,0,0:0:0:0:
248,172,53463,2,0,P|244:212|232:240,1,70,2|0,3:2|3:0,0:0:0:0:
176,308,53787,1,0,1:0:0:0:
100,256,53949,2,0,P|32:256|12:196,1,140,2|0,3:2|3:0,0:0:0:0:
28,104,54436,2,0,L|96:116,1,70,0|0,1:0|0:0,0:0:0:0:
140,36,54760,6,0,P|192:48|244:116,1,140,2|0,3:2|1:0,0:0:0:0:
196,192,55246,1,0,0:0:0:0:
260,256,55409,2,0,L|248:324,1,70,2|0,0:0|3:0,0:0:0:0:
332,364,55733,1,0,1:0:0:0:
392,296,55895,5,0,0:0:0:0:
392,296,56057,2,0,L|460:308,1,70,2|0,3:2|0:0,0:0:0:0:
512,232,56382,1,0,1:0:0:0:
444,172,56544,2,0,P|384:184|328:132,1,140,2|0,3:2|3:0,0:0:0:0:
272,64,57030,2,0,L|236:128,1,70,0|0,1:0|0:0,0:0:0:0:
176,196,57355,6,0,L|212:260,1,70,4|0,3:2|3:0,0:0:0:0:
220,348,57679,2,0,P|140:356|96:320,1,140,0|0,1:0|0:0,0:0:0:0:
24,152,58328,1,0,1:0:0:0:
24,152,58490,2,0,L|160:88,1,140,0|0,0:0|3:0,0:0:0:0:
232,56,58976,1,0,1:0:0:0:
232,56,59138,1,2,3:2:0:0:
216,236,59462,1,0,3:0:0:0:
156,304,59625,6,0,P|232:320|292:292,1,140,0|2,1:0|3:2,0:0:0:0:
356,236,60111,1,2,3:2:0:0:
428,288,60273,2,0,L|472:152,1,140,0|2,1:0|0:0,0:0:0:0:
448,68,60760,1,0,3:0:0:0:
364,100,60922,2,0,L|296:84,1,70,0|0,1:0|0:0,0:0:0:0:
248,160,61246,6,0,L|180:176,1,70,2|0,3:2|3:0,0:0:0:0:
132,256,61571,1,0,1:0:0:0:
52,212,61733,2,0,P|20:156|32:84,1,140,2|0,3:2|3:0,0:0:0:0:
100,24,62219,1,0,1:0:0:0:
152,100,62382,1,0,1:0:0:0:
152,100,62544,1,2,0:2:0:0:
72,60,68382,5,4,1:0:0:0:
335,321,69517,1,0,3:0:0:0:
335,321,69598,1,0,3:0:0:0:
335,321,69679,2,0,L|413:329,1,56,2|0,0:0|3:0,0:0:0:0:
464,268,70003,1,0,3:0:0:0:
416,192,70165,6,0,P|428:148|416:112,1,70,2|0,0:0|3:0,0:0:0:0:
364,56,70489,1,0,3:0:0:0:
292,112,70652,2,0,L|244:108,3,35
208,104,70976,6,2,P|144:72|64:96,1,154.000004699707,6|0,3:1|1:0,0:1:0:0:
32,184,71462,2,2,L|44:264,1,77.0000023498536,2|0,3:1|0:0,0:1:0:0:
60,360,71786,1,0,3:0:0:0:
132,288,71948,2,2,P|172:284|208:300,1,77.0000023498536,10|0,0:1|0:0,0:1:0:0:
292,348,72273,2,2,L|320:192,1,154.000004699707,2|8,3:1|0:0,0:1:0:0:
336,100,72759,2,2,P|416:112|468:172,1,154.000004699707,2|0,3:1|3:0,0:1:0:0:
500,256,73246,2,0,L|488:336,1,77.0000023498536,10|0,0:1|0:0,0:0:0:0:
392,364,73570,6,2,L|315:352,1,77.0000023498536,2|0,3:1|0:0,0:1:0:0:
220,328,73894,1,8,0:0:0:0:
188,232,74057,1,0,3:0:0:0:
288,248,74219,2,2,P|308:212|304:168,1,77.0000023498536,2|0,0:1|3:0,0:1:0:0:
260,88,74543,2,2,L|176:100,1,77.0000023498536,10|0,0:1|0:0,0:1:0:0:
108,32,74867,6,2,B|72:72|72:72|88:176,1,154.000004699707,2|8,3:1|0:0,0:1:0:0:
108,268,75354,1,0,3:0:0:0:
180,200,75516,2,2,P|240:192|320:248,1,154.000004699707,2|8,0:1|0:0,0:1:0:0:
496,332,76165,6,0,L|476:176,1,154.000004699707,4|8,3:1|0:0,0:0:0:0:
464,80,76651,1,0,3:0:0:0:
388,144,76813,2,2,P|348:152|312:136,1,77.0000023498536,2|0,0:1|3:0,0:1:0:0:
256,60,77138,1,8,0:0:0:0:
197,138,77300,1,0,0:0:0:0:
256,216,77462,6,2,L|212:364,1,154.000004699707,2|8,3:1|0:0,0:1:0:0:
116,336,77948,1,2,3:1:0:0:
116,336,78111,1,0,0:0:0:0:
20,308,78273,2,2,L|64:160,1,154.000004699707,2|0,3:1|0:0,0:1:0:0:
92,64,78759,2,0,P|152:56|224:112,1,154.000004699707,2|10,3:1|0:1,0:0:0:0:
284,188,79246,1,0,0:0:0:0:
196,232,79408,2,0,L|184:320,1,77.0000023498536,2|0,0:1|3:0,0:0:0:0:
272,356,79732,6,2,B|328:340|328:340|360:348|360:348|424:328,1,154.000004699707,10|8,0:1|0:0,0:1:0:0:
492,256,80219,1,0,3:0:0:0:
404,204,80381,2,0,P|388:168|392:124,1,77.0000023498536,8|0,0:0|3:0,0:0:0:0:
448,52,80705,1,0,3:0:0:0:
352,16,80867,1,0,1:0:0:0:
352,16,80948,1,0,1:0:0:0:
352,16,81030,2,0,L|304:24,3,38.5000011749268,0|0|0|0,1:0|1:0|1:0|1:0,0:0:0:0:
264,28,81354,6,2,B|240:72|260:108|260:108|224:168,1,154.000004699707,6|8,3:1|0:0,0:1:0:0:
140,224,81840,2,2,P|176:256|216:260,1,77.0000023498536,2|0,3:1|0:0,0:1:0:0:
304,268,82165,1,0,3:0:0:0:
388,324,82327,2,2,L|408:244,1,77.0000023498536,10|0,0:1|0:0,0:1:0:0:
464,168,82651,6,0,P|496:116|484:20,1,154.000004699707,2|8,3:1|0:0,0:0:0:0:
388,12,83138,2,2,P|356:64|368:160,1,154.000004699707,2|0,3:1|3:0,0:1:0:0:
304,236,83624,2,0,L|228:224,1,77.0000023498536,10|0,0:1|0:0,0:0:0:0:
228,324,83948,6,0,L|152:336,1,77.0000023498536,2|0,3:1|0:0,0:0:0:0:
56,308,84273,1,8,0:0:0:0:
120,232,84435,1,0,3:0:0:0:
32,184,84597,2,2,L|20:100,1,77.0000023498536,2|0,0:1|3:0,0:1:0:0:
120,108,84921,2,0,L|132:24,1,77.0000023498536,10|0,0:1|0:0,0:0:0:0:
232,40,85246,6,2,P|296:24|372:68,1,154.000004699707,2|8,3:1|0:0,0:1:0:0:
404,160,85732,1,0,3:0:0:0:
308,184,85894,2,2,L|284:340,1,154.000004699707,2|8,0:1|0:0,0:1:0:0:
88,300,86543,6,0,P|48:232|80:164,1,154.000004699707,4|8,3:1|0:0,0:0:0:0:
152,104,87030,1,0,3:0:0:0:
240,152,87192,2,2,P|280:220|248:288,1,154.000004699707,2|8,0:1|0:0,0:1:0:0:
324,356,87678,1,2,0:1:0:0:
420,336,87840,6,0,L|404:172,1,154.000004699707,0|8,3:0|0:0,0:0:0:0:
468,104,88327,1,0,3:0:0:0:
384,48,88489,2,2,P|340:52|308:80,1,77.0000023498536,2|0,0:1|3:0,0:1:0:0:
252,148,88813,2,0,L|276:228,1,77.0000023498536,8|2,0:0|3:1,0:0:0:0:
312,316,89138,6,0,B|268:348|232:332|232:332|168:360,1,154.000004699707,2|8,3:2|0:0,0:0:0:0:
92,296,89624,1,0,3:0:0:0:
16,232,89786,1,0,0:0:0:0:
60,36,90111,2,0,P|128:28|204:84,1,154.000004699707,10|4,0:1|1:0,0:0:0:0:
280,128,90597,2,0,L|320:120,2,38.5000011749268,0|0|0,1:0|1:0|1:0,0:0:0:0:
280,228,90921,2,0,L|320:236,2,38.5000011749268,2|0|0,3:1|3:0|3:0,0:0:0:0:
192,180,91245,1,0,1:0:0:0:
148,272,91408,2,0,P|136:312|144:348,1,77.0000023498536,2|0,1:0|1:0,0:0:0:0:
228,380,91732,6,2,L|372:348,1,140,6|8,3:1|0:0,0:1:0:0:
452,328,92219,1,0,3:0:0:0:
396,256,92381,2,2,P|400:208|392:184,1,70,2|0,0:1|3:0,0:1:0:0:
447,114,92705,2,0,P|380:99|320:132,1,140,8|2,0:0|3:1,0:0:0:0:
256,200,93192,1,0,0:0:0:0:
192,132,93354,2,0,P|131:99|64:114,2,140,8|0|10,0:0|0:0|0:1,0:0:0:0:
140,308,94327,6,2,L|68:320,1,70,2|0,3:1|0:0,0:1:0:0:
8,252,94651,1,8,0:0:0:0:
8,252,94813,1,0,3:0:0:0:
76,192,94975,2,0,L|64:122,1,70,2|0,2:0|3:1,0:0:0:0:
56,32,95300,6,2,B|108:8|108:8|196:32,1,140,10|2,0:1|3:1,0:1:0:0:
256,88,95786,1,0,3:0:0:0:
324,29,95948,2,0,B|404:8|404:8|456:32,1,140,10|2,0:1|0:1,0:0:0:0:
508,108,96435,1,0,3:0:0:0:
428,148,96597,2,2,L|436:192,3,35,10|0|0|0,0:1|3:0|3:0|3:0,0:1:0:0:
444,228,96921,6,2,P|480:280|456:352,1,140,6|8,3:1|0:0,0:1:0:0:
368,356,97408,1,2,3:1:0:0:
300,296,97570,2,0,L|312:216,1,70,0|0,0:0|3:0,0:0:0:0:
264,148,97894,2,2,B|212:144|184:108|184:108|124:104,1,140,10|0,0:1|3:0,0:1:0:0:
44,96,98381,1,0,3:0:0:0:
76,180,98543,2,0,L|56:320,2,140,10|2|8,0:1|0:1|0:0,0:1:0:0:
184,32,99516,5,10,0:0:0:0:
184,32,99678,1,0,3:0:0:0:
256,88,99840,1,8,0:0:0:0:
328,32,100003,2,0,P|400:24|460:56,1,140,0|0,3:0|0:0,0:0:0:0:
500,136,100489,1,8,0:0:0:0:
448,212,100651,6,0,P|376:220|316:188,1,140,0|0,0:0|3:0,0:0:0:0:
256,124,101137,1,8,0:0:0:0:
194,189,101300,2,0,P|132:220|64:212,1,140,0|0,3:0|3:0,0:0:0:0:
36,300,101786,2,0,L|56:380,1,70,8|0,0:0|1:0,0:0:0:0:
144,368,102111,6,0,L|224:348,1,70,6|0,3:1|3:0,0:0:0:0:
260,272,102435,1,8,0:0:0:0:
320,340,102597,1,0,3:0:0:0:
356,256,102759,2,0,P|388:224|396:192,1,70,10|0,0:1|3:0,0:0:0:0:
472,156,103084,2,0,P|440:124|408:116,1,70,8|0,0:0|3:0,0:0:0:0:
332,92,103408,5,6,3:1:0:0:
256,144,103570,2,0,L|256:188,2,35,0|0|0,1:0|1:0|3:1,0:0:0:0:
180,92,103894,2,0,L|180:48,2,35,0|0|2,3:1|3:0|3:1,0:0:0:0:
104,144,104219,1,0,1:0:0:0:
104,144,104300,1,0,1:0:0:0:
104,144,104381,2,0,P|64:144|32:160,1,70,2|8,1:0|3:0,0:0:0:0:
92,232,104705,1,6,0:1:0:0:
256,192,104786,12,2,109246,0:0:0:0:
