osu file format v14

[General]
AudioFilename: audio.mp3
AudioLeadIn: 0
PreviewTime: 52431
Countdown: 0
SampleSet: Soft
StackLeniency: 0.7
Mode: 0
LetterboxInBreaks: 0
WidescreenStoryboard: 0

[Editor]
DistanceSpacing: 1
BeatDivisor: 4
GridSize: 4
TimelineZoom: 1

[Metadata]
Title:brand new day
TitleUnicode:brand new day
Artist:solfa feat. Ceui
ArtistUnicode:solfa feat. Ceui
Creator:Asuka_-
Version:Normal
Source:星ノ音サンクチュアリ
Tags:Hoshi no Ne Sanctuary eroge visual novel uta waifuiscute fluffy hair opening
BeatmapID:1730785
BeatmapSetID:825760

[Difficulty]
HPDrainRate:3.5
CircleSize:3.5
OverallDifficulty:5
ApproachRate:5
SliderMultiplier:1.1
SliderTickRate:1

[Events]
//Background and Video events
0,0,"BG.jpg",0,0
//Break Periods
//Storyboard Layer 0 (Background)
//Storyboard Layer 1 (Fail)
//Storyboard Layer 2 (Pass)
//Storyboard Layer 3 (Foreground)
//Storyboard Sound Samples

[TimingPoints]
1348,397.350993377483,4,2,2,40,1,0
1751,355.029585798817,4,2,1,65,1,0
1752,-111.111111111111,4,2,1,65,0,0
7432,-100,4,2,1,65,0,0
18793,-111.111111111111,4,2,2,40,0,0
30153,-111.111111111111,4,2,2,55,0,0
40981,-111.111111111111,4,2,1,60,0,0
41514,-111.111111111111,4,2,1,65,0,0
52875,-100,4,2,1,80,0,1
75597,-100,4,2,1,65,0,0
86958,-100,4,2,1,5,0,0

[Colours]
Combo1 : 128,255,128
Combo2 : 255,128,128
Combo3 : 255,255,128
Combo4 : 128,255,255

[HitObjects]
455,378,1752,6,0,P|463:324|476:250,1,98.9999969787599,6|8,0:0|0:0,0:0:0:0:
423,193,2461,2,0,P|377:182|325:222,1,98.9999969787599,2|8,0:0|0:0,0:0:0:0:
310,250,2994,2,0,P|241:280|170:233,1,148.49999546814,6|8,0:0|0:0,0:0:0:0:
93,199,3882,2,0,P|101:143|107:90,1,98.9999969787599,2|8,0:0|0:0,0:0:0:0:
128,57,4414,1,8,0:0:0:0:
128,57,4592,6,0,P|173:99|243:81,1,98.9999969787599,6|8,0:0|0:0,0:0:0:0:
295,54,5302,2,0,P|351:35|403:56,1,98.9999969787599,2|8,0:0|0:0,0:0:0:0:
424,78,5834,2,0,L|403:248,1,148.49999546814,6|8,0:0|0:0,0:0:0:0:
337,300,6722,1,8,0:0:0:0:
254,244,7077,1,8,0:0:0:0:
167,312,7432,6,0,P|151:288|163:189,1,110,6|8,0:0|0:0,0:0:0:0:
245,155,8142,2,0,L|374:174,1,110,2|8,0:0|0:0,0:0:0:0:
404,191,8675,2,0,P|439:143|396:36,1,165,2|2,0:0|0:0,0:0:0:0:
304,26,9562,2,0,P|249:31|176:36,1,110,2|8,0:0|0:0,0:0:0:0:
145,10,10095,1,2,0:0:0:0:
145,10,10272,6,0,P|92:97|105:135,1,110,2|8,0:0|0:0,0:0:0:0:
159,184,10982,2,0,P|179:233|161:314,1,110,2|8,0:0|0:0,0:0:0:0:
130,323,11514,2,0,L|320:310,1,165,2|8,0:0|0:0,0:0:0:0:
366,228,12402,1,2,0:0:0:0:
314,130,12756,1,8,0:0:0:0:
388,49,13112,6,0,P|336:21|263:38,1,110,6|8,0:0|0:0,0:0:0:0:
212,107,13823,2,0,P|154:131|73:113,1,110,2|8,0:0|0:0,0:0:0:0:
81,80,14355,2,0,L|63:259,1,165,2|8,0:0|0:0,0:0:0:0:
113,342,15243,2,0,P|165:348|216:313,1,110,2|8,0:0|0:0,0:0:0:0:
252,281,15775,6,0,L|266:133,1,110,6|2,0:0|0:0,0:0:0:0:
235,123,16308,1,8,0:0:0:0:
235,123,16485,2,0,P|276:91|354:111,1,110,8|2,0:0|0:0,0:0:0:0:
426,150,17195,2,0,L|413:288,1,110,12|2,0:0|0:0,0:0:0:0:
403,313,17728,1,8,0:0:0:0:
403,313,17905,2,0,P|348:344|291:333,1,110,12|8,0:0|0:0,0:0:0:0:
258,306,18437,1,8,0:0:0:0:
168,370,18792,5,2,0:0:0:0:
98,300,19147,2,0,P|92:269|86:239,1,49.4999984893799,0|0,0:0|0:0,0:0:0:0:
93,201,19503,2,0,P|132:173|198:190,1,98.9999969787599,2|0,0:0|0:0,0:0:0:0:
263,231,20213,2,0,P|306:250|366:231,1,98.9999969787599,2|0,0:0|0:0,0:0:0:0:
392,206,20746,1,0,0:0:0:0:
392,206,20923,2,0,L|408:73,1,98.9999969787599,2|0,0:0|0:0,0:0:0:0:
325,47,21633,6,0,L|201:38,1,98.9999969787599,2|0,0:0|0:0,0:0:0:0:
176,39,22166,1,0,0:0:0:0:
176,39,22343,2,0,P|112:102|149:213,1,197.99999395752,2|2,0:0|0:0,0:0:0:0:
301,303,23762,2,0,L|293:364,2,49.4999984893799,2|0|0,0:0|0:0|0:0,0:0:0:0:
397,327,24473,6,0,L|412:204,1,98.9999969787599,2|0,0:0|0:0,0:0:0:0:
390,182,25005,1,2,0:0:0:0:
390,182,25182,2,0,P|353:162|295:171,1,98.9999969787599,2|0,0:0|0:0,0:0:0:0:
204,200,25893,2,0,P|145:212|106:191,1,98.9999969787599,2|0,0:0|0:0,0:0:0:0:
83,156,26425,1,2,0:0:0:0:
83,156,26603,2,0,L|79:50,1,98.9999969787599,2|0,0:0|0:0,0:0:0:0:
173,24,27314,6,0,L|298:37,1,98.9999969787599,2|0,0:0|0:0,0:0:0:0:
320,32,27846,1,2,0:0:0:0:
320,32,28023,2,0,P|374:70|343:212,1,197.99999395752,2|2,0:0|0:0,0:0:0:0:
257,358,29444,2,0,P|201:357|139:346,1,98.9999969787599,2|0,0:0|0:0,0:0:0:0:
63,323,30154,6,0,P|55:275|49:208,1,98.9999969787599,2|0,0:0|0:0,0:0:0:0:
58,176,30686,1,0,0:0:0:0:
58,176,30864,2,0,P|101:151|163:172,1,98.9999969787599,2|0,0:0|0:0,0:0:0:0:
206,239,31574,2,0,P|275:242|312:209,1,98.9999969787599,2|0,0:0|0:0,0:0:0:0:
322,183,32107,1,0,0:0:0:0:
322,183,32284,2,0,P|332:236|346:304,1,98.9999969787599,2|0,0:0|0:0,0:0:0:0:
437,302,32993,6,0,P|461:251|449:191,1,98.9999969787599,2|0,0:0|0:0,0:0:0:0:
430,167,33527,1,0,0:0:0:0:
430,167,33704,2,0,P|421:108|434:66,1,98.9999969787599,2|0,0:0|0:0,0:0:0:0:
338,37,34414,2,0,P|246:35|127:26,1,197.99999395752,2|2,0:0|0:0,0:0:0:0:
44,3,35479,1,0,0:0:0:0:
72,97,35834,6,0,P|87:142|77:225,1,98.9999969787599,2|0,0:0|0:0,0:0:0:0:
31,275,36544,2,0,P|62:291|135:278,1,98.9999969787599,2|0,0:0|0:0,0:0:0:0:
203,224,37254,2,0,P|252:211|320:239,1,98.9999969787599,2|0,0:0|0:0,0:0:0:0:
333,256,37786,2,0,L|352:138,1,98.9999969787599,2|0,0:0|0:0,0:0:0:0:
388,129,38320,1,0,0:0:0:0:
323,54,38675,6,0,P|276:30|201:49,1,98.9999969787599,2|0,0:0|0:0,0:0:0:0:
188,122,39385,2,0,P|139:143|83:128,1,98.9999969787599,2|0,0:0|0:0,0:0:0:0:
9,85,40095,2,0,L|-4:209,1,98.9999969787599,2|0,0:0|0:0,0:0:0:0:
34,217,40626,2,0,L|43:329,1,98.9999969787599,2|2,0:0|0:0,0:0:0:0:
16,358,41160,1,2,0:0:0:0:
113,377,41515,6,0,P|168:372|224:361,2,98.9999969787599,6|8|2,0:0|0:0|0:0,0:0:0:0:
16,358,42580,1,8,0:0:0:0:
16,358,42757,2,0,P|11:312|14:225,1,98.9999969787599,2|2,0:0|0:0,0:0:0:0:
30,213,43290,2,0,P|87:198|141:229,1,98.9999969787599,8|2,0:0|0:0,0:0:0:0:
191,282,44000,1,8,0:0:0:0:
274,228,44355,6,0,L|260:122,2,98.9999969787599,6|8|2,0:0|0:0|0:0,0:0:0:0:
334,306,45419,1,8,0:0:0:0:
334,306,45598,2,0,P|391:314|437:291,1,98.9999969787599,2|2,0:0|0:0,0:0:0:0:
460,261,46129,2,0,L|479:146,1,98.9999969787599,8|2,0:0|0:0,0:0:0:0:
418,83,46840,1,8,0:0:0:0:
328,41,47194,6,0,P|276:49|199:55,1,98.9999969787599,6|8,0:0|0:0,0:0:0:0:
131,39,47904,2,0,P|104:88|117:168,1,98.9999969787599,2|8,0:0|0:0,0:0:0:0:
181,189,48614,2,0,P|200:235|192:305,1,98.9999969787599,2|2,0:0|0:0,0:0:0:0:
167,321,49147,2,0,L|45:313,1,98.9999969787599,2|2,0:0|0:0,0:0:0:0:
26,288,49679,1,8,0:0:0:0:
8,190,50035,6,0,P|68:146|118:150,1,98.9999969787599,12|2,0:0|0:0,0:0:0:0:
133,167,50567,2,0,L|254:178,1,98.9999969787599,12|2,0:0|0:0,0:0:0:0:
276,150,51101,1,2,0:0:0:0:
276,150,51277,2,0,P|252:204|266:279,1,98.9999969787599,12|12,0:0|0:0,0:0:0:0:
276,286,51810,1,12,0:0:0:0:
511,58,52875,6,0,P|457:48|384:45,1,110,6|8,0:0|0:0,0:0:0:0:
358,77,53408,1,2,0:0:0:0:
273,6,53763,2,0,P|246:55|253:119,1,110,2|2,0:0|0:0,0:0:0:0:
273,156,54296,2,0,P|287:215|271:275,1,110,2|8,0:0|0:0,0:0:0:0:
253,311,54827,2,0,L|139:319,1,110,2|2,0:0|0:0,0:0:0:0:
91,299,55360,1,8,0:0:0:0:
96,189,55716,6,0,P|139:150|216:175,1,110,6|8,0:0|0:0,0:0:0:0:
231,186,56249,1,2,0:0:0:0:
326,130,56604,2,0,P|335:186|345:256,1,110,2|2,0:0|0:0,0:0:0:0:
342,293,57136,2,0,P|395:325|454:301,1,110,6|8,0:0|0:0,0:0:0:0:
480,278,57669,2,0,L|460:157,1,110,2|2,0:0|0:0,0:0:0:0:
423,130,58201,1,8,0:0:0:0:
327,184,58556,5,6,0:0:0:0:
274,87,58911,2,0,P|213:59|151:84,1,110,8|2,0:0|0:0,0:0:0:0:
127,98,59443,2,0,P|108:136|112:165,1,55,2|8,0:0|0:0,0:0:0:0:
129,198,59798,2,0,P|131:229|124:258,1,55,2|2,0:0|0:0,0:0:0:0:
79,352,60330,2,0,P|146:338|227:334,1,110,8|2,0:0|0:0,0:0:0:0:
240,350,60864,2,0,P|274:359|336:349,1,55,2|8,0:0|0:0,0:0:0:0:
342,333,61218,1,2,0:0:0:0:
417,253,61573,6,0,L|403:174,1,55,2|8,0:0|0:0,0:0:0:0:
370,157,61928,2,0,P|328:135|239:163,1,110,2|0,0:0|0:0,0:0:0:0:
225,177,62461,2,0,P|189:180|148:168,1,55,8|0,0:0|0:0,0:0:0:0:
117,161,62816,2,0,L|106:22,2,110,2|8|2,0:0|0:0|0:0,0:0:0:0:
88,267,63882,1,8,0:0:0:0:
163,348,64237,6,0,P|224:359|291:309,1,110,6|8,0:0|0:0,0:0:0:0:
308,305,64769,1,2,0:0:0:0:
415,329,65124,2,0,L|430:195,1,110,2|2,0:0|0:0,0:0:0:0:
413,166,65657,2,0,P|369:144|299:171,1,110,2|8,0:0|0:0,0:0:0:0:
278,201,66188,2,0,P|221:200|152:191,1,110,2|2,0:0|0:0,0:0:0:0:
113,186,66721,1,8,0:0:0:0:
110,76,67076,6,0,P|149:44|217:55,1,110,6|8,0:0|0:0,0:0:0:0:
242,89,67609,2,0,P|295:114|359:77,1,110,6|2,0:0|0:0,0:0:0:0:
395,77,68142,1,8,0:0:0:0:
395,77,68319,2,0,P|448:47|510:68,2,110,6|2|2,0:0|0:0|0:0,0:0:0:0:
452,170,69385,1,2,0:0:0:0:
452,170,69562,2,0,P|441:198|437:246,1,55,8|8,0:0|0:0,0:0:0:0:
443,277,69917,6,0,P|386:275|296:282,1,110,6|8,0:0|0:0,0:0:0:0:
236,330,70627,2,0,P|215:341|175:338,1,55,2|2,0:0|0:0,0:0:0:0:
130,329,70982,1,8,0:0:0:0:
130,329,71160,2,0,P|103:271|132:198,1,110,2|0,0:0|0:0,0:0:0:0:
148,187,71692,1,8,0:0:0:0:
103,86,72047,2,0,P|131:71|173:75,1,55,2|2,0:0|0:0,0:0:0:0:
202,96,72402,1,8,0:0:0:0:
202,96,72579,6,0,B|254:118|298:115|298:115|366:80,1,165,2|8,0:0|0:0,0:0:0:0:
438,11,73467,1,2,0:0:0:0:
497,103,73823,2,0,P|494:138|486:183,1,55,2|0,0:0|0:0,0:0:0:0:
477,211,74178,2,0,P|443:231|353:208,1,110,6|8,0:0|0:0,0:0:0:0:
332,189,74710,2,0,L|309:323,1,110,8|8,0:0|0:0,0:0:0:0:
282,343,75243,2,0,P|255:351|212:340,1,55,8|0,0:0|0:0,0:0:0:0:
184,314,75598,5,12,0:0:0:0:
184,314,75775,1,2,0:0:0:0:
396,178,77018,5,8,0:0:0:0:
396,178,77195,1,2,0:0:0:0:
169,33,78438,5,8,0:0:0:0:
169,33,78615,2,0,L|147:168,2,110,2|8|8,0:0|0:0|0:0,0:0:0:0:
278,22,79680,1,12,0:0:0:0:
256,192,79857,12,0,86958,0:0:0:0:
