osu file format v14

[General]
AudioFilename: audio.mp3
AudioLeadIn: 0
PreviewTime: 52431
Countdown: 0
SampleSet: Soft
StackLeniency: 0.7
Mode: 0
LetterboxInBreaks: 0
WidescreenStoryboard: 0

[Editor]
DistanceSpacing: 1
BeatDivisor: 4
GridSize: 4
TimelineZoom: 1

[Metadata]
Title:brand new day
TitleUnicode:brand new day
Artist:solfa feat. Ceui
ArtistUnicode:solfa feat. Ceui
Creator:Asuka_-
Version:Easy
Source:星ノ音サンクチュアリ
Tags:Hoshi no Ne Sanctuary eroge visual novel uta waifuiscute fluffy hair opening
BeatmapID:1730783
BeatmapSetID:825760

[Difficulty]
HPDrainRate:2
CircleSize:3
OverallDifficulty:2
ApproachRate:4
SliderMultiplier:0.8
SliderTickRate:1

[Events]
//Background and Video events
0,0,"BG.jpg",0,0
//Break Periods
//Storyboard Layer 0 (Background)
//Storyboard Layer 1 (Fail)
//Storyboard Layer 2 (Pass)
//Storyboard Layer 3 (Foreground)
//Storyboard Sound Samples

[TimingPoints]
1348,397.350993377483,4,2,2,40,1,0
1751,355.029585798817,4,2,1,65,1,0
1752,-100,4,2,1,65,0,0
18793,-100,4,2,2,40,0,0
30153,-100,4,2,2,55,0,0
40981,-100,4,2,1,60,0,0
41514,-100,4,2,1,65,0,0
52875,-100,4,2,1,80,0,1
75597,-100,4,2,1,65,0,0
86958,-100,4,2,1,5,0,0

[Colours]
Combo1 : 128,255,128
Combo2 : 255,128,128
Combo3 : 255,255,128
Combo4 : 128,255,255

[HitObjects]
61,95,1752,6,0,P|140:87|236:70,1,160,6|2,0:0|0:0,0:0:0:0:
332,35,2994,2,0,P|365:75|353:158,1,120,6|8,0:0|0:0,0:0:0:0:
299,188,3882,2,0,P|253:199|201:203,1,80,2|8,0:0|0:0,0:0:0:0:
167,142,4592,6,0,L|149:304,1,160,6|2,0:0|0:0,0:0:0:0:
253,361,5834,2,0,P|314:348|389:336,1,120,6|8,0:0|0:0,0:0:0:0:
450,348,6722,1,8,0:0:0:0:
497,283,7077,1,8,0:0:0:0:
477,205,7432,6,0,P|436:181|368:188,1,80,6|8,0:0|0:0,0:0:0:0:
333,215,8142,2,0,P|298:231|238:224,1,80,2|8,0:0|0:0,0:0:0:0:
179,209,8851,2,0,P|156:120|214:65,1,160,2|2,0:0|0:0,0:0:0:0:
264,32,9917,1,8,0:0:0:0:
332,72,10271,6,0,L|501:90,2,160,2|2|2,0:0|0:0|0:0,0:0:0:0:
264,32,12046,1,8,0:0:0:0:
191,66,12402,2,0,P|170:108|174:172,1,80,2|8,0:0|0:0,0:0:0:0:
186,218,13112,6,0,P|239:207|294:209,1,80,6|8,0:0|0:0,0:0:0:0:
311,141,13823,2,0,P|372:151|408:167,1,80,2|8,0:0|0:0,0:0:0:0:
458,117,14532,2,0,L|428:286,1,160,2|2,0:0|0:0,0:0:0:0:
328,338,15775,6,0,P|262:300|179:339,2,160,6|8|12,0:0|0:0|0:0,0:0:0:0:
476,278,17905,2,0,P|470:231|461:146,1,120,12|8,0:0|0:0,0:0:0:0:
489,83,18793,6,0,B|449:68|412:95|412:95|382:115|313:92,2,160,2|2|2,0:0|0:0|0:0,0:0:0:0:
470,241,20923,1,2,0:0:0:0:
313,205,21633,2,0,P|269:249|294:362,1,160,2|2,0:0|0:0,0:0:0:0:
127,280,23053,1,2,0:0:0:0:
14,166,23763,2,0,P|26:115|45:90,1,80,2|0,0:0|0:0,0:0:0:0:
96,35,24472,6,0,P|191:34|235:100,2,160,2|2|2,0:0|0:0|0:0,0:0:0:0:
10,170,26603,1,2,0:0:0:0:
81,312,27313,2,0,P|165:317|260:331,1,160,2|2,0:0|0:0,0:0:0:0:
394,285,28734,1,2,0:0:0:0:
466,142,29444,1,2,0:0:0:0:
353,28,30154,6,0,B|327:64|340:103|340:103|357:151|321:202,2,160,2|2|2,0:0|0:0|0:0,0:0:0:0:
234,135,32284,1,2,0:0:0:0:
113,30,32993,2,0,P|66:118|85:189,1,160,2|2,0:0|0:0,0:0:0:0:
155,312,34414,1,2,0:0:0:0:
312,340,35124,2,0,P|367:344|406:329,1,80,2|0,0:0|0:0,0:0:0:0:
451,285,35834,6,0,L|467:116,2,160,2|2|2,0:0|0:0|0:0,0:0:0:0:
368,147,37964,1,2,0:0:0:0:
262,267,38675,2,0,P|181:275|98:284,1,160,2|2,0:0|0:0,0:0:0:0:
7,155,40095,1,2,0:0:0:0:
111,34,40804,1,2,0:0:0:0:
200,166,41515,6,0,P|279:182|346:138,1,160,6|2,0:0|0:0,0:0:0:0:
392,78,42580,1,8,0:0:0:0:
456,125,42934,2,0,P|454:168|438:221,1,80,2|8,0:0|0:0,0:0:0:0:
377,246,43645,2,0,P|364:285|360:335,1,80,2|8,0:0|0:0,0:0:0:0:
431,357,44355,6,0,P|354:352|238:344,1,160,6|2,0:0|0:0,0:0:0:0:
195,320,45419,1,8,0:0:0:0:
131,368,45774,2,0,P|116:336|126:278,1,80,2|8,0:0|0:0,0:0:0:0:
49,252,46485,2,0,P|78:222|122:208,1,80,2|8,0:0|0:0,0:0:0:0:
118,129,47194,6,0,L|301:153,1,160,6|2,0:0|0:0,0:0:0:0:
353,125,48259,1,8,0:0:0:0:
420,168,48614,2,0,P|434:226|383:309,1,160,2|8,0:0|0:0,0:0:0:0:
227,337,50035,6,0,P|217:274|216:204,1,120,12|12,0:0|0:0,0:0:0:0:
264,155,50922,1,2,0:0:0:0:
196,112,51277,2,0,B|151:107|151:107|117:122|117:122|66:122,1,120,12|12,0:0|0:0,0:0:0:0:
51,360,52875,6,0,P|46:280|37:189,1,160,6|2,0:0|0:0,0:0:0:0:
75,129,53940,1,8,0:0:0:0:
147,165,54295,2,0,P|191:175|243:167,1,80,2|8,0:0|0:0,0:0:0:0:
304,159,55005,2,0,L|320:67,1,80,2|8,0:0|0:0,0:0:0:0:
253,33,55715,6,0,P|317:0|392:46,1,160,6|2,0:0|0:0,0:0:0:0:
407,117,56780,1,8,0:0:0:0:
393,195,57135,2,0,P|391:239|407:303,2,80,6|8|2,0:0|0:0|0:0,0:0:0:0:
407,117,58201,1,8,0:0:0:0:
388,39,58556,6,0,L|205:29,1,160,6|2,0:0|0:0,0:0:0:0:
148,24,59621,1,8,0:0:0:0:
72,51,59976,2,0,B|33:99|37:150|37:150|73:205,1,160,2|2,0:0|0:0,0:0:0:0:
137,229,61041,1,8,0:0:0:0:
211,196,61396,6,0,P|276:176|337:210,2,120,2|2|8,0:0|0:0|0:0,0:0:0:0:
137,229,62817,2,0,P|128:193|161:134,1,80,2|8,0:0|0:0,0:0:0:0:
193,92,63526,2,0,P|243:92|284:89,1,80,2|8,0:0|0:0,0:0:0:0:
309,18,64236,6,0,P|307:86|300:187,1,160,6|2,0:0|0:0,0:0:0:0:
274,253,65301,1,8,0:0:0:0:
229,319,65656,2,0,P|185:329|133:321,1,80,2|8,0:0|0:0,0:0:0:0:
78,292,66366,2,0,L|60:204,1,80,2|8,0:0|0:0,0:0:0:0:
68,133,67076,6,0,P|135:109|186:164,1,120,6|6,0:0|0:0,0:0:0:0:
220,196,67965,1,2,0:0:0:0:
247,271,68319,2,0,P|298:302|414:211,1,200,6|2,0:0|0:0,0:0:0:0:
418,160,69562,1,8,0:0:0:0:
402,81,69917,6,0,B|363:52|319:45|319:45|234:66,1,160,6|2,0:0|0:0,0:0:0:0:
176,87,70982,1,8,0:0:0:0:
98,67,71337,2,0,L|81:237,1,160,2|2,0:0|0:0,0:0:0:0:
135,285,72402,1,8,0:0:0:0:
196,234,72757,6,0,P|261:214|339:276,1,160,2|2,0:0|0:0,0:0:0:0:
384,323,73823,1,2,0:0:0:0:
445,271,74178,2,0,P|456:226|459:171,1,80,6|8,0:0|0:0,0:0:0:0:
393,147,74888,2,0,P|380:106|378:56,1,80,8|8,0:0|0:0,0:0:0:0:
434,13,75598,5,12,0:0:0:0:
123,91,77018,1,8,0:0:0:0:
436,155,78438,2,0,L|416:297,1,120,8|8,0:0|0:0,0:0:0:0:
354,320,79325,1,8,0:0:0:0:
289,272,79680,1,12,0:0:0:0:
256,192,79858,12,0,86959,0:0:0:0:
