osu file format v14

[General]
AudioFilename: Natsuiro Yakimochi Koimoyou.mp3
AudioLeadIn: 0
PreviewTime: 49471
Countdown: 0
SampleSet: Soft
StackLeniency: 0.5
Mode: 0
LetterboxInBreaks: 0
WidescreenStoryboard: 1

[Editor]
Bookmarks: 663,3150,5637,10611,13098,15585,25533,35482,40456,45430,50404,55378,57865,59730,60663,65326,67813,70300,79005,80249,85223,87710,95715
DistanceSpacing: 0.3
BeatDivisor: 4
GridSize: 32
TimelineZoom: 2

[Metadata]
Title:Natsuiro Yakimochi Koi Moyou
TitleUnicode:夏色ヤキモチ恋模様
Artist:solfa feat. Ceui
ArtistUnicode:solfa feat. Ceui
Creator:tomatas95
Version:Hard
Source:姫と乙女のヤキモチLOVE-きらめき夏物語!-
Tags:Princess Sugar eroge HimeOto Fandisc Hime to Otome no Yakimochi Love -Kirameki Natsu Monogatari!- 天ヶ咲麗 橋咲透 visual novel vn galgame 美少女ゲーム Jealousy love of a princess and the young girl -Glittering summer story! - op opening pop jpop j-pop Japanese video game gazimal videogame
BeatmapID:3594215
BeatmapSetID:1553899

[Difficulty]
HPDrainRate:4
CircleSize:3.4
OverallDifficulty:6
ApproachRate:8
SliderMultiplier:1.3
SliderTickRate:1

[Events]
//Background and Video events
0,0,"ChidoriDaisuki.jpg",0,0
Video,0,"ILoveErogePrincesses.mp4"
//Break Periods
//Storyboard Layer 0 (Background)
//Storyboard Layer 1 (Fail)
//Storyboard Layer 2 (Pass)
//Storyboard Layer 3 (Foreground)
//Storyboard Layer 4 (Overlay)
//Storyboard Sound Samples

[TimingPoints]
-580,310.880829015544,4,2,1,60,1,0
352,-100,4,2,1,30,0,0
663,-166.666666666667,4,2,1,45,0,0
3150,-100,4,2,3,75,0,0
3306,-100,4,2,2,75,0,0
4394,-100,4,2,2,40,0,0
5637,-100,4,2,1,75,0,0
10300,-100,4,2,5,75,0,0
10611,-100,4,2,1,75,0,0
11699,-100,4,2,1,70,0,0
12321,-100,4,2,1,65,0,0
12787,-100,4,2,1,75,0,0
13098,-100,4,2,2,75,0,0
13565,-100,4,2,3,75,0,0
14342,-100,4,2,5,75,0,0
14653,-100,4,2,1,60,0,0
14808,-100,4,2,3,60,0,0
14964,-100,4,2,3,65,0,0
15119,-100,4,2,3,70,0,0
15274,-100,4,2,3,75,0,0
15430,-100,4,2,3,80,0,0
15585,-125,4,2,1,60,0,0
25533,-125,4,2,5,60,0,0
25844,-125,4,2,1,60,0,0
34238,-125,4,2,2,60,0,0
35482,-111.111111111111,4,2,2,65,0,0
35793,-111.111111111111,4,2,1,65,0,0
40456,-100,4,2,5,65,0,0
40611,-100,4,2,1,65,0,0
45430,-100,4,2,5,75,0,0
45585,-100,4,2,3,70,0,0
45896,-100,4,2,5,75,0,0
46051,-100,4,2,3,70,0,0
46363,-100,4,2,5,75,0,0
46518,-100,4,2,3,70,0,0
47295,-100,4,2,3,80,0,0
47761,-100,4,2,1,70,0,0
48383,-100,4,2,5,80,0,0
49160,-100,4,2,1,30,0,0
50404,-90.9090909090909,4,2,4,85,0,1
50715,-90.9090909090909,4,2,1,85,0,1
51337,-90.9090909090909,4,2,1,75,0,1
51647,-90.9090909090909,4,2,1,85,0,1
54135,-90.9090909090909,4,2,3,85,0,1
54445,-90.9090909090909,4,2,1,85,0,1
55067,-90.9090909090909,4,2,5,85,0,1
55223,-90.9090909090909,4,2,1,85,0,1
55378,-90.9090909090909,4,2,2,85,0,1
55533,-90.9090909090909,4,2,1,85,0,1
57865,-90.9090909090909,4,2,1,75,0,0
58331,-90.9090909090909,4,2,1,70,0,0
58953,-90.9090909090909,4,2,2,85,0,0
59264,-90.9090909090909,4,2,1,85,0,0
59730,-90.9090909090909,4,2,2,85,0,0
60352,-90.9090909090909,4,2,2,70,0,0
60663,-90.9090909090909,4,2,4,85,0,1
60974,-90.9090909090909,4,2,1,85,0,1
65015,-90.9090909090909,4,2,5,75,0,1
65326,-90.9090909090909,4,2,2,85,0,1
65637,-90.9090909090909,4,2,1,85,0,1
67502,-90.9090909090909,4,2,5,75,0,1
67813,-90.9090909090909,4,2,2,85,0,1
68124,-90.9090909090909,4,2,1,85,0,1
69368,-90.9090909090909,4,2,2,85,0,1
69523,-90.9090909090909,4,2,1,85,0,1
69679,-90.9090909090909,4,2,1,85,0,0
69834,-90.9090909090909,4,2,1,75,0,0
69989,-90.9090909090909,4,2,1,70,0,0
70300,-90.9090909090909,4,2,5,85,0,1
71855,-90.9090909090909,4,2,1,75,0,1
72787,-90.9090909090909,4,2,5,85,0,1
74031,-90.9090909090909,4,2,1,75,0,1
75274,-90.9090909090909,4,2,5,85,0,1
76829,-90.9090909090909,4,2,1,75,0,1
77761,-90.9090909090909,4,2,3,85,0,1
77917,-90.9090909090909,4,2,2,85,0,1
79005,-100,4,2,2,40,0,0
80249,-100,4,2,1,75,0,0
84912,-100,4,2,5,75,0,0
85223,-100,4,2,1,75,0,0
86311,-100,4,2,1,70,0,0
86933,-100,4,2,1,65,0,0
87399,-100,4,2,1,75,0,0
87710,-100,4,2,2,75,0,0
88177,-100,4,2,3,75,0,0
88954,-100,4,2,5,75,0,0
89264,-100,4,2,1,60,0,0
89419,-100,4,2,3,60,0,0
89575,-100,4,2,3,65,0,0
89730,-100,4,2,3,70,0,0
89885,-100,4,2,3,75,0,0
90041,-100,4,2,3,80,0,0
90663,-100,4,2,1,50,0,0
90818,-166.666666666667,4,2,4,70,0,0
90896,-166.666666666667,4,2,6,70,0,0
91440,-166.666666666667,4,2,6,60,0,0
92062,-166.666666666667,4,2,6,55,0,0
92684,-166.666666666667,4,2,6,50,0,0
93306,-166.666666666667,4,2,6,45,0,0
93927,-166.666666666667,4,2,6,40,0,0
94238,-200,4,2,6,35,0,0
94549,-200,4,2,6,30,0,0
94704,-200,4,2,6,25,0,0
94860,-200,4,2,6,20,0,0
95015,-200,4,2,6,15,0,0
95171,-200,4,2,6,10,0,0
95482,-200,4,2,6,7,0,0
95715,-100,4,2,6,5,0,0

[Colours]
Combo1 : 168,174,251
Combo2 : 248,200,135
Combo3 : 227,248,82
Combo4 : 97,248,104
Combo5 : 249,134,240

[HitObjects]
28,61,663,6,0,P|64:69|118:51,1,77.999997619629,2|2,0:0|0:0,0:0:0:0:
103,59,1285,2,0,P|78:86|66:141,1,77.999997619629,2|2,0:0|0:0,0:0:0:0:
67,125,1907,2,0,P|55:89|13:52,1,77.999997619629,2|2,0:0|0:0,0:0:0:0:
27,60,2528,2,0,P|27:39|20:14,2,38.9999988098145,2|2|2,0:0|0:0|0:0,0:0:0:0:
74,227,3150,6,0,P|42:221|10:227,1,65,6|8,3:2|0:0,0:0:0:0:
10,322,3461,2,0,P|41:315|73:321,1,65,0|8,3:0|0:0,0:0:0:0:
187,373,3772,1,0,3:0:0:0:
232,302,3927,1,8,0:0:0:0:
193,229,4083,1,0,3:0:0:0:
149,299,4238,1,10,0:0:0:0:
509,30,5637,6,0,P|480:24|425:38,1,65,4|0,3:2|0:0,0:0:0:0:
448,161,5948,2,0,P|438:132|399:92,1,65,10|2,0:0|0:0,0:0:0:0:
304,173,6259,2,0,P|323:150|339:96,1,65,2|2,3:2|0:0,0:0:0:0:
363,44,6570,1,10,0:0:0:0:
284,12,6725,1,2,0:0:0:0:
215,81,6881,6,0,L|206:157,1,65,2|0,3:2|0:0,0:0:0:0:
178,233,7192,2,0,L|116:187,1,65,10|2,0:0|0:0,0:0:0:0:
64,124,7502,2,0,L|134:93,1,65,2|2,3:2|0:0,0:0:0:0:
215,81,7813,1,10,0:0:0:0:
215,81,7969,1,2,0:0:0:0:
286,148,8124,6,0,P|292:184|284:237,1,65,2|2,3:2|0:0,0:0:0:0:
386,214,8435,2,0,P|380:178|388:125,1,65,10|2,0:0|0:0,0:0:0:0:
478,153,8746,2,0,P|472:189|480:242,1,65,2|2,3:2|0:0,0:0:0:0:
503,296,9057,1,10,0:0:0:0:
468,372,9212,1,2,0:0:0:0:
468,372,9368,6,0,L|377:361,1,65,2|0,3:2|0:0,0:0:0:0:
313,362,9679,2,0,L|324:271,1,65,10|2,0:0|0:0,0:0:0:0:
321,206,9989,2,0,L|412:217,1,65,2|2,3:2|0:0,0:0:0:0:
473,217,10300,1,14,0:0:0:0:
431,43,10611,6,0,B|464:52|464:52|499:45,2,65,6|2|10,3:2|0:0|0:0,0:0:0:0:
350,0,11078,2,0,P|345:59|351:142,1,130,2|2,0:0|0:0,0:0:0:0:
252,132,11544,1,10,0:0:0:0:
252,132,11699,6,0,P|256:72|251:-10,1,130,2|2,0:0|0:0,0:0:0:0:
156,4,12166,1,10,0:0:0:0:
156,4,12321,2,0,P|160:63|155:146,1,130,2|2,0:0|0:0,0:0:0:0:
102,199,12787,1,8,0:0:0:0:
17,185,12943,1,2,0:0:0:0:
72,120,13098,6,0,P|71:86|61:33,2,65,14|0|0,0:0|3:0|3:0,0:0:0:0:
17,185,13565,2,0,B|10:227|10:227|19:265|19:265|10:331,1,130,14|0,0:0|3:0,0:0:0:0:
89,372,14031,2,0,L|99:301,1,65,8|0,0:0|3:0,0:0:0:0:
108,223,14342,6,0,B|141:202|171:213|171:213|197:246|245:238,1,130,14|0,0:0|3:0,0:0:0:0:
308,213,14808,1,8,0:0:0:0:
308,213,14964,1,0,3:0:0:0:
226,239,15119,1,8,0:0:0:0:
226,324,15274,1,8,0:0:0:0:
308,351,15430,1,8,0:0:0:0:
358,282,15585,6,0,P|406:271|475:290,1,104,6|2,3:2|3:2,0:0:0:0:
491,372,16052,1,2,0:0:0:0:
491,372,16207,2,0,P|441:361|371:381,1,104,2|0,3:2|3:0,0:0:0:0:
230,376,16829,2,0,P|230:329|217:259,2,104,2|2|2,3:2|3:2|3:2,0:0:0:0:
66,375,17761,1,0,3:2:0:0:
150,380,17917,1,2,0:0:0:0:
150,380,18072,6,0,P|150:333|137:263,1,104,2|2,3:2|3:2,0:0:0:0:
93,211,18539,1,2,0:0:0:0:
93,211,18694,2,0,P|52:235|-14:258,1,104,2|0,3:2|3:0,0:0:0:0:
24,109,19316,2,0,L|10:-4,2,104,2|2|2,3:2|3:2|3:2,0:0:0:0:
181,38,20249,1,2,3:2:0:0:
181,38,20404,1,2,0:0:0:0:
94,5,20559,6,0,L|108:118,2,104,2|0|0,3:2|3:2|3:0,0:0:0:0:
264,19,21492,1,2,3:2:0:0:
264,19,21647,1,2,0:0:0:0:
319,77,21803,2,0,P|325:103|321:137,1,52,2|0,3:2|0:0,0:0:0:0:
394,178,22114,2,0,P|420:172|454:176,1,52,2|0,3:2|0:0,0:0:0:0:
494,102,22425,2,0,P|489:77|490:51,1,52,2|0,3:2|0:0,0:0:0:0:
419,2,22736,2,0,P|394:7|368:6,1,52,2|0,3:2|0:0,0:0:0:0:
319,77,23046,6,0,L|306:194,2,104,2|2|0,3:2|3:2|3:2,0:0:0:0:
445,173,23979,2,0,L|451:232,1,52,2|0,3:2|0:0,0:0:0:0:
498,295,24290,2,0,P|452:281|377:300,2,104,2|0|0,3:2|3:2|3:2,0:0:0:0:
470,369,25067,2,0,P|445:364|410:372,1,52,2|2,0:0|3:2,0:0:0:0:
337,384,25378,1,2,0:0:0:0:
315,305,25533,5,6,3:2:0:0:
166,358,25844,2,0,P|162:335|167:295,1,52,2|0,3:2|0:0,0:0:0:0:
107,244,26155,2,0,P|88:258|51:274,1,52,2|0,3:2|0:0,0:0:0:0:
37,352,26466,2,0,P|58:360|91:384,1,52,2|0,3:2|0:0,0:0:0:0:
63,271,26777,2,0,L|49:146,2,104,2|0|0,3:2|3:2|3:2,0:0:0:0:
183,375,27710,2,0,L|244:365,1,52,2|2,3:2|0:0,0:0:0:0:
328,383,28021,6,0,P|327:353|318:308,1,52,2|0,3:2|0:0,0:0:0:0:
428,296,28331,2,0,P|401:281|358:267,1,52,2|0,3:2|0:0,0:0:0:0:
402,165,28642,2,0,P|376:180|342:211,1,52,2|0,3:2|0:0,0:0:0:0:
276,121,28953,2,0,P|277:151|285:196,1,52,2|0,3:2|0:0,0:0:0:0:
297,253,29264,2,0,L|183:271,2,104,2|0|0,3:2|3:2|3:2,0:0:0:0:
280,172,30041,2,0,L|223:181,1,52,2|0,0:0|3:0,0:0:0:0:
150,194,30352,1,2,0:0:0:0:
150,194,30508,6,0,P|150:154|136:75,1,104,0|0,3:0|3:0,0:0:0:0:
59,117,30974,1,2,0:0:0:0:
59,117,31129,2,0,P|63:142|63:168,2,52,2|2|2,3:2|0:0|3:2,0:0:0:0:
0,57,31596,1,2,0:0:0:0:
68,10,31751,2,0,P|114:0|183:16,1,104,2|2,3:2|3:2,0:0:0:0:
228,72,32217,2,0,P|274:82|343:66,1,104,2|0,0:0|0:0,0:0:0:0:
379,8,32684,1,2,3:2:0:0:
379,8,32839,1,2,0:0:0:0:
457,41,32995,5,2,3:2:0:0:
494,195,33306,2,0,L|421:184,1,52,0|0,3:2|0:0,0:0:0:0:
425,273,33616,2,0,L|498:284,1,52,0|0,3:2|0:0,0:0:0:0:
458,365,33927,2,0,L|407:358,1,52,0|0,3:2|0:0,0:0:0:0:
317,332,34238,2,0,P|322:362|319:392,2,52,10|0|0,0:0|3:0|3:0,0:0:0:0:
265,266,34704,1,8,0:0:0:0:
265,266,34860,2,0,P|261:235|267:204,1,52,2|0,3:2|3:0,0:0:0:0:
343,185,35171,2,0,P|347:154|341:123,1,52,2|0,3:2|3:2,0:0:0:0:
318,54,35482,6,0,B|226:55|226:55|205:27,1,116.999996429443,6|10,3:2|0:0,0:0:0:0:
127,20,35948,2,0,P|122:48|124:77,1,58.4999982147217,2|0,0:0|3:0,0:0:0:0:
41,75,36259,2,0,P|43:45|38:17,1,58.4999982147217,2|8,3:2|0:0,0:0:0:0:
124,77,36570,1,2,0:0:0:0:
80,147,36725,6,0,L|86:213,1,58.4999982147217,2|2,3:2|0:0,0:0:0:0:
10,269,37036,2,0,L|-1:137,1,116.999996429443,10|0,0:0|3:0,0:0:0:0:
37,359,37658,1,8,0:0:0:0:
37,359,37813,1,2,0:0:0:0:
118,326,37969,6,0,P|168:313|246:340,1,116.999996429443,2|10,3:2|0:0,0:0:0:0:
307,371,38435,2,0,L|315:304,1,58.4999982147217,2|0,0:0|3:0,0:0:0:0:
274,238,38746,2,0,L|280:179,1,58.4999982147217,2|8,3:2|0:0,0:0:0:0:
299,91,39057,1,2,0:0:0:0:
299,91,39212,6,0,P|269:96|238:87,2,58.4999982147217,2|2|10,3:2|3:2|0:0,0:0:0:0:
360,35,39679,2,0,P|410:20|480:56,1,116.999996429443,8|0,0:0|3:0,0:0:0:0:
414,103,40145,1,8,0:0:0:0:
414,103,40300,1,2,3:2:0:0:
506,159,40456,6,0,B|495:209|509:264|509:264|487:228,1,130,6|10,3:2|0:0,0:0:0:0:
413,223,40922,1,2,0:0:0:0:
413,223,41078,2,0,P|406:293|425:373,1,130,2|10,3:2|0:0,0:0:0:0:
335,384,41544,6,0,P|277:342|199:319,1,130,2|2,0:0|3:2,0:0:0:0:
155,271,42010,1,10,0:0:0:0:
155,271,42166,1,2,3:2:0:0:
234,235,42321,2,0,P|298:206|357:149,1,130,2|8,0:0|0:0,0:0:0:0:
389,96,42787,1,2,0:0:0:0:
316,37,42943,5,0,3:2:0:0:
316,37,43098,2,0,L|161:48,1,130,2|2,0:0|0:0,0:0:0:0:
104,18,43565,2,0,P|68:11|27:22,2,65,2|2|10,3:2|3:2|0:0,0:0:0:0:
186,46,44031,1,2,0:0:0:0:
123,108,44186,6,0,B|116:154|116:154|121:184|121:184|109:254,1,130,2|10,3:2|0:0,0:0:0:0:
101,318,44653,1,8,0:0:0:0:
19,307,44808,2,0,L|14:385,2,65,2|2|10,3:2|3:2|0:0,0:0:0:0:
30,225,45274,1,0,3:0:0:0:
101,318,45430,6,0,P|146:303|235:342,1,130,14|0,0:0|3:0,0:0:0:0:
342,338,45896,2,0,P|297:353|208:314,1,130,14|0,0:0|3:0,0:0:0:0:
208,211,46363,2,0,L|214:137,1,65,14|2,0:0|3:2,0:0:0:0:
217,127,46596,1,2,3:2:0:0:
220,108,46673,6,0,P|184:116|143:106,2,65,0|8|0,3:0|0:0|3:0,0:0:0:0:
310,43,47140,1,8,0:0:0:0:
310,43,47295,1,8,0:0:0:0:
380,93,47451,1,8,0:0:0:0:
459,57,47607,1,8,0:0:0:0:
389,6,47762,5,2,3:1:0:0:
494,155,48072,1,2,3:1:0:0:
345,260,48383,1,6,3:2:0:0:
240,111,48694,1,6,3:2:0:0:
367,133,49005,1,6,3:2:0:0:
18,341,50404,6,0,B|1:373|1:373|-17:329|3:253,1,143.000004364014,6|8,3:2|0:0,0:0:0:0:
3,180,50870,1,2,0:0:0:0:
81,217,51026,2,0,P|87:180|79:134,1,71.5000021820069,2|0,3:2|0:0,0:0:0:0:
1,94,51337,2,0,P|-5:57|3:11,1,71.5000021820069,10|0,0:0|0:0,0:0:0:0:
81,56,51647,6,0,P|145:45|244:55,1,143.000004364014,2|10,3:2|0:0,0:0:0:0:
364,55,52114,2,0,P|299:44|201:54,1,143.000004364014,2|0,0:0|0:0,0:0:0:0:
213,136,52580,1,8,0:0:0:0:
213,136,52736,1,2,0:0:0:0:
270,204,52891,6,0,L|260:292,1,71.5000021820069,2|2,3:2|0:0,0:0:0:0:
196,333,53202,2,0,P|258:318|334:352,1,143.000004364014,10|2,0:0|3:2,0:0:0:0:
409,383,53668,1,2,0:0:0:0:
399,297,53823,1,10,0:0:0:0:
399,297,53979,1,2,0:0:0:0:
477,331,54135,6,0,L|494:184,1,143.000004364014,6|8,3:2|0:0,0:0:0:0:
512,97,54601,2,0,P|478:104|435:93,1,71.5000021820069,2|2,0:0|3:2,0:0:0:0:
479,21,54912,1,2,0:0:0:0:
369,8,55067,1,14,0:0:0:0:
369,8,55223,1,2,0:0:0:0:
346,91,55378,6,0,B|332:140|338:205|338:205|315:167,1,143.000004364014,6|10,3:2|0:0,0:0:0:0:
242,131,55844,1,2,0:0:0:0:
179,184,56000,2,0,P|160:142|211:55,1,143.000004364014,2|8,3:2|0:0,0:0:0:0:
122,8,56466,1,2,0:0:0:0:
39,61,56622,6,0,P|65:98|32:193,1,143.000004364014,2|10,3:2|0:0,0:0:0:0:
15,271,57088,2,0,L|86:263,1,71.5000021820069,2|0,0:0|3:2,0:0:0:0:
95,352,57399,2,0,L|5:361,1,71.5000021820069,2|8,3:2|0:0,0:0:0:0:
87,263,57710,1,2,0:0:0:0:
180,341,57865,6,0,P|177:297|183:245,1,71.5000021820069,8|8,0:0|3:3,0:0:0:0:
191,252,58098,1,8,3:3:0:0:
210,243,58176,1,8,3:3:0:0:
280,343,58331,1,2,3:1:0:0:
278,149,58642,1,2,3:1:0:0:
447,244,58953,6,0,B|468:244|496:232|496:232|517:271|497:326,1,143.000004364014,6|2,3:2|0:0,0:0:0:0:
433,376,59419,1,8,0:0:0:0:
369,322,59575,1,8,0:0:0:0:
369,313,59653,1,8,0:0:0:0:
370,302,59730,2,0,L|363:224,1,71.5000021820069,0|8,3:0|0:0,0:0:0:0:
362,147,60041,1,8,0:0:0:0:
278,149,60197,1,8,0:0:0:0:
280,233,60352,1,0,3:0:0:0:
229,35,60663,6,0,B|271:33|271:33|298:10|298:10|372:12,1,143.000004364014,14|0,3:2|3:0,0:0:0:0:
451,13,61129,1,2,0:0:0:0:
451,13,61285,2,0,L|457:95,1,71.5000021820069,10|2,0:0|0:0,0:0:0:0:
500,190,61596,6,0,P|444:163|363:196,1,143.000004364014,2|10,3:2|0:0,0:0:0:0:
241,190,62062,2,0,P|297:163|378:196,1,143.000004364014,2|0,0:0|3:0,0:0:0:0:
390,282,62528,1,10,0:0:0:0:
310,260,62684,1,2,0:0:0:0:
310,260,62839,6,0,L|300:356,1,71.5000021820069,2|0,3:2|0:0,0:0:0:0:
372,383,63150,2,0,L|460:343,1,71.5000021820069,10|0,0:0|0:0,0:0:0:0:
512,312,63461,1,2,3:2:0:0:
464,237,63616,1,2,3:2:0:0:
512,166,63772,2,0,L|504:82,1,71.5000021820069,10|2,0:0|0:0,0:0:0:0:
484,0,64083,5,0,3:2:0:0:
414,51,64238,1,2,0:0:0:0:
343,102,64394,2,0,L|172:85,1,143.000004364014,10|2,0:0|3:2,0:0:0:0:
130,37,64860,1,2,0:0:0:0:
125,149,65015,1,14,0:0:0:0:
13,14,65326,6,0,B|22:78|10:125|10:125|31:120|49:129,1,143.000004364014,6|10,3:2|0:0,0:0:0:0:
125,149,65793,1,2,0:0:0:0:
60,209,65948,2,0,L|55:290,1,71.5000021820069,2|2,3:2|0:0,0:0:0:0:
44,366,66259,1,10,0:0:0:0:
126,336,66414,6,0,P|177:319|261:354,1,143.000004364014,2|2,0:0|0:0,0:0:0:0:
341,384,66881,2,0,L|346:306,1,71.5000021820069,10|8,0:0|0:0,0:0:0:0:
353,219,67192,1,0,3:0:0:0:
263,221,67347,1,0,3:0:0:0:
345,312,67502,1,14,0:0:0:0:
361,126,67813,6,0,B|395:103|433:118|433:118|461:152|502:140,1,143.000004364014,6|10,3:2|0:0,0:0:0:0:
505,235,68280,1,2,0:0:0:0:
505,235,68435,2,0,L|510:310,1,71.5000021820069,2|2,3:2|0:0,0:0:0:0:
508,384,68746,1,10,0:0:0:0:
400,368,68901,6,0,L|389:209,1,143.000004364014,2|2,0:0|0:0,0:0:0:0:
383,102,69368,1,14,0:0:0:0:
448,160,69523,2,0,L|483:156,2,35.7500010910034,8|8|0,0:0|0:0|3:0,0:0:0:0:
390,225,69834,1,8,3:3:0:0:
325,167,69989,1,4,3:3:0:0:
502,24,70300,6,0,P|447:3|356:34,1,143.000004364014,6|0,3:2|0:0,0:0:0:0:
191,167,70922,2,0,P|246:146|337:177,1,143.000004364014,6|0,3:2|0:0,0:0:0:0:
512,303,71544,2,0,P|457:282|366:313,1,143.000004364014,6|0,3:2|3:2,0:0:0:0:
316,363,72010,5,0,3:0:0:0:
295,279,72166,1,2,3:2:0:0:
211,300,72321,1,2,0:0:0:0:
232,384,72476,2,0,L|155:371,1,71.5000021820069,10|0,0:0|3:3,0:0:0:0:
50,366,72787,6,0,B|43:319|43:319|47:284|47:284|35:211,1,143.000004364014,6|0,3:2|0:0,0:0:0:0:
161,372,73409,2,0,B|168:325|168:325|164:290|164:290|176:217,1,143.000004364014,6|0,3:2|0:0,0:0:0:0:
199,59,74031,5,8,3:3:0:0:
186,146,74186,1,8,3:3:0:0:
173,230,74342,1,4,3:3:0:0:
199,59,74653,6,0,L|115:49,1,71.5000021820069,0|0,3:0|0:0,0:0:0:0:
55,2,74964,1,10,0:0:0:0:
0,67,75119,1,0,3:0:0:0:
51,140,75274,6,0,P|65:189|37:285,1,143.000004364014,6|0,3:2|0:0,0:0:0:0:
242,125,75896,2,0,P|192:112|123:40,1,143.000004364014,6|0,3:2|0:0,0:0:0:0:
159,297,76518,2,0,P|195:260|292:236,1,143.000004364014,6|2,3:2|3:2,0:0:0:0:
415,363,77140,5,10,0:0:0:0:
436,279,77295,1,2,0:0:0:0:
457,195,77451,2,0,L|465:117,1,71.5000021820069,2|0,3:2|3:3,0:0:0:0:
434,47,77761,6,0,B|473:39|473:39|507:55,1,71.5000021820069,14|8,0:0|0:0,0:0:0:0:
384,120,78072,2,0,B|345:128|345:128|311:112,1,71.5000021820069,0|8,3:0|0:0,0:0:0:0:
285,34,78383,1,0,3:0:0:0:
205,65,78539,1,8,0:0:0:0:
236,145,78694,1,8,3:2:0:0:
316,114,78850,1,10,0:0:0:0:
7,32,80249,6,0,L|95:21,1,65,4|0,3:2|0:0,0:0:0:0:
82,116,80559,2,0,L|-6:127,1,65,10|2,0:0|0:0,0:0:0:0:
27,216,80870,2,0,L|92:208,1,65,2|2,3:2|0:0,0:0:0:0:
165,165,81181,1,10,0:0:0:0:
218,234,81337,1,2,0:0:0:0:
151,287,81492,6,0,P|148:327|155:361,1,65,2|0,3:2|0:0,0:0:0:0:
56,364,81803,2,0,P|22:341|-10:330,1,65,10|2,0:0|0:0,0:0:0:0:
36,241,82114,2,0,P|72:223|98:200,1,65,2|2,3:2|0:0,0:0:0:0:
88,120,82425,1,10,0:0:0:0:
88,120,82580,1,2,0:0:0:0:
149,56,82736,6,0,L|227:48,1,65,2|2,3:2|0:0,0:0:0:0:
258,125,83046,2,0,L|336:117,1,65,10|2,0:0|0:0,0:0:0:0:
367,194,83357,2,0,L|445:186,1,65,2|2,3:2|0:0,0:0:0:0:
512,177,83668,1,10,0:0:0:0:
462,113,83824,1,2,0:0:0:0:
431,187,83979,6,0,P|435:224|431:275,1,65,2|0,3:2|0:0,0:0:0:0:
394,354,84290,2,0,P|378:325|358:299,1,65,10|2,0:0|0:0,0:0:0:0:
512,297,84601,2,0,P|492:322|476:351,1,65,2|2,3:2|0:0,0:0:0:0:
434,251,84912,1,14,0:0:0:0:
286,379,85223,6,0,B|277:287,2,65,6|2|10,3:2|0:0|0:0,0:0:0:0:
200,384,85689,2,0,B|186:250,1,130,2|2,0:0|0:0,0:0:0:0:
107,300,86155,1,10,0:0:0:0:
107,300,86311,6,0,B|93:166,1,130,2|2,0:0|0:0,0:0:0:0:
12,228,86777,1,10,0:0:0:0:
12,228,86932,2,0,B|-1:94,1,130,2|2,0:0|0:0,0:0:0:0:
11,13,87399,1,8,0:0:0:0:
97,0,87554,1,2,0:0:0:0:
166,64,87710,6,0,L|174:138,2,65,14|0|0,0:0|3:0|3:0,0:0:0:0:
258,20,88176,2,0,B|291:-1|321:10|321:10|347:43|395:35,1,130,14|0,0:0|3:0,0:0:0:0:
463,3,88642,2,0,L|471:77,1,65,8|0,0:0|3:0,0:0:0:0:
508,164,88953,6,0,P|455:143|384:168,1,130,14|0,0:0|3:0,0:0:0:0:
451,230,89419,1,8,0:0:0:0:
451,230,89575,1,0,3:0:0:0:
363,252,89730,1,8,0:0:0:0:
300,186,89886,1,8,0:0:0:0:
388,164,90041,1,8,0:0:0:0:
388,164,90663,5,2,0:0:0:0:
388,164,90818,2,0,B|391:217|423:238|480:257|603:206|535:-15|356:-21|258:77|279:194|279:194|284:211|276:204|281:221|281:221|298:318|178:443|-56:424|-124:161|42:74|103:118|156:151|149:220,1,1228.49996250916,6|0,3:2|0:0,0:0:0:0:
