osu file format v14

[General]
AudioFilename: Natsuiro Yakimochi Koimoyou.mp3
AudioLeadIn: 0
PreviewTime: 49471
Countdown: 0
SampleSet: Soft
StackLeniency: 0.5
Mode: 0
LetterboxInBreaks: 0
WidescreenStoryboard: 1

[Editor]
Bookmarks: 663,3150,5637,10611,13098,15585,25533,35482,40456,45430,50404,55378,57865,59730,60663,65326,67813,70300,79005,80249,85223,87710,95715
DistanceSpacing: 0.3
BeatDivisor: 4
GridSize: 32
TimelineZoom: 2

[Metadata]
Title:Natsuiro Yakimochi Koi Moyou
TitleUnicode:夏色ヤキモチ恋模様
Artist:solfa feat. Ceui
ArtistUnicode:solfa feat. Ceui
Creator:tomatas95
Version:Easy
Source:姫と乙女のヤキモチLOVE-きらめき夏物語!-
Tags:Princess Sugar eroge HimeOto Fandisc Hime to Otome no Yakimochi Love -Kirameki Natsu Monogatari!- 天ヶ咲麗 橋咲透 visual novel vn galgame 美少女ゲーム Jealousy love of a princess and the young girl -Glittering summer story! - op opening pop jpop j-pop Japanese video game gazimal videogame
BeatmapID:3594214
BeatmapSetID:1553899

[Difficulty]
HPDrainRate:2
CircleSize:2.5
OverallDifficulty:2
ApproachRate:3
SliderMultiplier:1
SliderTickRate:1

[Events]
//Background and Video events
0,0,"AlizeMarryme.jpg",0,0
Video,0,"ILoveErogePrincesses.mp4"
//Break Periods
//Storyboard Layer 0 (Background)
//Storyboard Layer 1 (Fail)
//Storyboard Layer 2 (Pass)
//Storyboard Layer 3 (Foreground)
//Storyboard Layer 4 (Overlay)
//Storyboard Sound Samples

[TimingPoints]
-580,310.880829015544,4,2,1,60,1,0
352,-100,4,2,1,30,0,0
663,-100,4,2,1,45,0,0
3150,-100,4,2,3,75,0,0
3306,-100,4,2,2,75,0,0
4394,-100,4,2,2,40,0,0
5637,-100,4,2,1,75,0,0
10300,-100,4,2,5,75,0,0
10611,-100,4,2,1,75,0,0
11699,-100,4,2,1,70,0,0
12321,-100,4,2,1,65,0,0
12787,-100,4,2,1,75,0,0
13098,-100,4,2,2,75,0,0
13565,-100,4,2,3,75,0,0
14342,-100,4,2,5,75,0,0
14653,-100,4,2,1,60,0,0
14808,-100,4,2,3,60,0,0
14964,-100,4,2,3,65,0,0
15119,-100,4,2,3,70,0,0
15274,-100,4,2,3,75,0,0
15430,-100,4,2,3,80,0,0
15585,-100,4,2,1,60,0,0
25533,-100,4,2,5,60,0,0
25844,-100,4,2,1,60,0,0
34238,-100,4,2,2,60,0,0
35482,-100,4,2,2,65,0,0
35793,-100,4,2,1,65,0,0
40456,-100,4,2,5,65,0,0
40611,-100,4,2,1,65,0,0
45430,-100,4,2,5,75,0,0
45585,-100,4,2,3,70,0,0
45896,-100,4,2,5,75,0,0
46051,-100,4,2,3,70,0,0
46363,-100,4,2,5,75,0,0
46518,-100,4,2,3,70,0,0
47295,-100,4,2,3,80,0,0
47761,-100,4,2,1,70,0,0
48383,-100,4,2,5,80,0,0
49160,-100,4,2,1,30,0,0
50404,-100,4,2,4,85,0,1
50715,-100,4,2,1,85,0,1
51337,-100,4,2,1,75,0,1
51647,-100,4,2,1,85,0,1
54135,-100,4,2,3,85,0,1
54445,-100,4,2,1,85,0,1
55067,-100,4,2,5,85,0,1
55223,-100,4,2,1,85,0,1
55378,-100,4,2,2,85,0,1
55533,-100,4,2,1,85,0,1
57865,-100,4,2,1,75,0,0
58331,-100,4,2,1,70,0,0
58953,-100,4,2,2,85,0,0
59264,-100,4,2,1,85,0,0
59730,-100,4,2,2,85,0,0
60352,-100,4,2,2,70,0,0
60663,-100,4,2,4,85,0,1
60974,-100,4,2,1,85,0,1
65015,-100,4,2,5,75,0,1
65326,-100,4,2,2,85,0,1
65637,-100,4,2,1,85,0,1
67502,-100,4,2,5,75,0,1
67813,-100,4,2,2,85,0,1
68124,-100,4,2,1,85,0,1
69368,-100,4,2,2,85,0,1
69679,-100,4,2,1,85,0,0
69834,-100,4,2,1,75,0,0
69989,-100,4,2,1,70,0,0
70300,-100,4,2,5,85,0,1
71855,-100,4,2,1,75,0,1
72787,-100,4,2,5,85,0,1
74031,-100,4,2,1,75,0,1
75274,-100,4,2,5,85,0,1
76829,-100,4,2,1,75,0,1
77761,-100,4,2,3,85,0,1
77917,-100,4,2,2,85,0,1
79005,-100,4,2,2,40,0,0
80249,-100,4,2,1,75,0,0
84912,-100,4,2,5,75,0,0
85223,-100,4,2,1,75,0,0
86311,-100,4,2,1,70,0,0
86933,-100,4,2,1,65,0,0
87399,-100,4,2,1,75,0,0
87710,-100,4,2,2,75,0,0
88177,-100,4,2,3,75,0,0
88954,-100,4,2,5,75,0,0
89264,-100,4,2,1,60,0,0
89419,-100,4,2,3,60,0,0
89575,-100,4,2,3,65,0,0
89730,-100,4,2,3,70,0,0
89885,-100,4,2,3,75,0,0
90041,-100,4,2,3,80,0,0
90663,-100,4,2,1,50,0,0
90818,-100,4,2,4,70,0,0
91440,-100,4,2,4,60,0,0
92062,-100,4,2,4,55,0,0
92684,-100,4,2,4,50,0,0
93306,-100,4,2,4,45,0,0
93927,-100,4,2,4,40,0,0
94238,-200,4,2,6,35,0,0
94549,-200,4,2,6,30,0,0
94704,-200,4,2,6,25,0,0
94860,-200,4,2,6,20,0,0
95015,-200,4,2,6,15,0,0
95171,-200,4,2,6,10,0,0
95482,-200,4,2,6,7,0,0
95715,-100,4,2,6,5,0,0

[Colours]
Combo1 : 168,174,251
Combo2 : 248,200,135
Combo3 : 227,248,82
Combo4 : 97,248,104
Combo5 : 249,134,240

[HitObjects]
463,146,663,6,0,P|459:97|473:27,1,100,2|2,0:0|0:0,0:0:0:0:
379,31,1285,2,0,P|338:58|270:81,1,100,2|2,0:0|0:0,0:0:0:0:
216,26,1907,1,2,0:0:0:0:
129,50,2217,2,0,L|142:164,2,100,2|2|2,0:0|0:0|0:0,0:0:0:0:
42,24,3150,6,0,B|36:61|36:61|39:88|39:88|25:140,1,99.9999999999999,6|0,3:2|3:0,0:0:0:0:
19,211,3772,2,0,B|25:254|14:316|14:316|33:306|61:316,1,150,0|10,3:0|0:0,0:0:0:0:
453,277,5637,6,0,P|444:326|454:374,2,99.9999999999999,4|10|2,3:2|0:0|3:2,0:0:0:0:
501,200,6570,1,10,0:0:0:0:
443,134,6881,2,0,P|434:84|444:36,2,99.9999999999999,2|10|2,3:2|0:0|3:2,0:0:0:0:
388,205,7813,1,10,0:0:0:0:
324,140,8124,6,0,B|283:140|283:140|268:132|268:132|210:132,1,99.9999999999999,2|10,3:2|0:0,0:0:0:0:
137,116,8746,2,0,L|124:230,1,99.9999999999999,2|10,3:2|0:0,0:0:0:0:
35,219,9368,2,0,L|22:105,2,99.9999999999999,2|10|2,3:2|0:0|3:2,0:0:0:0:
4,303,10300,1,14,0:0:0:0:
70,363,10611,6,0,B|109:342|142:350|142:350|169:388|224:371,1,150,6|2,3:2|0:0,0:0:0:0:
301,376,11388,1,2,0:0:0:0:
323,291,11699,2,0,P|329:239|294:185,1,100,2|2,0:0|0:0,0:0:0:0:
243,135,12321,2,0,P|273:114|382:144,1,150,2|8,0:0|0:0,0:0:0:0:
427,210,13098,6,0,B|423:268|423:268|429:291|429:291|422:368,2,150,14|14|8,0:0|0:0|0:0,0:0:0:0:
498,154,14342,2,0,B|525:114|522:71|510:40|483:22|483:22|448:35|440:56,1,200,14|0,0:0|3:0,0:0:0:0:
369,107,15274,1,8,0:0:0:0:
304,43,15585,6,0,B|259:27|259:27|199:48,1,99.9999999999999,6|2,3:2|3:2,0:0:0:0:
259,119,16207,2,0,B|287:331,2,200,2|2|2,3:2|3:2|3:2,0:0:0:0:
107,49,18072,6,0,P|59:37|5:58,1,100,2|2,3:2|3:2,0:0:0:0:
62,127,18694,2,0,P|73:214|76:338,2,200,2|2|2,3:2|3:2|3:2,0:0:0:0:
12,52,20249,1,2,3:2:0:0:
99,31,20559,6,0,B|145:5|187:25|187:25|221:82|300:53,1,200,2|0,3:2|3:0,0:0:0:0:
342,124,21492,1,2,3:2:0:0:
295,201,21803,2,0,P|306:249|301:318,2,100,2|2|2,3:2|3:2|3:2,0:0:0:0:
224,144,22736,1,2,3:2:0:0:
149,93,23046,6,0,B|104:110|64:85|64:85|20:124|50:199,1,200,2|0,3:2|3:2,0:0:0:0:
0,265,23979,1,2,3:2:0:0:
28,352,24290,2,0,P|124:342|249:341,1,200,2|0,3:2|3:2,0:0:0:0:
407,342,25533,6,0,B|452:359|452:359|514:342,2,99.9999999999999,6|2|2,3:2|3:2|3:2,0:0:0:0:
368,260,26466,1,2,3:2:0:0:
416,183,26777,2,0,B|367:155|320:178|320:178|267:212|207:160,1,200,2|0,3:2|3:2,0:0:0:0:
140,145,27710,1,2,3:2:0:0:
58,183,28021,6,0,L|73:293,2,100,2|2|2,3:2|3:2|3:2,0:0:0:0:
11,106,28953,1,2,3:2:0:0:
62,32,29264,2,0,P|150:23|267:24,1,200,2|0,3:2|3:2,0:0:0:0:
441,20,30508,6,0,B|393:9|355:54|355:54|391:108|360:167,1,200,0|2,3:0|3:2,0:0:0:0:
427,217,31440,1,2,3:2:0:0:
391,299,31751,2,0,P|462:315|513:373,2,150,2|2|2,3:2|0:0|3:2,0:0:0:0:
301,285,32995,6,0,L|288:390,2,100,2|0|0,3:2|3:2|3:2,0:0:0:0:
323,197,33927,1,0,3:2:0:0:
264,128,34238,2,0,P|184:136|111:118,2,150,10|8|2,0:0|0:0|3:2,0:0:0:0:
351,106,35482,6,0,B|343:28|343:28|374:-2|412:8,1,150,6|2,3:2|0:0,0:0:0:0:
498,9,36259,1,2,3:2:0:0:
498,99,36570,2,0,L|476:263,1,150,2|10,0:0|0:0,0:0:0:0:
348,372,37658,1,8,0:0:0:0:
276,313,37969,6,0,B|207:276|207:276|136:306,1,150,2|2,3:2|0:0,0:0:0:0:
73,363,38746,1,2,3:2:0:0:
11,297,39057,2,0,P|15:249|2:185,1,100,2|2,0:0|3:2,0:0:0:0:
3,107,39679,1,8,0:0:0:0:
105,19,40145,1,8,0:0:0:0:
169,82,40456,6,0,B|199:127|180:177|180:177|150:232|206:288,1,200,6|2,3:2|3:2,0:0:0:0:
220,355,41388,1,10,0:0:0:0:
302,318,41699,2,0,P|352:310|416:337,1,99.9999999999999,0|10,3:0|0:0,0:0:0:0:
474,373,42321,1,2,0:0:0:0:
500,194,42943,6,0,B|450:177|450:177|384:194,1,99.9999999999999,0|8,3:2|0:0,0:0:0:0:
321,217,43565,2,0,L|304:106,1,99.9999999999999,2|10,3:2|0:0,0:0:0:0:
256,42,44186,2,0,P|205:51|149:34,2,99.9999999999999,2|10|2,3:2|0:0|3:2,0:0:0:0:
338,6,45119,1,10,0:0:0:0:
425,27,45430,6,0,B|451:22|480:35|480:35|511:84|485:130,2,150,14|14|14,0:0|0:0|0:0,0:0:0:0:
368,97,46673,2,0,P|354:146|369:205,1,100,0|0,3:0|3:0,0:0:0:0:
437,244,47295,1,8,0:0:0:0:
388,370,47761,6,0,P|344:341|281:328,1,100,2|2,3:1|3:1,0:0:0:0:
208,323,48383,1,6,3:2:0:0:
171,241,48694,1,6,3:2:0:0:
246,191,49005,1,6,3:2:0:0:
16,23,50404,6,0,B|13:52|13:52|19:79|19:79|11:125,1,99.9999999999999,6|8,3:2|0:0,0:0:0:0:
48,204,51026,1,2,3:2:0:0:
3,278,51337,1,10,0:0:0:0:
51,353,51647,2,0,P|122:347|209:363,2,150,2|2|8,3:2|0:0|0:0,0:0:0:0:
3,278,52891,5,2,3:2:0:0:
48,204,53202,2,0,B|94:164|140:184|140:184|181:229|246:197,1,200,10|10,0:0|0:0,0:0:0:0:
253,115,54135,1,6,3:2:0:0:
356,201,54601,2,0,L|338:354,1,150,2|14,0:0|0:0,0:0:0:0:
423,378,55378,5,6,3:2:0:0:
489,317,55689,1,10,0:0:0:0:
468,226,56000,2,0,P|462:178|480:122,1,100,2|8,3:2|0:0,0:0:0:0:
491,40,56622,1,2,3:2:0:0:
402,26,56932,2,0,B|357:23|329:51|329:51|352:99|333:139,1,150,10|2,0:0|0:0,0:0:0:0:
358,252,57865,6,0,B|353:291|360:360|360:360|315:372,1,150,8|2,0:0|3:1,0:0:0:0:
229,370,58642,1,2,3:1:0:0:
194,286,58953,2,0,L|213:113,1,150,6|8,3:2|0:0,0:0:0:0:
121,115,59730,2,0,L|133:6,1,99.9999999999999,0|8,3:0|0:0,0:0:0:0:
41,8,60352,1,0,3:0:0:0:
22,96,60663,6,0,B|16:131|16:131|18:152|18:152|10:205,1,99.9999999999999,14|0,3:2|3:0,0:0:0:0:
48,277,61285,1,10,0:0:0:0:
19,362,61596,2,0,B|58:383|97:354|97:354|129:329|178:355,2,150,2|2|10,3:2|0:0|0:0,0:0:0:0:
48,277,62839,5,2,3:2:0:0:
21,190,63150,2,0,P|23:141|16:84,1,99.9999999999999,10|2,0:0|3:2,0:0:0:0:
80,25,63772,1,10,0:0:0:0:
144,87,64083,2,0,P|138:136|140:186,2,99.9999999999999,0|10|2,3:2|0:0|3:2,0:0:0:0:
215,31,65015,1,14,0:0:0:0:
265,105,65326,6,0,B|260:139|260:139|264:158|264:158|255:212,1,100,6|10,3:2|0:0,0:0:0:0:
234,291,65948,2,0,P|171:276|95:335,2,150,2|2|10,3:2|0:0|0:0,0:0:0:0:
389,381,67502,1,14,0:0:0:0:
468,338,67813,6,0,B|466:303|466:303|457:280|457:280|460:225,1,99.9999999999999,6|10,3:2|0:0,0:0:0:0:
398,172,68435,2,0,B|360:159|331:173|331:173|309:206|329:257,2,150,2|2|14,3:2|0:0|0:0,0:0:0:0:
480,134,69679,1,0,3:0:0:0:
494,46,69989,1,4,3:3:0:0:
405,32,70300,6,0,B|298:16,1,99.9999999999999,6|0,3:2|0:0,0:0:0:0:
276,103,70922,2,0,B|169:87,1,99.9999999999999,6|0,3:2|0:0,0:0:0:0:
129,165,71544,2,0,B|22:149,1,99.9999999999999,6|0,3:2|3:2,0:0:0:0:
17,60,72166,1,2,3:2:0:0:
101,31,72476,1,10,0:0:0:0:
177,88,72787,6,0,P|225:98|282:80,1,99.9999999999999,6|0,3:2|0:0,0:0:0:0:
329,155,73409,2,0,P|296:191|283:249,1,99.9999999999999,6|0,3:2|0:0,0:0:0:0:
194,257,74031,2,0,P|178:210|134:170,1,99.9999999999999,8|4,3:3|3:3,0:0:0:0:
71,120,74653,1,0,3:0:0:0:
0,175,74964,1,10,0:0:0:0:
25,264,75274,6,0,L|8:368,1,99.9999999999999,6|0,3:2|0:0,0:0:0:0:
98,374,75896,2,0,L|115:270,1,99.9999999999999,6|0,3:2|0:0,0:0:0:0:
204,282,76518,2,0,L|187:386,1,99.9999999999999,6|2,3:2|3:2,0:0:0:0:
278,383,77140,1,10,0:0:0:0:
367,371,77451,1,2,3:2:0:0:
455,358,77761,6,0,B|451:282|451:282|475:250,1,99.9999999999999,14|0,0:0|3:0,0:0:0:0:
451,173,78383,1,0,3:0:0:0:
500,97,78694,2,0,L|495:44,1,50,8|10,3:2|0:0,0:0:0:0:
95,32,80249,6,0,B|48:18|48:18|-7:35,2,99.9999999999999,4|10|2,3:2|0:0|3:2,0:0:0:0:
155,98,81181,1,10,0:0:0:0:
96,166,81492,2,0,B|49:180|49:180|-6:163,2,99.9999999999999,2|10|2,3:2|0:0|3:2,0:0:0:0:
182,193,82425,1,10,0:0:0:0:
264,157,82736,6,0,P|271:111|259:50,1,99.9999999999999,2|10,3:2|0:0,0:0:0:0:
332,2,83357,2,0,P|368:31|427:51,1,99.9999999999999,2|10,3:2|0:0,0:0:0:0:
435,138,83979,2,0,P|391:154|344:195,2,99.9999999999999,2|10|2,3:2|0:0|3:2,0:0:0:0:
510,186,84912,1,14,0:0:0:0:
472,267,85223,6,0,B|474:353|474:353|453:372|411:365,1,150,6|2,3:2|0:0,0:0:0:0:
341,311,86000,1,2,0:0:0:0:
272,370,86311,2,0,L|171:358,1,99.9999999999999,2|2,0:0|0:0,0:0:0:0:
84,373,86932,2,0,B|77:270|77:270|106:225,1,150,2|10,0:0|0:0,0:0:0:0:
176,179,87710,6,0,P|136:144|34:169,2,150,6|14|10,3:2|0:0|0:0,0:0:0:0:
220,257,88953,2,0,B|266:223|314:263|314:263|360:291|409:271,1,200,14|0,0:0|3:0,0:0:0:0:
482,221,89886,2,0,L|473:163,1,50,8|8,0:0|0:0,0:0:0:0:
293,37,90818,5,6,3:2:0:0:
256,192,90974,12,0,95715,0:0:0:0:
