osu file format v14

[General]
AudioFilename: audio.mp3
AudioLeadIn: 0
PreviewTime: 58321
Countdown: 0
SampleSet: Soft
StackLeniency: 0.2
Mode: 0
LetterboxInBreaks: 0
WidescreenStoryboard: 1

[Editor]
DistanceSpacing: 0.8
BeatDivisor: 4
GridSize: 32
TimelineZoom: 2.1

[Metadata]
Title:Koiiro Recipe
TitleUnicode:恋色レシピ
Artist:solfa feat. Ceui
ArtistUnicode:solfa feat. Ceui
Creator:Seolv
Version:Left's Another
Source:お家に帰るまでがましまろです
Tags:visual novel vn eroge japanese video game Marmalade Ouchi ni Kaeru made ga Mashimaro Desu asaka ushio ending ましまろ love recipe outi kaerumadega island left walaowey matsubara kanon karen asuka_- dora- doraemonelf [_l_u_k_a_s_] lukas
BeatmapID:2054876
BeatmapSetID:981822

[Difficulty]
HPDrainRate:6
CircleSize:4.5
OverallDifficulty:8.5
ApproachRate:9.6
SliderMultiplier:2.4
SliderTickRate:1

[Events]
//Background and Video events
0,0,"bgleft.jpg",0,0
//Break Periods
//Storyboard Layer 0 (Background)
//Storyboard Layer 1 (Fail)
//Storyboard Layer 2 (Pass)
//Storyboard Layer 3 (Foreground)
//Storyboard Layer 4 (Overlay)
//Storyboard Sound Samples

[TimingPoints]
380,392.156862745098,4,2,25,72,1,0
15281,-100,4,2,25,55,0,0
15674,-200,4,2,25,65,0,0
16066,-66.6666666666667,4,2,25,65,0,0
22340,-133.333333333333,4,2,25,65,0,0
26262,-100,4,2,25,65,0,0
27046,-80,4,2,25,65,0,0
27830,-200,4,2,25,65,0,0
28615,-133.333333333333,4,2,25,65,0,0
50576,-133.333333333333,4,2,25,70,0,0
52144,-133.333333333333,4,2,25,75,0,0
53125,-133.333333333333,4,2,25,80,0,0
53713,-133.333333333333,4,2,25,85,0,0
55281,-133.333333333333,4,2,25,90,0,0
56458,-133.333333333333,4,2,25,93,0,0
57046,-133.333333333333,4,2,25,55,0,0
58419,-133.333333333333,4,2,25,85,0,1
67830,-133.333333333333,4,2,25,55,0,0
69399,-133.333333333333,4,2,25,65,0,0
69693,-133.333333333333,4,2,25,75,0,0
70478,-133.333333333333,4,2,25,85,0,0
70968,-133.333333333333,4,2,25,85,0,1
79987,-133.333333333333,4,2,25,90,0,1
80478,-133.333333333333,4,2,25,72,0,0
97634,-133.333333333333,4,2,25,65,0,0
98419,-133.333333333333,4,2,25,60,0,0
99203,-133.333333333333,4,2,25,55,0,0
99987,-133.333333333333,4,2,25,49,0,0
100772,-133.333333333333,4,2,25,41,0,0
101164,-133.333333333333,4,2,25,32,0,0
101556,-133.333333333333,4,2,25,25,0,0
101752,-133.333333333333,4,2,25,17,0,0
101948,-133.333333333333,4,2,25,10,0,0
102046,-133.333333333333,4,2,25,5,0,0

[Colours]
Combo1 : 255,83,83
Combo2 : 255,181,181
Combo3 : 255,218,200
Combo4 : 228,202,255
Combo5 : 209,164,255
Combo6 : 182,108,255
Combo7 : 156,57,255
Combo8 : 113,0,225

[HitObjects]
507,201,380,101,4,1:0:0:0:
456,0,1164,1,4,1:2:0:0:
437,182,1948,101,12,0:0:0:0:
402,49,2242,1,12,0:0:0:0:
367,165,2536,101,2,2:0:0:0:
349,96,2732,1,12,0:0:0:0:
293,157,2929,101,0,1:0:0:0:
295,152,2994,1,0,0:0:0:0:
297,146,3059,1,0,0:0:0:0:
258,135,3125,101,12,0:1:0:0:
60,271,3517,69,4,1:0:0:0:
72,233,3615,1,2,0:0:0:0:
98,263,3713,1,2,0:0:0:0:
124,294,3811,1,2,0:0:0:0:
85,301,3909,1,10,0:0:0:0:
47,308,4007,1,2,0:0:0:0:
34,346,4105,1,2,0:0:0:0:
72,339,4203,1,2,0:0:0:0:
111,331,4301,1,2,1:0:0:0:
149,324,4399,1,2,0:0:0:0:
204,380,4595,5,2,0:1:0:0:
206,370,4693,1,8,0:0:0:0:
215,299,4889,1,4,0:3:0:0:
344,65,5085,101,4,1:0:0:0:
331,27,5183,1,2,0:0:0:0:
305,57,5281,1,2,0:0:0:0:
318,95,5380,1,2,0:0:0:0:
356,102,5478,1,10,0:0:0:0:
369,140,5576,1,2,0:0:0:0:
331,133,5674,1,2,0:0:0:0:
292,125,5772,1,2,0:0:0:0:
254,118,5870,1,2,1:0:0:0:
280,88,5968,1,2,0:0:0:0:
181,79,6164,5,2,0:1:0:0:
183,89,6262,1,8,0:0:0:0:
192,160,6458,1,4,0:3:0:0:
39,229,6654,5,4,1:2:0:0:
55,153,6850,1,2,0:0:0:0:
84,126,6948,1,0,0:0:0:0:
124,133,7046,1,8,0:0:0:0:
124,133,7242,1,2,0:0:0:0:
237,51,7438,101,4,1:2:0:0:
252,119,7634,1,2,0:0:0:0:
276,133,7732,1,0,0:0:0:0:
300,127,7830,1,8,0:0:0:0:
300,127,8027,1,2,0:0:0:0:
369,93,8223,21,4,1:2:0:0:
376,62,8321,1,0,0:0:0:0:
399,84,8419,1,0,0:0:0:0:
363,76,8517,5,12,0:2:0:0:
393,66,8615,1,0,0:0:0:0:
385,97,8713,1,0,0:0:0:0:
376,63,8811,5,12,0:1:0:0:
399,84,8909,1,0,0:0:0:0:
368,93,9007,1,0,0:0:0:0:
470,316,9203,21,8,0:0:0:0:
470,309,9301,1,8,0:0:0:0:
471,303,9399,1,8,0:0:0:0:
472,297,9497,1,8,0:0:0:0:
473,291,9595,1,8,0:0:0:0:
473,284,9693,1,8,0:0:0:0:
491,259,9791,5,4,1:0:0:0:
452,266,9889,1,2,0:0:0:0:
427,235,9987,1,2,0:0:0:0:
465,228,10085,1,2,0:0:0:0:
439,198,10183,1,10,0:0:0:0:
414,167,10281,1,2,0:0:0:0:
401,205,10380,1,0,0:0:0:0:
388,243,10478,1,2,0:0:0:0:
375,280,10576,1,2,1:0:0:0:
414,273,10674,1,2,0:0:0:0:
470,355,10870,5,2,0:1:0:0:
459,355,10968,1,8,0:0:0:0:
388,351,11164,1,4,0:3:0:0:
248,166,11360,101,4,1:0:0:0:
260,203,11458,1,2,0:0:0:0:
222,196,11556,1,2,0:0:0:0:
209,158,11654,1,2,0:0:0:0:
235,128,11752,1,10,0:0:0:0:
222,90,11850,1,2,0:0:0:0:
196,121,11948,1,2,0:0:0:0:
171,151,12046,1,2,0:0:0:0:
184,189,12144,1,2,1:1:0:0:
145,182,12242,1,2,0:0:0:0:
20,133,12438,5,2,0:1:0:0:
30,132,12536,1,8,0:0:0:0:
101,121,12732,1,4,0:3:0:0:
175,297,12929,21,4,1:2:0:0:
146,366,13321,5,8,0:0:0:0:
348,234,13517,1,4,1:2:0:0:
387,299,13909,5,0,1:0:0:0:
102,151,14105,1,12,0:0:0:0:
75,219,14399,5,4,0:3:0:0:
75,219,14497,1,4,0:3:0:0:
404,50,14693,1,12,0:1:0:0:
477,60,15281,69,2,0:0:0:0:
477,60,15674,1,2,0:0:0:0:
443,250,16066,69,12,0:1:0:0:
0,46,17634,5,12,0:0:0:0:
60,230,17929,1,12,0:0:0:0:
188,87,18223,1,8,0:0:0:0:
443,250,19203,101,12,0:1:0:0:
443,250,19791,1,12,0:0:0:0:
0,46,20772,5,12,0:0:0:0:
60,230,21066,1,12,0:0:0:0:
188,87,21360,1,8,0:0:0:0:
132,243,21752,5,8,0:0:0:0:
177,366,21948,1,0,0:0:0:0:
198,332,22046,1,8,0:0:0:0:
191,293,22144,1,0,0:0:0:0:
0,335,22340,101,4,1:0:0:0:
121,317,22536,1,2,0:0:0:0:
55,291,22732,1,8,0:0:0:0:
167,376,22929,5,2,0:0:0:0:
205,262,23125,1,0,1:0:0:0:
294,351,23321,1,2,0:0:0:0:
225,332,23517,1,8,0:0:0:0:
347,293,23713,101,2,0:0:0:0:
373,365,23909,1,4,1:2:0:0:
423,306,24105,1,2,0:0:0:0:
423,265,24203,1,2,0:0:0:0:
395,233,24301,1,8,0:0:0:0:
322,222,24497,1,2,0:0:0:0:
426,166,24693,5,0,1:0:0:0:
426,141,24791,1,0,0:0:0:0:
442,122,24889,1,2,0:0:0:0:
511,99,25085,1,8,0:0:0:0:
458,51,25281,1,2,0:0:0:0:
498,168,25478,5,4,1:0:0:0:
341,145,25772,1,0,1:0:0:0:
341,145,25870,1,8,0:0:0:0:
362,75,26066,1,4,0:3:0:0:
411,129,26262,21,4,1:2:0:0:
210,178,26556,1,0,1:0:0:0:
210,178,26654,1,8,0:0:0:0:
241,257,26850,1,4,0:3:0:0:
291,191,27046,21,6,1:0:0:0:
291,191,27144,1,0,0:0:0:0:
70,155,27340,1,2,1:0:0:0:
70,155,27438,1,8,0:0:0:0:
202,0,27634,1,2,0:1:0:0:
202,0,27732,1,0,0:0:0:0:
414,289,28125,53,0,1:0:0:0:
414,289,28223,5,4,0:3:0:0:
409,272,28321,1,8,0:3:0:0:
418,247,28419,1,8,0:0:0:0:
458,232,28517,1,4,0:3:0:0:
500,258,28615,1,4,1:0:0:0:
384,360,28811,69,0,0:0:0:0:
346,211,29007,1,8,0:0:0:0:
395,274,29203,1,0,0:0:0:0:
277,198,29399,1,0,1:0:0:0:
275,212,29497,1,2,0:0:0:0:
261,295,29693,1,0,0:0:0:0:
263,281,29791,1,10,0:0:0:0:
205,236,29987,1,0,0:0:0:0:
343,141,30183,5,4,1:2:0:0:
398,75,30379,1,0,0:0:0:0:
437,93,30478,1,0,0:0:0:0:
395,86,30576,1,8,0:0:0:0:
242,22,30772,101,0,0:0:0:0:
300,80,30968,1,0,1:0:0:0:
326,65,31066,1,10,0:0:0:0:
297,69,31164,1,0,1:0:0:0:
229,96,31360,1,10,0:0:0:0:
189,157,31556,1,0,0:0:0:0:
194,229,31752,5,4,1:2:0:0:
320,260,31948,1,0,0:0:0:0:
300,332,32144,101,8,0:0:0:0:
264,210,32340,1,0,0:0:0:0:
334,189,32536,5,0,1:0:0:0:
247,280,32732,1,0,0:0:0:0:
247,280,32830,1,0,0:0:0:0:
247,280,32929,1,8,0:0:0:0:
214,156,33125,1,0,0:0:0:0:
196,224,33321,101,0,1:0:0:0:
124,211,33517,1,0,0:0:0:0:
56,232,33713,1,8,0:0:0:0:
6,284,33909,1,0,0:0:0:0:
186,100,34105,101,4,1:2:0:0:
265,163,34301,1,0,0:0:0:0:
369,168,34497,1,8,0:0:0:0:
465,120,34693,1,0,0:0:0:0:
504,23,34889,1,4,1:0:0:0:
314,257,35183,5,0,0:0:0:0:
314,257,35281,1,8,0:0:0:0:
243,254,35478,1,0,0:0:0:0:
385,261,35674,1,0,1:0:0:0:
281,193,35870,1,0,0:0:0:0:
346,321,36066,1,8,0:0:0:0:
353,196,36262,1,0,0:0:0:0:
276,318,36458,1,4,1:2:0:0:
35,145,36752,5,0,0:0:0:0:
35,145,36850,1,8,0:0:0:0:
51,75,37046,1,0,0:0:0:0:
158,172,37242,1,0,1:0:0:0:
20,215,37438,1,0,0:0:0:0:
105,125,37634,1,8,0:0:0:0:
89,194,37830,1,0,0:0:0:0:
41,347,38027,101,4,1:2:0:0:
106,309,38223,101,0,0:0:0:0:
116,349,38321,1,0,0:0:0:0:
127,351,38419,1,10,0:1:0:0:
41,347,38615,5,2,0:0:0:0:
201,350,38811,101,4,1:2:0:0:
188,306,38909,1,0,0:0:0:0:
175,263,39007,1,0,0:0:0:0:
184,256,39105,1,0,0:0:0:0:
193,250,39203,1,10,0:1:0:0:
41,347,39399,5,2,0:0:0:0:
247,202,39595,21,4,1:0:0:0:
179,177,39791,53,0,0:0:0:0:
171,124,39889,1,0,0:0:0:0:
192,76,39987,1,12,0:0:0:0:
235,45,40085,1,0,0:0:0:0:
288,41,40183,1,0,0:0:0:0:
335,65,40281,1,0,0:0:0:0:
344,57,40380,85,12,0:0:0:0:
335,96,40478,1,8,0:3:0:0:
361,127,40576,1,4,0:3:0:0:
402,124,40674,1,0,1:0:0:0:
407,128,40772,85,4,1:0:0:0:
402,108,40870,1,4,0:3:0:0:
415,93,40968,1,8,0:0:0:0:
436,94,41066,1,8,0:0:0:0:
475,114,41164,69,12,0:1:0:0:
448,245,41360,1,8,0:0:0:0:
155,361,41948,5,12,0:0:0:0:
136,291,42144,1,8,0:0:0:0:
475,114,42732,101,12,0:0:0:0:
448,245,42929,1,8,0:0:0:0:
437,174,43125,1,0,1:0:0:0:
502,293,43321,1,12,0:1:0:0:
433,316,43713,5,0,1:0:0:0:
422,332,43811,1,0,1:0:0:0:
425,350,43909,1,8,0:0:0:0:
352,344,44105,1,0,1:0:0:0:
220,383,44301,5,4,1:2:0:0:
304,287,44497,1,0,0:0:0:0:
178,267,44693,1,8,0:0:0:0:
235,313,44889,101,0,0:0:0:0:
245,243,45085,1,0,1:0:0:0:
224,208,45183,1,2,0:0:0:0:
185,195,45281,1,0,0:0:0:0:
121,225,45478,1,10,0:0:0:0:
121,225,45870,5,4,1:2:0:0:
168,124,46066,1,0,0:0:0:0:
141,1,46262,1,8,0:0:0:0:
118,70,46458,1,0,0:0:0:0:
187,55,46654,1,0,1:0:0:0:
225,72,46752,1,2,0:0:0:0:
239,111,46850,1,0,0:0:0:0:
5,175,47046,85,8,0:0:0:0:
38,145,47144,1,8,0:0:0:0:
79,126,47242,1,8,0:0:0:0:
123,119,47340,1,8,0:0:0:0:
168,124,47438,1,12,0:1:0:0:
140,257,47634,1,8,0:0:0:0:
405,363,48223,5,12,0:0:0:0:
383,294,48419,1,8,0:0:0:0:
168,124,49007,101,12,0:0:0:0:
140,257,49203,1,8,0:0:0:0:
176,195,49399,1,0,1:0:0:0:
69,277,49595,1,12,0:1:0:0:
122,326,49987,5,0,1:0:0:0:
133,342,50085,1,0,1:0:0:0:
130,360,50183,1,8,0:0:0:0:
203,354,50380,1,0,1:0:0:0:
56,359,50576,5,4,1:0:0:0:
185,283,50772,1,0,0:0:0:0:
296,377,50968,1,8,0:0:0:0:
366,357,51164,101,0,0:0:0:0:
313,307,51360,1,6,1:2:0:0:
322,262,51458,1,2,0:0:0:0:
332,289,51556,1,0,0:0:0:0:
369,141,51752,1,8,0:0:0:0:
387,223,51948,5,0,0:0:0:0:
385,217,52046,1,0,0:0:0:0:
384,211,52144,1,4,1:0:0:0:
222,136,52340,1,0,0:0:0:0:
98,257,52536,1,8,0:0:0:0:
27,237,52732,101,0,0:0:0:0:
80,185,52929,1,6,1:2:0:0:
70,137,53027,1,2,0:0:0:0:
52,167,53125,5,0,1:0:0:0:
101,156,53223,1,4,0:3:0:0:
134,128,53321,1,8,0:3:0:0:
152,87,53419,1,8,0:0:0:0:
144,44,53517,1,8,0:0:0:0:
115,10,53615,1,8,0:0:0:0:
72,32,53713,5,6,1:0:0:0:
128,84,53909,1,2,0:0:0:0:
128,84,54007,1,0,0:0:0:0:
198,57,54203,1,2,0:1:0:0:
198,57,54301,1,0,0:0:0:0:
339,195,54497,5,2,1:0:0:0:
307,229,54693,1,2,0:0:0:0:
307,229,54791,1,2,0:1:0:0:
264,218,54987,1,2,0:1:0:0:
264,218,55085,1,0,0:0:0:0:
153,361,55281,5,12,0:1:0:0:
256,225,55576,5,12,0:0:0:0:
237,102,55870,5,8,0:0:0:0:
191,47,56066,53,12,0:0:0:0:
178,54,56164,1,8,0:0:0:0:
173,70,56262,1,0,1:0:0:0:
496,173,56458,53,12,0:1:0:0:
447,117,56556,1,8,0:0:0:0:
381,84,56654,1,8,0:0:0:0:
307,79,56752,1,8,0:0:0:0:
237,102,56850,1,0,1:0:0:0:
98,70,57046,37,2,0:0:0:0:
98,70,57242,1,4,0:3:0:0:
98,70,57438,1,0,0:3:0:0:
98,70,57634,1,4,0:3:0:0:
115,0,57765,85,0,0:0:0:0:
115,0,57830,1,4,0:3:0:0:
76,143,57961,1,0,0:0:0:0:
76,143,58027,1,6,0:3:0:0:
85,325,58419,21,4,1:0:0:0:
153,349,58615,101,2,0:1:0:0:
162,299,58713,1,0,0:0:0:0:
125,264,58811,1,8,0:0:0:0:
170,290,58909,1,0,0:0:0:0:
206,265,59007,1,2,0:1:0:0:
205,232,59105,1,0,0:0:0:0:
186,224,59203,1,0,1:0:0:0:
122,189,59399,5,0,0:0:0:0:
113,139,59497,1,2,0:1:0:0:
150,104,59595,1,8,0:0:0:0:
122,36,59791,1,2,0:1:0:0:
186,224,59987,101,4,1:2:0:0:
122,189,60183,5,2,0:1:0:0:
113,139,60281,1,0,0:0:0:0:
150,104,60379,1,8,0:0:0:0:
199,116,60478,1,0,0:0:0:0:
221,161,60576,1,2,0:1:0:0:
223,156,60674,1,0,0:0:0:0:
225,150,60772,101,0,1:0:0:0:
269,92,60968,1,0,0:0:0:0:
313,126,61066,1,2,0:1:0:0:
366,145,61164,1,8,0:0:0:0:
422,146,61262,1,0,0:0:0:0:
475,131,61360,1,2,0:1:0:0:
488,59,61556,1,4,1:0:0:0:
390,273,61752,5,2,0:0:0:0:
386,264,61850,1,0,0:0:0:0:
428,245,61948,1,8,0:0:0:0:
332,206,62144,1,2,0:0:0:0:
504,210,62340,101,0,1:0:0:0:
510,265,62438,1,4,0:3:0:0:
469,303,62536,1,2,1:2:0:0:
499,263,62634,1,0,0:0:0:0:
493,213,62732,1,10,0:0:0:0:
457,178,62830,1,0,0:0:0:0:
407,179,62929,1,4,0:3:0:0:
374,143,63027,1,0,0:0:0:0:
382,98,63125,1,4,1:0:0:0:
153,34,63321,101,2,0:1:0:0:
155,44,63419,1,12,0:0:0:0:
304,114,63615,5,2,0:1:0:0:
306,104,63713,1,12,0:1:0:0:
297,83,63811,1,0,0:0:0:0:
259,68,63909,21,4,1:2:0:0:
205,72,64007,5,2,0:0:0:0:
151,77,64105,5,2,0:0:0:0:
97,83,64203,5,0,0:0:0:0:
42,88,64301,5,10,0:0:0:0:
97,83,64399,101,2,0:0:0:0:
151,77,64497,101,0,0:0:0:0:
205,72,64595,101,2,0:0:0:0:
259,68,64693,101,4,1:0:0:0:
187,333,64889,69,2,0:0:0:0:
116,320,65085,5,8,0:0:0:0:
133,281,65183,1,0,0:0:0:0:
168,262,65281,1,0,0:0:0:0:
129,271,65379,1,0,0:0:0:0:
91,254,65478,1,4,1:2:0:0:
90,246,65576,1,0,0:0:0:0:
46,186,65772,1,0,0:0:0:0:
96,171,65870,1,8,0:0:0:0:
141,192,65968,1,0,0:0:0:0:
108,158,66066,1,4,0:3:0:0:
109,109,66164,1,0,0:0:0:0:
112,101,66262,1,4,1:0:0:0:
187,333,66458,101,2,0:0:0:0:
240,285,66654,5,8,0:0:0:0:
274,268,66752,1,0,0:0:0:0:
313,274,66850,1,4,0:3:0:0:
340,301,66948,1,0,0:0:0:0:
349,338,67046,1,4,1:2:0:0:
340,342,67144,1,0,0:0:0:0:
428,359,67340,1,0,0:0:0:0:
416,306,67438,1,8,0:0:0:0:
422,253,67536,1,0,0:0:0:0:
445,204,67634,1,0,0:0:0:0:
483,165,67732,1,0,0:0:0:0:
474,162,67830,21,4,1:2:0:0:
448,98,68027,1,0,0:0:0:0:
383,75,68223,1,8,0:0:0:0:
448,98,68419,21,0,0:0:0:0:
383,75,68615,1,0,1:0:0:0:
319,103,68811,1,0,0:0:0:0:
383,75,69007,21,12,0:0:0:0:
304,170,69203,1,0,0:0:0:0:
205,77,69399,5,4,1:2:0:0:
227,61,69497,1,4,0:3:0:0:
254,67,69595,1,8,0:3:0:0:
264,56,69693,5,12,0:1:0:0:
224,49,69791,1,8,0:3:0:0:
192,74,69889,1,4,0:3:0:0:
190,113,69987,1,4,1:2:0:0:
219,141,70085,1,0,1:0:0:0:
219,183,70183,1,0,1:2:0:0:
184,208,70281,1,4,0:3:0:0:
144,198,70379,1,8,0:3:0:0:
138,210,70478,101,12,0:1:0:0:
190,223,70576,1,8,0:0:0:0:
232,192,70674,1,8,0:3:0:0:
230,187,70772,1,0,1:0:0:0:
427,325,70968,5,4,1:0:0:0:
359,349,71164,5,2,0:1:0:0:
350,299,71262,1,0,0:0:0:0:
387,264,71360,1,8,0:0:0:0:
342,290,71458,1,0,0:0:0:0:
306,265,71556,1,2,0:1:0:0:
307,232,71654,1,0,0:0:0:0:
326,224,71752,1,0,1:0:0:0:
390,189,71948,101,0,0:0:0:0:
399,139,72046,1,2,0:1:0:0:
362,104,72144,1,8,0:0:0:0:
390,36,72340,1,2,0:1:0:0:
326,224,72536,5,4,1:2:0:0:
390,189,72732,101,0,0:0:0:0:
399,139,72830,1,2,0:1:0:0:
362,104,72929,1,8,0:0:0:0:
412,112,73027,1,0,0:0:0:0:
447,80,73125,1,2,0:1:0:0:
438,66,73223,1,0,0:0:0:0:
419,60,73321,1,0,1:0:0:0:
355,31,73517,5,0,0:0:0:0:
337,73,73615,1,2,0:1:0:0:
295,85,73713,1,8,0:0:0:0:
282,8,73909,1,2,0:1:0:0:
282,8,74105,1,4,1:0:0:0:
142,252,74301,101,2,0:0:0:0:
146,243,74399,1,0,0:0:0:0:
104,224,74497,1,8,0:0:0:0:
208,204,74693,1,2,0:0:0:0:
12,317,74889,5,0,1:0:0:0:
43,288,74987,1,8,0:0:0:0:
84,296,75085,1,0,1:0:0:0:
208,204,75281,101,8,0:0:0:0:
244,243,75379,1,0,0:0:0:0:
292,267,75478,1,4,0:3:0:0:
345,271,75576,1,0,0:0:0:0:
397,255,75674,1,4,1:0:0:0:
287,100,75870,101,2,0:1:0:0:
286,108,75968,1,12,0:0:0:0:
469,241,76164,5,2,0:1:0:0:
470,233,76262,1,12,0:1:0:0:
458,199,76360,1,0,0:0:0:0:
413,183,76458,1,4,1:2:0:0:
343,202,76654,85,0,1:0:0:0:
290,199,76752,53,8,0:0:0:0:
238,196,76850,53,12,0:0:0:0:
185,193,76948,53,8,0:0:0:0:
133,190,77046,53,8,0:0:0:0:
80,187,77144,53,8,0:0:0:0:
28,184,77242,53,4,1:0:0:0:
55,345,77438,37,2,0:0:0:0:
100,350,77536,1,0,0:0:0:0:
135,321,77634,1,8,0:0:0:0:
190,372,77830,1,2,0:0:0:0:
212,251,78027,101,0,0:0:0:0:
205,302,78125,1,10,0:0:0:0:
233,267,78223,1,0,0:0:0:0:
229,292,78321,1,2,0:0:0:0:
252,284,78419,1,8,0:0:0:0:
319,250,78615,1,2,0:0:0:0:
494,345,78811,21,4,1:2:0:0:
446,292,79007,1,2,0:0:0:0:
412,315,79105,1,0,0:0:0:0:
373,300,79203,1,8,0:0:0:0:
359,221,79399,21,2,0:0:0:0:
300,274,79595,1,4,1:2:0:0:
262,242,79693,1,8,0:0:0:0:
212,254,79791,1,0,0:0:0:0:
214,110,79987,21,12,0:0:0:0:
197,181,80085,1,8,0:3:0:0:
142,230,80183,1,4,0:3:0:0:
69,238,80281,1,0,1:0:0:0:
5,202,80379,1,4,1:0:0:0:
56,0,81164,1,4,1:2:0:0:
75,182,81948,101,12,0:0:0:0:
110,49,82242,1,12,0:0:0:0:
145,165,82536,101,0,1:0:0:0:
163,96,82732,1,12,0:0:0:0:
219,157,82929,101,0,1:0:0:0:
217,152,82994,1,0,0:0:0:0:
215,146,83059,1,0,0:0:0:0:
254,135,83125,101,12,0:1:0:0:
60,271,83517,69,4,1:0:0:0:
72,233,83615,1,2,0:0:0:0:
98,263,83713,1,2,0:0:0:0:
124,294,83811,1,2,0:0:0:0:
85,301,83909,1,10,0:0:0:0:
47,308,84007,1,2,0:0:0:0:
34,346,84105,1,2,0:0:0:0:
72,339,84203,1,2,0:0:0:0:
111,331,84301,1,2,1:0:0:0:
149,324,84399,1,2,0:0:0:0:
204,380,84595,5,2,0:1:0:0:
206,370,84693,1,8,0:0:0:0:
215,299,84889,1,4,0:3:0:0:
344,65,85085,101,4,1:0:0:0:
331,27,85183,1,2,0:0:0:0:
305,57,85281,1,2,0:0:0:0:
318,95,85379,1,2,0:0:0:0:
356,102,85478,1,10,0:0:0:0:
369,140,85576,1,2,0:0:0:0:
331,133,85674,1,2,0:0:0:0:
292,125,85772,1,2,0:0:0:0:
254,118,85870,1,2,1:0:0:0:
280,88,85968,1,2,0:0:0:0:
181,79,86164,5,2,0:1:0:0:
183,89,86262,1,8,0:0:0:0:
192,160,86458,1,4,0:3:0:0:
39,229,86654,5,4,1:2:0:0:
55,153,86850,1,2,0:0:0:0:
84,126,86948,1,0,0:0:0:0:
124,133,87046,1,8,0:0:0:0:
124,133,87242,1,2,0:0:0:0:
237,51,87438,101,4,1:2:0:0:
252,119,87634,1,2,0:0:0:0:
276,133,87732,1,0,0:0:0:0:
300,127,87830,1,8,0:0:0:0:
300,127,88027,1,2,0:0:0:0:
369,93,88223,21,4,1:2:0:0:
376,62,88321,1,0,0:0:0:0:
399,84,88419,1,0,0:0:0:0:
363,76,88517,5,12,0:2:0:0:
393,66,88615,1,0,0:0:0:0:
385,97,88713,1,0,0:0:0:0:
376,63,88811,5,12,0:1:0:0:
399,84,88909,1,0,0:0:0:0:
368,93,89007,1,0,0:0:0:0:
470,316,89203,21,8,0:0:0:0:
470,309,89301,1,8,0:0:0:0:
471,303,89399,1,8,0:0:0:0:
472,297,89497,1,8,0:0:0:0:
473,291,89595,1,8,0:0:0:0:
473,284,89693,1,8,0:0:0:0:
491,259,89791,5,4,1:0:0:0:
452,266,89889,1,2,0:0:0:0:
427,235,89987,1,2,0:0:0:0:
465,228,90085,1,2,0:0:0:0:
439,198,90183,1,10,0:0:0:0:
414,167,90281,1,2,0:0:0:0:
401,205,90379,1,0,0:0:0:0:
388,243,90478,1,2,0:0:0:0:
375,280,90576,1,2,1:0:0:0:
414,273,90674,1,2,0:0:0:0:
470,355,90870,5,2,0:1:0:0:
459,355,90968,1,8,0:0:0:0:
388,351,91164,1,4,0:3:0:0:
248,166,91360,101,4,1:0:0:0:
260,203,91458,1,2,0:0:0:0:
222,196,91556,1,2,0:0:0:0:
209,158,91654,1,2,0:0:0:0:
235,128,91752,1,10,0:0:0:0:
222,90,91850,1,2,0:0:0:0:
196,121,91948,1,2,0:0:0:0:
171,151,92046,1,2,0:0:0:0:
184,189,92144,1,2,1:1:0:0:
145,182,92242,1,2,0:0:0:0:
20,133,92438,5,2,0:1:0:0:
30,132,92536,1,8,0:0:0:0:
101,121,92732,1,4,0:3:0:0:
175,297,92929,21,4,1:2:0:0:
146,366,93321,5,8,0:0:0:0:
348,234,93517,1,4,1:2:0:0:
387,299,93909,5,0,1:0:0:0:
102,151,94105,1,12,0:0:0:0:
75,219,94399,5,4,0:3:0:0:
75,219,94497,1,4,0:3:0:0:
404,50,94693,1,12,0:1:0:0:
342,0,95281,21,12,0:0:0:0:
342,0,95379,1,8,0:0:0:0:
384,125,95576,1,8,0:0:0:0:
476,27,95870,5,4,1:0:0:0:
256,192,95968,12,0,102046,0:0:0:0:
