osu file format v14

[General]
AudioFilename: audio.mp3
AudioLeadIn: 0
PreviewTime: 191590
Countdown: 0
SampleSet: Soft
StackLeniency: 0.5
Mode: 0
LetterboxInBreaks: 0
WidescreenStoryboard: 1

[Editor]
Bookmarks: 1100
DistanceSpacing: 1.8
BeatDivisor: 8
GridSize: 32
TimelineZoom: 3.599999

[Metadata]
Title:Koiiro Recipe
TitleUnicode:恋色レシピ
Artist:solfa feat. Ceui
ArtistUnicode:solfa feat. Ceui
Creator:Amamya
Version:Mille-feuille
Source:お家に帰るまでがましまろです
Tags:featured artist fa 朝霞汐 asaka ushio ed ending eroge galge visual novel japanese jpop pop j-pop video game uchi ni kaeru made ga mashimaro desu uti buckfro miyohashikoori shizuku- kazato asa kazato_asa shikibe mayu shikibe_mayu riana
BeatmapID:3269529
BeatmapSetID:1087207

[Difficulty]
HPDrainRate:5
CircleSize:4
OverallDifficulty:9.4
ApproachRate:9.6
SliderMultiplier:3.5
SliderTickRate:1

[Events]
//Background and Video events
0,0,"x.jpg",0,0
//Break Periods
2,56986,57846
2,136986,137846
2,163457,175297
2,191688,194316
//Storyboard Layer 0 (Background)
//Storyboard Layer 1 (Fail)
//Storyboard Layer 2 (Pass)
//Storyboard Layer 3 (Foreground)
//Storyboard Layer 4 (Overlay)
//Storyboard Sound Samples

[TimingPoints]
316,392.156862745098,4,2,1,55,1,0
3061,-133.333333333333,4,2,1,55,0,0
3453,-90.9090909090909,4,2,7,60,0,0
3649,-90.9090909090909,4,2,14,60,0,0
3845,-90.9090909090909,4,2,15,60,0,0
4041,-90.9090909090909,4,2,2,60,0,0
4237,-74.0740740740741,4,2,4,60,0,0
4335,-74.0740740740741,4,2,5,60,0,0
4433,-74.0740740740741,4,2,16,60,0,0
4531,-74.0740740740741,4,2,15,60,0,0
4629,-74.0740740740741,4,2,16,60,0,0
4825,-62.5,4,2,20,60,0,0
5021,-83.3333333333333,4,2,7,60,0,0
5217,-83.3333333333333,4,2,14,60,0,0
5414,-83.3333333333333,4,2,15,60,0,0
5610,-83.3333333333333,4,2,2,60,0,0
5806,-74.0740740740741,4,2,14,60,0,0
5904,-74.0740740740741,4,2,5,60,0,0
6002,-74.0740740740741,4,2,16,60,0,0
6100,-74.0740740740741,4,2,15,60,0,0
6198,-74.0740740740741,4,2,16,60,0,0
6394,-83.3333333333333,4,2,8,60,0,0
6590,-83.3333333333333,4,2,5,60,0,0
6786,-83.3333333333333,4,2,17,60,0,0
6884,-83.3333333333333,4,2,15,60,0,0
7178,-83.3333333333333,4,2,5,60,0,0
7374,-83.3333333333333,4,2,15,60,0,0
7472,-83.3333333333333,4,2,17,60,0,0
7668,-83.3333333333333,4,2,15,60,0,0
7766,-83.3333333333333,4,2,16,60,0,0
7865,-83.3333333333333,4,2,17,60,0,0
7963,-83.3333333333333,4,2,9,60,0,0
8159,-74.0740740740741,4,2,7,60,0,0
8453,-66.6666666666667,4,2,18,60,0,0
8649,-66.6666666666667,4,2,16,60,0,0
8747,-50,4,2,19,60,0,0
8845,-50,4,2,16,60,0,0
8943,-50,4,2,21,60,0,0
9041,-50,4,2,16,60,0,0
9335,-50,4,2,17,60,0,0
9727,-90.9090909090909,4,2,7,60,0,0
9923,-90.9090909090909,4,2,14,60,0,0
10119,-90.9090909090909,4,2,15,60,0,0
10316,-90.9090909090909,4,2,2,60,0,0
10511,-74.0740740740741,4,2,4,60,0,0
10610,-74.0740740740741,4,2,5,60,0,0
10708,-74.0740740740741,4,2,16,60,0,0
10806,-74.0740740740741,4,2,15,60,0,0
10904,-74.0740740740741,4,2,16,60,0,0
11099,-62.5,4,2,21,60,0,0
11295,-83.3333333333333,4,2,7,60,0,0
11492,-83.3333333333333,4,2,14,60,0,0
11688,-83.3333333333333,4,2,15,60,0,0
11884,-83.3333333333333,4,2,2,60,0,0
12080,-74.0740740740741,4,2,15,60,0,0
12178,-74.0740740740741,4,2,5,60,0,0
12276,-74.0740740740741,4,2,16,60,0,0
12374,-74.0740740740741,4,2,9,60,0,0
12472,-74.0740740740741,4,2,16,60,0,0
12668,-83.3333333333333,4,2,8,60,0,0
12766,-83.3333333333333,4,2,16,60,0,0
12864,-83.3333333333333,4,2,12,60,0,0
12865,-76.9230769230769,4,2,12,60,0,0
12914,-76.9230769230769,4,2,1,60,0,0
13061,-76.9230769230769,4,2,1,60,0,0
13453,-71.4285714285714,4,2,19,60,0,0
13502,-71.4285714285714,4,2,1,60,0,0
13649,-71.4285714285714,4,2,1,60,0,0
13845,-71.4285714285714,4,2,17,60,0,0
14041,-66.6666666666667,4,2,21,60,0,0
14237,-66.6666666666667,4,2,33,60,0,0
14433,-66.6666666666667,4,2,3,60,0,0
14531,-66.6666666666667,4,2,1,60,0,0
14629,-62.5,4,2,7,60,0,0
14825,-62.5,4,2,1,60,0,0
15021,-50,4,2,1,60,0,0
15217,-133.333333333333,4,2,1,60,0,0
16002,-125,4,2,1,60,0,0
16198,-125,4,2,2,60,0,0
16394,-125,4,2,23,60,0,0
16590,-125,4,2,2,60,0,0
16688,-125,4,2,17,60,0,0
16786,-125,4,2,22,60,0,0
16884,-125,4,2,17,60,0,0
17080,-125,4,2,2,60,0,0
17178,-125,4,2,23,60,0,0
17374,-125,4,2,2,60,0,0
17570,-83.3333333333333,4,2,1,60,0,0
17766,-83.3333333333333,4,2,2,60,0,0
17865,-83.3333333333333,4,2,17,60,0,0
17963,-83.3333333333333,4,2,22,60,0,0
18159,-200,4,2,17,60,0,0
18355,-133.333333333333,4,2,22,60,0,0
18453,-133.333333333333,4,2,17,60,0,0
18649,-133.333333333333,4,2,2,60,0,0
18747,-133.333333333333,4,2,23,60,0,0
19139,-125,4,2,1,60,0,0
19335,-125,4,2,2,60,0,0
19531,-125,4,2,1,60,0,0
19923,-133.333333333333,4,2,22,60,0,0
20021,-133.333333333333,4,2,17,60,0,0
20217,-133.333333333333,4,2,2,60,0,0
20316,-133.333333333333,4,2,23,60,0,0
20512,-133.333333333333,4,2,2,60,0,0
20708,-83.3333333333333,4,2,1,60,0,0
20904,-83.3333333333333,4,2,2,60,0,0
21100,-83.3333333333333,4,2,15,60,0,0
21296,-200,4,2,2,60,0,0
21590,-83.3333333333333,4,2,17,60,0,0
21688,-83.3333333333333,4,2,2,60,0,0
21786,-83.3333333333333,4,2,17,60,0,0
21884,-83.3333333333333,4,2,2,60,0,0
21982,-83.3333333333333,4,2,17,60,0,0
22276,-166.666666666667,4,2,1,60,0,0
22472,-166.666666666667,4,2,22,60,0,0
22570,-166.666666666667,4,2,17,60,0,0
22668,-166.666666666667,4,2,17,60,0,0
22865,-166.666666666667,4,2,22,60,0,0
22963,-166.666666666667,4,2,17,60,0,0
23159,-166.666666666667,4,2,2,60,0,0
23257,-166.666666666667,4,2,22,60,0,0
23355,-166.666666666667,4,2,2,60,0,0
23453,-166.666666666667,4,2,17,60,0,0
23649,-166.666666666667,4,2,22,60,0,0
23845,-133.333333333333,4,2,1,60,0,0
24041,-133.333333333333,4,2,22,60,0,0
24139,-133.333333333333,4,2,17,60,0,0
24433,-133.333333333333,4,2,22,60,0,0
24629,-133.333333333333,4,2,17,60,0,0
24727,-133.333333333333,4,2,2,60,0,0
24825,-133.333333333333,4,2,23,60,0,0
24923,-133.333333333333,4,2,2,60,0,0
25021,-133.333333333333,4,2,17,60,0,0
25217,-133.333333333333,4,2,22,60,0,0
25414,-200,4,2,24,60,0,0
25708,-100,4,2,24,60,0,0
25806,-100,4,2,17,60,0,0
26002,-100,4,2,24,60,0,0
26198,-200,4,2,24,60,0,0
26492,-100,4,2,24,60,0,0
26590,-100,4,2,6,60,0,0
26786,-100,4,2,24,60,0,0
26982,-74.0740740740741,4,2,24,60,0,0
27374,-74.0740740740741,4,2,6,60,0,0
27570,-74.0740740740741,4,2,24,60,0,0
27766,-100,4,2,7,60,0,0
27963,-100,4,2,2,60,0,0
28061,-100,4,2,1,60,0,0
28257,-100,4,2,6,40,0,0
28355,-100,4,2,7,40,0,0
28453,-100,4,2,6,40,0,0
28551,-133.333333333333,4,2,1,60,0,0
28747,-133.333333333333,4,2,22,60,0,0
28943,-100,4,2,25,60,0,0
29139,-100,4,2,22,60,0,0
29335,-133.333333333333,4,2,17,60,0,0
29433,-133.333333333333,4,2,2,60,0,0
29531,-133.333333333333,4,2,23,60,0,0
29629,-133.333333333333,4,2,2,60,0,0
29727,-133.333333333333,4,2,15,60,0,0
29923,-133.333333333333,4,2,24,60,0,0
30119,-133.333333333333,4,2,1,60,0,0
30315,-133.333333333333,4,2,22,60,0,0
30414,-133.333333333333,4,2,17,60,0,0
30511,-100,4,2,26,60,0,0
30708,-100,4,2,23,60,0,0
30806,-100,4,2,22,60,0,0
30903,-133.333333333333,4,2,17,60,0,0
31100,-133.333333333333,4,2,23,60,0,0
31198,-133.333333333333,4,2,2,60,0,0
31296,-133.333333333333,4,2,25,60,0,0
31492,-133.333333333333,4,2,23,60,0,0
31688,-133.333333333333,4,2,1,60,0,0
31884,-133.333333333333,4,2,23,60,0,0
31982,-133.333333333333,4,2,17,60,0,0
32080,-133.333333333333,4,2,25,60,0,0
32276,-133.333333333333,4,2,22,60,0,0
32668,-133.333333333333,4,2,23,60,0,0
32766,-133.333333333333,4,2,2,60,0,0
32865,-133.333333333333,4,2,25,60,0,0
33061,-133.333333333333,4,2,22,60,0,0
33257,-133.333333333333,4,2,1,60,0,0
33453,-133.333333333333,4,2,23,60,0,0
33551,-133.333333333333,4,2,17,60,0,0
33649,-133.333333333333,4,2,14,60,0,0
33845,-133.333333333333,4,2,22,60,0,0
33943,-133.333333333333,4,2,17,60,0,0
34041,-133.333333333333,4,2,22,60,0,0
34139,-133.333333333333,4,2,17,60,0,0
34237,-133.333333333333,4,2,22,60,0,0
34335,-133.333333333333,4,2,17,60,0,0
34433,-200,4,2,25,60,0,0
34629,-200,4,2,1,60,0,0
34825,-133.333333333333,4,2,24,60,0,0
35119,-133.333333333333,4,2,17,60,0,0
35217,-133.333333333333,4,2,25,60,0,0
35414,-133.333333333333,4,2,24,60,0,0
35610,-133.333333333333,4,2,17,60,0,0
35708,-133.333333333333,4,2,2,60,0,0
35806,-133.333333333333,4,2,23,60,0,0
35904,-133.333333333333,4,2,2,60,0,0
36002,-133.333333333333,4,2,25,60,0,0
36198,-133.333333333333,4,2,24,60,0,0
36394,-90.9090909090909,4,2,24,60,0,0
36590,-90.9090909090909,4,2,22,60,0,0
36688,-90.9090909090909,4,2,17,60,0,0
36786,-90.9090909090909,4,2,26,60,0,0
36982,-90.9090909090909,4,2,22,60,0,0
37080,-90.9090909090909,4,2,17,60,0,0
37178,-100,4,2,17,60,0,0
37374,-133.333333333333,4,2,23,60,0,0
37472,-133.333333333333,4,2,2,60,0,0
37570,-100,4,2,25,60,0,0
37766,-133.333333333333,4,2,23,60,0,0
37963,-74.0740740740741,4,2,24,60,0,0
38355,-74.0740740740741,4,2,6,60,0,0
38551,-74.0740740740741,4,2,23,60,0,0
38649,-74.0740740740741,4,2,17,60,0,0
38747,-74.0740740740741,4,2,17,60,0,0
38943,-74.0740740740741,4,2,23,60,0,0
39041,-74.0740740740741,4,2,17,60,0,0
39139,-74.0740740740741,4,2,6,60,0,0
39237,-74.0740740740741,4,2,17,60,0,0
39335,-74.0740740740741,4,2,5,50,0,0
39433,-74.0740740740741,4,2,17,50,0,0
39531,-74.0740740740741,4,2,30,55,0,0
39727,-74.0740740740741,4,2,31,55,0,0
39825,-74.0740740740741,4,2,30,55,0,0
39923,-74.0740740740741,4,2,15,50,0,0
40119,-57.1428571428571,4,2,27,50,0,0
40217,-57.1428571428571,4,2,15,50,0,0
40316,-57.1428571428571,4,2,4,45,0,0
40512,-74.0740740740741,4,2,28,45,0,0
40610,-74.0740740740741,4,2,4,45,0,0
40708,-74.0740740740741,4,2,14,45,0,0
40806,-74.0740740740741,4,2,4,45,0,0
40904,-74.0740740740741,4,2,39,45,0,0
41002,-74.0740740740741,4,2,4,45,0,0
41100,-66.6666666666667,4,2,1,60,0,0
41884,-76.9230769230769,4,2,1,60,0,0
42668,-90.9090909090909,4,2,1,60,0,0
43453,-90.9090909090909,4,2,30,55,0,0
43649,-90.9090909090909,4,2,2,55,0,0
43845,-90.9090909090909,4,2,15,55,0,0
44041,-90.9090909090909,4,2,2,55,0,0
44139,-90.9090909090909,4,2,17,55,0,0
44237,-100,4,2,1,60,0,0
44727,-100,4,2,2,60,0,0
44825,-100,4,2,22,60,0,0
44923,-100,4,2,17,60,0,0
45021,-133.333333333333,4,2,22,60,0,0
45119,-133.333333333333,4,2,17,60,0,0
45217,-133.333333333333,4,2,22,60,0,0
45414,-133.333333333333,4,2,1,60,0,0
46394,-133.333333333333,4,2,23,55,0,0
46492,-133.333333333333,4,2,22,55,0,0
46590,-133.333333333333,4,2,23,55,0,0
46688,-133.333333333333,4,2,22,55,0,0
46786,-133.333333333333,4,2,23,55,0,0
46884,-133.333333333333,4,2,22,55,0,0
46982,-133.333333333333,4,2,4,45,0,0
47374,-66.6666666666667,4,2,1,60,0,0
48158,-76.9230769230769,4,2,1,60,0,0
48942,-90.9090909090909,4,2,1,60,0,0
49727,-90.9090909090909,4,2,30,55,0,0
49923,-90.9090909090909,4,2,2,55,0,0
50119,-90.9090909090909,4,2,15,55,0,0
50316,-90.9090909090909,4,2,2,55,0,0
50512,-90.9090909090909,4,2,24,55,0,0
50708,-90.9090909090909,4,2,1,55,0,0
50904,-90.9090909090909,4,2,22,55,0,0
51002,-90.9090909090909,4,2,17,55,0,0
51100,-90.9090909090909,4,2,22,55,0,0
51296,-90.9090909090909,4,2,30,55,0,0
51394,-90.9090909090909,4,2,2,55,0,0
51492,-90.9090909090909,4,2,27,55,0,0
51590,-90.9090909090909,4,2,17,55,0,0
51688,-90.9090909090909,4,2,1,55,0,0
52080,-90.9090909090909,4,2,24,55,0,0
52276,-90.9090909090909,4,2,1,55,0,0
52472,-90.9090909090909,4,2,22,55,0,0
52570,-90.9090909090909,4,2,17,55,0,0
52668,-90.9090909090909,4,2,22,55,0,0
52865,-90.9090909090909,4,2,27,50,0,0
52963,-90.9090909090909,4,2,30,50,0,0
53061,-90.9090909090909,4,2,22,50,0,0
53159,-90.9090909090909,4,2,4,50,0,0
53257,-90.9090909090909,4,2,29,40,0,0
53649,-90.9090909090909,4,2,1,50,0,0
53845,-90.9090909090909,4,2,32,50,0,0
53943,-90.9090909090909,4,2,17,50,0,0
54041,-90.9090909090909,4,2,32,50,0,0
54139,-90.9090909090909,4,2,17,50,0,0
54237,-90.9090909090909,4,2,32,50,0,0
54433,-90.9090909090909,4,2,30,50,0,0
54629,-90.9090909090909,4,2,32,50,0,0
54727,-90.9090909090909,4,2,17,50,0,0
54825,-90.9090909090909,4,2,32,50,0,0
54923,-90.9090909090909,4,2,17,50,0,0
55021,-90.9090909090909,4,2,32,50,0,0
55217,-90.9090909090909,4,2,1,50,0,0
55414,-90.9090909090909,4,2,17,50,0,0
55512,-90.9090909090909,4,2,13,50,0,0
55610,-90.9090909090909,4,2,22,50,0,0
55708,-90.9090909090909,4,2,17,50,0,0
55806,-90.9090909090909,4,2,9,50,0,0
56002,-90.9090909090909,4,2,5,50,0,0
56100,-90.9090909090909,4,2,22,50,0,0
56198,-90.9090909090909,4,2,33,50,0,0
56394,-90.9090909090909,4,2,27,50,0,0
56492,-90.9090909090909,4,2,30,45,0,0
56590,-90.9090909090909,4,2,31,45,0,0
56688,-90.9090909090909,4,2,30,45,0,0
56786,-90.9090909090909,4,2,1,50,0,0
58355,-66.6666666666667,4,2,34,60,0,1
58453,-66.6666666666667,4,2,2,60,0,1
58551,-66.6666666666667,4,2,23,60,0,1
58649,-66.6666666666667,4,2,2,60,0,1
58747,-66.6666666666667,4,2,35,60,0,1
58845,-66.6666666666667,4,2,2,60,0,1
58943,-66.6666666666667,4,2,29,60,0,1
59139,-66.6666666666667,4,2,16,60,0,1
59335,-66.6666666666667,4,2,37,60,0,1
59433,-66.6666666666667,4,2,16,60,0,1
59727,-66.6666666666667,4,2,35,60,0,1
59923,-66.6666666666667,4,2,34,60,0,1
60021,-66.6666666666667,4,2,2,60,0,1
60119,-66.6666666666667,4,2,23,60,0,1
60217,-66.6666666666667,4,2,2,60,0,1
60315,-66.6666666666667,4,2,35,60,0,1
60414,-66.6666666666667,4,2,2,60,0,1
60512,-66.6666666666667,4,2,29,60,0,1
60708,-66.6666666666667,4,2,16,60,0,1
60904,-66.6666666666667,4,2,37,60,0,1
61002,-66.6666666666667,4,2,16,60,0,1
61198,-66.6666666666667,4,2,17,60,0,1
61296,-66.6666666666667,4,2,23,60,0,1
61394,-66.6666666666667,4,2,17,60,0,1
61492,-66.6666666666667,4,2,33,60,0,1
61590,-66.6666666666667,4,2,17,60,0,1
61688,-66.6666666666667,4,2,22,60,0,1
61786,-66.6666666666667,4,2,17,60,0,1
61884,-133.333333333333,4,2,15,60,0,1
61982,-133.333333333333,4,2,30,60,0,1
62080,-133.333333333333,4,2,5,45,0,1
62178,-133.333333333333,4,2,17,45,0,1
62276,-133.333333333333,4,2,2,60,0,1
62374,-133.333333333333,4,2,17,60,0,1
62472,-133.333333333333,4,2,22,60,0,1
62570,-133.333333333333,4,2,17,60,0,1
62668,-100,4,2,33,60,0,1
62865,-66.6666666666667,4,2,17,60,0,1
63061,-66.6666666666667,4,2,17,55,0,1
63159,-83.3333333333333,4,2,17,55,0,1
63453,-66.6666666666667,4,2,16,45,0,1
63845,-66.6666666666667,4,2,2,45,0,1
64041,-66.6666666666667,4,2,33,45,0,1
64139,-66.6666666666667,4,2,2,45,0,1
64237,-66.6666666666667,4,2,30,50,0,1
64433,-66.6666666666667,4,2,39,50,0,1
64531,-66.6666666666667,4,2,14,50,0,1
64629,-66.6666666666667,4,2,34,60,0,1
64727,-66.6666666666667,4,2,2,60,0,1
64825,-66.6666666666667,4,2,23,60,0,1
64923,-66.6666666666667,4,2,2,60,0,1
65021,-66.6666666666667,4,2,35,60,0,1
65119,-66.6666666666667,4,2,2,60,0,1
65217,-66.6666666666667,4,2,29,60,0,1
65414,-66.6666666666667,4,2,16,60,0,1
65610,-66.6666666666667,4,2,37,60,0,1
65708,-66.6666666666667,4,2,16,60,0,1
65904,-66.6666666666667,4,2,17,60,0,1
66002,-66.6666666666667,4,2,23,60,0,1
66100,-66.6666666666667,4,2,17,60,0,1
66198,-66.6666666666667,4,2,34,60,0,1
66296,-66.6666666666667,4,2,2,60,0,1
66394,-66.6666666666667,4,2,23,60,0,1
66492,-66.6666666666667,4,2,2,60,0,1
66590,-66.6666666666667,4,2,35,60,0,1
66688,-66.6666666666667,4,2,2,60,0,1
66786,-66.6666666666667,4,2,29,60,0,1
66982,-66.6666666666667,4,2,16,60,0,1
67178,-66.6666666666667,4,2,37,60,0,1
67276,-66.6666666666667,4,2,16,60,0,1
67472,-66.6666666666667,4,2,17,60,0,1
67570,-66.6666666666667,4,2,23,60,0,1
67668,-66.6666666666667,4,2,17,60,0,1
67766,-83.3333333333333,4,2,33,60,0,1
67865,-83.3333333333333,4,2,17,60,0,1
67963,-83.3333333333333,4,2,22,60,0,1
68061,-83.3333333333333,4,2,17,60,0,1
68159,-83.3333333333333,4,2,15,60,0,1
68257,-83.3333333333333,4,2,30,60,0,1
68355,-83.3333333333333,4,2,5,45,0,1
68551,-83.3333333333333,4,2,2,60,0,1
68649,-83.3333333333333,4,2,17,60,0,1
68747,-83.3333333333333,4,2,22,60,0,1
68845,-83.3333333333333,4,2,17,60,0,1
68943,-66.6666666666667,4,2,33,60,0,1
69139,-66.6666666666667,4,2,17,60,0,1
69335,-66.6666666666667,4,2,17,55,0,1
69727,-66.6666666666667,4,2,16,45,0,1
70119,-66.6666666666667,4,2,2,45,0,1
70315,-66.6666666666667,4,2,33,45,0,1
70414,-66.6666666666667,4,2,2,45,0,1
70512,-66.6666666666667,4,2,30,50,0,1
70708,-66.6666666666667,4,2,39,50,0,1
70806,-66.6666666666667,4,2,14,50,0,1
70904,-66.6666666666667,4,2,34,60,0,1
71002,-66.6666666666667,4,2,2,60,0,1
71100,-66.6666666666667,4,2,23,60,0,1
71198,-66.6666666666667,4,2,2,60,0,1
71296,-66.6666666666667,4,2,35,60,0,1
71394,-66.6666666666667,4,2,2,60,0,1
71492,-66.6666666666667,4,2,29,60,0,1
71688,-66.6666666666667,4,2,16,60,0,1
71884,-66.6666666666667,4,2,37,60,0,1
71982,-66.6666666666667,4,2,16,60,0,1
72276,-66.6666666666667,4,2,35,60,0,1
72472,-66.6666666666667,4,2,34,60,0,1
72570,-66.6666666666667,4,2,2,60,0,1
72668,-66.6666666666667,4,2,23,60,0,1
72766,-66.6666666666667,4,2,2,60,0,1
72865,-66.6666666666667,4,2,35,60,0,1
72963,-66.6666666666667,4,2,2,60,0,1
73061,-66.6666666666667,4,2,29,60,0,1
73257,-66.6666666666667,4,2,16,60,0,1
73453,-66.6666666666667,4,2,37,60,0,1
73551,-66.6666666666667,4,2,16,60,0,1
73649,-66.6666666666667,4,2,17,60,0,1
73747,-66.6666666666667,4,2,16,60,0,1
73845,-66.6666666666667,4,2,23,60,0,1
73943,-66.6666666666667,4,2,17,60,0,1
74041,-66.6666666666667,4,2,33,60,0,1
74139,-66.6666666666667,4,2,17,60,0,1
74237,-66.6666666666667,4,2,22,60,0,1
74335,-66.6666666666667,4,2,17,60,0,1
74433,-133.333333333333,4,2,15,60,0,1
74531,-133.333333333333,4,2,30,60,0,1
74629,-133.333333333333,4,2,5,45,0,1
74727,-133.333333333333,4,2,17,45,0,1
74825,-133.333333333333,4,2,2,60,0,1
74923,-133.333333333333,4,2,17,60,0,1
75021,-133.333333333333,4,2,22,60,0,1
75119,-133.333333333333,4,2,17,60,0,1
75217,-100,4,2,33,60,0,1
75414,-66.6666666666667,4,2,17,60,0,1
75610,-66.6666666666667,4,2,17,55,0,1
75708,-83.3333333333333,4,2,17,55,0,1
76002,-66.6666666666667,4,2,16,45,0,1
76394,-66.6666666666667,4,2,2,45,0,1
76590,-66.6666666666667,4,2,33,45,0,1
76688,-66.6666666666667,4,2,2,45,0,1
76786,-66.6666666666667,4,2,30,50,0,1
76982,-66.6666666666667,4,2,39,40,0,1
77080,-66.6666666666667,4,2,14,40,0,1
77178,-66.6666666666667,4,2,34,60,0,1
77276,-66.6666666666667,4,2,2,60,0,1
77374,-83.3333333333333,4,2,23,60,0,1
77472,-83.3333333333333,4,2,2,60,0,1
77570,-83.3333333333333,4,2,35,60,0,1
77668,-83.3333333333333,4,2,2,60,0,1
77766,-83.3333333333333,4,2,29,60,0,1
77963,-83.3333333333333,4,2,16,60,0,1
78159,-83.3333333333333,4,2,37,60,0,1
78257,-83.3333333333333,4,2,16,60,0,1
78551,-83.3333333333333,4,2,35,60,0,1
78747,-83.3333333333333,4,2,34,60,0,1
78845,-83.3333333333333,4,2,17,60,0,1
78943,-83.3333333333333,4,2,23,60,0,1
79041,-83.3333333333333,4,2,2,60,0,1
79139,-83.3333333333333,4,2,35,60,0,1
79335,-83.3333333333333,4,2,33,60,0,1
79433,-83.3333333333333,4,2,17,60,0,1
79531,-83.3333333333333,4,2,34,60,0,1
79629,-83.3333333333333,4,2,2,60,0,1
79727,-83.3333333333333,4,2,23,60,0,1
79825,-83.3333333333333,4,2,2,60,0,1
79923,-83.3333333333333,4,2,35,60,0,1
80021,-83.3333333333333,4,2,2,60,0,1
80119,-83.3333333333333,4,2,29,60,0,1
80315,-83.3333333333333,4,2,1,55,0,0
81884,-100,4,2,1,55,0,0
83061,-133.333333333333,4,2,1,55,0,0
83453,-83.3333333333333,4,2,7,65,0,0
83649,-83.3333333333333,4,2,14,65,0,0
83845,-83.3333333333333,4,2,15,65,0,0
84041,-83.3333333333333,4,2,2,65,0,0
84237,-74.0740740740741,4,2,4,65,0,0
84335,-74.0740740740741,4,2,5,65,0,0
84433,-74.0740740740741,4,2,16,65,0,0
84531,-74.0740740740741,4,2,15,65,0,0
84629,-74.0740740740741,4,2,16,65,0,0
84825,-62.5,4,2,20,65,0,0
85021,-83.3333333333333,4,2,7,65,0,0
85217,-83.3333333333333,4,2,14,65,0,0
85414,-83.3333333333333,4,2,15,65,0,0
85610,-83.3333333333333,4,2,2,65,0,0
85806,-74.0740740740741,4,2,14,65,0,0
85904,-74.0740740740741,4,2,5,65,0,0
86002,-74.0740740740741,4,2,16,65,0,0
86100,-74.0740740740741,4,2,15,65,0,0
86198,-74.0740740740741,4,2,16,65,0,0
86394,-83.3333333333333,4,2,8,65,0,0
86590,-83.3333333333333,4,2,5,65,0,0
86786,-83.3333333333333,4,2,17,65,0,0
86884,-83.3333333333333,4,2,15,65,0,0
87178,-83.3333333333333,4,2,5,65,0,0
87374,-83.3333333333333,4,2,15,65,0,0
87472,-83.3333333333333,4,2,17,65,0,0
87668,-83.3333333333333,4,2,15,65,0,0
87766,-83.3333333333333,4,2,16,65,0,0
87865,-83.3333333333333,4,2,17,65,0,0
87963,-83.3333333333333,4,2,9,65,0,0
88159,-74.0740740740741,4,2,7,65,0,0
88453,-66.6666666666667,4,2,18,65,0,0
88649,-66.6666666666667,4,2,16,55,0,0
88747,-50,4,2,19,65,0,0
88845,-50,4,2,16,55,0,0
88943,-50,4,2,21,65,0,0
89041,-50,4,2,16,55,0,0
89335,-50,4,2,17,55,0,0
89727,-90.9090909090909,4,2,7,65,0,0
89923,-90.9090909090909,4,2,14,65,0,0
90119,-90.9090909090909,4,2,15,65,0,0
90315,-90.9090909090909,4,2,2,65,0,0
90511,-74.0740740740741,4,2,4,65,0,0
90610,-74.0740740740741,4,2,5,65,0,0
90708,-74.0740740740741,4,2,16,65,0,0
90806,-74.0740740740741,4,2,15,65,0,0
90904,-74.0740740740741,4,2,16,65,0,0
91099,-62.5,4,2,21,65,0,0
91295,-83.3333333333333,4,2,7,65,0,0
91492,-83.3333333333333,4,2,14,65,0,0
91688,-83.3333333333333,4,2,15,65,0,0
91884,-83.3333333333333,4,2,2,65,0,0
92080,-74.0740740740741,4,2,15,65,0,0
92178,-74.0740740740741,4,2,5,65,0,0
92276,-74.0740740740741,4,2,16,65,0,0
92374,-74.0740740740741,4,2,9,65,0,0
92472,-74.0740740740741,4,2,16,65,0,0
92668,-83.3333333333333,4,2,8,65,0,0
92766,-83.3333333333333,4,2,16,65,0,0
92864,-83.3333333333333,4,2,12,60,0,0
92865,-76.9230769230769,4,2,12,60,0,0
93061,-76.9230769230769,4,2,16,40,0,0
93453,-76.9230769230769,4,2,19,60,0,0
93551,-76.9230769230769,4,2,16,45,0,0
94041,-76.9230769230769,4,2,5,60,0,0
94139,-76.9230769230769,4,2,7,50,0,0
94237,-76.9230769230769,4,2,39,45,0,0
94335,-76.9230769230769,4,2,7,50,0,0
94629,-76.9230769230769,4,2,13,50,0,0
94825,-76.9230769230769,4,2,6,60,0,0
95217,-76.9230769230769,4,2,13,60,0,0
95414,-76.9230769230769,4,2,6,60,0,0
96002,-125,4,2,1,60,0,0
96198,-125,4,2,2,60,0,0
96394,-125,4,2,23,60,0,0
96590,-125,4,2,2,60,0,0
96688,-125,4,2,17,60,0,0
96786,-125,4,2,22,60,0,0
96884,-125,4,2,17,60,0,0
97080,-125,4,2,2,60,0,0
97178,-125,4,2,23,60,0,0
97374,-125,4,2,2,60,0,0
97570,-83.3333333333333,4,2,1,60,0,0
98159,-200,4,2,1,60,0,0
98355,-133.333333333333,4,2,22,60,0,0
98453,-133.333333333333,4,2,17,60,0,0
98649,-133.333333333333,4,2,2,60,0,0
98747,-133.333333333333,4,2,23,60,0,0
99139,-125,4,2,1,60,0,0
99923,-133.333333333333,4,2,1,60,0,0
100708,-83.3333333333333,4,2,1,60,0,0
101100,-83.3333333333333,4,2,27,60,0,0
101296,-83.3333333333333,4,2,1,60,0,0
101492,-83.3333333333333,4,2,32,60,0,0
101590,-83.3333333333333,4,2,22,60,0,0
101688,-83.3333333333333,4,2,32,60,0,0
101786,-83.3333333333333,4,2,22,60,0,0
101884,-83.3333333333333,4,2,23,60,0,0
101982,-83.3333333333333,4,2,22,60,0,0
102276,-166.666666666667,4,2,1,60,0,0
102472,-166.666666666667,4,2,22,60,0,0
102668,-166.666666666667,4,2,17,60,0,0
102865,-100,4,2,22,60,0,0
102963,-100,4,2,17,60,0,0
103159,-100,4,2,2,60,0,0
103257,-100,4,2,22,60,0,0
103355,-100,4,2,2,60,0,0
103453,-100,4,2,17,60,0,0
103649,-100,4,2,22,60,0,0
103845,-133.333333333333,4,2,1,60,0,0
104041,-133.333333333333,4,2,22,60,0,0
104139,-133.333333333333,4,2,17,60,0,0
104433,-133.333333333333,4,2,22,60,0,0
104629,-133.333333333333,4,2,17,60,0,0
104727,-133.333333333333,4,2,2,60,0,0
104825,-133.333333333333,4,2,23,60,0,0
104923,-133.333333333333,4,2,2,60,0,0
105021,-133.333333333333,4,2,17,60,0,0
105217,-133.333333333333,4,2,22,60,0,0
105414,-200,4,2,24,60,0,0
105708,-100,4,2,24,60,0,0
105806,-100,4,2,17,60,0,0
106002,-100,4,2,24,60,0,0
106198,-200,4,2,24,60,0,0
106492,-100,4,2,24,60,0,0
106590,-100,4,2,6,60,0,0
106786,-100,4,2,24,60,0,0
106982,-74.0740740740741,4,2,24,60,0,0
107374,-74.0740740740741,4,2,6,60,0,0
107570,-74.0740740740741,4,2,24,60,0,0
107766,-100,4,2,7,60,0,0
107963,-100,4,2,2,60,0,0
108061,-100,4,2,1,60,0,0
108257,-100,4,2,6,40,0,0
108355,-100,4,2,39,40,0,0
108453,-100,4,2,6,40,0,0
108551,-133.333333333333,4,2,1,60,0,0
108747,-133.333333333333,4,2,22,60,0,0
108943,-100,4,2,25,60,0,0
109139,-100,4,2,22,60,0,0
109335,-133.333333333333,4,2,17,60,0,0
109433,-133.333333333333,4,2,2,60,0,0
109531,-133.333333333333,4,2,23,60,0,0
109629,-133.333333333333,4,2,2,60,0,0
109727,-133.333333333333,4,2,15,60,0,0
109923,-133.333333333333,4,2,24,60,0,0
110119,-133.333333333333,4,2,1,60,0,0
110315,-133.333333333333,4,2,22,60,0,0
110414,-133.333333333333,4,2,17,60,0,0
110511,-100,4,2,26,60,0,0
110708,-100,4,2,23,60,0,0
110806,-100,4,2,22,60,0,0
110903,-133.333333333333,4,2,17,60,0,0
111100,-133.333333333333,4,2,23,60,0,0
111198,-133.333333333333,4,2,2,60,0,0
111296,-133.333333333333,4,2,25,60,0,0
111492,-133.333333333333,4,2,23,60,0,0
111688,-133.333333333333,4,2,1,60,0,0
111884,-133.333333333333,4,2,23,60,0,0
111982,-133.333333333333,4,2,17,60,0,0
112080,-133.333333333333,4,2,25,60,0,0
112276,-133.333333333333,4,2,22,60,0,0
112668,-133.333333333333,4,2,23,60,0,0
112766,-133.333333333333,4,2,2,60,0,0
112865,-133.333333333333,4,2,25,60,0,0
113061,-133.333333333333,4,2,22,60,0,0
113257,-133.333333333333,4,2,1,60,0,0
113453,-133.333333333333,4,2,23,60,0,0
113551,-133.333333333333,4,2,17,60,0,0
113649,-133.333333333333,4,2,14,60,0,0
113845,-133.333333333333,4,2,22,60,0,0
113943,-133.333333333333,4,2,17,60,0,0
114041,-133.333333333333,4,2,22,60,0,0
114139,-133.333333333333,4,2,17,60,0,0
114237,-133.333333333333,4,2,22,60,0,0
114335,-133.333333333333,4,2,17,60,0,0
114433,-200,4,2,25,60,0,0
114629,-200,4,2,1,60,0,0
114825,-133.333333333333,4,2,24,60,0,0
115119,-133.333333333333,4,2,17,60,0,0
115217,-133.333333333333,4,2,25,60,0,0
115414,-133.333333333333,4,2,24,60,0,0
115610,-133.333333333333,4,2,17,60,0,0
115708,-133.333333333333,4,2,2,60,0,0
115806,-133.333333333333,4,2,23,60,0,0
115904,-133.333333333333,4,2,2,60,0,0
116002,-133.333333333333,4,2,25,60,0,0
116198,-133.333333333333,4,2,24,60,0,0
116394,-90.9090909090909,4,2,24,60,0,0
116590,-90.9090909090909,4,2,22,60,0,0
116688,-90.9090909090909,4,2,17,60,0,0
116786,-90.9090909090909,4,2,26,60,0,0
116884,-90.9090909090909,4,2,22,60,0,0
116982,-90.9090909090909,4,2,22,60,0,0
117080,-90.9090909090909,4,2,17,60,0,0
117178,-100,4,2,17,60,0,0
117374,-133.333333333333,4,2,23,60,0,0
117472,-133.333333333333,4,2,2,60,0,0
117570,-100,4,2,25,60,0,0
117766,-133.333333333333,4,2,23,60,0,0
117963,-74.0740740740741,4,2,24,60,0,0
118355,-74.0740740740741,4,2,6,60,0,0
118551,-74.0740740740741,4,2,23,60,0,0
118649,-74.0740740740741,4,2,17,60,0,0
118747,-74.0740740740741,4,2,17,60,0,0
118943,-74.0740740740741,4,2,23,60,0,0
119041,-74.0740740740741,4,2,17,60,0,0
119139,-74.0740740740741,4,2,6,60,0,0
119335,-74.0740740740741,4,2,5,50,0,0
119531,-74.0740740740741,4,2,30,55,0,0
119727,-74.0740740740741,4,2,31,55,0,0
119825,-74.0740740740741,4,2,30,55,0,0
119923,-74.0740740740741,4,2,15,50,0,0
120119,-57.1428571428571,4,2,27,50,0,0
120217,-57.1428571428571,4,2,15,50,0,0
120315,-57.1428571428571,4,2,4,45,0,0
120512,-74.0740740740741,4,2,28,45,0,0
120610,-74.0740740740741,4,2,4,45,0,0
120708,-74.0740740740741,4,2,14,45,0,0
120806,-74.0740740740741,4,2,4,45,0,0
120904,-74.0740740740741,4,2,39,45,0,0
121002,-74.0740740740741,4,2,4,45,0,0
121100,-66.6666666666667,4,2,1,60,0,0
121884,-76.9230769230769,4,2,1,60,0,0
122668,-90.9090909090909,4,2,1,60,0,0
123453,-90.9090909090909,4,2,30,55,0,0
123649,-90.9090909090909,4,2,2,55,0,0
123845,-90.9090909090909,4,2,15,55,0,0
124041,-90.9090909090909,4,2,2,55,0,0
124139,-90.9090909090909,4,2,17,55,0,0
124237,-100,4,2,1,60,0,0
124629,-133.333333333333,4,2,1,60,0,0
124727,-133.333333333333,4,2,2,60,0,0
124825,-133.333333333333,4,2,22,60,0,0
124923,-133.333333333333,4,2,17,60,0,0
125021,-133.333333333333,4,2,22,60,0,0
125119,-133.333333333333,4,2,17,60,0,0
125217,-133.333333333333,4,2,22,60,0,0
125315,-133.333333333333,4,2,17,60,0,0
125414,-133.333333333333,4,2,1,60,0,0
126394,-133.333333333333,4,2,23,55,0,0
126492,-133.333333333333,4,2,22,55,0,0
126590,-133.333333333333,4,2,23,55,0,0
126688,-133.333333333333,4,2,22,55,0,0
126786,-133.333333333333,4,2,23,55,0,0
126884,-133.333333333333,4,2,22,55,0,0
126982,-133.333333333333,4,2,4,45,0,0
127374,-66.6666666666667,4,2,1,60,0,0
128158,-76.9230769230769,4,2,1,60,0,0
128942,-90.9090909090909,4,2,1,60,0,0
129727,-90.9090909090909,4,2,30,55,0,0
129923,-90.9090909090909,4,2,2,55,0,0
130119,-90.9090909090909,4,2,15,55,0,0
130315,-90.9090909090909,4,2,2,55,0,0
130512,-90.9090909090909,4,2,24,55,0,0
130708,-90.9090909090909,4,2,1,55,0,0
130904,-90.9090909090909,4,2,22,55,0,0
131002,-90.9090909090909,4,2,17,55,0,0
131100,-90.9090909090909,4,2,22,55,0,0
131296,-90.9090909090909,4,2,30,55,0,0
131394,-90.9090909090909,4,2,2,55,0,0
131492,-90.9090909090909,4,2,27,55,0,0
131590,-90.9090909090909,4,2,17,55,0,0
131688,-90.9090909090909,4,2,1,55,0,0
132080,-90.9090909090909,4,2,24,55,0,0
132276,-90.9090909090909,4,2,1,55,0,0
132472,-90.9090909090909,4,2,22,55,0,0
132570,-90.9090909090909,4,2,17,55,0,0
132668,-90.9090909090909,4,2,22,55,0,0
132865,-90.9090909090909,4,2,27,50,0,0
132963,-90.9090909090909,4,2,30,50,0,0
133061,-90.9090909090909,4,2,22,50,0,0
133159,-90.9090909090909,4,2,4,50,0,0
133257,-90.9090909090909,4,2,29,40,0,0
133649,-90.9090909090909,4,2,1,50,0,0
133845,-90.9090909090909,4,2,32,50,0,0
133943,-90.9090909090909,4,2,17,50,0,0
134041,-90.9090909090909,4,2,32,50,0,0
134139,-90.9090909090909,4,2,17,50,0,0
134237,-90.9090909090909,4,2,32,50,0,0
134433,-90.9090909090909,4,2,30,50,0,0
134629,-90.9090909090909,4,2,32,50,0,0
134727,-90.9090909090909,4,2,17,50,0,0
134825,-90.9090909090909,4,2,32,50,0,0
134923,-90.9090909090909,4,2,17,50,0,0
135021,-90.9090909090909,4,2,32,50,0,0
135217,-90.9090909090909,4,2,1,50,0,0
135414,-90.9090909090909,4,2,17,50,0,0
135512,-90.9090909090909,4,2,13,50,0,0
135610,-90.9090909090909,4,2,22,50,0,0
135708,-90.9090909090909,4,2,17,50,0,0
135806,-90.9090909090909,4,2,9,50,0,0
136002,-90.9090909090909,4,2,5,50,0,0
136100,-90.9090909090909,4,2,22,50,0,0
136198,-90.9090909090909,4,2,33,50,0,0
136394,-90.9090909090909,4,2,27,50,0,0
136492,-90.9090909090909,4,2,30,45,0,0
136590,-90.9090909090909,4,2,31,45,0,0
136688,-90.9090909090909,4,2,30,45,0,0
136786,-90.9090909090909,4,2,1,50,0,0
138355,-66.6666666666667,4,2,34,60,0,1
138453,-66.6666666666667,4,2,2,60,0,1
138551,-66.6666666666667,4,2,23,60,0,1
138649,-66.6666666666667,4,2,2,60,0,1
138747,-66.6666666666667,4,2,35,60,0,1
138845,-66.6666666666667,4,2,2,60,0,1
138943,-66.6666666666667,4,2,29,60,0,1
139139,-66.6666666666667,4,2,16,60,0,1
139335,-66.6666666666667,4,2,37,60,0,1
139433,-66.6666666666667,4,2,16,60,0,1
139727,-66.6666666666667,4,2,35,60,0,1
139923,-66.6666666666667,4,2,34,60,0,1
140021,-66.6666666666667,4,2,2,60,0,1
140119,-66.6666666666667,4,2,23,60,0,1
140217,-66.6666666666667,4,2,2,60,0,1
140315,-66.6666666666667,4,2,35,60,0,1
140414,-66.6666666666667,4,2,2,60,0,1
140512,-66.6666666666667,4,2,29,60,0,1
140708,-66.6666666666667,4,2,16,60,0,1
140904,-66.6666666666667,4,2,37,60,0,1
141002,-66.6666666666667,4,2,16,60,0,1
141198,-66.6666666666667,4,2,17,60,0,1
141296,-66.6666666666667,4,2,23,60,0,1
141394,-66.6666666666667,4,2,17,60,0,1
141492,-66.6666666666667,4,2,33,60,0,1
141590,-66.6666666666667,4,2,17,60,0,1
141688,-66.6666666666667,4,2,22,60,0,1
141786,-66.6666666666667,4,2,17,60,0,1
141884,-133.333333333333,4,2,15,60,0,1
141982,-133.333333333333,4,2,30,60,0,1
142080,-133.333333333333,4,2,5,45,0,1
142178,-133.333333333333,4,2,17,45,0,1
142276,-133.333333333333,4,2,2,60,0,1
142374,-133.333333333333,4,2,17,60,0,1
142472,-133.333333333333,4,2,22,60,0,1
142570,-133.333333333333,4,2,17,60,0,1
142668,-100,4,2,33,60,0,1
142865,-66.6666666666667,4,2,17,60,0,1
143061,-66.6666666666667,4,2,17,55,0,1
143159,-83.3333333333333,4,2,17,55,0,1
143453,-66.6666666666667,4,2,16,45,0,1
143845,-66.6666666666667,4,2,2,45,0,1
144041,-66.6666666666667,4,2,33,45,0,1
144139,-66.6666666666667,4,2,2,45,0,1
144237,-66.6666666666667,4,2,30,50,0,1
144433,-66.6666666666667,4,2,39,50,0,1
144531,-66.6666666666667,4,2,14,50,0,1
144629,-66.6666666666667,4,2,34,60,0,1
144727,-66.6666666666667,4,2,2,60,0,1
144825,-66.6666666666667,4,2,23,60,0,1
144923,-66.6666666666667,4,2,2,60,0,1
145021,-66.6666666666667,4,2,35,60,0,1
145119,-66.6666666666667,4,2,2,60,0,1
145217,-66.6666666666667,4,2,29,60,0,1
145414,-66.6666666666667,4,2,16,60,0,1
145610,-66.6666666666667,4,2,37,60,0,1
145708,-66.6666666666667,4,2,16,60,0,1
145904,-66.6666666666667,4,2,17,60,0,1
146002,-66.6666666666667,4,2,23,60,0,1
146100,-66.6666666666667,4,2,17,60,0,1
146198,-66.6666666666667,4,2,34,60,0,1
146296,-66.6666666666667,4,2,2,60,0,1
146394,-66.6666666666667,4,2,23,60,0,1
146492,-66.6666666666667,4,2,2,60,0,1
146590,-66.6666666666667,4,2,35,60,0,1
146688,-66.6666666666667,4,2,2,60,0,1
146786,-66.6666666666667,4,2,29,60,0,1
146982,-66.6666666666667,4,2,16,60,0,1
147178,-66.6666666666667,4,2,37,60,0,1
147276,-66.6666666666667,4,2,16,60,0,1
147472,-66.6666666666667,4,2,17,60,0,1
147570,-66.6666666666667,4,2,23,60,0,1
147668,-66.6666666666667,4,2,17,60,0,1
147766,-83.3333333333333,4,2,33,60,0,1
147865,-83.3333333333333,4,2,17,60,0,1
147963,-83.3333333333333,4,2,22,60,0,1
148061,-83.3333333333333,4,2,17,60,0,1
148159,-83.3333333333333,4,2,15,60,0,1
148257,-83.3333333333333,4,2,30,60,0,1
148355,-83.3333333333333,4,2,5,45,0,1
148551,-83.3333333333333,4,2,2,60,0,1
148649,-83.3333333333333,4,2,17,60,0,1
148747,-83.3333333333333,4,2,22,60,0,1
148845,-83.3333333333333,4,2,17,60,0,1
148943,-66.6666666666667,4,2,33,60,0,1
149139,-66.6666666666667,4,2,17,60,0,1
149335,-66.6666666666667,4,2,17,55,0,1
149727,-66.6666666666667,4,2,16,45,0,1
150119,-66.6666666666667,4,2,2,45,0,1
150315,-66.6666666666667,4,2,33,45,0,1
150414,-66.6666666666667,4,2,2,45,0,1
150512,-66.6666666666667,4,2,30,50,0,1
150708,-66.6666666666667,4,2,39,50,0,1
150806,-66.6666666666667,4,2,14,50,0,1
150904,-66.6666666666667,4,2,34,60,0,1
151002,-66.6666666666667,4,2,2,60,0,1
151100,-66.6666666666667,4,2,23,60,0,1
151198,-66.6666666666667,4,2,2,60,0,1
151296,-66.6666666666667,4,2,35,60,0,1
151394,-66.6666666666667,4,2,2,60,0,1
151492,-66.6666666666667,4,2,29,60,0,1
151688,-66.6666666666667,4,2,16,60,0,1
151884,-66.6666666666667,4,2,37,60,0,1
151982,-66.6666666666667,4,2,16,60,0,1
152276,-66.6666666666667,4,2,35,60,0,1
152472,-66.6666666666667,4,2,34,60,0,1
152570,-66.6666666666667,4,2,2,60,0,1
152668,-66.6666666666667,4,2,23,60,0,1
152766,-66.6666666666667,4,2,2,60,0,1
152865,-66.6666666666667,4,2,35,60,0,1
152963,-66.6666666666667,4,2,2,60,0,1
153061,-66.6666666666667,4,2,29,60,0,1
153257,-66.6666666666667,4,2,16,60,0,1
153453,-66.6666666666667,4,2,37,60,0,1
153551,-66.6666666666667,4,2,16,60,0,1
153649,-66.6666666666667,4,2,17,60,0,1
153747,-66.6666666666667,4,2,16,60,0,1
153845,-66.6666666666667,4,2,23,60,0,1
153943,-66.6666666666667,4,2,17,60,0,1
154041,-66.6666666666667,4,2,33,60,0,1
154139,-66.6666666666667,4,2,17,60,0,1
154237,-66.6666666666667,4,2,22,60,0,1
154335,-66.6666666666667,4,2,17,60,0,1
154433,-133.333333333333,4,2,15,60,0,1
154531,-133.333333333333,4,2,30,60,0,1
154629,-133.333333333333,4,2,5,45,0,1
154727,-133.333333333333,4,2,17,45,0,1
154825,-133.333333333333,4,2,2,60,0,1
154923,-133.333333333333,4,2,17,60,0,1
155021,-133.333333333333,4,2,22,60,0,1
155119,-133.333333333333,4,2,17,60,0,1
155217,-100,4,2,33,60,0,1
155414,-66.6666666666667,4,2,17,60,0,1
155610,-66.6666666666667,4,2,17,55,0,1
155708,-83.3333333333333,4,2,17,55,0,1
156002,-66.6666666666667,4,2,16,45,0,1
156394,-66.6666666666667,4,2,2,45,0,1
156590,-66.6666666666667,4,2,33,45,0,1
156688,-66.6666666666667,4,2,2,45,0,1
156786,-66.6666666666667,4,2,30,50,0,1
156982,-66.6666666666667,4,2,39,50,0,1
157080,-66.6666666666667,4,2,14,50,0,1
157178,-66.6666666666667,4,2,34,60,0,1
157276,-66.6666666666667,4,2,2,60,0,1
157374,-83.3333333333333,4,2,23,60,0,1
157472,-83.3333333333333,4,2,2,60,0,1
157570,-83.3333333333333,4,2,35,60,0,1
157668,-83.3333333333333,4,2,2,60,0,1
157766,-83.3333333333333,4,2,29,60,0,1
157963,-83.3333333333333,4,2,16,60,0,1
158159,-83.3333333333333,4,2,37,60,0,1
158257,-83.3333333333333,4,2,16,60,0,1
158551,-83.3333333333333,4,2,35,60,0,1
158747,-83.3333333333333,4,2,34,60,0,1
158845,-83.3333333333333,4,2,17,60,0,1
158943,-83.3333333333333,4,2,23,60,0,1
159041,-83.3333333333333,4,2,2,60,0,1
159139,-83.3333333333333,4,2,35,60,0,1
159335,-83.3333333333333,4,2,33,60,0,1
159433,-83.3333333333333,4,2,17,60,0,1
159531,-83.3333333333333,4,2,34,60,0,1
159629,-83.3333333333333,4,2,2,60,0,1
159727,-83.3333333333333,4,2,23,60,0,1
159825,-83.3333333333333,4,2,2,60,0,1
159923,-83.3333333333333,4,2,35,60,0,1
160021,-83.3333333333333,4,2,2,60,0,1
160119,-83.3333333333333,4,2,29,60,0,1
160316,-100,4,2,1,55,0,0
161884,-100,4,2,1,55,0,0
162865,-133.333333333333,4,2,1,55,0,0
163453,-100,4,2,1,60,0,0
163943,-100,4,2,17,60,0,0
164041,-100,4,2,22,60,0,0
164237,-100,4,2,1,60,0,0
164433,-100,4,2,22,60,0,0
164531,-100,4,2,17,60,0,0
164629,-100,4,2,9,60,0,0
164727,-100,4,2,2,60,0,0
164825,-100,4,2,17,60,0,0
165021,-100,4,2,3,60,0,0
165217,-100,4,2,1,60,0,0
165512,-100,4,2,17,60,0,0
165610,-100,4,2,22,60,0,0
165806,-100,4,2,1,60,0,0
166002,-100,4,2,22,60,0,0
166100,-100,4,2,17,60,0,0
166198,-100,4,2,9,60,0,0
166394,-100,4,2,1,60,0,0
166590,-100,4,2,3,60,0,0
166786,-100,4,2,1,60,0,0
167178,-100,4,2,22,60,0,0
167374,-100,4,2,1,60,0,0
167570,-100,4,2,22,60,0,0
167668,-100,4,2,17,60,0,0
167766,-100,4,2,9,60,0,0
167865,-100,4,2,2,60,0,0
167963,-100,4,2,17,60,0,0
168355,-100,4,2,1,60,0,0
169727,-100,4,2,3,60,0,0
169923,-100,4,2,1,60,0,0
170217,-100,4,2,17,60,0,0
170316,-100,4,2,22,60,0,0
170512,-100,4,2,1,60,0,0
170708,-100,4,2,22,60,0,0
170806,-100,4,2,17,60,0,0
170904,-100,4,2,9,60,0,0
171002,-100,4,2,2,60,0,0
171100,-100,4,2,17,60,0,0
171296,-100,4,2,3,60,0,0
171492,-100,4,2,1,60,0,0
171786,-100,4,2,17,60,0,0
171884,-100,4,2,22,60,0,0
172080,-100,4,2,1,60,0,0
172276,-100,4,2,22,60,0,0
172374,-100,4,2,17,60,0,0
172472,-100,4,2,9,60,0,0
172668,-100,4,2,1,60,0,0
172865,-100,4,2,3,50,0,0
173257,-100,4,2,6,50,0,0
173355,-100,4,2,3,40,0,0
173649,-100,4,2,6,55,0,0
173747,-100,4,2,3,45,0,0
174041,-100,4,2,6,60,0,0
174139,-100,4,2,3,50,0,0
174629,-100,4,2,1,60,0,0
175806,-66.6666666666667,4,2,1,60,0,0
176002,-66.6666666666667,4,2,34,65,0,0
176786,-83.3333333333333,4,2,34,65,0,0
177178,-83.3333333333333,4,2,40,65,0,0
177374,-83.3333333333333,4,2,34,65,0,0
177570,-66.6666666666667,4,2,34,65,0,0
177963,-66.6666666666667,4,2,40,65,0,0
178061,-66.6666666666667,4,2,34,65,0,0
178649,-83.3333333333333,4,2,34,65,0,0
180316,-83.3333333333333,4,2,40,65,0,0
180512,-83.3333333333333,4,2,34,65,0,0
180708,-62.5,4,2,7,50,0,0
180904,-62.5,4,2,34,65,0,0
181296,-62.5,4,2,40,65,0,0
181492,-62.5,4,2,34,65,0,0
181688,-62.5,4,2,40,50,0,0
181884,-62.5,4,2,34,65,0,0
181982,-62.5,4,2,40,50,0,0
182276,-21.978021978022,4,2,34,65,0,0
183061,-83.3333333333333,4,2,34,65,0,0
183257,-36.90036900369,4,2,34,65,0,0
183453,-71.4285714285714,4,2,40,65,0,0
183649,-71.4285714285714,4,2,34,65,0,0
185021,-71.4285714285714,4,2,40,65,0,0
185414,-83.3333333333333,4,2,34,65,0,0
186590,-83.3333333333333,4,2,40,65,0,0
186982,-62.5,4,2,7,50,0,0
187178,-62.5,4,2,40,40,0,0
187276,-62.5,4,2,34,65,0,0
187374,-62.5,4,2,40,40,0,0
187570,-62.5,4,2,34,65,0,0
187668,-62.5,4,2,40,40,0,0
188061,-62.5,4,2,34,65,0,0
188159,-62.5,4,2,40,40,0,0
188355,-62.5,4,2,34,65,0,0
190512,-62.5,4,2,37,60,0,0
190610,-62.5,4,2,37,50,0,0
191296,-62.5,4,2,37,60,0,0
191688,-62.5,4,2,15,45,0,0
191786,-62.5,4,2,30,45,0,0
191884,-62.5,4,2,36,45,0,0
191982,-62.5,4,2,2,45,0,0
192080,-62.5,4,2,15,45,0,0
192178,-62.5,4,2,2,45,0,0
192276,-62.5,4,2,16,45,0,0
192472,-62.5,4,2,5,40,0,0
192570,-62.5,4,2,17,45,0,0
192668,-62.5,4,2,31,45,0,0
192766,-62.5,4,2,2,45,0,0
192865,-62.5,4,2,5,40,0,0
192963,-62.5,4,2,17,45,0,0
193061,-62.5,4,2,31,45,0,0
193257,-62.5,4,2,15,45,0,0
193355,-62.5,4,2,30,45,0,0
193453,-62.5,4,2,36,45,0,0
193551,-62.5,4,2,2,45,0,0
193649,-62.5,4,2,15,45,0,0
193747,-62.5,4,2,2,45,0,0
193845,-62.5,4,2,16,45,0,0
194041,-62.5,4,2,5,40,0,0
194139,-62.5,4,2,17,45,0,0
194237,-62.5,4,2,31,45,0,0
194335,-62.5,4,2,2,45,0,0
194433,-62.5,4,2,5,40,0,0
194531,-62.5,4,2,17,45,0,0
194629,-62.5,4,2,31,45,0,0
194825,-83.3333333333333,4,2,15,40,0,0
194923,-83.3333333333333,4,2,2,45,0,0
195021,-83.3333333333333,4,2,15,40,0,0
195119,-83.3333333333333,4,2,2,45,0,0
195217,-62.5,4,2,30,40,0,0
195316,-62.5,4,2,17,40,0,0
195414,-62.5,4,2,30,40,0,0
195512,-62.5,4,2,17,40,0,0
195610,-62.5,4,2,4,40,0,0
195708,-62.5,4,2,3,40,0,0
195806,-62.5,4,2,4,40,0,0
195904,-62.5,4,2,3,40,0,0
196002,-62.5,4,2,36,40,0,0
196394,-66.6666666666667,4,2,1,45,0,0
197374,-83.3333333333333,4,2,1,45,0,0
197668,-83.3333333333333,4,2,4,45,0,0
197766,-83.3333333333333,4,2,35,45,0,0
197865,-83.3333333333333,4,2,4,45,0,0
197963,-66.6666666666667,4,2,34,60,0,1
198061,-66.6666666666667,4,2,2,60,0,1
198159,-66.6666666666667,4,2,23,60,0,1
198257,-66.6666666666667,4,2,2,60,0,1
198355,-66.6666666666667,4,2,35,60,0,1
198453,-66.6666666666667,4,2,2,60,0,1
198551,-66.6666666666667,4,2,29,60,0,1
198747,-66.6666666666667,4,2,16,60,0,1
198943,-66.6666666666667,4,2,37,60,0,1
199041,-66.6666666666667,4,2,16,60,0,1
199237,-66.6666666666667,4,2,17,60,0,1
199335,-66.6666666666667,4,2,23,60,0,1
199433,-66.6666666666667,4,2,17,60,0,1
199531,-66.6666666666667,4,2,34,60,0,1
199629,-66.6666666666667,4,2,2,60,0,1
199727,-66.6666666666667,4,2,23,60,0,1
199825,-66.6666666666667,4,2,2,60,0,1
199923,-66.6666666666667,4,2,35,60,0,1
200021,-66.6666666666667,4,2,2,60,0,1
200119,-66.6666666666667,4,2,29,60,0,1
200316,-66.6666666666667,4,2,16,60,0,1
200512,-66.6666666666667,4,2,37,60,0,1
200610,-66.6666666666667,4,2,16,60,0,1
200806,-66.6666666666667,4,2,17,60,0,1
200904,-66.6666666666667,4,2,23,60,0,1
201002,-66.6666666666667,4,2,17,60,0,1
201100,-83.3333333333333,4,2,33,60,0,1
201198,-83.3333333333333,4,2,17,60,0,1
201296,-83.3333333333333,4,2,22,60,0,1
201394,-83.3333333333333,4,2,17,60,0,1
201492,-83.3333333333333,4,2,15,60,0,1
201590,-83.3333333333333,4,2,30,60,0,1
201688,-83.3333333333333,4,2,5,45,0,1
201884,-83.3333333333333,4,2,2,60,0,1
201982,-83.3333333333333,4,2,17,60,0,1
202080,-83.3333333333333,4,2,22,60,0,1
202178,-83.3333333333333,4,2,17,60,0,1
202277,-66.6666666666667,4,2,33,60,0,1
202472,-66.6666666666667,4,2,17,60,0,1
202668,-66.6666666666667,4,2,17,55,0,1
203061,-66.6666666666667,4,2,16,45,0,1
203453,-66.6666666666667,4,2,2,45,0,1
203649,-66.6666666666667,4,2,33,45,0,1
203747,-66.6666666666667,4,2,2,45,0,1
203845,-66.6666666666667,4,2,30,50,0,1
204041,-66.6666666666667,4,2,39,50,0,1
204139,-66.6666666666667,4,2,14,50,0,1
204238,-66.6666666666667,4,2,34,60,0,1
204335,-66.6666666666667,4,2,2,60,0,1
204433,-66.6666666666667,4,2,23,60,0,1
204531,-66.6666666666667,4,2,2,60,0,1
204629,-66.6666666666667,4,2,35,60,0,1
204727,-66.6666666666667,4,2,2,60,0,1
204825,-66.6666666666667,4,2,29,60,0,1
205021,-66.6666666666667,4,2,16,60,0,1
205217,-66.6666666666667,4,2,37,60,0,1
205316,-66.6666666666667,4,2,16,60,0,1
205610,-66.6666666666667,4,2,35,60,0,1
205806,-66.6666666666667,4,2,34,60,0,1
205904,-66.6666666666667,4,2,2,60,0,1
206002,-66.6666666666667,4,2,23,60,0,1
206100,-66.6666666666667,4,2,2,60,0,1
206198,-66.6666666666667,4,2,35,60,0,1
206296,-66.6666666666667,4,2,2,60,0,1
206394,-66.6666666666667,4,2,29,60,0,1
206590,-66.6666666666667,4,2,16,60,0,1
206786,-66.6666666666667,4,2,37,60,0,1
206884,-66.6666666666667,4,2,16,60,0,1
207080,-66.6666666666667,4,2,17,60,0,1
207178,-66.6666666666667,4,2,23,60,0,1
207276,-66.6666666666667,4,2,17,60,0,1
207374,-66.6666666666667,4,2,33,60,0,1
207472,-66.6666666666667,4,2,17,60,0,1
207570,-66.6666666666667,4,2,22,60,0,1
207668,-66.6666666666667,4,2,17,60,0,1
207767,-66.6666666666667,4,2,15,60,0,1
207865,-133.333333333333,4,2,30,60,0,1
207963,-66.6666666666667,4,2,5,45,0,1
208061,-66.6666666666667,4,2,30,60,0,1
208159,-133.333333333333,4,2,2,60,0,1
208257,-133.333333333333,4,2,17,60,0,1
208355,-133.333333333333,4,2,22,60,0,1
208453,-133.333333333333,4,2,17,60,0,1
208551,-100,4,2,33,60,0,1
208649,-100,4,2,3,50,0,1
208748,-66.6666666666667,4,2,17,60,0,1
208845,-66.6666666666667,4,2,3,50,0,1
208943,-66.6666666666667,4,2,17,55,0,1
209335,-50,4,2,16,45,0,1
209727,-50,4,2,2,45,0,1
209923,-50,4,2,33,45,0,1
210021,-50,4,2,2,45,0,1
210119,-71.4285714285714,4,2,30,50,0,1
210316,-50,4,2,39,50,0,1
210414,-50,4,2,14,50,0,1
210512,-66.6666666666667,4,2,34,60,0,1
210610,-66.6666666666667,4,2,2,60,0,1
210708,-83.3333333333333,4,2,23,60,0,1
210806,-83.3333333333333,4,2,2,60,0,1
210904,-83.3333333333333,4,2,35,60,0,1
211002,-83.3333333333333,4,2,2,60,0,1
211100,-83.3333333333333,4,2,29,60,0,1
211296,-83.3333333333333,4,2,16,60,0,1
211492,-83.3333333333333,4,2,37,60,0,1
211590,-83.3333333333333,4,2,16,60,0,1
211884,-83.3333333333333,4,2,35,60,0,1
212080,-83.3333333333333,4,2,34,60,0,1
212178,-83.3333333333333,4,2,2,60,0,1
212276,-83.3333333333333,4,2,23,60,0,1
212374,-83.3333333333333,4,2,2,60,0,1
212472,-83.3333333333333,4,2,35,60,0,1
212570,-83.3333333333333,4,2,17,60,0,1
212668,-83.3333333333333,4,2,33,60,0,1
212766,-83.3333333333333,4,2,17,45,0,1
212865,-83.3333333333333,4,2,34,60,0,1
212963,-83.3333333333333,4,2,41,45,0,1
213061,-83.3333333333333,4,2,23,60,0,1
213159,-83.3333333333333,4,2,41,45,0,1
213257,-83.3333333333333,4,2,35,60,0,1
213355,-83.3333333333333,4,2,41,45,0,1
213453,-83.3333333333333,4,2,29,60,0,1
213649,-83.3333333333333,4,2,1,60,0,0
215316,-83.3333333333333,4,2,3,60,0,0
215414,-83.3333333333333,4,2,33,60,0,0
215512,-83.3333333333333,4,2,8,60,0,0
215610,-83.3333333333333,4,2,5,60,0,0
215806,-83.3333333333333,4,2,9,60,0,0
215904,-83.3333333333333,4,2,3,60,0,0
216002,-83.3333333333333,4,2,33,60,0,0
216100,-83.3333333333333,4,2,8,60,0,0
216198,-83.3333333333333,4,2,35,60,0,0
216394,-83.3333333333333,4,2,3,60,0,0
216492,-83.3333333333333,4,2,33,60,0,0
216590,-83.3333333333333,4,2,16,60,0,0
216688,-83.3333333333333,4,2,3,60,0,0
216786,-83.3333333333333,4,2,1,60,0,0
218355,-100,4,2,1,55,0,0
219532,-133.333333333333,4,2,1,55,0,0
219923,-90.9090909090909,4,2,7,60,0,0
220119,-90.9090909090909,4,2,14,60,0,0
220316,-90.9090909090909,4,2,15,60,0,0
220512,-90.9090909090909,4,2,2,60,0,0
220707,-74.0740740740741,4,2,4,60,0,0
220806,-74.0740740740741,4,2,5,60,0,0
220904,-74.0740740740741,4,2,16,60,0,0
221002,-74.0740740740741,4,2,15,60,0,0
221100,-74.0740740740741,4,2,16,60,0,0
221295,-62.5,4,2,20,60,0,0
221491,-83.3333333333333,4,2,7,60,0,0
221688,-83.3333333333333,4,2,14,60,0,0
221884,-83.3333333333333,4,2,15,60,0,0
222080,-83.3333333333333,4,2,2,60,0,0
222276,-74.0740740740741,4,2,14,60,0,0
222374,-74.0740740740741,4,2,5,60,0,0
222472,-74.0740740740741,4,2,16,60,0,0
222570,-74.0740740740741,4,2,15,60,0,0
222668,-74.0740740740741,4,2,16,60,0,0
222864,-83.3333333333333,4,2,8,60,0,0
223060,-83.3333333333333,4,2,5,60,0,0
223257,-83.3333333333333,4,2,17,60,0,0
223355,-83.3333333333333,4,2,15,60,0,0
223649,-83.3333333333333,4,2,5,60,0,0
223845,-83.3333333333333,4,2,15,60,0,0
223943,-83.3333333333333,4,2,17,60,0,0
224139,-83.3333333333333,4,2,15,60,0,0
224237,-83.3333333333333,4,2,16,60,0,0
224335,-83.3333333333333,4,2,17,60,0,0
224433,-83.3333333333333,4,2,9,60,0,0
224629,-74.0740740740741,4,2,7,60,0,0
224923,-66.6666666666667,4,2,18,60,0,0
225119,-66.6666666666667,4,2,16,60,0,0
225217,-50,4,2,19,60,0,0
225316,-50,4,2,16,60,0,0
225414,-50,4,2,21,60,0,0
225512,-50,4,2,16,60,0,0
225806,-50,4,2,17,60,0,0
226197,-90.9090909090909,4,2,7,60,0,0
226394,-90.9090909090909,4,2,14,60,0,0
226590,-90.9090909090909,4,2,15,60,0,0
226786,-90.9090909090909,4,2,2,60,0,0
226981,-74.0740740740741,4,2,4,60,0,0
227080,-74.0740740740741,4,2,5,60,0,0
227178,-74.0740740740741,4,2,16,60,0,0
227276,-74.0740740740741,4,2,15,60,0,0
227374,-74.0740740740741,4,2,16,60,0,0
227569,-62.5,4,2,21,60,0,0
227765,-83.3333333333333,4,2,7,60,0,0
227963,-83.3333333333333,4,2,14,60,0,0
228159,-83.3333333333333,4,2,15,60,0,0
228355,-83.3333333333333,4,2,2,60,0,0
228550,-74.0740740740741,4,2,15,60,0,0
228649,-74.0740740740741,4,2,5,60,0,0
228747,-74.0740740740741,4,2,16,60,0,0
228845,-74.0740740740741,4,2,9,60,0,0
228943,-74.0740740740741,4,2,16,60,0,0
229138,-83.3333333333333,4,2,8,60,0,0
229237,-83.3333333333333,4,2,16,60,0,0
229334,-83.3333333333333,4,2,12,60,0,0
229335,-76.9230769230769,4,2,12,60,0,0
229384,-76.9230769230769,4,2,1,60,0,0
229531,-76.9230769230769,4,2,1,60,0,0
229923,-71.4285714285714,4,2,19,60,0,0
229972,-71.4285714285714,4,2,1,60,0,0
230119,-71.4285714285714,4,2,1,60,0,0
230316,-71.4285714285714,4,2,17,60,0,0
230414,-71.4285714285714,4,2,1,60,0,0
230511,-66.6666666666667,4,2,21,60,0,0
230561,-66.6666666666667,4,2,1,60,0,0
230610,-66.6666666666667,4,2,1,60,0,0
230708,-66.6666666666667,4,2,33,60,0,0
230904,-66.6666666666667,4,2,3,60,0,0
231002,-66.6666666666667,4,2,1,60,0,0
231099,-62.5,4,2,7,60,0,0
231149,-62.5,4,2,1,60,0,0
231491,-50,4,2,1,60,0,0
231687,-66.6666666666667,4,2,18,60,0,0
231786,-66.6666666666667,4,2,19,60,0,0
231982,-83.3333333333333,4,2,9,60,0,0
232276,-83.3333333333333,4,2,8,70,0,0
238453,-83.3333333333333,4,2,8,5,0,0

[Colours]
Combo1 : 255,200,227
Combo2 : 157,255,255
Combo3 : 200,200,255
Combo4 : 149,202,255

[HitObjects]
135,242,316,5,6,0:2:0:0:
33,332,414,2,0,L|219:359,1,175,2|2,0:2|0:2,0:0:0:0:
207,357,904,1,2,0:2:0:0:
442,241,1100,5,4,0:2:0:0:
512,130,1199,2,0,L|325:157,1,175,2|2,0:2|0:2,0:0:0:0:
338,155,1688,1,2,0:2:0:0:
322,27,1884,6,0,P|251:80|159:113,1,175,6|0,3:2|0:0,0:0:0:0:
0,122,2178,2,0,P|80:156|154:218,1,175,6|0,3:2|0:0,0:0:0:0:
226,233,2472,6,0,P|252:198|288:172,1,87.5,10|0,3:3|0:0,0:0:0:0:
228,339,2668,2,0,P|221:295|228:252,1,87.5,14|0,3:3|0:0,0:0:0:0:
445,183,2865,5,0,3:0:0:0:
445,183,2930,1,0,3:0:0:0:
445,183,2996,1,0,3:0:0:0:
445,183,3061,2,0,B|487:149|487:149|442:242,1,131.25000500679,8|0,1:2|3:0,0:0:0:0:
511,7,3453,6,0,L|367:22,1,144.375004405975,6|0,3:2|0:0,0:0:0:0:
281,12,3649,2,0,P|283:59|312:96,1,96.250002937317,2|2,1:2|1:2,0:0:0:0:
234,205,3845,5,10,1:2:0:0:
202,283,3943,1,2,1:2:0:0:
127,323,4041,1,10,1:2:0:0:
46,303,4139,1,2,1:2:0:0:
108,243,4237,5,2,3:2:0:0:
67,384,4335,1,2,1:2:0:0:
168,101,4531,5,2,1:2:0:0:
91,79,4629,1,10,1:2:0:0:
12,56,4727,5,2,1:2:0:0:
168,101,4825,2,0,L|369:59,1,140,10|0,1:2|0:0,0:0:0:0:
512,332,5021,6,0,L|330:304,1,157.499995193482,6|0,3:2|0:0,0:0:0:0:
274,338,5217,2,0,P|271:286|298:242,1,104.999996795654,2|2,1:2|1:2,0:0:0:0:
416,116,5414,5,10,1:2:0:0:
489,99,5512,1,2,1:2:0:0:
416,116,5610,1,10,1:2:0:0:
489,99,5708,1,2,1:2:0:0:
437,43,5806,5,2,3:2:0:0:
467,172,5904,1,2,1:2:0:0:
7,150,6100,6,0,L|30:292,1,118.125000450611,2|10,1:2|1:2,0:0:0:0:
97,226,6296,1,2,1:2:0:0:
173,243,6394,1,2,1:2:0:0:
223,303,6492,1,0,1:0:0:0:
220,383,6590,6,0,P|332:307|419:308,1,209.999993591309,6|2,3:2|1:2,0:0:0:0:
486,264,6884,2,0,B|524:276|533:302|533:302|537:228|474:197|430:219,1,209.999993591309,2|0,1:2|0:0,0:0:0:0:
374,154,7178,2,0,B|388:140|402:143|402:143|371:122|341:142|340:166,1,104.999996795654,2|0,1:2|0:0,0:0:0:0:
98,56,7374,6,0,P|219:114|262:190,1,209.999993591309,2|2,3:2|1:2,0:0:0:0:
455,38,7668,2,0,B|484:11|511:16|511:16|449:-24|390:14|388:63,1,209.999993591309,2|2,1:2|1:2,0:0:0:0:
309,40,7962,2,0,B|304:20|313:10|313:10|280:26|282:61|303:75,1,104.999996795654,10|0,1:2|0:0,0:0:0:0:
432,350,8159,6,0,B|396:386|288:368|362:306|259:292|216:330,1,236.250000901222,6|0,3:3|1:2,0:0:0:0:
19,143,8453,6,0,L|-2:-8,1,131.25000500679,2|0,3:2|3:0,0:0:0:0:
147,149,8649,1,8,1:2:0:0:
121,237,8747,2,0,L|96:49,1,175,2|8,1:2|1:2,0:0:0:0:
324,23,8943,5,2,1:2:0:0:
419,48,9041,1,10,1:2:0:0:
511,72,9139,1,10,1:2:0:0:
485,164,9237,1,10,1:2:0:0:
461,257,9335,1,8,3:2:0:0:
369,232,9433,1,10,1:2:0:0:
276,208,9531,1,10,1:2:0:0:
300,116,9629,1,10,1:2:0:0:
324,23,9727,6,0,L|180:38,1,144.375004405975,6|0,3:2|0:0,0:0:0:0:
110,94,9923,2,0,L|-25:75,1,96.250002937317,2|2,1:2|1:2,0:0:0:0:
39,359,10119,5,10,1:2:0:0:
115,328,10217,1,2,1:2:0:0:
154,255,10315,1,10,1:2:0:0:
135,176,10413,1,2,1:2:0:0:
76,237,10511,5,2,3:2:0:0:
214,197,10609,1,2,1:2:0:0:
371,223,10805,5,2,1:2:0:0:
450,245,10903,1,10,1:2:0:0:
434,167,11001,5,2,1:2:0:0:
385,307,11099,2,0,L|184:349,1,140,10|0,1:2|0:0,0:0:0:0:
7,43,11295,6,0,L|39:236,1,157.499995193482,6|0,3:2|0:0,0:0:0:0:
117,159,11491,2,0,L|99:56,1,104.999996795654,2|2,1:2|1:2,0:0:0:0:
368,76,11688,5,10,1:2:0:0:
450,106,11786,1,2,1:2:0:0:
368,76,11884,1,2,1:2:0:0:
450,106,11982,1,2,1:2:0:0:
441,6,12080,5,2,1:2:0:0:
374,172,12178,1,2,1:2:0:0:
187,327,12374,6,0,P|185:249|244:205,1,118.125000450611,2|10,1:2|1:2,0:0:0:0:
262,159,12570,5,2,1:2:0:0:
186,142,12668,1,2,1:2:0:0:
136,82,12766,1,0,1:0:0:0:
139,2,12865,2,0,L|5:19,2,113.749994792938,6|0|0,3:3|1:0|1:0,0:0:0:0:
478,94,13257,5,8,1:2:0:0:
463,164,13355,1,0,1:0:0:0:
448,234,13453,2,0,L|480:385,2,122.499996261597,10|0|0,1:2|1:0|3:0,0:0:0:0:
329,137,13845,5,8,1:2:0:0:
237,116,13943,1,0,0:0:0:0:
143,95,14041,2,0,L|-9:119,2,131.25000500679,2|0|8,3:2|0:0|3:3,0:0:0:0:
355,29,14433,5,8,3:3:0:0:
329,137,14531,1,0,1:0:0:0:
303,246,14629,2,0,L|323:385,2,140,10|0|0,3:2|0:0|1:0,0:0:0:0:
61,295,16002,6,0,P|62:249|153:197,1,140,6|2,3:2|1:2,0:0:0:0:
231,355,17570,6,0,P|209:290|311:170,1,209.999993591309,6|2,3:2|1:2,0:0:0:0:
478,306,17865,2,0,P|476:238|339:160,1,209.999993591309,8|0,1:2|0:0,0:0:0:0:
305,88,18159,6,0,L|286:2,1,87.5,8|2,1:2|1:2,0:0:0:0:
250,333,19139,6,0,P|235:289|303:209,1,140,6|2,3:2|1:2,0:0:0:0:
451,295,19727,2,0,P|449:249|358:197,1,140,4|2,3:2|1:2,0:0:0:0:
281,355,20708,6,0,P|303:290|201:170,1,209.999993591309,4|2,3:2|1:2,0:0:0:0:
34,306,21003,2,0,P|36:238|173:160,1,209.999993591309,0|0,3:0|0:0,0:0:0:0:
207,92,21296,6,0,L|231:-3,1,87.5,2|2,3:2|1:2,0:0:0:0:
349,189,21688,6,0,L|330:308,1,104.999996795654,10|2,1:3|1:2,0:0:0:0:
442,357,21884,1,0,3:0:0:0:
512,306,21982,2,0,P|465:270|413:276,1,104.999996795654,8|0,1:2|1:0,0:0:0:0:
66,166,22276,6,0,B|108:204|196:184|132:133|219:124|262:165,1,209.999993591309,4|10,3:2|1:2,0:0:0:0:
481,221,22865,5,2,1:2:0:0:
441,147,22963,1,2,1:2:0:0:
358,134,23061,1,2,3:2:0:0:
344,350,23257,5,2,1:2:0:0:
400,306,23355,1,2,1:2:0:0:
391,234,23453,1,8,3:2:0:0:
293,259,23649,5,2,1:2:0:0:
91,63,23845,6,0,P|19:86|2:148,1,131.25000500679,6|2,3:2|1:2,0:0:0:0:
127,185,24139,1,2,1:2:0:0:
109,201,24237,2,0,P|45:204|2:158,1,131.25000500679,8|0,3:2|1:0,0:0:0:0:
303,279,24629,6,0,P|239:238|180:265,1,131.25000500679,2|2,3:2|1:2,0:0:0:0:
234,383,24923,1,2,1:2:0:0:
209,380,25021,2,0,P|165:334|173:271,1,131.25000500679,8|0,3:2|1:0,0:0:0:0:
364,128,25414,6,0,L|254:96,1,87.5,6|0,3:2|1:0,0:0:0:0:
364,128,25708,1,2,2:2:0:0:
470,98,25806,2,0,L|530:28,1,87.5,8|0,3:2|0:0,0:0:0:0:
449,201,26002,2,0,L|478:287,1,87.5,2|2,1:2|2:2,0:0:0:0:
59,184,26198,6,0,L|20:91,1,87.5,2|0,3:2|1:0,0:0:0:0:
59,184,26492,1,2,2:2:0:0:
138,261,26590,2,0,L|227:278,1,87.5,8|0,3:2|0:0,0:0:0:0:
37,293,26786,2,0,L|-23:362,1,87.5,2|2,1:2|2:2,0:0:0:0:
413,172,26982,6,0,P|494:207|394:235,1,236.250000901222,6|0,3:2|1:0,0:0:0:0:
211,94,27276,2,0,P|200:6|275:78,1,236.250000901222,2|0,1:2|0:0,0:0:0:0:
234,318,27570,2,0,P|163:370|188:270,1,236.250000901222,2|8,1:2|3:2,0:0:0:0:
289,113,28551,6,0,P|285:70|353:-8,1,131.25,6|2,3:2|1:2,0:0:0:0:
361,175,28943,2,0,P|403:178|482:110,1,131.25,10|0,3:2|0:0,0:0:0:0:
480,118,29139,2,0,P|480:173|505:217,1,87.5,2|0,1:2|0:0,0:0:0:0:
301,365,29335,5,2,3:2:0:0:
209,357,29433,2,0,L|54:340,1,131.25000500679,2|2,1:2|1:2,0:0:0:0:
5,226,29727,2,0,L|22:71,1,131.25000500679,8|2,3:2|1:2,0:0:0:0:
401,68,30119,6,0,P|369:29|283:32,1,131.25,6|2,3:2|1:2,0:0:0:0:
104,149,30512,2,0,P|152:158|215:99,1,131.25,10|0,3:2|0:0,0:0:0:0:
217,96,30708,2,0,P|209:151|243:193,1,87.5,2|2,1:2|1:2,0:0:0:0:
263,278,30904,6,0,L|417:301,1,131.25000500679,2|2,3:2|1:2,0:0:0:0:
485,206,31296,2,0,L|508:51,1,131.25000500679,8|0,3:2|1:0,0:0:0:0:
134,174,31688,6,0,P|130:79|159:24,1,131.25000500679,6|0,3:2|1:0,0:0:0:0:
14,115,31982,1,0,1:0:0:0:
33,116,32080,2,0,P|116:160|149:212,1,131.25000500679,8|2,3:2|1:2,0:0:0:0:
167,329,32472,6,0,P|224:288|306:281,1,131.25000500679,0|2,3:0|1:2,0:0:0:0:
423,182,32766,1,2,1:2:0:0:
438,207,32865,2,0,P|442:256|420:285,1,65.6250025033952,8|0,3:2|0:0,0:0:0:0:
362,238,33061,1,2,1:2:0:0:
476,352,33257,6,0,P|397:312|348:327,1,131.25000500679,8|2,3:3|1:2,0:0:0:0:
205,170,33551,1,2,1:2:0:0:
174,164,33649,2,0,P|99:212|88:262,1,131.25000500679,2|2,3:2|1:2,0:0:0:0:
504,197,34041,5,2,3:2:0:0:
430,224,34139,1,2,1:2:0:0:
354,211,34237,1,2,1:2:0:0:
295,160,34335,1,2,1:2:0:0:
268,87,34433,2,0,L|257:-22,1,87.5,8|2,3:2|1:2,0:0:0:0:
0,202,34825,6,0,P|60:202|130:245,1,131.25000500679,6|0,3:2|1:0,0:0:0:0:
216,168,35119,1,0,1:0:0:0:
195,183,35217,2,0,P|165:234|167:317,1,131.25000500679,8|2,3:2|1:2,0:0:0:0:
477,318,35610,6,0,P|417:318|347:275,1,131.25000500679,2|2,3:2|1:2,0:0:0:0:
261,352,35904,1,2,1:2:0:0:
282,336,36002,2,0,P|312:284|309:201,1,131.25000500679,8|2,3:2|1:2,0:0:0:0:
168,140,36394,6,0,L|374:114,1,192.500005874634,6|2,3:2|1:2,0:0:0:0:
480,195,36688,2,0,L|454:-11,1,192.500005874634,2|0,1:2|0:0,0:0:0:0:
455,4,36982,1,2,1:2:0:0:
270,275,37178,6,0,P|232:255|188:253,1,87.5,2|2,3:2|1:2,0:0:0:0:
101,288,37374,2,0,P|76:310|45:320,1,65.6250025033952,2|2,1:2|1:2,0:0:0:0:
32,145,37570,2,0,P|41:188|32:230,1,87.5,8|0,3:2|0:0,0:0:0:0:
210,339,37766,2,0,P|179:349|154:371,1,65.6250025033952,0|0,1:0|0:0,0:0:0:0:
383,120,37963,6,0,P|318:156|206:32,1,236.250000901222,6|0,3:2|1:0,0:0:0:0:
411,7,38257,1,0,1:0:0:0:
421,22,38355,2,0,P|421:95|262:168,1,236.250000901222,8|2,3:2|1:2,0:0:0:0:
36,268,38747,6,0,P|97:226|219:340,1,236.250000901222,2|2,3:2|1:2,0:0:0:0:
17,383,39041,1,2,1:2:0:0:
6,368,39139,2,0,P|-1:295|151:208,1,236.250000901222,8|2,3:2|1:2,0:0:0:0:
345,42,39531,5,2,3:2:0:0:
452,15,39629,1,2,1:2:0:0:
512,93,39727,1,2,1:2:0:0:
481,185,39825,1,2,1:2:0:0:
376,198,39923,6,0,P|302:167|291:133,1,118.125000450611,2|2,3:2|1:2,0:0:0:0:
297,289,40119,2,0,P|329:221|306:150,1,153.125001460314,2|2,1:2|1:2,0:0:0:0:
12,286,40316,6,0,P|87:279|137:223,1,153.125001460314,2|10,3:2|1:2,0:0:0:0:
123,312,40512,2,0,P|106:257|134:207,1,118.125000450611,10|10,1:2|1:2,0:0:0:0:
246,0,40708,5,2,3:2:0:0:
240,80,40806,1,10,1:2:0:0:
288,153,40904,1,10,1:2:0:0:
379,189,41002,1,10,1:2:0:0:
492,142,41100,6,0,L|518:-19,1,131.25000500679,4|0,3:3|0:0,0:0:0:0:
474,255,41296,2,0,L|448:416,1,131.25000500679,6|0,3:2|0:0,0:0:0:0:
319,164,41884,6,0,L|340:35,1,113.749994792938,4|0,3:3|0:0,0:0:0:0:
306,253,42080,2,0,L|286:381,1,113.749994792938,6|0,3:2|0:0,0:0:0:0:
155,207,42668,6,0,L|176:78,1,96.250002937317,6|0,3:3|0:0,0:0:0:0:
141,288,42864,2,0,L|121:416,1,96.250002937317,2|0,3:2|0:0,0:0:0:0:
258,238,43061,6,0,P|308:269|351:266,1,96.250002937317,8|0,3:2|0:0,0:0:0:0:
391,126,43257,2,0,P|341:95|298:98,1,96.250002937317,4|0,3:2|0:0,0:0:0:0:
239,155,43453,5,2,0:2:0:0:
168,110,43551,1,2,0:2:0:0:
198,35,43649,1,2,3:2:0:0:
425,49,43845,5,10,3:2:0:0:
496,94,43943,1,0,1:0:0:0:
466,169,44041,1,2,3:2:0:0:
400,332,44237,6,0,B|439:382|439:382|413:235,1,175,6|2,3:2|1:2,0:0:0:0:
339,22,44629,5,8,3:2:0:0:
323,97,44727,1,0,1:0:0:0:
269,150,44825,1,2,1:2:0:0:
194,165,44923,1,2,1:2:0:0:
123,138,45021,6,0,L|105:-6,1,131.25000500679,2|2,3:2|1:2,0:0:0:0:
0,272,45414,2,0,L|131:256,1,131.25000500679,10|0,3:2|1:0,0:0:0:0:
483,195,45806,6,0,B|448:164|360:176|423:229|331:244|300:213,1,196.875007510186,2|0,3:2|1:0,0:0:0:0:
266,146,46198,2,0,L|251:279,1,131.25000500679,8|2,3:2|1:2,0:0:0:0:
465,354,46492,5,2,1:2:0:0:
472,336,46590,2,0,P|471:303|454:275,1,65.6250025033952,2|2,3:2|1:2,0:0:0:0:
368,303,46786,2,0,P|368:335|385:363,1,65.6250025033952,2|2,1:2|1:2,0:0:0:0:
131,90,46982,5,10,3:2:0:0:
68,170,47080,1,10,1:2:0:0:
148,228,47178,1,10,1:2:0:0:
82,303,47276,1,10,1:2:0:0:
167,368,47374,6,0,L|305:353,1,131.25000500679,6|0,3:3|0:0,0:0:0:0:
381,189,47570,2,0,L|519:174,1,131.25000500679,6|0,3:2|0:0,0:0:0:0:
393,274,48159,6,0,L|255:259,1,113.749994792938,6|0,3:3|0:0,0:0:0:0:
148,105,48355,2,0,L|10:90,1,113.749994792938,6|0,3:2|0:0,0:0:0:0:
132,199,48943,6,0,L|270:184,1,96.250002937317,6|0,3:3|0:0,0:0:0:0:
356,46,49139,2,0,L|494:31,1,96.250002937317,2|0,3:2|0:0,0:0:0:0:
302,151,49335,6,0,B|297:133|277:120|277:120|316:123|328:147,1,96.250002937317,8|0,3:2|0:0,0:0:0:0:
372,309,49531,6,0,B|325:298|325:298|477:268,1,192.500005874634,6|2,3:2|0:2,0:0:0:0:
481,192,49825,1,2,0:2:0:0:
497,114,49923,1,2,3:2:0:0:
206,375,50119,5,10,3:2:0:0:
195,299,50217,1,0,1:0:0:0:
184,223,50315,1,2,3:2:0:0:
39,79,50512,6,0,B|74:48|162:60|99:113|191:128|222:97,1,192.500005874634,4|2,3:2|1:2,0:0:0:0:
350,36,50904,5,10,3:2:0:0:
371,62,51002,1,2,1:2:0:0:
320,49,51100,1,2,1:2:0:0:
74,154,51296,5,2,3:2:0:0:
23,176,51394,1,2,1:2:0:0:
104,201,51492,1,2,1:2:0:0:
429,276,51688,6,0,L|410:417,1,96.250002937317,10|0,3:2|0:0,0:0:0:0:
326,335,51884,2,0,B|291:304|203:316|266:369|174:384|143:353,1,192.500005874634,2|4,1:2|3:2,0:0:0:0:
326,335,52276,1,2,1:2:0:0:
229,166,52472,5,10,3:2:0:0:
209,192,52570,1,2,1:2:0:0:
260,179,52668,1,2,1:2:0:0:
36,276,52864,5,2,3:2:0:0:
6,229,52962,1,10,1:2:0:0:
87,254,53060,1,10,1:2:0:0:
286,94,53257,5,10,3:2:0:0:
324,27,53355,1,10,3:3:0:0:
393,70,53453,1,10,3:3:0:0:
431,0,53551,1,10,3:3:0:0:
499,40,53649,1,4,3:3:0:0:
214,290,53845,5,2,1:2:0:0:
289,261,53943,1,2,1:2:0:0:
366,284,54041,1,10,1:2:0:0:
401,357,54139,2,0,P|455:364|511:295,1,96.250002937317,2|2,1:2|1:2,0:0:0:0:
279,183,54433,6,0,P|225:176|169:245,1,96.250002937317,2|2,3:2|1:2,0:0:0:0:
194,358,54629,5,2,1:2:0:0:
175,280,54727,1,2,1:2:0:0:
113,230,54825,1,10,1:2:0:0:
33,229,54923,2,0,P|0:185|31:102,1,96.250002937317,2|2,1:2|1:2,0:0:0:0:
451,43,55217,6,0,P|492:125|445:205,1,192.500005874634,4|2,3:3|1:2,0:0:0:0:
339,84,55512,2,0,P|360:173|447:205,1,192.500005874634,2|2,1:2|1:2,0:0:0:0:
481,292,55806,2,0,L|512:396,1,96.250002937317,2|0,0:2|0:0,0:0:0:0:
235,276,56002,5,2,1:2:0:0:
266,200,56100,1,10,3:2:0:0:
317,263,56198,1,10,3:2:0:0:
37,180,56394,5,10,3:2:0:0:
85,113,56492,1,10,3:2:0:0:
114,190,56590,1,10,3:2:0:0:
37,180,56688,1,10,3:2:0:0:
162,123,56786,1,4,3:3:0:0:
77,138,58355,6,0,P|64:207|171:184,1,196.875007510186,14|0,3:3|0:0,0:0:0:0:
223,270,58551,2,0,L|202:141,1,131.25000500679,2|2,1:2|1:2,0:0:0:0:
365,2,58747,5,10,3:2:0:0:
388,97,58845,1,2,1:2:0:0:
313,160,58943,1,2,1:2:0:0:
12,208,59139,5,2,3:2:0:0:
65,278,59237,1,2,1:2:0:0:
82,367,59335,1,2,1:2:0:0:
151,310,59433,1,2,1:2:0:0:
237,290,59531,1,10,3:2:0:0:
462,276,59727,6,0,L|332:253,1,131.25000500679,8|0,3:2|0:0,0:0:0:0:
217,142,59923,6,0,P|154:114|85:215,1,196.875007510186,14|0,3:3|0:0,0:0:0:0:
10,238,60119,2,0,L|182:263,1,131.25000500679,2|2,1:2|1:2,0:0:0:0:
391,174,60315,5,10,3:2:0:0:
469,256,60414,1,2,1:2:0:0:
362,288,60512,1,2,1:2:0:0:
161,55,60708,5,2,3:2:0:0:
217,4,60806,1,2,1:2:0:0:
250,153,60904,5,2,1:2:0:0:
178,131,61002,1,2,1:2:0:0:
294,23,61100,5,10,3:2:0:0:
311,98,61198,1,2,1:2:0:0:
234,78,61296,5,2,1:2:0:0:
242,369,61492,5,10,3:3:0:0:
260,278,61590,1,2,1:2:0:0:
336,227,61688,1,2,1:2:0:0:
426,239,61786,1,2,1:2:0:0:
488,299,61884,6,0,L|515:144,1,131.25000500679,10|2,3:2|1:2,0:0:0:0:
294,37,62276,5,2,3:2:0:0:
259,121,62374,1,2,1:2:0:0:
175,158,62472,1,2,1:2:0:0:
88,131,62570,1,2,1:2:0:0:
24,69,62668,6,0,L|-1:205,1,131.25,10|0,3:2|0:0,0:0:0:0:
53,294,62865,2,0,L|189:317,1,131.25000500679,8|0,1:2|0:0,0:0:0:0:
450,285,63061,5,10,3:2:0:0:
432,293,63159,2,0,P|373:278|351:241,1,104.999996795654,2|2,1:2|1:2,0:0:0:0:
499,215,63355,5,10,1:2:0:0:
264,257,63453,2,0,P|276:182|357:150,1,131.25000500679,10|10,3:3|1:3,0:0:0:0:
382,241,63649,2,0,P|326:273|264:257,1,131.25000500679,10|10,1:2|1:3,0:0:0:0:
134,164,63845,5,10,3:3:0:0:
53,45,63943,5,10,1:3:0:0:
147,64,64041,1,10,1:2:0:0:
237,81,64139,1,10,1:3:0:0:
0,122,64237,5,10,3:2:0:0:
147,64,64335,1,10,1:2:0:0:
286,4,64433,2,0,L|447:20,1,131.25000500679,10|10,1:2|1:2,0:0:0:0:
512,67,64629,1,14,3:3:0:0:
245,360,64825,6,0,P|305:314|438:322,1,196.875007510186,2|0,1:2|0:0,0:0:0:0:
491,365,65021,2,0,P|497:274|471:243,1,131.25000500679,10|2,3:2|1:2,0:0:0:0:
355,263,65217,2,0,P|348:353|374:384,1,131.25000500679,2|0,1:2|0:0,0:0:0:0:
154,378,65414,5,2,3:2:0:0:
138,370,65512,2,0,P|97:305|117:209,1,131.25000500679,2|2,1:2|1:2,0:0:0:0:
170,166,65708,5,2,1:2:0:0:
152,77,65806,1,10,3:2:0:0:
85,139,65904,1,2,1:2:0:0:
13,195,66002,1,2,1:2:0:0:
0,108,66100,1,2,1:2:0:0:
170,166,66198,1,14,3:3:0:0:
437,163,66394,6,0,P|377:209|244:201,1,196.875007510186,2|0,1:2|0:0,0:0:0:0:
327,253,66590,2,0,P|342:315|311:371,1,131.25000500679,10|2,3:2|1:2,0:0:0:0:
149,354,66786,2,0,P|134:291|164:235,1,131.25000500679,2|0,1:2|0:0,0:0:0:0:
223,45,66983,5,2,3:2:0:0:
240,43,67081,2,0,P|308:78|338:171,1,131.25000500679,2|2,1:2|1:2,0:0:0:0:
99,167,67277,5,2,1:2:0:0:
22,116,67374,1,10,3:2:0:0:
106,73,67472,1,2,1:2:0:0:
44,167,67570,5,2,1:2:0:0:
50,68,67667,1,2,1:2:0:0:
130,124,67766,6,0,P|164:213|161:272,1,104.999996795654,10|2,3:3|1:2,0:0:0:0:
260,184,67963,2,0,P|226:95|229:36,1,104.999996795654,2|2,1:2|1:2,0:0:0:0:
243,278,68159,1,10,3:2:0:0:
477,315,68355,6,0,P|487:264|512:217,1,104.999996795654,2|0,1:2|0:0,0:0:0:0:
416,180,68551,2,0,P|406:231|382:278,1,104.999996795654,2|2,3:2|1:2,0:0:0:0:
495,118,68747,1,2,1:2:0:0:
0,193,68943,6,0,P|96:183|146:263,1,196.875007510186,10|0,3:2|0:0,0:0:0:0:
184,331,69139,2,0,P|183:373|179:334,1,131.25000500679,8|0,1:2|0:0,0:0:0:0:
421,168,69335,5,10,3:2:0:0:
434,90,69433,1,2,1:2:0:0:
446,12,69531,1,2,1:2:0:0:
299,69,69629,5,10,1:2:0:0:
360,119,69727,1,10,3:3:0:0:
421,168,69825,1,10,1:3:0:0:
446,12,69923,5,10,1:2:0:0:
372,39,70021,1,10,1:3:0:0:
299,68,70119,1,10,3:3:0:0:
146,384,70315,5,10,1:2:0:0:
73,321,70413,1,10,1:3:0:0:
183,196,70512,5,10,3:2:0:0:
167,290,70610,1,10,1:2:0:0:
2,257,70707,5,10,1:2:0:0:
92,227,70805,1,10,1:2:0:0:
167,290,70904,6,0,L|374:272,1,196.875007510186,14|0,3:3|0:0,0:0:0:0:
416,350,71100,2,0,P|454:298|443:236,1,131.25000500679,2|2,1:2|1:2,0:0:0:0:
414,0,71296,5,10,3:2:0:0:
319,68,71394,1,2,1:2:0:0:
342,183,71492,1,2,1:2:0:0:
0,197,71688,5,2,3:2:0:0:
62,135,71786,1,2,1:2:0:0:
94,53,71884,1,2,1:2:0:0:
150,119,71982,1,2,1:2:0:0:
236,146,72080,1,10,3:2:0:0:
352,308,72276,6,0,P|346:230|399:185,1,131.25000500679,8|0,3:2|0:0,0:0:0:0:
512,34,72472,6,0,P|452:105|362:81,1,196.875007510186,14|0,3:3|0:0,0:0:0:0:
316,4,72668,2,0,L|148:22,1,131.25000500679,2|2,1:2|1:2,0:0:0:0:
126,167,72864,5,10,3:2:0:0:
210,259,72962,1,2,1:2:0:0:
248,140,73061,1,2,1:2:0:0:
345,313,73257,5,10,3:2:0:0:
405,369,73355,1,2,1:2:0:0:
488,348,73453,1,2,1:2:0:0:
363,231,73551,5,2,1:2:0:0:
440,208,73649,1,10,3:2:0:0:
507,267,73747,1,2,1:2:0:0:
426,289,73845,5,2,1:2:0:0:
201,53,74041,5,10,3:3:0:0:
228,141,74139,1,2,1:2:0:0:
308,185,74237,1,2,1:2:0:0:
397,165,74335,1,2,1:2:0:0:
467,86,74433,6,0,L|485:220,1,131.25000500679,10|2,3:2|1:2,0:0:0:0:
289,368,74825,5,2,3:2:0:0:
262,280,74923,1,2,1:2:0:0:
182,236,75021,1,2,1:2:0:0:
93,256,75119,1,2,1:2:0:0:
27,318,75217,6,0,L|2:182,1,131.25,10|0,3:2|0:0,0:0:0:0:
60,111,75414,2,0,L|196:88,1,131.25000500679,8|0,1:2|0:0,0:0:0:0:
510,341,75610,5,10,3:2:0:0:
487,350,75708,2,0,P|433:334|407:293,1,104.999996795654,2|2,1:2|1:2,0:0:0:0:
464,211,75904,5,10,1:2:0:0:
286,269,76002,2,0,P|298:344|379:376,1,131.25000500679,10|10,3:3|1:3,0:0:0:0:
196,189,76198,6,0,P|168:247|189:308,1,131.25000500679,10|10,1:2|1:3,0:0:0:0:
362,122,76394,5,10,3:3:0:0:
409,64,76492,1,10,1:3:0:0:
390,192,76590,1,10,1:2:0:0:
287,112,76688,1,10,1:3:0:0:
459,0,76786,5,10,3:2:0:0:
390,192,76884,1,10,1:2:0:0:
209,96,76982,2,0,L|45:79,1,131.25000500679,10|10,1:2|1:2,0:0:0:0:
0,135,77178,5,14,3:3:0:0:
429,289,77374,5,2,1:2:0:0:
511,349,77472,1,2,1:2:0:0:
429,289,77570,2,0,P|300:306|246:405,1,209.999993591309,10|2,3:2|1:2,0:0:0:0:
149,0,77963,5,2,3:2:0:0:
232,23,78061,2,0,P|256:64|233:140,1,104.999996795654,2|2,1:2|1:2,0:0:0:0:
120,233,78257,5,2,1:2:0:0:
94,155,78355,2,0,P|116:114|194:97,1,104.999996795654,10|0,3:2|0:0,0:0:0:0:
314,193,78551,6,0,L|469:164,1,157.499995193482,8|0,3:2|0:0,0:0:0:0:
453,288,78747,6,0,B|421:264|330:269|393:322|292:325|254:297,1,209.999993591309,6|2,3:2|1:2,0:0:0:0:
188,178,79041,1,2,1:2:0:0:
39,208,79139,2,0,P|101:321|117:229,1,314.999990386963,10|2,3:2|1:2,0:0:0:0:
168,93,79531,6,0,B|200:117|291:112|228:59|329:56|367:84,1,209.999993591309,10|2,3:3|1:2,0:0:0:0:
464,183,79825,1,2,1:2:0:0:
344,287,79923,2,0,P|287:174|271:266,1,314.999990386963,10|0,3:2|0:0,0:0:0:0:
124,290,80315,5,6,3:2:0:0:
273,365,80414,2,0,P|192:270|116:298,1,209.999993591309,2|2,1:2|2:2,0:0:0:0:
124,290,80904,1,2,2:2:0:0:
197,66,81100,5,6,3:2:0:0:
48,141,81199,2,0,P|129:46|205:74,1,209.999993591309,2|2,1:2|2:2,0:0:0:0:
196,66,81688,1,2,2:2:0:0:
189,384,81884,6,0,P|260:331|352:298,1,175,6|0,3:2|0:0,0:0:0:0:
511,289,82178,2,0,P|431:255|357:193,1,175,10|0,3:3|0:0,0:0:0:0:
284,177,82472,6,0,P|258:212|222:238,1,87.5,10|0,3:3|0:0,0:0:0:0:
282,71,82668,2,0,P|289:115|282:158,1,87.5,14|0,3:3|0:0,0:0:0:0:
67,183,82865,5,0,3:0:0:0:
67,183,82930,1,0,3:0:0:0:
67,183,82996,1,0,3:0:0:0:
67,183,83061,2,0,B|25:149|25:149|70:242,1,131.25000500679,8|0,1:2|3:0,0:0:0:0:
1,7,83453,6,0,L|157:25,1,157.499995193482,6|0,3:2|0:0,0:0:0:0:
247,4,83649,2,0,P|240:63|207:98,1,104.999996795654,2|2,1:2|1:2,0:0:0:0:
278,205,83845,5,10,1:2:0:0:
310,283,83943,1,2,1:2:0:0:
385,323,84041,1,10,1:2:0:0:
466,303,84139,1,2,1:2:0:0:
480,167,84237,5,2,3:2:0:0:
497,33,84335,1,2,1:2:0:0:
215,144,84531,5,2,1:2:0:0:
293,122,84629,1,10,1:2:0:0:
371,99,84727,5,2,1:2:0:0:
215,144,84825,2,0,L|14:102,1,140,10|0,1:2|0:0,0:0:0:0:
31,318,85021,6,0,L|213:290,1,157.499995193482,6|0,3:2|0:0,0:0:0:0:
269,324,85217,2,0,P|272:272|245:228,1,104.999996795654,2|2,1:2|1:2,0:0:0:0:
397,112,85414,5,10,1:2:0:0:
512,81,85512,1,2,1:2:0:0:
473,152,85610,1,10,1:2:0:0:
437,41,85708,1,2,1:2:0:0:
333,28,85806,5,2,3:2:0:0:
229,14,85904,1,2,1:2:0:0:
339,311,86100,6,0,L|222:329,1,118.125000450611,2|10,1:2|1:2,0:0:0:0:
159,384,86296,1,2,1:2:0:0:
142,308,86394,1,2,1:2:0:0:
82,258,86492,1,0,1:0:0:0:
4,250,86590,6,0,P|-6:157|76:74,1,209.999993591309,6|2,3:2|1:2,0:0:0:0:
25,0,86884,2,0,P|94:61|210:41,1,209.999993591309,2|0,1:2|0:0,0:0:0:0:
296,28,87178,2,0,P|296:79|266:124,1,104.999996795654,2|0,1:2|0:0,0:0:0:0:
153,264,87374,6,0,P|228:319|341:289,1,209.999993591309,2|2,3:2|1:2,0:0:0:0:
397,379,87668,2,0,P|377:287|452:197,1,209.999993591309,2|2,1:2|1:2,0:0:0:0:
510,133,87962,2,0,P|465:106|411:110,1,104.999996795654,10|0,1:2|0:0,0:0:0:0:
40,70,88159,6,0,B|76:106|184:88|110:26|213:12|256:50,1,236.250000901222,6|0,3:3|1:2,0:0:0:0:
225,267,88453,6,0,L|204:116,1,131.25000500679,2|0,3:2|3:0,0:0:0:0:
49,294,88649,1,8,1:2:0:0:
75,382,88747,2,0,L|100:194,1,175,2|8,1:2|1:2,0:0:0:0:
325,239,88943,5,2,1:2:0:0:
420,214,89041,1,10,1:2:0:0:
512,190,89139,1,10,1:2:0:0:
486,98,89237,1,10,1:2:0:0:
462,5,89335,1,8,3:2:0:0:
367,28,89433,1,10,1:2:0:0:
277,54,89531,1,10,1:2:0:0:
301,146,89629,1,10,1:2:0:0:
325,239,89727,6,0,L|181:224,1,144.375004405975,6|0,3:2|0:0,0:0:0:0:
111,168,89923,2,0,L|-24:187,1,96.250002937317,2|2,1:2|1:2,0:0:0:0:
152,13,90119,5,10,1:2:0:0:
228,44,90217,1,2,1:2:0:0:
267,117,90315,1,10,1:2:0:0:
248,196,90413,1,2,1:2:0:0:
381,171,90511,5,2,3:2:0:0:
512,137,90609,1,2,1:2:0:0:
171,224,90805,5,2,1:2:0:0:
94,252,90903,1,10,1:2:0:0:
103,173,91001,5,2,1:2:0:0:
164,308,91099,2,0,L|367:332,1,140,10|0,1:2|0:0,0:0:0:0:
505,43,91295,6,0,L|473:236,1,157.499995193482,6|0,3:2|0:0,0:0:0:0:
395,159,91491,2,0,L|413:56,1,104.999996795654,2|2,1:2|1:2,0:0:0:0:
180,60,91688,5,10,1:2:0:0:
107,77,91786,1,2,1:2:0:0:
126,152,91884,1,2,1:2:0:0:
201,133,91982,1,2,1:2:0:0:
37,36,92080,5,2,1:2:0:0:
274,172,92178,1,2,1:2:0:0:
411,40,92374,6,0,P|409:118|468:162,1,118.125000450611,2|10,1:2|1:2,0:0:0:0:
486,208,92570,5,2,1:2:0:0:
410,225,92668,1,2,1:2:0:0:
360,285,92766,1,0,1:0:0:0:
363,365,92865,6,0,L|229:348,1,113.749994792938,6|0,3:3|0:0,0:0:0:0:
171,254,93061,1,8,1:2:0:0:
288,195,93159,1,8,1:2:0:0:
171,254,93257,2,0,L|10:271,1,113.749994792938,8|8,3:2|1:2,0:0:0:0:
203,24,93453,6,0,L|337:41,1,113.749994792938,2|8,1:2|3:2,0:0:0:0:
395,135,93649,1,8,3:2:0:0:
288,195,93747,1,8,3:2:0:0:
395,135,93845,2,0,L|556:118,1,113.749994792938,8|8,3:2|3:2,0:0:0:0:
472,351,94041,5,2,3:2:0:0:
329,327,94139,1,8,3:2:0:0:
187,300,94237,1,8,3:2:0:0:
52,263,94335,1,8,3:2:0:0:
5,99,94629,6,0,P|103:87|145:0,1,170.624992189408,2|0,3:2|0:0,0:0:0:0:
145,20,94825,2,0,P|95:44|74:96,1,113.749994792938,2|0,3:2|0:0,0:0:0:0:
472,351,95217,6,0,P|432:259|487:180,1,170.624992189408,6|0,3:2|0:0,0:0:0:0:
469,189,95413,2,0,P|472:244|438:288,1,113.749994792938,6|0,3:2|0:0,0:0:0:0:
197,277,96002,5,4,3:2:0:0:
420,126,97570,5,4,3:2:0:0:
70,127,99139,5,4,3:2:0:0:
322,0,99923,5,6,3:2:0:0:
330,359,100708,6,0,P|276:291|335:181,1,209.999993591309,4|0,3:2|0:0,0:0:0:0:
512,293,101002,2,0,P|509:207|394:160,1,209.999993591309,0|0,3:0|0:0,0:0:0:0:
449,384,101296,6,0,L|402:272,1,104.999996795654,4|0,3:2|0:0,0:0:0:0:
91,66,101688,6,0,L|107:183,1,104.999996795654,10|2,1:2|1:2,0:0:0:0:
181,223,101884,1,2,3:2:0:0:
14,302,101982,2,0,P|61:266|113:272,1,104.999996795654,10|0,1:2|0:0,0:0:0:0:
414,92,102276,6,0,B|372:130|284:110|348:59|261:50|218:91,1,209.999993591309,4|10,3:2|1:2,0:0:0:0:
315,371,102865,2,0,L|295:257,1,87.5,2|2,1:2|1:2,0:0:0:0:
311,203,103061,5,2,3:2:0:0:
237,230,103159,1,2,1:2:0:0:
161,217,103257,1,2,1:2:0:0:
102,166,103355,1,2,1:2:0:0:
75,93,103453,2,0,L|66:5,1,87.5,8|0,3:2|0:0,0:0:0:0:
23,155,103649,5,2,1:2:0:0:
252,33,103845,6,0,P|324:56|341:118,1,131.25000500679,6|2,3:2|1:2,0:0:0:0:
385,185,104139,1,2,1:2:0:0:
403,201,104237,2,0,P|467:204|510:158,1,131.25000500679,8|0,3:2|1:0,0:0:0:0:
143,304,104629,6,0,P|207:263|266:290,1,131.25000500679,2|2,3:2|1:2,0:0:0:0:
341,312,104923,1,2,1:2:0:0:
366,309,105021,2,0,P|410:263|402:200,1,131.25000500679,8|0,3:2|1:0,0:0:0:0:
148,128,105414,6,0,L|258:96,1,87.5,6|0,3:2|1:0,0:0:0:0:
148,128,105708,1,2,2:2:0:0:
42,98,105806,2,0,L|-18:28,1,87.5,8|0,3:2|0:0,0:0:0:0:
63,201,106002,2,0,L|34:287,1,87.5,2|2,1:2|2:2,0:0:0:0:
453,184,106198,6,0,L|492:91,1,87.5,2|0,3:2|1:0,0:0:0:0:
453,184,106492,1,2,2:2:0:0:
374,261,106590,2,0,L|285:278,1,87.5,8|0,3:2|0:0,0:0:0:0:
475,293,106786,2,0,L|535:362,1,87.5,2|2,1:2|2:2,0:0:0:0:
248,61,106982,6,0,B|174:18|174:18|298:36,1,177.187500675917,6|0,3:2|0:0,0:0:0:0:
332,82,107178,2,0,L|373:344,2,236.250000901222,0|8|2,1:0|3:2|1:2,0:0:0:0:
193,166,107668,5,0,3:0:0:0:
121,134,107766,1,8,3:2:0:0:
44,156,107864,1,0,3:0:0:0:
0,222,107962,1,0,3:0:0:0:
7,302,108060,1,0,3:3:0:0:
64,358,108158,1,8,3:3:0:0:
143,366,108256,1,8,3:2:0:0:
209,322,108355,2,0,L|230:216,1,87.5,8|8,3:2|3:2,0:0:0:0:
450,116,108551,6,0,P|446:72|365:7,1,131.25,6|2,3:2|1:2,0:0:0:0:
273,142,108943,2,0,P|321:184|385:187,1,131.25,10|0,3:2|0:0,0:0:0:0:
476,199,109139,2,0,P|457:250|402:274,1,87.5,2|0,1:2|0:0,0:0:0:0:
301,330,109335,5,2,3:2:0:0:
209,322,109433,2,0,L|54:305,1,131.25000500679,2|2,1:2|1:2,0:0:0:0:
5,191,109727,2,0,L|22:36,1,131.25000500679,8|2,3:2|1:2,0:0:0:0:
400,41,110119,6,0,P|400:91|332:144,1,131.25,6|2,3:2|1:2,0:0:0:0:
123,170,110512,2,0,P|153:132|240:136,1,131.25,10|0,3:2|0:0,0:0:0:0:
240,137,110708,2,0,P|198:100|197:45,1,87.5,2|2,1:2|1:2,0:0:0:0:
263,278,110904,6,0,L|417:301,1,131.25000500679,2|2,3:2|1:2,0:0:0:0:
485,206,111296,2,0,L|508:51,1,131.25000500679,8|0,3:2|1:0,0:0:0:0:
251,135,111688,6,0,P|255:40|226:-15,1,131.25000500679,6|0,3:2|1:0,0:0:0:0:
371,76,111982,1,0,1:0:0:0:
352,77,112080,2,0,P|269:121|236:173,1,131.25000500679,8|2,3:2|1:2,0:0:0:0:
249,373,112472,6,0,P|192:332|110:325,1,131.25000500679,0|2,3:0|1:2,0:0:0:0:
330,188,112766,1,2,1:2:0:0:
345,213,112865,2,0,P|349:262|327:291,1,65.6250025033952,8|0,3:2|0:0,0:0:0:0:
269,244,113061,1,2,1:2:0:0:
336,384,113257,6,0,P|415:344|464:359,1,131.25000500679,8|2,3:3|1:2,0:0:0:0:
387,130,113551,1,2,1:2:0:0:
418,124,113649,2,0,P|493:172|504:222,1,131.25000500679,2|2,3:2|1:2,0:0:0:0:
232,120,114041,5,2,3:2:0:0:
165,81,114139,1,2,1:2:0:0:
89,94,114237,1,2,1:2:0:0:
43,157,114335,1,2,1:2:0:0:
53,235,114433,2,0,L|67:328,1,87.5,8|2,3:2|1:2,0:0:0:0:
395,100,114825,6,0,P|335:100|265:143,1,131.25000500679,6|0,3:2|1:0,0:0:0:0:
434,179,115119,1,0,1:0:0:0:
455,194,115217,2,0,P|485:245|483:328,1,131.25000500679,8|2,3:2|1:2,0:0:0:0:
138,359,115610,6,0,P|198:359|268:316,1,131.25000500679,2|2,3:2|1:2,0:0:0:0:
93,274,115904,1,2,1:2:0:0:
72,259,116002,2,0,P|42:207|45:124,1,131.25000500679,8|2,3:2|1:2,0:0:0:0:
170,56,116394,6,0,L|360:80,1,192.500005874634,6|2,3:2|1:2,0:0:0:0:
360,80,116688,1,2,1:2:0:0:
486,8,116786,2,0,L|461:198,1,192.500005874634,10|2,3:2|1:2,0:0:0:0:
59,348,117178,6,0,P|126:309|153:313,1,87.5,2|2,3:2|1:2,0:0:0:0:
158,229,117374,2,0,P|202:252|224:286,1,65.6250025033952,2|2,1:2|1:2,0:0:0:0:
371,264,117570,2,0,P|339:294|297:303,1,87.5,8|0,3:2|0:0,0:0:0:0:
271,383,117766,2,0,P|241:371|217:349,1,65.6250025033952,0|0,1:0|0:0,0:0:0:0:
472,145,117963,6,0,P|407:181|295:57,1,236.250000901222,6|0,3:2|1:0,0:0:0:0:
500,32,118257,1,0,1:0:0:0:
510,47,118355,2,0,P|510:120|351:193,1,236.250000901222,8|2,3:2|1:2,0:0:0:0:
36,268,118747,6,0,P|97:226|219:340,1,236.250000901222,2|2,3:2|1:2,0:0:0:0:
17,383,119041,1,2,1:2:0:0:
6,368,119139,2,0,P|-1:295|151:208,1,236.250000901222,8|2,3:2|1:2,0:0:0:0:
161,123,119531,5,2,3:2:0:0:
96,55,119629,1,2,1:2:0:0:
14,93,119727,1,2,1:2:0:0:
25,183,119825,1,2,1:2:0:0:
116,202,119923,6,0,P|180:212|237:183,1,118.125000450611,2|2,3:2|1:2,0:0:0:0:
479,355,120119,2,0,P|502:284|470:217,1,153.125001460314,2|2,1:2|1:2,0:0:0:0:
510,42,120315,5,2,3:2:0:0:
414,8,120414,1,10,1:2:0:0:
348,83,120512,1,10,1:2:0:0:
369,177,120610,1,10,1:2:0:0:
299,248,120708,1,2,3:2:0:0:
203,212,120806,1,10,1:2:0:0:
187,115,120904,1,10,1:2:0:0:
97,77,121002,1,10,1:2:0:0:
20,142,121100,6,0,L|-6:-19,1,131.25000500679,4|0,3:3|0:0,0:0:0:0:
38,255,121296,2,0,L|64:416,1,131.25000500679,6|0,3:2|0:0,0:0:0:0:
276,31,121884,6,0,L|163:48,1,113.749994792938,4|0,3:3|0:0,0:0:0:0:
365,18,122080,2,0,L|477:0,1,113.749994792938,6|0,3:2|0:0,0:0:0:0:
458,208,122668,6,0,L|437:79,1,96.250002937317,6|0,3:3|0:0,0:0:0:0:
472,289,122864,2,0,L|492:417,1,96.250002937317,2|0,3:2|0:0,0:0:0:0:
206,242,123061,6,0,P|256:273|299:270,1,96.250002937317,8|0,3:2|0:0,0:0:0:0:
333,126,123257,2,0,P|283:95|240:98,1,96.250002937317,4|0,3:2|0:0,0:0:0:0:
181,155,123453,5,2,0:2:0:0:
161,78,123551,1,2,0:2:0:0:
86,51,123649,1,2,3:2:0:0:
0,132,123845,5,10,3:2:0:0:
20,209,123943,1,0,1:0:0:0:
95,236,124041,1,2,3:2:0:0:
451,70,124237,6,0,B|501:31|501:31|354:57,1,175,6|2,3:2|1:2,0:0:0:0:
273,13,124629,6,0,L|254:186,1,131.25,8|2,3:2|1:2,0:0:0:0:
154,384,125021,1,2,3:2:0:0:
168,308,125119,1,2,1:2:0:0:
221,254,125217,1,2,1:2:0:0:
296,238,125315,1,2,1:2:0:0:
364,270,125414,2,0,L|495:286,1,131.25000500679,10|0,3:2|1:0,0:0:0:0:
290,119,125806,6,0,B|255:88|167:100|230:153|138:168|107:137,1,196.875007510186,2|0,3:2|0:0,0:0:0:0:
73,70,126198,2,0,L|58:203,1,131.25000500679,8|2,3:2|1:2,0:0:0:0:
144,324,126492,5,2,1:2:0:0:
137,306,126590,2,0,P|138:273|155:245,1,65.6250025033952,2|2,3:2|1:2,0:0:0:0:
241,273,126786,2,0,P|241:305|224:333,1,65.6250025033952,2|2,1:2|1:2,0:0:0:0:
389,77,126982,5,10,3:2:0:0:
456,150,127080,1,10,1:2:0:0:
370,216,127178,1,10,1:2:0:0:
430,305,127276,1,10,1:2:0:0:
345,368,127374,6,0,L|207:353,1,131.25000500679,6|0,3:3|0:0,0:0:0:0:
88,42,127570,2,0,L|73:180,1,131.25000500679,6|0,3:2|0:0,0:0:0:0:
119,274,128159,6,0,L|257:259,1,113.749994792938,6|0,3:3|0:0,0:0:0:0:
333,6,128355,2,0,L|348:143,1,113.749994792938,6|0,3:2|0:0,0:0:0:0:
397,214,128943,6,0,L|259:199,1,96.250002937317,2|0,3:2|0:0,0:0:0:0:
225,0,129139,2,0,L|210:138,1,96.250002937317,2|0,3:2|0:0,0:0:0:0:
176,230,129335,6,0,B|159:244|160:271|160:271|173:249|205:242,1,96.250002937317,8|0,3:2|0:0,0:0:0:0:
460,343,129531,6,0,B|502:307|502:307|327:339,1,192.500005874634,6|2,3:2|0:2,0:0:0:0:
294,369,129825,1,2,0:2:0:0:
233,319,129923,1,2,3:2:0:0:
16,174,130119,5,10,3:2:0:0:
90,205,130217,1,0,1:0:0:0:
144,147,130315,1,2,3:2:0:0:
512,111,130512,6,0,B|477:80|389:92|452:145|360:160|329:129,1,192.500005874634,4|2,3:2|1:2,0:0:0:0:
403,260,130904,5,10,3:2:0:0:
456,267,131002,1,2,1:2:0:0:
466,214,131100,1,2,1:2:0:0:
194,49,131296,5,2,3:2:0:0:
117,38,131394,1,2,1:2:0:0:
106,114,131492,1,2,1:2:0:0:
277,265,131688,6,0,L|258:406,1,96.250002937317,10|0,3:2|0:0,0:0:0:0:
174,324,131884,2,0,B|139:293|51:305|114:358|22:373|-9:342,1,192.500005874634,2|4,1:2|3:2,0:0:0:0:
174,324,132276,1,2,1:2:0:0:
109,124,132472,5,10,3:2:0:0:
56,117,132570,1,2,1:2:0:0:
46,170,132668,1,2,1:2:0:0:
318,335,132864,5,2,3:2:0:0:
395,346,132962,1,10,1:2:0:0:
406,269,133061,1,10,1:2:0:0:
417,192,133159,1,10,1:2:0:0:
341,180,133257,1,10,3:2:0:0:
264,169,133355,1,10,3:3:0:0:
253,246,133454,1,10,3:3:0:0:
242,323,133552,1,10,3:3:0:0:
395,346,133649,1,4,3:3:0:0:
184,156,133845,5,2,1:2:0:0:
233,97,133943,1,2,1:2:0:0:
158,86,134041,1,10,1:2:0:0:
105,147,134139,2,0,P|51:154|-5:85,1,96.250002937317,2|2,1:2|1:2,0:0:0:0:
424,74,134433,6,0,P|457:117|425:200,1,96.250002937317,2|2,3:2|1:2,0:0:0:0:
291,264,134629,5,2,1:2:0:0:
242,323,134727,1,2,1:2:0:0:
317,334,134825,1,10,1:2:0:0:
370,273,134923,2,0,P|424:266|480:335,1,96.250002937317,2|2,1:2|1:2,0:0:0:0:
54,41,135217,6,0,P|13:123|60:203,1,192.500005874634,4|2,3:3|1:2,0:0:0:0:
169,83,135512,2,0,P|148:172|61:204,1,192.500005874634,2|2,1:2|1:2,0:0:0:0:
31,292,135806,2,0,L|0:396,1,96.250002937317,2|0,0:2|0:0,0:0:0:0:
336,331,136002,5,2,1:2:0:0:
267,292,136100,1,10,3:2:0:0:
227,363,136198,1,10,3:2:0:0:
456,79,136394,5,10,3:2:0:0:
383,52,136492,1,10,3:2:0:0:
354,122,136590,1,10,3:2:0:0:
429,150,136688,1,10,3:2:0:0:
487,8,136786,1,4,3:3:0:0:
166,366,138355,6,0,P|179:297|72:320,1,196.875007510186,14|0,3:3|0:0,0:0:0:0:
23,353,138551,2,0,L|44:224,1,131.25000500679,2|2,1:2|1:2,0:0:0:0:
144,22,138747,5,10,3:2:0:0:
207,97,138845,1,2,1:2:0:0:
302,74,138943,1,2,1:2:0:0:
512,23,139139,5,2,3:2:0:0:
478,151,139237,1,2,1:2:0:0:
239,319,139433,5,2,1:2:0:0:
191,186,139531,1,10,3:2:0:0:
25,302,139727,6,0,L|155:279,1,131.25000500679,8|0,3:2|0:0,0:0:0:0:
349,198,139923,6,0,P|412:170|481:271,1,196.875007510186,14|0,3:3|0:0,0:0:0:0:
446,344,140119,2,0,L|274:369,1,131.25000500679,2|2,1:2|1:2,0:0:0:0:
123,201,140315,5,10,3:2:0:0:
104,94,140414,1,2,1:2:0:0:
215,81,140512,1,2,1:2:0:0:
473,65,140708,5,2,3:2:0:0:
417,14,140806,1,2,1:2:0:0:
427,198,140904,5,2,1:2:0:0:
478,142,141002,1,2,1:2:0:0:
293,147,141100,5,10,3:2:0:0:
349,198,141198,1,2,1:2:0:0:
390,112,141296,5,2,1:2:0:0:
115,305,141492,5,10,3:3:0:0:
29,257,141590,1,2,1:2:0:0:
32,166,141688,1,2,1:2:0:0:
113,211,141786,1,2,1:2:0:0:
115,305,141884,6,0,L|254:321,1,131.25000500679,10|2,3:2|1:2,0:0:0:0:
401,70,142276,5,10,3:2:0:0:
487,118,142374,1,2,1:2:0:0:
484,209,142472,1,2,1:2:0:0:
403,164,142570,1,2,1:2:0:0:
401,70,142668,6,0,L|262:54,1,131.25000500679,10|0,3:2|0:0,0:0:0:0:
199,3,142865,2,0,L|63:26,1,131.25000500679,8|0,1:2|0:0,0:0:0:0:
62,285,143061,5,10,3:2:0:0:
85,294,143159,2,0,P|139:278|163:229,1,104.999996795654,2|2,1:2|1:2,0:0:0:0:
13,215,143355,5,10,1:2:0:0:
195,153,143453,2,0,P|244:193|249:257,1,131.25000500679,10|10,3:3|1:3,0:0:0:0:
419,355,143649,6,0,P|357:370|302:339,1,131.25000500679,10|10,1:2|1:3,0:0:0:0:
512,126,143845,5,10,3:3:0:0:
397,53,143943,5,10,1:3:0:0:
415,144,144041,1,10,1:2:0:0:
433,237,144139,1,10,1:3:0:0:
463,0,144237,5,10,3:2:0:0:
415,144,144335,1,10,1:2:0:0:
357,283,144433,2,0,L|197:327,1,131.25000500679,10|10,1:2|1:2,0:0:0:0:
124,289,144629,1,14,3:3:0:0:
7,25,144825,6,0,P|67:71|200:63,1,196.875007510186,2|0,1:2|0:0,0:0:0:0:
253,20,145021,2,0,P|259:111|233:142,1,131.25000500679,10|2,3:2|1:2,0:0:0:0:
117,122,145217,2,0,P|110:32|136:1,1,131.25000500679,2|0,1:2|0:0,0:0:0:0:
320,191,145414,5,2,3:2:0:0:
337,192,145512,2,0,P|405:156|435:63,1,131.25000500679,2|2,1:2|1:2,0:0:0:0:
250,296,145708,5,2,1:2:0:0:
273,379,145806,1,10,3:2:0:0:
358,363,145904,1,2,1:2:0:0:
443,341,146002,1,2,1:2:0:0:
421,261,146100,1,2,1:2:0:0:
250,296,146198,1,14,3:3:0:0:
0,221,146394,6,0,P|60:175|193:183,1,196.875007510186,2|0,1:2|0:0,0:0:0:0:
107,118,146590,2,0,P|92:56|123:0,1,131.25000500679,10|2,3:2|1:2,0:0:0:0:
288,30,146786,2,0,P|303:93|273:149,1,131.25000500679,2|0,1:2|0:0,0:0:0:0:
394,35,146983,5,2,3:2:0:0:
411,33,147081,2,0,P|479:68|509:161,1,131.25000500679,2|2,1:2|1:2,0:0:0:0:
459,200,147277,5,2,1:2:0:0:
370,220,147374,1,10,3:2:0:0:
282,240,147472,1,2,1:2:0:0:
349,307,147570,5,2,1:2:0:0:
260,327,147667,1,2,1:2:0:0:
172,347,147766,6,0,P|138:258|141:199,1,104.999996795654,10|2,3:3|1:2,0:0:0:0:
42,287,147963,2,0,P|76:376|73:435,1,104.999996795654,2|2,1:2|1:2,0:0:0:0:
59,193,148159,1,10,3:2:0:0:
375,210,148355,6,0,P|385:159|410:112,1,104.999996795654,2|0,1:2|0:0,0:0:0:0:
314,75,148551,2,0,P|304:126|280:173,1,104.999996795654,2|2,3:2|1:2,0:0:0:0:
393,13,148747,1,2,1:2:0:0:
490,246,148943,6,0,P|450:334|356:337,1,196.875007510186,10|0,3:2|0:0,0:0:0:0:
260,350,149139,2,0,P|261:308|265:347,1,131.25000500679,8|0,1:2|0:0,0:0:0:0:
91,192,149335,5,10,3:2:0:0:
61,107,149433,1,2,1:2:0:0:
116,36,149531,1,2,1:2:0:0:
146,121,149629,5,10,1:2:0:0:
91,192,149727,1,10,3:3:0:0:
0,177,149825,1,10,1:3:0:0:
61,107,149923,5,10,1:2:0:0:
146,121,150021,1,10,1:3:0:0:
179,205,150119,1,10,3:3:0:0:
414,313,150315,5,10,1:2:0:0:
511,293,150413,1,10,1:3:0:0:
287,226,150512,5,10,3:2:0:0:
396,207,150610,1,10,1:2:0:0:
196,349,150707,5,10,1:2:0:0:
305,332,150805,1,10,1:2:0:0:
196,349,150904,6,0,P|169:293|34:288,1,196.875007510186,14|0,3:3|0:0,0:0:0:0:
0,209,151100,2,0,L|23:32,1,131.25000500679,2|2,1:2|1:2,0:0:0:0:
190,39,151296,5,10,3:2:0:0:
258,134,151394,1,2,1:2:0:0:
373,111,151492,1,2,1:2:0:0:
512,380,151688,5,2,3:2:0:0:
449,319,151786,1,2,1:2:0:0:
421,236,151884,1,2,1:2:0:0:
363,304,151982,1,2,1:2:0:0:
278,330,152080,1,10,3:2:0:0:
124,365,152276,6,0,P|130:287|77:242,1,131.25000500679,8|0,3:2|0:0,0:0:0:0:
0,34,152472,6,0,P|60:105|150:81,1,196.875007510186,14|0,3:3|0:0,0:0:0:0:
196,4,152668,2,0,L|364:22,1,131.25000500679,2|2,1:2|1:2,0:0:0:0:
434,65,152864,5,10,3:2:0:0:
392,169,152962,1,2,1:2:0:0:
287,123,153061,1,2,1:2:0:0:
0,332,153257,5,10,3:2:0:0:
67,268,153355,1,2,1:2:0:0:
158,291,153453,1,2,1:2:0:0:
90,357,153551,5,2,1:2:0:0:
181,379,153649,1,10,3:2:0:0:
250,316,153747,1,2,1:2:0:0:
158,291,153845,5,2,1:2:0:0:
397,79,154041,5,10,3:3:0:0:
483,127,154139,1,2,1:2:0:0:
480,218,154237,1,2,1:2:0:0:
399,173,154335,1,2,1:2:0:0:
397,79,154433,6,0,L|258:63,1,131.25000500679,10|2,3:2|1:2,0:0:0:0:
111,314,154825,5,2,3:2:0:0:
25,266,154923,1,2,1:2:0:0:
28,175,155021,1,2,1:2:0:0:
109,220,155119,1,2,1:2:0:0:
111,314,155217,6,0,L|250:330,1,131.25000500679,10|0,3:2|0:0,0:0:0:0:
313,381,155414,2,0,L|449:358,1,131.25000500679,8|0,1:2|0:0,0:0:0:0:
461,222,155610,5,10,3:2:0:0:
449,201,155708,2,0,P|397:178|344:196,1,104.999996795654,2|2,1:2|1:2,0:0:0:0:
320,277,155904,5,10,1:2:0:0:
273,126,156002,2,0,P|330:76|413:103,1,131.25000500679,10|10,3:3|1:3,0:0:0:0:
156,125,156198,6,0,P|171:62|227:29,1,131.25000500679,10|10,1:2|1:3,0:0:0:0:
270,359,156394,5,10,3:3:0:0:
141,384,156492,1,10,1:3:0:0:
115,257,156590,1,10,1:2:0:0:
244,229,156688,1,10,1:3:0:0:
372,198,156786,1,10,3:2:0:0:
399,327,156884,1,10,1:2:0:0:
270,359,156982,1,10,1:2:0:0:
462,57,157178,5,14,3:3:0:0:
78,116,157374,5,2,1:2:0:0:
178,39,157472,1,2,1:2:0:0:
78,116,157570,2,0,B|27:166|27:166|191:124,1,209.999993591309,10|2,3:2|1:2,0:0:0:0:
436,56,157963,5,2,3:2:0:0:
353,79,158061,2,0,P|329:120|352:196,1,104.999996795654,2|2,1:2|1:2,0:0:0:0:
404,329,158257,5,2,1:2:0:0:
499,203,158355,2,0,P|476:162|398:145,1,104.999996795654,10|0,3:2|0:0,0:0:0:0:
316,339,158551,6,0,L|160:309,1,157.499995193482,8|0,3:2|0:0,0:0:0:0:
85,246,158747,6,0,P|20:308|33:219,1,209.999993591309,6|2,3:2|1:2,0:0:0:0:
82,79,159041,1,2,1:2:0:0:
97,224,159139,2,0,P|11:321|40:197,1,314.999990386963,10|2,3:2|1:2,0:0:0:0:
301,228,159531,6,0,P|322:315|252:259,1,209.999993591309,10|2,3:3|1:2,0:0:0:0:
154,147,159825,1,2,1:2:0:0:
287,206,159923,2,0,P|328:329|235:241,1,314.999990386963,10|0,3:2|0:0,0:0:0:0:
246,126,160315,5,6,3:2:0:0:
512,51,160414,2,0,B|317:21,1,175,2|2,1:2|2:2,0:0:0:0:
339,24,161100,5,6,3:2:0:0:
114,232,161199,2,0,B|309:202,1,175,2|2,1:2|2:2,0:0:0:0:
343,377,161884,6,0,P|272:324|180:291,1,175,6|0,3:2|0:0,0:0:0:0:
21,282,162178,2,0,P|101:248|175:186,1,175,10|0,3:3|0:0,0:0:0:0:
249,151,162472,6,0,P|242:108|249:65,1,87.5,10|0,3:3|0:0,0:0:0:0:
309,231,162668,2,0,P|273:205|247:170,1,87.5,14|0,3:3|0:0,0:0:0:0:
465,194,162865,5,0,3:0:0:0:
465,194,162930,1,0,3:0:0:0:
465,194,162996,1,0,3:0:0:0:
465,194,163061,2,0,B|507:228|507:228|462:135,1,131.25000500679,8|0,1:2|3:0,0:0:0:0:
305,162,175806,6,0,L|95:239,1,196.875007510186,10|0,3:2|0:0,0:0:0:0:
112,243,176002,6,0,P|138:281|237:262,1,131.25000500679,6|0,3:2|0:0,0:0:0:0:
284,368,176198,5,2,1:2:0:0:
330,268,176296,2,0,P|349:226|296:159,1,131.25000500679,2|10,1:2|3:2,0:0:0:0:
355,63,176492,5,2,1:2:0:0:
249,61,176590,2,0,P|203:64|160:144,1,131.25000500679,2|0,1:2|0:0,0:0:0:0:
433,265,176786,5,2,3:2:0:0:
284,368,176884,2,0,L|420:345,1,104.999996795654,2|2,1:2|1:2,0:0:0:0:
355,63,177080,5,2,1:2:0:0:
512,124,177178,2,0,L|380:144,1,104.999996795654,10|0,3:2|0:0,0:0:0:0:
239,144,177374,5,8,3:2:0:0:
61,213,177472,2,0,L|190:229,1,104.999996795654,0|6,0:0|3:2,0:0:0:0:
280,356,177766,5,2,1:2:0:0:
349,256,177864,2,0,P|368:214|315:147,1,131.25000500679,2|10,1:2|3:2,0:0:0:0:
357,53,178060,5,2,1:2:0:0:
253,66,178158,2,0,P|207:69|164:149,1,131.25000500679,2|0,1:2|0:0,0:0:0:0:
172,318,178354,5,2,3:2:0:0:
340,262,178452,2,0,L|482:273,1,131.25000500679,2|2,1:2|1:2,0:0:0:0:
512,65,178649,5,2,1:2:0:0:
439,15,178747,1,10,3:2:0:0:
434,103,178845,1,0,0:0:0:0:
510,153,178943,5,2,1:2:0:0:
357,53,179041,2,0,L|228:69,1,104.999996795654,2|6,1:2|3:2,0:0:0:0:
44,346,179335,5,2,1:2:0:0:
132,185,179433,1,2,1:2:0:0:
0,71,179531,2,0,P|6:124|44:171,1,104.999996795654,10|2,3:2|1:2,0:0:0:0:
187,108,179727,2,0,P|181:55|143:7,1,104.999996795654,2|2,1:2|1:2,0:0:0:0:
389,227,179923,5,2,3:2:0:0:
255,334,180021,2,0,P|161:256|187:208,1,104.999996795654,2|2,1:2|1:2,0:0:0:0:
361,146,180217,5,2,1:2:0:0:
331,289,180316,1,10,3:2:0:0:
221,197,180414,1,0,0:0:0:0:
304,211,180512,1,10,3:2:0:0:
105,128,180708,6,0,P|116:19|186:107,1,280,4|0,3:3|1:0,0:0:0:0:
137,294,181002,2,0,P|36:337|77:233,1,280,10|0,1:2|1:0,0:0:0:0:
204,190,181296,2,0,P|241:221|193:200,1,140,8|0,3:2|1:0,0:0:0:0:
462,133,181492,6,0,P|493:37|455:-26,1,140,8|0,3:3|0:0,0:0:0:0:
314,160,181688,1,8,1:2:0:0:
412,272,181786,2,0,P|477:347|552:345,1,140,10|10,1:2|3:2,0:0:0:0:
478,217,181982,5,8,1:2:0:0:
381,106,182080,1,10,1:2:0:0:
284,0,182178,1,8,1:2:0:0:
332,241,182276,6,0,B|332:245|332:248|332:248|336:250|336:250|331:251|331:251|331:252|331:253|331:253|336:255|336:255|333:254|333:254|333:259|333:259|336:255|336:255|331:256|331:256|336:259|336:259|330:259|330:259|329:262|328:265|328:265|327:261|327:261|325:265|325:265|323:265|323:265|324:266|324:266|328:263|328:263|327:268|327:268|327:270|326:272|326:272|321:271|321:271|324:275|324:275|323:276|323:277|323:277|327:281|327:281|325:279|325:279|329:277|329:277|327:281|327:281|322:280|322:280|317:279|317:279|321:283|321:283|319:286|317:288|317:288|314:291|314:291|315:287|315:287|312:286|312:286|313:287|313:287|309:291|309:291|314:290|314:290|315:291|315:291|313:293|313:293|315:298|315:298|311:295|311:295|308:298|308:298|309:299|309:299|305:303|305:303|310:302|310:302|310:303|310:303|306:300|306:300|308:305|308:305|304:302|304:302|298:306|298:306|300:304|300:304|296:301|296:301|298:306|298:306|294:302|294:302|300:303|300:303|295:305|295:305|295:307|295:307|294:308|293:308|293:308|289:305|289:305|291:310|291:310|288:311|286:312|286:312|293:313|293:313|287:316|287:316|287:317|287:317|283:313|283:313|285:315|285:315|287:311|287:311|283:313|283:313|280:314|278:315|278:315|278:320|278:320|275:316|275:316|274:316|274:316|271:311|271:311|272:313|272:313|274:310|274:310|271:311|271:311|271:316|271:316|270:316|270:316|270:321|270:321|267:317|267:317|264:317|261:317|261:317|256:317|256:317|260:320|260:320|259:322|259:322|259:321|259:321|253:320|253:320|258:317|258:317|256:317|254:317|254:317|252:312|252:312|251:317|251:317|248:317|248:317|248:315|248:315|243:314|243:314|247:312|247:312|247:311|247:311|245:316|245:316|245:311|245:311|242:315|242:315|238:315|238:315|236:319|236:319|235:314|235:314|232:318|232:318|238:316|238:316|232:315|232:315|232:313|232:313|231:312|230:312|230:312|226:316|226:316|227:311|227:311|225:310|223:309|223:309|223:308|223:308|228:308|228:308|224:305|224:305|224:304|224:304|221:308|221:308|218:311|218:311|219:307|219:307|217:306|215:304|215:304|217:299|217:299|213:303|213:303|212:302|212:302|208:305|208:305|204:302|204:302|209:302|209:302|210:300|210:300|209:299|209:299|211:295|211:295|207:297|207:297|204:295|202:293|202:293|199:289|199:289|204:291|204:291|205:289|205:289|203:290|203:290|200:286|200:286|200:291|200:291|199:289|198:287|198:287|193:289|193:289|196:285|196:285|195:284|195:283|195:283|192:284|192:284|189:280|189:280|189:285|189:285|193:281|193:281|188:281|188:281|192:278|192:278|189:272|189:272|191:276|190:275|190:275|194:271|194:271|189:272|189:272|193:268|193:268|192:274|192:274|189:269|189:269|188:269|188:269|187:268|187:267|187:267|191:264|191:264|186:264|186:264|185:261|185:259|185:259|183:263|183:263|182:258|182:258|180:258|180:258|185:256|185:256|183:257|183:257|185:260|185:260|185:256|185:256|184:253|184:251|184:251|179:249|179:249|184:248|184:248|184:247|184:246|184:246|189:245|189:245|189:241|189:241|187:244|187:244|184:243|184:243|184:242|184:242|180:240|180:240|185:239|185:239|186:233|186:233|186:228|186:228|183:232|183:232|181:231|181:231|182:231|182:231|183:226|183:226|185:230|185:230|186:230|186:230|187:228|187:226|187:226|193:226|193:226|188:223|188:223|189:222|189:221|189:221|195:221|195:221|192:221|192:221|193:216|193:216|195:221|195:221|191:218|191:218|196:218|196:218|192:216|192:216|195:209|195:209|193:213|194:211|194:211|191:208|191:208|195:209|195:209|192:205|192:205|193:205|193:205|193:210|193:210|196:206|196:206|197:206|197:206|198:204|199:203|199:203|195:199|195:199|200:200|200:200|201:199|202:198|202:198|207:200|207:200|204:199|204:199|204:204|204:204|207:200|207:200|204:196|204:196|201:192|201:192|206:194|206:194|211:188|211:188|208:192|209:190|209:190|213:192|213:192|211:188|211:188|208:184|208:184|212:180|212:180|211:185|211:185|213:186|213:186|214:185|214:183|214:183|219:184|219:184|215:181|215:181|216:179|216:177|216:177|217:177|217:177|218:171|218:171|221:176|221:176|216:174|216:174|221:174|221:174|217:171|217:171|217:167|217:167|213:165|213:165|218:164|218:164|213:162|213:162|216:167|216:167|216:161|216:161|218:161|218:161|218:159|218:159|213:157|213:157|218:156|218:156|218:151|218:151|222:155|222:155|221:150|221:150|223:149|223:149|218:148|218:148|220:148|220:148|218:152|218:152|218:148|218:148|217:142|217:142|221:140|221:140|216:139|216:139|216:138|216:138|211:138|211:138|209:134|209:134|213:137|213:137|215:135|215:135|215:134|215:133|215:133|219:131|219:131|214:131|214:131|213:128|212:126|212:126|209:121|209:121|214:124|214:124|216:122|216:122|211:123|211:123|214:122|214:122|211:118|211:118|211:123|211:123|210:121|208:118|208:118|203:120|203:120|207:116|207:116|206:115|206:114|206:114|201:116|201:116|203:115|203:115|201:112|201:112|201:116|201:116|204:112|204:112|199:113|199:113|202:109|202:109|198:104|198:104|203:105|203:105|199:101|199:101|201:99|201:99|200:99|200:99|201:104|201:104|198:101|198:101|196:102|196:102|195:101|194:100|194:100|197:95|197:95|192:98|192:98|190:96|189:95|189:95|188:95|188:95|189:100|189:100|185:96|185:96|184:97|184:97|187:92|187:92|186:94|186:94|189:95|189:95|187:92|187:92|182:89|182:89|178:92|178:92|180:87|180:87|179:86|179:86|180:81|180:81|176:79|176:79|178:83|178:83|176:85|176:85|175:84|175:84|171:88|171:88|173:83|173:83|170:81|168:80|168:80|163:76|163:76|165:82|165:82|164:83|164:83|165:78|165:78|165:80|165:80|161:78|161:78|165:78|165:78|162:77|160:76|160:76|161:70|161:70|157:75|157:75|156:74|156:74|156:69|156:69|159:73|159:73|155:71|155:71|153:73|153:73|152:73|151:72|151:72|152:67|152:67|149:71|149:71|146:70|144:70|144:70|147:74|147:74|142:72|142:72|141:74|141:74|141:69|141:69|141:71|141:71|144:70|144:70|141:69|141:69|135:68|135:68|132:72|132:72|132:67|132:67|131:67|131:67|130:62|130:62|125:62|125:62|129:65|129:65|128:67|128:67|127:67|127:67|124:71|124:71|124:66|124:66|121:66|118:66|118:66|112:65|112:65|117:69|117:69|116:71|116:71|115:66|115:66|116:69|116:69|110:69|110:69|115:66|115:66|110:66|110:66|109:61|109:61|107:66|107:66|105:66|105:66|103:61|103:61|104:63|104:63|100:64|100:64|103:61|103:61|102:66|102:66|99:62|99:62|99:67|99:67|92:68|92:68|94:68|94:68|93:71|93:71|92:68|92:68|92:73|92:73|91:72|91:72|94:68|94:68|89:69|89:69|87:69|85:70|85:70|85:75|85:75|82:71|82:71|81:71|80:71|80:71|77:67|77:67|78:69|78:69|80:66|80:66|77:67|77:67|77:72|77:72|76:72|76:72|77:77|77:77|73:73|73:73|70:75|68:76|68:76|63:79|63:79|69:79|69:79|69:82|69:82|68:81|68:81|63:84|63:84|66:79|66:79|65:78|65:78|63:79|62:79|62:79|58:75|58:75|59:81|59:81|58:82|56:83|56:83|55:82|55:82|50:85|50:85|53:80|53:80|52:79|52:79|54:84|54:84|53:82|53:82|51:84|51:84|54:84|54:84|51:86|49:88|49:88|52:93|52:93|47:90|47:90|46:91|46:91|48:95|48:95|49:90|49:90|45:94|45:94|44:93|44:93|43:94|42:95|42:95|44:99|44:99|40:97|40:97|38:99|37:100|37:100|37:95|37:95|34:99|34:99|32:98|32:98|35:102|35:102|34:100|34:100|37:99|37:99|35:102|35:102|31:107|31:107|27:105|27:105|30:109|30:109|29:110|29:110|32:114|32:114|29:119|29:119|29:113|29:113|27:113|27:113|26:114|26:115|26:115|21:113|21:113|24:117|24:117|23:119|22:121|22:121|19:126|19:126|18:120|18:120|17:120|17:120|21:124|21:124|20:123|20:123|18:126|18:126|21:124|21:124|20:127|19:129|19:129|22:133|22:133|17:132|17:132|17:133|17:133|22:136|22:136|20:135|20:135|19:138|19:138|22:136|22:136|16:136|16:136|21:139|21:139|15:139|15:139|14:146|14:146|14:144|14:144|11:144|11:144|14:146|14:146|9:146|9:146|10:147|10:147|14:143|14:143|12:148|12:148|13:149|13:149|13:151|12:153|12:153|7:154|7:154|12:156|12:156|12:158|12:159|12:159|17:160|17:160|14:159|14:159|16:154|16:154|17:160|17:160|12:162|12:162|6:163|6:163|11:165|11:165|11:172|11:172|11:167|11:169|11:169|16:171|16:171|11:172|11:172|6:173|6:173|6:178|6:178|9:174|9:174|12:175|12:175|12:176|12:177|12:177|17:178|17:178|12:180|12:180|13:183|13:185|13:185|15:192|15:192|17:185|17:185|18:185|18:185|13:188|13:188|15:187|15:187|17:191|17:191|13:188|13:188|14:191|14:193|14:193|9:195|9:195|15:196|15:196|15:197|15:197|11:200|11:200|12:195|12:195|14:200|14:200|16:200|16:200|16:201|17:202|17:202|13:205|13:205|18:204|18:204|19:207|20:209|20:209|21:204|21:204|23:209|23:209|25:209|25:209|21:212|21:212|23:211|23:211|20:209|20:209|21:212|21:212|22:215|24:217|24:217|28:216|28:216|25:220|25:220|26:220|26:221|26:221|22:225|22:225|23:224|23:224|20:222|20:222|22:225|22:225|27:224|27:224|27:225|27:225|32:223|32:223|29:227|29:227|33:232|33:232|36:236|36:236|36:231|36:231|38:230|38:230|37:231|37:231|40:235|40:235|35:234|35:234|36:236|38:238|38:238|35:242|35:242|40:240|40:240|41:241|42:242|42:242|39:246|39:246|41:244|41:244|44:248|44:248|39:246|39:246|44:244|44:244|42:250|42:250|47:246|47:246|51:250|51:250|48:247|50:249|50:249|52:247|52:247|51:250|51:250|55:247|55:247|55:248|55:248|50:249|50:249|54:251|54:251|54:252|54:252|56:253|57:254|57:254|61:251|61:251|60:256|60:256|61:256|62:257|62:257|61:262|61:262|61:260|61:260|57:260|57:260|61:262|61:262|65:259|65:259|69:256|69:256|68:261|68:261|70:262|71:262|71:262|71:260|70:259|70:259|67:259|67:259|65:259|65:259|67:258|67:258|65:253|65:253|69:257|69:257|70:256|70:256|69:252|69:252|71:251|71:251,1,2388.75003872752,6|2,3:2|1:2,0:0:0:0:
348,154,182963,5,0,0:0:0:0:
503,291,183061,2,0,P|448:301|409:350,1,104.999996795654,0|2,3:0|1:2,0:0:0:0:
332,241,183257,6,0,B|328:240|325:239|325:239|322:244|322:244|322:239|322:239|319:238|318:237|318:237|318:232|318:232|315:236|315:236|312:235|310:234|310:234|307:238|307:238|307:233|307:233|304:231|303:230|303:230|304:225|304:225|301:229|301:229|298:227|296:226|296:226|292:229|292:229|294:224|294:224|291:222|290:221|290:221|292:216|292:216|288:219|288:219|285:217|284:216|284:216|280:218|280:218|282:214|282:214|280:211|279:210|279:210|282:206|282:206|277:208|277:208|275:205|274:204|274:204|269:205|269:205|272:201|272:201|270:198|270:197|270:197|273:193|273:193|268:194|268:194|267:191|266:190|266:190|261:190|261:190|265:187|265:187|264:184|263:182|263:182|267:179|267:179|262:179|262:179|261:176|261:175|261:175|256:174|256:174|260:172|260:172|259:168|259:167|259:167|264:165|264:165|259:164|259:164|258:160|258:159|258:159|253:158|253:158|258:156|258:156|258:152|258:151|258:151|263:150|263:150|258:148|258:148|258:144|258:143|258:143|254:141|254:141|259:140|259:140|259:136|260:135|260:135|265:135|265:135|260:132|260:132|261:129|262:127|262:127|257:124|257:124|262:124|262:124|264:121|264:120|264:120|269:120|269:120|265:117|265:117|267:114|267:112|267:112|264:109|264:109|269:110|269:110|270:107|271:105|271:105|276:107|276:107|273:103|273:103|275:100|276:99|276:99|273:95|273:95|277:96|277:96|280:94|281:93|281:93|285:95|285:95|283:90|283:90|285:88|286:87|286:87|284:82|284:82|288:85|288:85|291:83|292:82|292:82|296:85|296:85|295:80|295:80|297:78|299:77|299:77|297:72|297:72|301:75|301:75|304:74|306:73|306:73|309:77|309:77|308:71|308:71|311:70|313:69|313:69|312:64|312:64|316:68|316:68|319:67|320:67|320:67|323:71|323:71|323:66|323:66|326:65|328:64|328:64|328:59|328:59|331:64|331:64|334:63|336:63|336:63|338:68|338:68|339:63|339:63|342:62|344:62|344:62|345:57|345:57|347:62|347:62|350:62|352:62|352:62|353:67|353:67|355:62|355:62|358:63|360:63|360:63|362:58|362:58|363:63|363:63|366:64|368:64|368:64|368:70|368:70|370:65|370:65|374:66|375:66|375:66|378:62|378:62|378:67|378:67|381:69|383:69|383:69|382:74|382:74|386:70|386:70|389:72|390:73|390:73|394:69|394:69|393:74|393:74|396:76|397:77|397:77|395:82|395:82|399:78|399:78|402:80|403:81|403:81|408:78|408:78|406:83|406:83|408:85|410:87|410:87|408:92|408:92|412:89|412:89|415:92|416:93|416:93|421:91|421:91|418:95|418:95|420:98|421:99|421:99|418:103|418:103|423:101|423:101|424:104|425:106|425:106|430:104|430:104|427:108|427:108|428:111|429:113|429:113|425:116|425:116|430:115|430:115|432:119|432:120|432:120|437:120|437:120|433:123|433:123|434:126|435:128|435:128|430:130|430:130|436:130|436:130|436:134|437:135|437:135|442:136|442:136|437:138|437:138|438:142|438:143|438:143|433:145|433:145|438:146|438:146|438:150|438:151|438:151|443:153|443:153|438:154|438:154|438:158|438:159|438:159|433:160|433:160|438:162|438:162|437:166|437:167|437:167|442:169|442:169|436:170|436:170|436:173|435:175|435:175|430:175|430:175|435:178|435:178|434:181|433:183|433:183|437:186|437:186|432:185|432:185|431:189|430:190|430:190|425:189|425:189|429:193|429:193|427:196|426:197|426:197|430:201|430:201|425:200|425:200|423:203|422:204|422:204|417:202|417:202|420:206|420:206|418:209|417:210|417:210|420:215|420:215|415:212|415:212|413:215|412:216|412:216|407:213|407:213|410:218|410:218|404:223|407:220|406:221|406:221|408:226|408:226|404:223,1,948.945385515179,2|8,1:2|3:2,0:0:0:0:
410,346,183747,5,0,0:0:0:0:
300,383,183845,2,0,P|242:377|197:330,1,122.499996261597,2|0,3:2|0:0,0:0:0:0:
88,357,184041,2,0,P|65:304|82:241,1,122.499996261597,2|2,1:2|1:2,0:0:0:0:
0,146,184237,2,0,P|33:99|96:84,1,122.499996261597,8|2,0:2|1:2,0:0:0:0:
405,141,184433,5,2,1:2:0:0:
512,183,184531,1,2,1:2:0:0:
422,257,184629,2,0,B|378:296|269:281|347:215|233:197|195:235,1,244.999992523194,2|2,3:2|1:2,0:0:0:0:
0,146,184923,5,0,0:0:0:0:
93,83,185021,2,0,B|136:45|245:59|167:125|281:143|319:105,1,244.999992523194,8|0,3:2|1:0,0:0:0:0:
488,342,185316,5,0,0:0:0:0:
376,361,185414,2,0,P|291:366|201:392,1,157.499995193482,6|0,3:2|0:0,0:0:0:0:
234,384,185610,6,0,P|271:331|277:250,1,104.999996795654,2|2,1:2|1:2,0:0:0:0:
151,303,185806,2,0,P|157:238|122:165,1,104.999996795654,10|2,3:2|1:2,0:0:0:0:
55,370,186002,2,0,P|28:311|-39:265,1,104.999996795654,2|2,1:2|1:2,0:0:0:0:
13,108,186198,5,2,3:2:0:0:
119,113,186296,1,2,1:2:0:0:
199,83,186394,1,2,1:2:0:0:
241,47,186492,1,2,1:2:0:0:
260,10,186590,1,8,1:2:0:0:
236,82,186688,1,0,1:2:0:0:
257,167,186786,1,0,1:2:0:0:
334,232,186884,1,0,1:2:0:0:
449,229,186982,6,0,P|323:258|198:372,1,280,4|8,3:3|1:2,0:0:0:0:
192,6,187276,2,0,P|280:100|441:152,1,280,10|8,1:2|1:2,0:0:0:0:
63,154,187570,5,10,1:2:0:0:
254,190,187668,1,8,1:2:0:0:
321,377,187766,6,0,P|233:283|72:231,1,280,8|8,3:2|1:2,0:0:0:0:
385,43,188061,2,0,P|347:166|383:332,1,280,10|8,1:2|1:2,0:0:0:0:
63,154,188355,2,0,P|190:126|315:11,1,280,0|0,1:2|0:0,0:0:0:0:
306,384,188747,5,6,3:2:0:0:
256,192,188796,12,12,191296,1:2:0:0:
191,248,194825,6,0,P|192:202|233:124,1,104.999996795654,2|2,3:2|1:2,0:0:0:0:
338,282,195021,2,0,P|356:240|352:152,1,104.999996795654,2|2,1:2|1:2,0:0:0:0:
86,127,195217,6,0,P|110:88|215:28,1,140,10|10,3:2|1:2,0:0:0:0:
494,197,195414,2,0,P|481:152|399:64,1,140,10|10,1:2|1:2,0:0:0:0:
180,278,195610,5,10,3:2:0:0:
257,340,195708,1,10,1:2:0:0:
337,307,195806,1,10,1:2:0:0:
268,249,195904,1,10,1:2:0:0:
257,340,196002,5,10,3:2:0:0:
422,276,196100,1,10,3:2:0:0:
257,340,196198,1,10,3:2:0:0:
119,225,196296,1,10,3:2:0:0:
337,307,196394,6,0,P|308:205|197:40,1,262.500010013581,4|0,3:2|0:0,0:0:0:0:
113,27,196688,2,0,P|215:52|413:38,1,262.500010013581,2|0,3:2|0:0,0:0:0:0:
471,0,196982,2,0,P|397:75|310:254,1,262.500010013581,2|0,3:2|0:0,0:0:0:0:
203,204,197374,6,0,L|89:233,1,104.999996795654,4|0,3:2|0:0,0:0:0:0:
21,121,197570,5,8,3:2:0:0:
114,135,197668,1,8,3:2:0:0:
101,229,197766,1,8,3:2:0:0:
7,215,197865,1,8,3:2:0:0:
35,28,197963,1,14,3:3:0:0:
245,24,198159,6,0,P|305:70|438:62,1,196.875007510186,2|0,1:2|0:0,0:0:0:0:
490,127,198355,2,0,P|496:218|470:249,1,131.25000500679,10|2,3:2|1:2,0:0:0:0:
327,223,198551,2,0,P|320:133|346:102,1,131.25000500679,2|0,1:2|0:0,0:0:0:0:
156,32,198748,5,2,3:2:0:0:
140,40,198846,2,0,P|99:105|119:201,1,131.25000500679,2|2,1:2|1:2,0:0:0:0:
119,317,199042,5,2,1:2:0:0:
180,382,199140,1,10,3:2:0:0:
265,355,199238,1,2,1:2:0:0:
347,324,199335,1,2,1:2:0:0:
281,268,199434,1,2,1:2:0:0:
119,317,199531,1,14,3:3:0:0:
437,221,199728,6,0,P|377:175|244:183,1,196.875007510186,2|0,1:2|0:0,0:0:0:0:
330,118,199924,2,0,P|345:56|314:0,1,131.25000500679,10|2,3:2|1:2,0:0:0:0:
149,30,200120,2,0,P|134:93|164:149,1,131.25000500679,2|0,1:2|0:0,0:0:0:0:
282,380,200316,5,2,3:2:0:0:
299,382,200415,2,0,P|367:347|397:254,1,131.25000500679,2|2,1:2|1:2,0:0:0:0:
52,134,200610,5,2,1:2:0:0:
47,226,200708,1,10,3:2:0:0:
40,320,200806,1,2,1:2:0:0:
124,277,200904,5,2,1:2:0:0:
115,366,201001,1,2,1:2:0:0:
198,331,201100,6,0,P|232:242|229:183,1,104.999996795654,10|2,3:3|1:2,0:0:0:0:
328,271,201297,2,0,P|294:360|297:419,1,104.999996795654,2|2,1:2|1:2,0:0:0:0:
311,177,201493,1,10,3:2:0:0:
477,69,201689,6,0,P|487:120|512:167,1,104.999996795654,2|0,1:2|0:0,0:0:0:0:
416,204,201885,2,0,P|406:153|382:106,1,104.999996795654,2|2,3:2|1:2,0:0:0:0:
495,266,202081,1,2,1:2:0:0:
0,191,202277,6,0,P|96:201|146:121,1,196.875007510186,10|0,3:2|0:0,0:0:0:0:
184,53,202473,2,0,P|183:11|179:50,1,131.25000500679,8|0,1:2|0:0,0:0:0:0:
421,216,202669,5,10,3:2:0:0:
414,298,202767,1,2,1:2:0:0:
446,372,202865,1,2,1:2:0:0:
299,315,202963,5,10,1:2:0:0:
377,280,203061,1,10,3:3:0:0:
421,216,203159,1,10,1:3:0:0:
446,372,203257,5,10,1:2:0:0:
388,317,203355,1,10,1:3:0:0:
299,316,203453,1,10,3:3:0:0:
93,198,203649,5,10,1:2:0:0:
8,311,203747,1,10,1:3:0:0:
97,202,203846,5,10,3:2:0:0:
64,75,203944,1,10,1:2:0:0:
102,208,204041,5,10,1:2:0:0:
240,232,204139,1,10,1:2:0:0:
213,92,204238,6,0,L|420:110,1,196.875007510186,14|0,3:3|0:0,0:0:0:0:
482,161,204434,2,0,P|520:213|509:275,1,131.25000500679,2|2,1:2|1:2,0:0:0:0:
418,374,204630,5,10,3:2:0:0:
323,306,204728,1,2,1:2:0:0:
346,191,204826,1,2,1:2:0:0:
0,189,205022,5,2,3:2:0:0:
73,242,205120,1,2,1:2:0:0:
104,324,205218,1,2,1:2:0:0:
160,258,205316,1,2,1:2:0:0:
243,232,205414,1,10,3:2:0:0:
212,14,205610,6,0,P|206:92|259:137,1,131.25000500679,8|0,3:2|0:0,0:0:0:0:
512,350,205806,6,0,P|452:279|362:303,1,196.875007510186,14|0,3:3|0:0,0:0:0:0:
316,380,206002,2,0,L|148:362,1,131.25000500679,2|2,1:2|1:2,0:0:0:0:
350,138,206198,5,10,3:2:0:0:
434,46,206296,1,2,1:2:0:0:
472,165,206395,1,2,1:2:0:0:
164,197,206591,5,2,3:2:0:0:
101,255,206689,1,2,1:2:0:0:
20,232,206787,1,2,1:2:0:0:
145,114,206885,5,2,1:2:0:0:
63,90,206983,1,10,3:2:0:0:
1,150,207081,1,2,1:2:0:0:
83,174,207179,5,2,1:2:0:0:
175,384,207375,5,10,3:3:0:0:
202,296,207473,1,2,1:2:0:0:
282,252,207571,1,2,1:2:0:0:
371,272,207669,1,2,1:2:0:0:
445,335,207766,6,0,P|498:278|462:181,1,131.25000500679,2|2,3:2|1:2,0:0:0:0:
392,28,207963,2,0,P|363:95|406:158,1,131.25000500679,2|2,1:2|1:2,0:0:0:0:
30,13,208159,5,10,3:2:0:0:
56,100,208257,1,2,1:2:0:0:
136,144,208355,1,2,1:2:0:0:
226,124,208453,1,2,1:2:0:0:
286,56,208551,5,10,3:2:0:0:
386,143,208649,1,8,3:3:0:0:
383,276,208747,1,8,1:2:0:0:
284,362,208845,1,8,3:3:0:0:
149,359,208943,6,0,L|114:184,1,131.25000500679,10|2,3:2|1:2,0:0:0:0:
360,14,209139,2,0,L|395:188,1,131.25000500679,10|2,1:2|1:2,0:0:0:0:
0,237,209335,6,0,L|33:23,1,175,10|10,3:3|1:3,0:0:0:0:
511,162,209531,2,0,L|478:376,1,175,10|10,1:2|1:3,0:0:0:0:
123,230,209923,5,10,1:2:0:0:
254,193,210021,1,10,1:3:0:0:
385,142,210119,2,0,L|103:86,1,244.999992523194,10|10,3:2|1:2,0:0:0:0:
144,94,210512,5,14,3:3:0:0:
429,289,210708,5,2,1:2:0:0:
511,349,210806,1,2,1:2:0:0:
429,289,210904,2,0,P|300:306|246:405,1,209.999993591309,10|2,3:2|1:2,0:0:0:0:
19,42,211297,5,2,3:2:0:0:
106,76,211395,2,0,P|130:117|107:193,1,104.999996795654,2|2,1:2|1:2,0:0:0:0:
239,108,211590,5,2,1:2:0:0:
253,200,211688,2,0,P|229:241|152:259,1,104.999996795654,10|0,3:2|0:0,0:0:0:0:
511,2,211885,6,0,L|481:158,1,157.499995193482,8|0,3:2|0:0,0:0:0:0:
472,314,212081,6,0,B|440:290|349:295|412:348|311:351|273:323,1,209.999993591309,6|2,3:2|1:2,0:0:0:0:
122,172,212375,1,2,1:2:0:0:
28,213,212472,2,0,P|-1:262|2:318,1,104.999996795654,10|8,3:2|1:2,0:0:0:0:
148,357,212668,2,0,P|177:308|174:252,1,104.999996795654,0|8,1:0|1:2,0:0:0:0:
10,87,212865,6,0,B|42:111|133:106|70:53|171:50|209:78,1,209.999993591309,10|10,3:2|1:2,0:0:0:0:
314,0,213159,1,10,1:2:0:0:
343,125,213257,2,0,P|298:255|258:141,1,314.999990386963,10|0,3:2|0:0,0:0:0:0:
174,248,213649,5,6,3:2:0:0:
58,354,213747,2,0,L|265:384,1,209.999993591309,2|2,1:2|2:2,0:0:0:0:
265,384,214237,1,2,2:2:0:0:
396,0,214433,5,2,3:2:0:0:
479,125,214532,2,0,L|271:94,1,209.999993591309,2|2,1:2|2:2,0:0:0:0:
271,95,215021,1,2,2:2:0:0:
34,334,215217,5,8,3:2:0:0:
129,251,215316,1,8,3:3:0:0:
39,159,215414,1,8,3:3:0:0:
135,73,215512,1,8,3:3:0:0:
39,159,215610,1,8,3:2:0:0:
478,334,215806,5,8,3:2:0:0:
383,251,215905,1,8,3:3:0:0:
473,159,216003,1,8,3:3:0:0:
377,73,216101,1,8,3:3:0:0:
473,159,216199,1,8,3:2:0:0:
270,184,216394,5,8,3:3:0:0:
270,184,216590,1,8,3:2:0:0:
182,45,216688,1,8,3:3:0:0:
58,155,216786,5,6,3:2:0:0:
172,130,216884,2,0,L|406:169,1,209.999993591309,2|2,1:2|2:2,0:0:0:0:
469,321,217570,5,2,3:2:0:0:
359,290,217668,2,0,L|125:329,1,209.999993591309,2|2,1:2|2:2,0:0:0:0:
343,7,218355,6,0,P|272:60|180:93,1,175,6|0,3:2|0:0,0:0:0:0:
21,102,218649,2,0,P|101:136|175:198,1,175,10|0,3:3|0:0,0:0:0:0:
247,213,218943,6,0,P|273:178|309:152,1,87.5,10|0,3:3|0:0,0:0:0:0:
249,319,219139,2,0,P|242:275|249:232,1,87.5,14|0,3:3|0:0,0:0:0:0:
465,190,219336,5,0,3:0:0:0:
465,190,219401,1,0,3:0:0:0:
465,190,219467,1,0,3:0:0:0:
465,190,219532,2,0,B|507:156|507:156|462:249,1,131.25000500679,8|0,1:2|3:0,0:0:0:0:
58,128,219923,6,0,L|202:143,1,144.375004405975,6|0,3:2|0:0,0:0:0:0:
323,36,220119,2,0,P|321:83|292:120,1,96.250002937317,2|2,1:2|1:2,0:0:0:0:
278,205,220315,5,10,1:2:0:0:
310,283,220413,1,2,1:2:0:0:
385,323,220511,1,10,1:2:0:0:
466,303,220609,1,2,1:2:0:0:
404,243,220707,5,2,3:2:0:0:
445,384,220805,1,2,1:2:0:0:
344,101,221001,5,2,1:2:0:0:
421,79,221099,1,10,1:2:0:0:
500,56,221197,5,2,1:2:0:0:
344,101,221295,2,0,L|143:59,1,140,10|0,1:2|0:0,0:0:0:0:
0,384,221491,6,0,L|182:356,1,157.499995193482,6|0,3:2|0:0,0:0:0:0:
236,310,221687,2,0,P|239:258|212:214,1,104.999996795654,2|2,1:2|1:2,0:0:0:0:
30,106,221884,5,10,1:2:0:0:
104,116,221982,1,2,1:2:0:0:
178,133,222080,1,10,1:2:0:0:
253,143,222178,1,2,1:2:0:0:
157,57,222276,5,2,3:2:0:0:
125,192,222374,1,2,1:2:0:0:
505,150,222570,6,0,L|482:292,1,118.125000450611,2|10,1:2|1:2,0:0:0:0:
415,226,222766,1,2,1:2:0:0:
339,243,222864,1,2,1:2:0:0:
289,303,222962,1,0,1:0:0:0:
292,383,223061,6,0,P|180:307|93:308,1,209.999993591309,6|2,3:2|1:2,0:0:0:0:
34,252,223355,2,0,B|-4:264|-13:290|-13:290|-17:216|46:185|90:207,1,209.999993591309,2|0,1:2|0:0,0:0:0:0:
121,132,223649,2,0,B|106:118|92:121|92:121|123:100|153:120|154:144,1,104.999996795654,2|0,1:2|0:0,0:0:0:0:
401,18,223844,6,0,P|280:76|237:152,1,209.999993591309,2|2,3:2|1:2,0:0:0:0:
34,252,224139,2,0,B|-4:264|-13:290|-13:290|-17:216|46:185|90:207,1,209.999993591309,2|2,1:2|1:2,0:0:0:0:
189,244,224433,2,0,B|169:239|159:248|159:248|175:215|210:217|224:238,1,104.999996795654,10|0,1:2|0:0,0:0:0:0:
53,362,224629,6,0,B|89:398|197:380|123:318|226:304|269:342,1,236.250000901222,6|0,3:3|1:2,0:0:0:0:
403,136,224923,6,0,P|448:79|424:-15,1,131.25000500679,2|0,3:2|3:0,0:0:0:0:
380,245,225119,1,8,1:2:0:0:
294,164,225217,2,0,L|106:139,1,175,2|8,1:2|1:2,0:0:0:0:
188,23,225413,5,2,1:2:0:0:
93,48,225511,1,10,1:2:0:0:
1,72,225609,1,10,1:2:0:0:
27,164,225707,1,10,1:2:0:0:
51,257,225805,1,8,3:2:0:0:
143,232,225903,1,10,1:2:0:0:
236,208,226001,1,10,1:2:0:0:
212,116,226099,1,10,1:2:0:0:
188,23,226197,6,0,L|332:38,1,144.375004405975,6|0,3:2|0:0,0:0:0:0:
402,94,226393,2,0,L|537:75,1,96.250002937317,2|2,1:2|1:2,0:0:0:0:
473,359,226589,5,10,1:2:0:0:
397,328,226687,1,2,1:2:0:0:
358,255,226785,1,10,1:2:0:0:
377,176,226883,1,2,1:2:0:0:
436,237,226981,5,2,3:2:0:0:
298,197,227079,1,2,1:2:0:0:
141,223,227275,5,2,1:2:0:0:
62,245,227373,1,10,1:2:0:0:
78,167,227471,5,2,1:2:0:0:
127,307,227569,2,0,L|328:349,1,140,10|0,1:2|0:0,0:0:0:0:
505,43,227766,6,0,L|473:236,1,157.499995193482,6|0,3:2|0:0,0:0:0:0:
395,159,227963,2,0,L|413:56,1,104.999996795654,2|2,1:2|1:2,0:0:0:0:
253,43,228158,5,10,1:2:0:0:
180,60,228256,1,2,1:2:0:0:
107,79,228354,1,2,1:2:0:0:
34,96,228452,1,2,1:2:0:0:
125,8,228550,5,2,1:2:0:0:
160,133,228648,1,2,1:2:0:0:
325,327,228844,6,0,P|327:249|268:205,1,118.125000450611,2|10,1:2|1:2,0:0:0:0:
250,158,229040,5,2,1:2:0:0:
326,142,229138,1,2,1:2:0:0:
376,82,229236,1,0,1:0:0:0:
373,2,229335,2,0,L|507:19,2,113.749994792938,6|0|0,3:3|1:0|1:0,0:0:0:0:
34,94,229727,5,8,1:2:0:0:
49,164,229825,1,0,1:0:0:0:
64,234,229923,2,0,L|32:385,2,122.499996261597,10|0|0,1:2|1:0|3:0,0:0:0:0:
183,137,230315,5,8,1:2:0:0:
275,116,230413,1,0,1:0:0:0:
369,95,230511,2,0,L|521:119,2,131.25000500679,2|0|8,3:2|1:0|3:3,0:0:0:0:
157,29,230903,5,8,3:3:0:0:
183,137,231001,1,0,1:0:0:0:
209,246,231099,2,0,L|189:385,2,140,10|0|0,3:2|1:0|1:0,0:0:0:0:
318,242,231688,5,2,3:2:0:0:
42,143,231786,2,0,L|239:110,1,196.875007510186,2|0,3:2|0:0,0:0:0:0:
306,36,231982,2,0,L|176:15,1,104.999996795654,2|0,3:2|0:0,0:0:0:0:
462,360,232276,5,6,3:2:0:0:
256,192,232374,12,0,238453,0:0:0:0:
