osu file format v14

[General]
AudioFilename: audio.mp3
AudioLeadIn: 0
PreviewTime: 177
Countdown: 1
SampleSet: Soft
StackLeniency: 0.7
Mode: 0
LetterboxInBreaks: 0
WidescreenStoryboard: 1

[Editor]
Bookmarks: 9815,29015,48215,67415,86615,101015,105815,125015,144215,163415,182615,201815,216215,221015,240215,259415,278615,297815,317015,336215,342215
DistanceSpacing: 0.4
BeatDivisor: 4
GridSize: 32
TimelineZoom: 1.7

[Metadata]
Title:Itsuwari no Hana
TitleUnicode:偽リノ華
Artist:solfa feat. Aoba Ringo
ArtistUnicode:solfa feat. 青葉りんご
Creator:Lasse
Version:Petal
Source:HUNTING BLUE
Tags:full version eroge visual novel opening japanese female vocals LiLiM DARKNESS solfa works best album chronicle ~the moon~
BeatmapID:1890044
BeatmapSetID:905554

[Difficulty]
HPDrainRate:5.4
CircleSize:4
OverallDifficulty:9
ApproachRate:9.3
SliderMultiplier:2
SliderTickRate:1

[Events]
//Background and Video events
0,0,"d.jpg",0,0
//Break Periods
//Storyboard Layer 0 (Background)
//Storyboard Layer 1 (Fail)
//Storyboard Layer 2 (Pass)
//Storyboard Layer 3 (Foreground)
//Storyboard Sound Samples

[TimingPoints]
215,600,4,2,1,24,1,0
215,-125,4,2,1,24,0,0
5015,-100,4,2,1,40,0,0
8615,-100,4,2,1,50,0,0
8915,-100,4,2,3,50,0,0
9215,-83.3333333333333,4,2,3,50,0,0
9515,-83.3333333333333,4,2,2,50,0,0
9815,-71.4285714285714,4,1,2,60,0,0
19265,-71.4285714285714,4,1,3,60,0,0
19415,-71.4285714285714,4,1,2,60,0,0
27365,-71.4285714285714,4,1,3,60,0,0
27515,-71.4285714285714,4,1,2,60,0,0
27665,-71.4285714285714,4,1,3,60,0,0
27815,-71.4285714285714,4,1,2,60,0,0
28715,-71.4285714285714,4,1,3,60,0,0
29015,-111.111111111111,4,2,1,50,0,0
29165,-111.111111111111,4,2,1,42,0,0
47615,-111.111111111111,4,2,1,52,0,0
47765,-66.6666666666667,4,2,1,48,0,0
47915,-66.6666666666667,4,2,1,44,0,0
48215,-83.3333333333333,4,1,1,50,0,0
57665,-83.3333333333333,4,1,3,50,0,0
57815,-83.3333333333333,4,1,1,50,0,0
66215,-83.3333333333333,4,3,3,50,0,0
66365,-83.3333333333333,4,3,3,48,0,0
66515,-83.3333333333333,4,3,3,44,0,0
66665,-83.3333333333333,4,3,3,46,0,0
66815,-83.3333333333333,4,3,3,42,0,0
66965,-83.3333333333333,4,3,3,44,0,0
67115,-83.3333333333333,4,3,3,46,0,0
67415,-111.111111111111,4,2,1,42,0,0
76865,-111.111111111111,4,2,1,38,0,0
77015,-111.111111111111,4,2,1,42,0,0
85715,-111.111111111111,4,2,1,44,0,0
86615,-100,4,2,1,46,0,0
101015,-75.7575757575758,4,1,1,56,0,0
103115,-75.7575757575758,4,1,1,54,0,0
103415,-75.7575757575758,4,1,1,58,0,0
104315,-75.7575757575758,4,3,3,58,0,0
104915,-75.7575757575758,4,3,1,58,0,0
105215,-68.4931506849315,4,1,1,64,0,0
105365,-68.4931506849315,4,1,1,60,0,0
105515,-68.4931506849315,4,1,1,48,0,0
105815,-62.5,4,1,2,70,0,1
106865,-62.5,4,1,1,70,0,1
107615,-62.5,4,1,2,70,0,1
108215,-62.5,4,1,1,70,0,1
111215,-62.5,4,1,2,70,0,1
113015,-62.5,4,1,1,70,0,1
113615,-62.5,4,1,2,60,0,1
113765,-62.5,4,1,1,70,0,1
114815,-62.5,4,1,2,70,0,1
114965,-62.5,4,1,3,70,0,1
115115,-62.5,4,1,2,70,0,1
115265,-62.5,4,1,3,70,0,1
115415,-100,4,1,2,70,0,1
116315,-62.5,4,1,2,70,0,1
116465,-62.5,4,1,1,70,0,1
117215,-62.5,4,1,2,70,0,1
117515,-62.5,4,1,1,70,0,1
118415,-62.5,4,1,2,60,0,1
118565,-62.5,4,1,1,70,0,1
119615,-62.5,4,1,2,70,0,1
121115,-62.5,4,1,1,70,0,1
122015,-62.5,4,1,2,70,0,1
122615,-62.5,4,1,1,70,0,1
123215,-62.5,4,1,2,70,0,1
123365,-62.5,4,1,3,70,0,1
123515,-62.5,4,1,2,70,0,1
123665,-62.5,4,1,3,70,0,1
123815,-62.5,4,1,2,70,0,1
124415,-62.5,4,1,1,66,0,1
124715,-62.5,4,1,3,68,0,1
125015,-62.5,4,1,2,70,0,1
126065,-62.5,4,1,1,70,0,1
126815,-62.5,4,1,2,70,0,1
127415,-62.5,4,1,1,70,0,1
130415,-62.5,4,1,2,70,0,1
132215,-62.5,4,1,1,70,0,1
132815,-62.5,4,1,2,60,0,1
132965,-62.5,4,1,1,70,0,1
134015,-62.5,4,1,2,70,0,1
134165,-62.5,4,1,3,70,0,1
134315,-62.5,4,1,2,70,0,1
134465,-62.5,4,1,3,70,0,1
134615,-100,4,1,2,70,0,1
135515,-62.5,4,1,2,70,0,1
135665,-62.5,4,1,1,70,0,1
136415,-62.5,4,1,2,70,0,1
136715,-62.5,4,1,1,70,0,1
138815,-62.5,4,1,2,70,0,1
140315,-62.5,4,1,1,70,0,1
141215,-62.5,4,1,2,70,0,1
141515,-62.5,4,1,1,70,0,1
141815,-62.5,4,2,1,64,0,1
142415,-62.5,4,2,2,64,0,1
143615,-62.5,4,1,1,64,0,1
143915,-62.5,4,1,3,66,0,1
144215,-71.4285714285714,4,1,2,60,0,0
153665,-71.4285714285714,4,1,3,60,0,0
153815,-71.4285714285714,4,1,2,60,0,0
161765,-71.4285714285714,4,1,3,60,0,0
161915,-71.4285714285714,4,1,2,60,0,0
162065,-71.4285714285714,4,1,3,60,0,0
162215,-71.4285714285714,4,1,2,60,0,0
163115,-71.4285714285714,4,1,3,60,0,0
163415,-83.3333333333333,4,1,1,50,0,0
172865,-83.3333333333333,4,1,3,50,0,0
173015,-83.3333333333333,4,1,1,50,0,0
181415,-83.3333333333333,4,3,3,50,0,0
181565,-83.3333333333333,4,3,3,48,0,0
181715,-83.3333333333333,4,3,3,44,0,0
181865,-83.3333333333333,4,3,3,46,0,0
182015,-83.3333333333333,4,3,3,42,0,0
182165,-83.3333333333333,4,3,3,44,0,0
182315,-83.3333333333333,4,3,3,46,0,0
182615,-111.111111111111,4,2,1,42,0,0
192065,-111.111111111111,4,2,1,38,0,0
192215,-111.111111111111,4,2,1,42,0,0
200915,-111.111111111111,4,2,1,44,0,0
201815,-100,4,2,1,46,0,0
216215,-75.7575757575758,4,1,1,56,0,0
218315,-75.7575757575758,4,1,1,54,0,0
218615,-75.7575757575758,4,1,1,58,0,0
219515,-75.7575757575758,4,3,3,58,0,0
220115,-75.7575757575758,4,3,1,58,0,0
220415,-68.4931506849315,4,1,1,64,0,0
220565,-68.4931506849315,4,1,1,60,0,0
220715,-68.4931506849315,4,1,1,48,0,0
221015,-58.8235294117647,4,1,2,70,0,1
222065,-58.8235294117647,4,1,1,70,0,1
222815,-58.8235294117647,4,1,2,70,0,1
223415,-58.8235294117647,4,1,1,70,0,1
226415,-58.8235294117647,4,1,2,70,0,1
228215,-58.8235294117647,4,1,1,70,0,1
228815,-58.8235294117647,4,1,2,60,0,1
228965,-58.8235294117647,4,1,1,70,0,1
230015,-58.8235294117647,4,1,2,70,0,1
230165,-58.8235294117647,4,1,3,70,0,1
230315,-58.8235294117647,4,1,2,70,0,1
230465,-58.8235294117647,4,1,3,70,0,1
230615,-100,4,1,2,70,0,1
231515,-58.8235294117647,4,1,2,70,0,1
231665,-58.8235294117647,4,1,1,70,0,1
232415,-58.8235294117647,4,1,2,70,0,1
232715,-58.8235294117647,4,1,1,70,0,1
233615,-58.8235294117647,4,1,2,60,0,1
233765,-58.8235294117647,4,1,1,70,0,1
234815,-58.8235294117647,4,1,2,70,0,1
236315,-58.8235294117647,4,1,1,70,0,1
237215,-58.8235294117647,4,1,2,70,0,1
237815,-58.8235294117647,4,1,1,70,0,1
238415,-58.8235294117647,4,1,2,70,0,1
238565,-58.8235294117647,4,1,3,70,0,1
238715,-58.8235294117647,4,1,2,70,0,1
238865,-58.8235294117647,4,1,3,70,0,1
239015,-58.8235294117647,4,1,2,70,0,1
239615,-58.8235294117647,4,1,1,66,0,1
239915,-58.8235294117647,4,1,3,68,0,1
240215,-58.8235294117647,4,1,2,70,0,1
241265,-58.8235294117647,4,1,1,70,0,1
242015,-58.8235294117647,4,1,2,70,0,1
242615,-58.8235294117647,4,1,1,70,0,1
245615,-58.8235294117647,4,1,2,70,0,1
247415,-58.8235294117647,4,1,1,70,0,1
248015,-58.8235294117647,4,1,2,60,0,1
248165,-58.8235294117647,4,1,1,70,0,1
249215,-58.8235294117647,4,1,2,70,0,1
249365,-58.8235294117647,4,1,3,70,0,1
249515,-58.8235294117647,4,1,2,70,0,1
249665,-58.8235294117647,4,1,3,70,0,1
249815,-100,4,1,2,70,0,1
250715,-58.8235294117647,4,1,2,70,0,1
250865,-58.8235294117647,4,1,1,70,0,1
251615,-58.8235294117647,4,1,2,70,0,1
251915,-58.8235294117647,4,1,1,70,0,1
254015,-58.8235294117647,4,1,2,70,0,1
255515,-58.8235294117647,4,1,1,70,0,1
256415,-58.8235294117647,4,1,2,70,0,1
256715,-58.8235294117647,4,1,1,70,0,1
257015,-58.8235294117647,4,2,1,64,0,1
257615,-58.8235294117647,4,2,2,64,0,1
258815,-58.8235294117647,4,1,1,64,0,1
259115,-58.8235294117647,4,1,3,66,0,1
259415,-73.5294117647059,4,1,1,64,0,0
260015,-73.5294117647059,4,1,2,64,0,0
261815,-73.5294117647059,4,1,1,64,0,0
264815,-73.5294117647059,4,1,2,64,0,0
264965,-73.5294117647059,4,1,1,64,0,0
268415,-73.5294117647059,4,1,2,64,0,0
268565,-73.5294117647059,4,1,3,64,0,0
268715,-73.5294117647059,4,1,2,64,0,0
268865,-73.5294117647059,4,1,3,64,0,0
269015,-73.5294117647059,4,1,1,64,0,0
270815,-73.5294117647059,4,1,2,64,0,0
271415,-73.5294117647059,4,2,1,64,0,0
272015,-73.5294117647059,4,2,2,64,0,0
272690,-73.5294117647059,4,2,2,5,0,0
272765,-73.5294117647059,4,2,2,64,0,0
272840,-73.5294117647059,4,2,2,5,0,0
272915,-73.5294117647059,4,2,2,64,0,0
273815,-73.5294117647059,4,1,1,64,0,0
274640,-73.5294117647059,4,2,1,16,0,0
274715,-73.5294117647059,4,1,1,64,0,0
275615,-73.5294117647059,4,1,2,64,0,0
276215,-73.5294117647059,4,1,1,64,0,0
276815,-73.5294117647059,4,1,2,64,0,0
277115,-73.5294117647059,4,1,3,60,0,0
277715,-73.5294117647059,4,1,3,56,0,0
278015,-100,4,1,1,68,0,0
278165,-100,4,1,1,64,0,0
278465,-100,4,2,1,16,0,0
278615,-55.5555555555556,4,1,2,72,0,1
279665,-55.5555555555556,4,1,1,72,0,1
280415,-55.5555555555556,4,1,2,72,0,1
281015,-55.5555555555556,4,1,1,72,0,1
284015,-55.5555555555556,4,1,2,72,0,1
285815,-55.5555555555556,4,1,1,72,0,1
286415,-55.5555555555556,4,1,2,60,0,1
286565,-55.5555555555556,4,1,1,70,0,1
287615,-55.5555555555556,4,1,2,72,0,1
287765,-55.5555555555556,4,1,3,72,0,1
287915,-55.5555555555556,4,1,2,72,0,1
288065,-55.5555555555556,4,1,3,72,0,1
288215,-100,4,1,2,72,0,1
289115,-55.5555555555556,4,1,2,72,0,1
289265,-55.5555555555556,4,1,1,72,0,1
290015,-55.5555555555556,4,1,2,72,0,1
290315,-55.5555555555556,4,1,1,72,0,1
291215,-55.5555555555556,4,1,2,60,0,1
291365,-55.5555555555556,4,1,1,70,0,1
292415,-55.5555555555556,4,1,2,72,0,1
293915,-55.5555555555556,4,1,1,72,0,1
294815,-55.5555555555556,4,1,2,72,0,1
295415,-55.5555555555556,4,1,1,72,0,1
296015,-55.5555555555556,4,1,2,72,0,1
296165,-55.5555555555556,4,1,3,72,0,1
296315,-55.5555555555556,4,1,2,72,0,1
296465,-55.5555555555556,4,1,3,72,0,1
296615,-55.5555555555556,4,1,2,72,0,1
297215,-55.5555555555556,4,1,1,68,0,1
297515,-55.5555555555556,4,1,3,70,0,1
297815,-55.5555555555556,4,1,2,72,0,1
298865,-55.5555555555556,4,1,1,72,0,1
299615,-55.5555555555556,4,1,2,72,0,1
300215,-55.5555555555556,4,1,1,72,0,1
303215,-55.5555555555556,4,1,2,72,0,1
305015,-55.5555555555556,4,1,1,72,0,1
305615,-55.5555555555556,4,1,2,60,0,1
305765,-55.5555555555556,4,1,1,70,0,1
306815,-55.5555555555556,4,1,2,72,0,1
306965,-55.5555555555556,4,1,3,72,0,1
307115,-55.5555555555556,4,1,2,72,0,1
307265,-55.5555555555556,4,1,3,72,0,1
307415,-100,4,1,2,72,0,1
308315,-55.5555555555556,4,1,2,72,0,1
308465,-55.5555555555556,4,1,1,72,0,1
309215,-55.5555555555556,4,1,2,72,0,1
309515,-55.5555555555556,4,1,1,72,0,1
311615,-55.5555555555556,4,1,2,72,0,1
313115,-55.5555555555556,4,1,1,72,0,1
314015,-55.5555555555556,4,1,2,72,0,1
314315,-55.5555555555556,4,1,1,72,0,1
314615,-55.5555555555556,4,2,1,64,0,1
315215,-55.5555555555556,4,2,2,64,0,1
316415,-55.5555555555556,4,1,1,64,0,1
316715,-55.5555555555556,4,1,3,66,0,1
317015,-71.4285714285714,4,1,2,60,0,0
326465,-71.4285714285714,4,1,3,60,0,0
326615,-71.4285714285714,4,1,2,60,0,0
334565,-71.4285714285714,4,1,3,60,0,0
334715,-71.4285714285714,4,1,2,60,0,0
334865,-71.4285714285714,4,1,3,60,0,0
335015,-71.4285714285714,4,1,2,60,0,0
335915,-71.4285714285714,4,1,3,60,0,0
336215,-200,4,1,1,50,0,0
336290,-200,4,2,4,5,0,0
342215,-200,4,2,4,12,0,0

[Colours]
Combo1 : 250,190,230
Combo2 : 130,200,230
Combo3 : 255,230,140
Combo4 : 170,245,170

[HitObjects]
42,283,215,6,0,L|-6:252,1,40,2|0,0:2|0:0,0:0:0:0:
43,189,515,2,0,L|17:139,1,40,0|0,0:0|0:0,0:0:0:0:
90,108,815,2,0,L|92:55,2,40,0|0|0,0:0|0:0|0:0,0:0:0:0:
182,320,2315,6,0,L|189:270,2,40,0|0|2,0:0|0:0|0:0,0:0:0:0:
371,136,3515,5,2,0:0:0:0:
475,260,4715,5,0,0:0:0:0:
475,260,4865,1,0,0:0:0:0:
512,325,5015,6,0,P|470:308|416:306,1,100,2|0,3:2|0:0,0:0:0:0:
351,357,5465,2,0,L|338:301,1,50,2|0,0:0|1:0,0:0:0:0:
329,300,5915,2,0,L|336:243,1,50,2|0,0:0|3:0,0:0:0:0:
313,174,6215,2,0,P|280:154|219:152,2,100,8|0|0,2:3|3:0|1:0,0:0:0:0:
425,279,7115,5,2,0:0:0:0:
425,279,7265,1,0,3:0:0:0:
480,221,7415,2,0,L|468:165,1,50,2|0,0:0|3:0,0:0:0:0:
462,92,7715,2,0,L|365:57,1,100,0|0,3:0|1:0,0:0:0:0:
159,60,8315,6,0,L|178:102,2,33.3333333333333,8|0|0,3:3|3:0|3:0,0:0:0:0:
70,9,8615,5,8,0:0:0:0:
74,42,8715,1,8,0:0:0:0:
77,75,8815,1,8,0:0:0:0:
79,108,8915,5,8,0:3:0:0:
75,120,8990,1,8,0:3:0:0:
70,131,9065,1,8,0:3:0:0:
64,142,9140,1,8,0:3:0:0:
60,151,9215,6,0,L|-2:178,1,59.9999981689454,4|4,0:3|0:3,0:0:0:0:
109,223,9515,5,8,0:3:0:0:
113,229,9590,1,8,0:3:0:0:
117,235,9665,1,8,0:3:0:0:
121,241,9740,1,8,0:3:0:0:
125,247,9815,6,0,B|186:260|167:315|221:356,1,139.999995727539,12|0,0:3|0:0,0:0:0:0:
283,383,10265,1,0,0:0:0:0:
256,258,10415,2,0,P|308:209|379:209,1,139.999995727539,12|0,0:1|0:0,0:0:0:0:
248,139,10865,6,0,L|176:127,1,69.9999978637695,2|0,0:2|0:0,0:0:0:0:
334,38,11165,1,8,0:2:0:0:
179,128,11315,2,0,B|139:145|139:145|29:107,2,139.999995727539,8|8|0,0:3|0:2|0:0,0:0:0:0:
334,38,12065,1,8,0:2:0:0:
316,176,12215,5,10,0:3:0:0:
226,16,12365,1,8,0:2:0:0:
179,128,12515,2,0,L|162:200,1,69.9999978637695,8|0,0:3|0:0,0:0:0:0:
10,68,12815,2,0,P|66:29|132:45,1,139.999995727539,12|0,0:1|0:0,0:0:0:0:
213,277,13265,6,0,P|146:293|90:254,1,139.999995727539,10|8,0:3|0:2,0:0:0:0:
2,374,13715,2,0,L|6:305,1,69.9999978637695,8|0,0:3|0:0,0:0:0:0:
122,378,14015,1,8,0:2:0:0:
137,184,14165,2,0,P|71:168|15:207,1,139.999995727539,8|8,0:3|0:2,0:0:0:0:
213,277,14615,6,0,B|293:295|248:334|341:368,1,139.999995727539,10|0,0:3|0:0,0:0:0:0:
396,383,15065,1,8,0:3:0:0:
486,221,15215,2,0,B|407:238|452:277|379:303,1,139.999995727539,12|8,0:1|0:3,0:0:0:0:
478,129,15665,6,0,P|420:94|337:81,1,139.999995727539,10|8,0:3|0:2,0:0:0:0:
277,209,16115,2,0,L|285:288,1,69.9999978637695,8|0,0:3|0:0,0:0:0:0:
139,116,16415,2,0,L|150:40,1,69.9999978637695,8|8,0:2|0:3,0:0:0:0:
58,324,16865,5,0,3:0:0:0:
58,324,16940,1,0,3:0:0:0:
58,324,17015,1,10,0:3:0:0:
138,284,17165,2,0,L|-16:264,1,139.999995727539,8|0,0:2|0:0,0:0:0:0:
219,223,17615,2,0,P|225:153|256:91,1,139.999995727539,12|8,0:1|0:3,0:0:0:0:
296,301,18065,6,0,L|370:322,1,69.9999978637695,10|0,0:3|0:0,0:0:0:0:
499,263,18365,1,10,0:2:0:0:
367,341,18515,2,0,L|285:345,1,69.9999978637695,8|0,0:3|0:0,0:0:0:0:
176,145,18815,2,0,P|192:113|196:77,1,69.9999978637695,10|0,0:2|0:0,0:0:0:0:
28,152,19115,5,10,0:2:0:0:
187,238,19265,1,8,0:3:0:0:
0,280,19415,6,0,B|74:253|28:222|110:200,1,139.999995727539,12|0,0:3|0:0,0:0:0:0:
148,119,19865,1,0,0:0:0:0:
120,287,20015,2,0,P|173:334|236:309,1,139.999995727539,12|0,0:1|0:0,0:0:0:0:
370,226,20465,6,0,L|283:216,1,69.9999978637695,2|0,0:2|0:0,0:0:0:0:
232,313,20765,1,8,0:2:0:0:
395,223,20915,2,0,B|441:243|441:243|450:278|450:278|511:323,2,139.999995727539,8|8|0,0:3|0:2|0:0,0:0:0:0:
248,122,21665,1,8,0:2:0:0:
209,326,21815,5,10,0:3:0:0:
242,153,21965,1,8,0:2:0:0:
91,256,22115,2,0,L|171:245,1,69.9999978637695,8|0,0:3|0:0,0:0:0:0:
1,188,22415,2,0,P|-9:120|33:68,1,139.999995727539,12|0,0:1|0:0,0:0:0:0:
209,37,22865,6,0,L|143:11,1,69.9999978637695,10|0,0:3|0:0,0:0:0:0:
220,54,23165,1,8,0:2:0:0:
142,181,23315,2,0,L|210:167,1,69.9999978637695,8|0,0:3|0:0,0:0:0:0:
128,196,23615,1,8,0:2:0:0:
321,287,23765,2,0,L|310:217,1,69.9999978637695,8|0,0:3|0:0,0:0:0:0:
311,305,24065,1,8,0:2:0:0:
512,168,24215,6,0,B|451:162|470:106|389:103,1,139.999995727539,10|0,0:3|0:0,0:0:0:0:
335,27,24665,1,8,0:3:0:0:
286,221,24815,2,0,P|241:247|149:231,1,139.999995727539,12|8,0:1|0:3,0:0:0:0:
360,356,25265,6,0,L|383:209,1,139.999995727539,10|8,0:3|0:2,0:0:0:0:
289,0,25715,2,0,L|325:76,1,69.9999978637695,8|0,0:3|0:0,0:0:0:0:
112,113,26015,2,0,L|179:132,1,69.9999978637696,8|8,0:2|0:3,0:0:0:0:
0,291,26465,5,0,3:0:0:0:
0,291,26540,1,0,3:0:0:0:
0,291,26615,1,10,0:2:0:0:
81,311,26765,1,8,0:2:0:0:
154,257,26915,1,8,0:3:0:0:
146,159,27065,1,8,0:3:0:0:
267,64,27215,5,14,0:2:0:0:
163,170,27365,1,8,0:3:0:0:
152,36,27515,5,10,0:2:0:0:
284,75,27665,1,4,0:3:0:0:
89,97,27815,6,0,L|5:79,1,69.9999978637695,10|8,0:2|0:3,0:0:0:0:
125,273,28115,2,0,L|56:287,1,69.9999978637695,10|8,0:2|0:3,0:0:0:0:
275,374,28415,5,0,3:0:0:0:
279,345,28490,1,0,3:0:0:0:
284,319,28565,1,0,3:0:0:0:
289,292,28640,1,0,3:0:0:0:
297,250,28715,5,8,3:3:0:0:
313,279,28790,1,8,3:3:0:0:
331,308,28865,1,8,3:3:0:0:
348,341,28940,1,8,3:3:0:0:
353,329,29015,5,12,0:3:0:0:
353,329,29465,2,0,L|302:319,1,44.999998626709,8|0,0:3|1:0,0:0:0:0:
308,320,30365,1,8,0:3:0:0:
413,274,30515,2,0,L|512:246,1,89.999997253418,8|0,0:3|1:0,0:0:0:0:
348,32,31415,5,8,0:3:0:0:
348,32,31565,2,0,L|331:178,1,134.999995880127,8|0,0:3|1:0,0:0:0:0:
332,166,32915,1,8,0:3:0:0:
204,21,33215,1,0,1:0:0:0:
214,111,33365,1,8,0:3:0:0:
67,192,33815,5,10,0:3:0:0:
67,192,34265,2,0,L|12:187,1,44.999998626709,8|4,0:3|1:2,0:0:0:0:
22,187,35165,1,8,0:3:0:0:
140,257,35315,2,0,L|160:159,1,89.9999972534181,8|0,0:3|1:0,0:0:0:0:
297,348,36215,5,8,0:3:0:0:
297,348,36365,2,0,L|291:210,1,134.999995880127,8|0,0:3|1:0,0:0:0:0:
291,213,37715,1,8,0:3:0:0:
445,127,38015,1,0,1:0:0:0:
512,216,38165,1,8,0:3:0:0:
505,6,38615,5,12,0:3:0:0:
505,6,39065,2,0,L|459:22,1,44.999998626709,8|0,0:3|1:0,0:0:0:0:
462,20,39965,1,8,0:3:0:0:
379,125,40115,2,0,L|379:30,1,89.9999972534181,8|0,0:3|1:0,0:0:0:0:
226,163,41015,5,8,0:3:0:0:
226,163,41165,2,0,B|293:167|277:206|334:238,1,134.999995880127,8|0,0:3|1:0,0:0:0:0:
332,237,42515,1,8,0:3:0:0:
198,365,42815,1,0,1:0:0:0:
170,261,42965,1,8,0:3:0:0:
4,361,43415,5,10,0:3:0:0:
4,361,43865,2,0,L|15:307,1,44.999998626709,8|4,0:3|0:2,0:0:0:0:
70,159,44315,5,2,0:0:0:0:
92,234,44465,1,0,0:0:0:0:
146,178,44615,1,0,0:0:0:0:
16,215,44765,5,8,0:3:0:0:
157,174,44915,2,0,L|249:151,1,89.9999972534181,8|0,0:3|1:0,0:0:0:0:
377,84,45515,5,2,0:0:0:0:
309,40,45665,1,0,0:0:0:0:
440,30,45815,5,10,0:3:0:0:
440,30,45965,2,0,L|427:167,1,134.999995880127,8|4,0:3|1:2,0:0:0:0:
508,283,46715,5,2,0:0:0:0:
409,342,47015,2,0,L|316:330,1,89.9999972534181,2|8,0:0|0:3,0:0:0:0:
255,370,47465,1,2,0:0:0:0:
169,191,47615,5,8,1:2:0:0:
250,287,47765,2,0,L|260:188,1,75.0000028610231,8|2,0:3|0:0,0:0:0:0:
257,194,48215,6,0,B|204:180|203:220|148:230,2,119.999996337891,12|0|12,0:3|0:0|0:2,0:0:0:0:
395,83,49115,1,2,0:2:0:0:
395,83,49265,2,0,L|270:57,1,119.999996337891,8|8,0:3|0:2,0:0:0:0:
402,192,49715,2,0,L|261:222,1,119.999996337891,8|8,0:3|0:2,0:0:0:0:
469,335,50465,5,0,3:0:0:0:
469,335,50540,1,0,3:0:0:0:
469,335,50615,1,10,0:3:0:0:
377,367,50765,2,0,P|373:329|410:174,1,179.999994506836,8|12,0:3|0:2,0:0:0:0:
401,191,51515,2,0,L|465:188,1,59.9999981689454,2|8,0:2|0:3,0:0:0:0:
512,100,51965,1,8,0:2:0:0:
512,100,52115,2,0,P|444:98|368:74,1,119.999996337891,8|8,0:3|0:2,0:0:0:0:
307,173,52565,2,0,L|292:35,1,119.999996337891,8|8,0:3|0:2,0:0:0:0:
156,130,53015,6,0,L|183:2,1,119.999996337891,10|0,0:3|0:0,0:0:0:0:
294,53,53465,1,8,0:3:0:0:
153,34,53615,1,12,0:2:0:0:
26,169,53915,1,10,0:3:0:0:
26,169,54065,2,0,P|62:157|157:166,1,119.999996337891,8|8,0:3|0:2,0:0:0:0:
211,296,54515,2,0,L|233:163,1,119.999996337891,8|8,0:3|0:2,0:0:0:0:
7,355,55265,5,0,3:0:0:0:
7,355,55340,1,0,3:0:0:0:
7,355,55415,1,10,0:3:0:0:
99,330,55565,2,0,P|43:326|22:209,1,179.999994506836,8|12,0:2|0:2,0:0:0:0:
105,41,56315,1,2,0:2:0:0:
152,103,56465,2,0,L|13:80,1,119.999996337891,8|8,0:3|0:2,0:0:0:0:
146,192,56915,2,0,L|270:172,1,119.999996337891,12|8,0:1|0:2,0:0:0:0:
512,55,57515,5,10,0:2:0:0:
339,14,57665,1,8,0:3:0:0:
429,209,57815,6,0,P|417:166|415:79,2,119.999996337891,12|0|12,0:3|0:0|0:2,0:0:0:0:
512,374,58715,1,2,0:2:0:0:
512,374,58865,2,0,L|386:346,1,119.999996337891,8|8,0:3|0:2,0:0:0:0:
216,320,59315,2,0,L|330:284,1,119.999996337891,8|8,0:3|0:2,0:0:0:0:
111,218,60065,5,0,3:0:0:0:
111,218,60140,1,0,3:0:0:0:
111,218,60215,1,10,0:3:0:0:
77,305,60365,2,0,P|69:204|41:103,1,179.999994506836,8|12,0:3|0:2,0:0:0:0:
50,128,61115,2,0,L|67:65,1,59.9999981689454,2|8,0:2|0:3,0:0:0:0:
203,17,61565,1,8,0:2:0:0:
203,17,61715,2,0,P|187:94|187:157,1,119.999996337891,8|8,0:3|0:2,0:0:0:0:
315,82,62165,2,0,P|331:159|331:222,1,119.999996337891,8|8,0:3|0:2,0:0:0:0:
489,153,62615,6,0,P|473:230|473:293,1,119.999996337891,10|0,0:3|0:0,0:0:0:0:
512,355,63065,1,8,0:3:0:0:
388,270,63215,1,12,0:2:0:0:
176,348,63515,5,10,0:1:0:0:
272,337,63665,1,10,0:3:0:0:
176,348,63815,2,0,L|103:325,1,59.9999981689454,2|8,0:1|0:2,0:0:0:0:
215,260,64115,2,0,P|227:206|208:142,1,119.999996337891,8|8,0:3|0:2,0:0:0:0:
23,39,64715,5,2,0:1:0:0:
53,132,64865,1,2,3:2:0:0:
53,132,64940,1,2,3:2:0:0:
53,132,65015,5,10,0:1:0:0:
130,36,65165,1,8,0:2:0:0:
185,163,65315,5,8,0:3:0:0:
145,54,65465,1,8,0:3:0:0:
25,227,65615,5,12,0:2:0:0:
241,330,65915,5,10,3:1:0:0:
267,322,66015,1,8,3:1:0:0:
294,316,66115,1,8,3:1:0:0:
321,308,66215,5,10,0:3:0:0:
431,363,66365,2,0,L|439:280,1,59.9999981689454,10|0,0:3|0:0,0:0:0:0:
332,146,66665,2,0,L|337:205,1,59.9999981689454,6|0,0:3|0:0,0:0:0:0:
467,108,66965,2,0,L|472:48,1,59.9999981689454,4|10,0:3|0:3,0:0:0:0:
498,40,67415,6,0,B|294:0|369:158|161:135,1,359.999989013672,4|0,1:3|0:0,0:0:0:0:
99,179,68765,2,0,L|86:118,1,44.999998626709,8|8,0:3|0:3,0:0:0:0:
21,8,69215,2,0,L|13:113,1,89.9999972534181,0|0,1:0|0:0,0:0:0:0:
0,223,69815,6,0,B|204:183|129:341|336:318,1,359.999989013672,10|0,2:3|0:0,0:0:0:0:
489,380,71315,2,0,L|495:290,1,89.9999972534181,8|0,0:3|1:0,0:0:0:0:
478,267,72215,6,0,B|433:271|394:245|394:245|333:240|316:296,2,179.999994506836,10|4|0,0:3|1:1|0:0,0:0:0:0:
512,154,73565,2,0,P|496:136|475:118,1,44.999998626709,8|8,0:3|0:3,0:0:0:0:
347,58,74015,2,0,P|399:54|454:39,1,89.9999972534181,0|0,1:0|0:0,0:0:0:0:
252,15,74615,5,8,0:3:0:0:
252,15,74765,1,8,0:3:0:0:
252,15,74915,2,0,L|244:115,2,89.9999972534181,2|0|0,0:0|1:0|0:0,0:0:0:0:
178,181,75815,2,0,L|155:80,1,89.9999972534181,2|8,0:0|0:3,0:0:0:0:
262,230,76415,2,0,L|272:186,1,44.999998626709,0|8,1:0|0:3,0:0:0:0:
481,172,76865,5,0,3:0:0:0:
463,96,77015,2,0,B|401:215|435:324|435:324|373:369|324:314,1,359.999989013672,12|0,0:3|0:0,0:0:0:0:
254,376,78365,2,0,L|242:314,1,44.999998626709,8|8,0:3|0:3,0:0:0:0:
54,363,78815,2,0,L|69:262,1,89.9999972534181,0|0,1:0|0:0,0:0:0:0:
0,119,79415,6,0,B|202:110|85:290|286:296,1,359.999989013672,10|0,0:3|0:0,0:0:0:0:
435,384,80915,2,0,L|449:289,1,89.9999972534181,8|0,0:3|1:0,0:0:0:0:
433,280,81815,6,0,P|386:295|284:227,2,179.999994506836,10|4|0,0:3|1:1|0:0,0:0:0:0:
506,219,83165,2,0,L|513:154,1,44.999998626709,8|8,0:3|0:3,0:0:0:0:
470,16,83615,2,0,L|454:116,1,89.9999972534181,0|0,1:0|0:0,0:0:0:0:
316,156,84215,5,8,0:3:0:0:
316,156,84365,1,8,0:3:0:0:
316,156,84515,2,0,L|300:55,2,89.9999972534181,2|0|0,0:0|1:0|0:0,0:0:0:0:
308,176,85715,5,12,0:1:0:0:
201,19,86015,1,0,1:0:0:0:
166,114,86165,1,8,0:3:0:0:
152,95,86615,6,0,L|171:310,2,200,12|0|0,0:3|1:0|0:0,0:0:0:0:
86,10,87965,2,0,P|78:37|77:65,1,50,8|8,0:3|0:3,0:0:0:0:
183,189,88415,2,0,P|168:131|148:87,1,100,0|0,1:0|0:0,0:0:0:0:
5,215,89015,6,0,P|4:155|12:107,2,100,10|8|0,0:3|0:3|1:0,0:0:0:0:
129,306,89915,2,0,L|240:288,2,100,2|0|8,0:0|0:0|0:3,0:0:0:0:
21,384,90815,2,0,L|51:285,1,100,0|0,1:0|0:0,0:0:0:0:
194,185,91415,6,0,P|140:181|87:153,1,100,12|0,2:1|0:0,0:0:0:0:
25,86,91865,1,8,0:3:0:0:
25,86,92015,2,0,P|70:65|120:63,1,100,8|0,0:2|0:0,0:0:0:0:
140,79,92765,1,8,0:3:0:0:
140,79,92915,2,0,L|122:197,2,100,8|0|0,0:3|1:0|0:0,0:0:0:0:
311,124,93815,5,8,0:3:0:0:
311,124,93965,1,8,0:3:0:0:
311,124,94115,2,0,L|296:20,2,100,2|0|0,0:0|1:0|0:0,0:0:0:0:
403,217,95015,2,0,L|424:105,1,100,2|8,0:0|0:3,0:0:0:0:
512,297,95615,2,0,L|499:235,1,50,0|8,1:0|0:3,0:0:0:0:
499,229,96215,6,0,P|459:214|386:222,1,100,12|0,0:3|0:0,0:0:0:0:
324,279,96665,1,8,0:3:0:0:
324,279,96815,2,0,P|274:282|227:266,1,100,0|0,1:0|0:0,0:0:0:0:
212,277,97565,2,0,L|217:221,1,50,8|8,0:3|0:3,0:0:0:0:
135,366,98015,2,0,L|118:255,1,100,0|0,1:0|0:0,0:0:0:0:
0,338,98615,5,8,0:3:0:0:
0,338,98765,1,8,0:3:0:0:
0,338,98915,2,0,L|15:221,1,100,2|0,0:0|1:0,0:0:0:0:
97,151,99515,2,0,P|112:214|131:258,2,100,2|0|8,0:0|0:0|0:3,0:0:0:0:
194,26,100415,2,0,P|186:58|176:89,1,50,0|8,1:0|0:3,0:0:0:0:
171,96,101015,6,0,B|243:100|218:149|267:177,1,131.999999597168,12|0,0:3|0:0,0:0:0:0:
295,256,101465,1,8,0:3:0:0:
286,71,101615,2,0,P|331:37|430:33,2,131.999999597168,12|0|0,0:2|0:0|0:0,0:0:0:0:
157,180,102365,5,8,0:3:0:0:
201,16,102515,1,8,0:3:0:0:
283,321,102815,5,8,0:3:0:0:
512,119,103115,5,2,0:2:0:0:
408,64,103265,1,8,0:2:0:0:
386,285,103415,5,10,0:2:0:0:
495,256,103565,1,0,3:0:0:0:
495,256,103640,1,0,3:0:0:0:
495,256,103715,2,0,P|458:239|424:210,1,65.999999798584,0|0,1:1|0:0,0:0:0:0:
350,96,104015,2,0,P|387:79|421:50,1,65.999999798584,12|0,0:2|0:0,0:0:0:0:
233,0,104315,5,8,1:3:0:0:
190,221,104465,1,4,1:3:0:0:
182,206,104915,5,8,0:3:0:0:
402,355,105215,5,12,0:2:0:0:
402,355,105365,2,0,L|415:258,1,73.0000020050049,8|0,0:3|0:0,0:0:0:0:
82,131,105815,5,12,0:3:0:0:
206,194,105965,2,0,B|121:187|154:243|59:271,1,160,8|0,0:3|0:0,0:0:0:0:
241,367,106415,2,0,P|244:317|255:275,1,79.9999999999999,14|0,0:1|0:0,0:0:0:0:
474,188,106715,5,10,0:3:0:0:
400,374,106865,2,0,P|393:297|368:205,1,160,10|8,0:1|0:2,0:0:0:0:
456,91,107315,2,0,B|418:101|418:101|379:87,1,79.9999999999999,10|0,0:1|0:0,0:0:0:0:
250,0,107615,5,10,0:1:0:0:
314,143,107765,1,10,0:3:0:0:
158,126,107915,1,2,0:1:0:0:
6,223,108065,5,0,3:3:0:0:
6,223,108140,1,0,3:3:0:0:
6,223,108215,1,10,1:1:0:0:
158,126,108365,1,8,0:2:0:0:
0,131,108515,2,0,B|59:141|59:141|87:183|87:183|134:207,1,160,10|12,0:3|0:2,0:0:0:0:
153,213,109115,5,10,0:3:0:0:
158,126,109265,1,8,0:3:0:0:
166,233,109415,5,2,0:1:0:0:
255,90,109565,2,0,P|253:54|224:13,1,79.9999999999999,8|8,0:2|0:3,0:0:0:0:
178,253,109865,1,2,0:1:0:0:
319,174,110015,2,0,L|418:152,1,79.9999999999999,8|8,0:2|0:3,0:0:0:0:
152,116,110315,2,0,L|51:102,1,79.9999999999999,2|8,0:0|0:2,0:0:0:0:
189,343,110615,6,0,P|203:246|224:172,1,160,10|0,0:3|0:0,0:0:0:0:
333,319,111065,1,8,0:3:0:0:
151,232,111215,2,0,B|71:208|81:278|-27:288,1,160,14|8,0:0|0:3,0:0:0:0:
42,351,111665,1,8,0:3:0:0:
99,117,111815,5,2,0:1:0:0:
173,252,111965,1,8,0:2:0:0:
213,62,112115,2,0,L|200:149,1,79.9999999999999,10|0,0:3|0:0,0:0:0:0:
11,89,112415,2,0,L|0:9,1,79.9999999999999,14|0,0:1|0:0,0:0:0:0:
5,282,112715,5,2,0:2:0:0:
180,259,112865,1,0,3:3:0:0:
180,259,112940,1,0,3:3:0:0:
180,259,113015,2,0,L|285:287,1,79.9999999999999,10|8,0:1|0:2,0:0:0:0:
497,250,113315,5,10,0:3:0:0:
353,134,113465,2,0,P|340:105|333:49,1,79.9999999999999,2|12,0:1|0:1,0:0:0:0:
372,308,113765,5,2,0:2:0:0:
499,117,113915,2,0,P|508:86|510:30,1,79.9999999999999,10|8,0:1|0:3,0:0:0:0:
500,26,114365,5,8,0:2:0:0:
353,134,114515,2,0,L|249:107,1,79.9999999999999,12|0,0:1|0:0,0:0:0:0:
151,8,114815,5,10,0:1:0:0:
186,175,114965,1,8,0:3:0:0:
0,287,115115,5,10,0:1:0:0:
87,98,115265,1,4,0:3:0:0:
281,261,115415,6,0,B|399:278|328:331|448:385,1,200,12|12,0:3|0:1,0:0:0:0:
453,374,116315,5,10,0:3:0:0:
329,302,116465,2,0,B|258:272|259:336|166:343,1,160,10|8,0:3|0:2,0:0:0:0:
46,383,116915,2,0,L|32:286,1,79.9999999999999,10|0,0:3|0:0,0:0:0:0:
125,124,117215,5,10,0:1:0:0:
17,292,117365,1,8,0:3:0:0:
23,75,117515,5,10,0:1:0:0:
123,237,117665,1,0,3:0:0:0:
123,237,117740,1,0,3:0:0:0:
123,237,117815,2,0,L|214:222,1,79.9999999999999,10|8,0:1|0:2,0:0:0:0:
350,110,118115,5,10,0:3:0:0:
290,333,118265,2,0,P|287:277|279:242,1,79.9999999999999,2|12,0:1|0:1,0:0:0:0:
204,107,118565,5,2,0:2:0:0:
351,202,118715,2,0,P|387:212|428:219,1,79.9999999999999,2|8,0:1|0:3,0:0:0:0:
447,212,119165,5,8,0:2:0:0:
368,318,119315,2,0,L|270:336,1,79.9999999999999,8|0,0:3|0:0,0:0:0:0:
88,280,119615,5,10,0:1:0:0:
275,349,119765,1,8,0:3:0:0:
351,202,119915,5,2,0:1:0:0:
169,302,120065,1,8,0:2:0:0:
73,93,120215,6,0,B|115:125|115:125|122:179|122:179|149:230,1,160,10|0,0:3|0:0,0:0:0:0:
289,361,120665,1,10,0:3:0:0:
140,319,120815,2,0,L|35:305,1,79.9999999999999,12|0,0:1|0:0,0:0:0:0:
317,217,121115,5,10,0:1:0:0:
241,105,121265,2,0,B|211:186|253:185|225:272,1,160,8|8,0:3|0:2,0:0:0:0:
74,109,121715,2,0,L|154:97,1,79.9999999999999,10|0,0:1|0:0,0:0:0:0:
396,228,122015,2,0,L|316:216,1,79.9999999999999,10|8,0:1|0:3,0:0:0:0:
192,0,122315,5,2,0:0:0:0:
114,262,122465,1,0,3:0:0:0:
88,249,122540,1,0,3:0:0:0:
69,224,122615,5,14,0:1:0:0:
148,112,122765,1,8,0:2:0:0:
305,84,122915,1,8,0:3:0:0:
437,199,123065,1,8,0:3:0:0:
467,14,123215,5,14,0:0:0:0:
356,234,123365,1,8,0:3:0:0:
512,342,123515,5,10,0:1:0:0:
365,151,123665,1,4,0:3:0:0:
235,354,123815,6,0,P|285:344|325:338,1,79.9999999999999,10|8,0:0|0:3,0:0:0:0:
176,118,124115,2,0,P|216:126|256:131,1,80,10|8,0:0|0:3,0:0:0:0:
30,303,124415,5,8,3:2:0:0:
53,298,124490,1,0,3:3:0:0:
77,294,124565,1,0,3:3:0:0:
100,290,124640,1,0,3:3:0:0:
120,267,124715,5,8,3:3:0:0:
158,277,124790,1,8,3:3:0:0:
197,288,124865,1,8,3:3:0:0:
235,298,124940,1,8,3:3:0:0:
241,312,125015,5,12,0:3:0:0:
149,199,125165,2,0,B|112:169|112:169|-21:161,1,160,8|0,0:3|0:0,0:0:0:0:
192,38,125615,2,0,P|191:84|205:128,1,79.9999999999999,14|0,0:1|0:0,0:0:0:0:
361,293,125915,5,10,0:3:0:0:
306,225,126065,2,0,B|285:165|320:148|289:48,1,160,10|8,0:1|0:2,0:0:0:0:
232,262,126515,2,0,P|194:259|152:242,1,79.9999999999999,10|0,0:1|0:0,0:0:0:0:
361,293,126815,2,0,B|450:295|404:358|496:380,1,160,10|0,0:1|0:1,0:0:0:0:
512,194,127265,5,0,3:3:0:0:
512,194,127340,1,0,3:3:0:0:
512,194,127415,1,10,1:1:0:0:
361,293,127565,1,8,0:2:0:0:
400,63,127715,2,0,P|402:139|421:228,1,160,10|12,0:3|0:2,0:0:0:0:
436,238,128315,5,10,0:3:0:0:
512,194,128465,1,8,0:3:0:0:
452,255,128615,5,2,0:1:0:0:
318,127,128765,2,0,P|303:96|297:46,1,79.9999999999999,8|8,0:2|0:3,0:0:0:0:
275,244,129065,1,2,0:1:0:0:
405,106,129215,2,0,P|452:88|501:89,1,79.9999999999999,8|8,0:2|0:3,0:0:0:0:
472,343,129515,2,0,P|432:339|395:323,1,79.9999999999999,2|8,0:0|0:2,0:0:0:0:
318,127,129815,6,0,P|295:55|200:57,1,160,10|0,0:3|0:0,0:0:0:0:
134,1,130265,1,8,0:3:0:0:
31,187,130415,2,0,P|54:115|149:117,1,160,14|8,0:0|0:3,0:0:0:0:
190,206,130865,1,8,0:3:0:0:
8,280,131015,5,2,0:1:0:0:
143,124,131165,1,8,0:2:0:0:
130,346,131315,2,0,P|119:307|114:255,1,79.9999999999999,10|0,0:3|0:0,0:0:0:0:
303,175,131615,2,0,P|298:214|287:253,1,79.9999999999999,10|0,0:1|0:0,0:0:0:0:
144,147,131915,5,2,0:2:0:0:
285,285,132065,1,0,3:3:0:0:
285,285,132140,1,0,3:3:0:0:
285,285,132215,2,0,L|391:279,1,79.9999999999999,10|8,0:1|0:2,0:0:0:0:
214,346,132515,5,10,0:3:0:0:
386,272,132665,2,0,P|397:229|394:184,1,79.9999999999999,2|12,0:1|0:1,0:0:0:0:
248,145,132965,5,2,0:2:0:0:
411,283,133115,2,0,L|497:306,1,79.9999999999999,10|8,0:1|0:3,0:0:0:0:
500,321,133565,5,8,0:2:0:0:
291,366,133715,2,0,L|213:345,1,79.9999999999999,12|0,0:1|0:0,0:0:0:0:
17,139,134015,5,10,0:1:0:0:
103,359,134165,1,8,0:3:0:0:
248,129,134315,5,10,0:1:0:0:
0,230,134465,1,4,0:3:0:0:
33,15,134615,6,0,B|145:43|69:81|160:172,1,200,12|12,0:3|0:1,0:0:0:0:
168,171,135515,5,10,0:3:0:0:
148,274,135665,2,0,B|65:280|90:210|-15:233,1,160,10|8,0:3|0:2,0:0:0:0:
250,230,136115,2,0,P|259:185|281:136,1,79.9999999999999,10|0,0:3|0:0,0:0:0:0:
371,372,136415,5,10,0:1:0:0:
231,316,136565,1,8,0:3:0:0:
370,176,136715,5,10,0:1:0:0:
429,272,136865,1,0,3:0:0:0:
429,272,136940,1,0,3:0:0:0:
429,272,137015,5,10,0:1:0:0:
471,93,137165,1,8,0:2:0:0:
292,51,137315,1,8,0:3:0:0:
249,230,137465,1,8,0:3:0:0:
11,270,137615,5,12,0:2:0:0:
23,285,137915,6,0,L|106:283,1,79.9999999999999,2|8,0:2|0:3,0:0:0:0:
235,128,138215,5,2,0:1:0:0:
110,106,138365,2,0,P|70:83|39:38,1,79.9999999999999,10|8,0:2|0:3,0:0:0:0:
343,131,138665,5,2,0:1:0:0:
150,219,138815,2,0,P|126:244|92:309,1,79.9999999999999,10|8,0:2|0:3,0:0:0:0:
408,203,139115,5,2,0:1:0:0:
235,128,139265,1,8,0:2:0:0:
474,48,139415,6,0,B|402:50|412:114|342:130,1,160,10|0,0:3|0:0,0:0:0:0:
230,24,139865,1,8,0:3:0:0:
144,220,140015,2,0,L|155:122,1,80,14|0,0:2|0:0,0:0:0:0:
0,234,140315,5,10,0:1:0:0:
170,125,140465,2,0,B|225:133|225:133|246:169|246:169|303:215,1,160,8|8,0:3|0:2,0:0:0:0:
458,84,140915,2,0,P|421:80|378:72,1,80,10|0,0:3|0:2,0:0:0:0:
368,329,141215,2,0,P|407:321|447:317,1,80,10|8,0:2|0:3,0:0:0:0:
247,111,141515,5,2,0:0:0:0:
156,334,141665,1,0,3:0:0:0:
134,343,141740,1,0,3:0:0:0:
110,337,141815,5,10,2:1:0:0:
51,202,141965,1,8,0:2:0:0:
109,147,142115,1,0,0:2:0:0:
94,116,142265,1,0,0:2:0:0:
0,289,142415,5,14,0:2:0:0:
76,321,142565,1,0,0:0:0:0:
74,354,142715,1,0,0:0:0:0:
0,263,142865,1,8,0:3:0:0:
40,193,143015,5,2,0:0:0:0:
68,202,143165,1,0,0:0:0:0:
0,95,143315,1,8,0:3:0:0:
43,36,143465,1,0,0:0:0:0:
115,134,143615,5,8,3:2:0:0:
138,139,143690,1,0,3:0:0:0:
162,143,143765,1,0,3:0:0:0:
185,147,143840,1,0,3:0:0:0:
203,173,143915,5,8,3:3:0:0:
223,139,143990,1,8,3:3:0:0:
245,105,144065,1,8,3:3:0:0:
266,72,144140,1,8,3:3:0:0:
259,57,144215,6,0,B|298:72|298:72|327:117|327:117|378:146,1,139.999995727539,12|0,0:3|0:0,0:0:0:0:
436,202,144665,1,0,0:0:0:0:
395,57,144815,2,0,P|435:14|528:7,1,139.999995727539,12|0,0:1|0:0,0:0:0:0:
306,88,145265,6,0,L|234:76,1,69.9999978637695,2|0,0:2|0:0,0:0:0:0:
395,57,145565,1,8,0:2:0:0:
237,77,145715,2,0,B|198:64|198:64|144:85|144:85|104:73,2,139.999995727539,8|8|0,0:3|0:2|0:0,0:0:0:0:
361,198,146465,5,0,3:2:0:0:
361,198,146540,1,0,3:0:0:0:
361,198,146615,1,10,0:3:0:0:
314,25,146765,1,8,0:2:0:0:
181,180,146915,2,0,L|252:160,1,69.9999978637696,8|0,0:3|0:0,0:0:0:0:
448,66,147215,2,0,B|375:38|389:102|313:110,1,139.999995727539,12|0,0:1|0:0,0:0:0:0:
107,29,147665,6,0,L|250:75,1,139.999995727539,10|8,0:3|0:2,0:0:0:0:
73,199,148115,2,0,P|69:152|55:124,1,69.9999978637696,8|0,0:3|0:0,0:0:0:0:
0,274,148415,1,8,0:2:0:0:
141,268,148565,2,0,B|209:271|188:324|256:351,1,139.999995727539,8|8,0:3|0:2,0:0:0:0:
453,222,149015,6,0,B|384:225|405:278|344:302,1,139.999995727539,10|0,0:3|0:0,0:0:0:0:
417,364,149465,1,8,0:3:0:0:
309,216,149615,2,0,P|253:174|184:169,1,139.999995727539,12|8,0:1|0:3,0:0:0:0:
21,292,150065,6,0,L|39:139,1,139.999995727539,10|8,0:3|0:2,0:0:0:0:
150,335,150515,2,0,L|144:259,1,69.9999978637696,8|0,0:3|0:0,0:0:0:0:
272,376,150815,2,0,L|288:285,1,69.9999978637696,8|8,0:2|0:3,0:0:0:0:
462,155,151265,5,0,3:0:0:0:
462,155,151340,1,0,3:0:0:0:
462,155,151415,1,10,0:3:0:0:
512,219,151565,2,0,P|453:195|365:184,1,139.999995727539,8|0,0:2|0:0,0:0:0:0:
358,20,152015,2,0,P|299:44|211:55,1,139.999995727539,12|8,0:1|0:3,0:0:0:0:
24,35,152465,6,0,L|91:13,1,69.9999978637696,10|0,0:3|0:0,0:0:0:0:
205,141,152765,1,10,0:2:0:0:
77,172,152915,2,0,L|5:149,1,69.9999978637696,8|0,0:3|0:0,0:0:0:0:
121,296,153215,2,0,L|186:250,1,69.9999978637696,10|0,0:2|0:0,0:0:0:0:
400,198,153515,5,10,0:2:0:0:
205,141,153665,1,8,0:3:0:0:
303,349,153815,6,0,P|287:295|287:196,1,139.999995727539,12|0,0:3|0:0,0:0:0:0:
412,319,154265,1,0,0:0:0:0:
242,272,154415,2,0,B|177:272|195:318|110:341,1,139.999995727539,12|0,0:1|0:0,0:0:0:0:
199,173,154865,6,0,P|207:137|211:90,1,69.9999978637696,2|0,0:2|0:0,0:0:0:0:
70,48,155165,1,8,0:2:0:0:
199,173,155315,2,0,L|353:160,2,139.999995727539,8|8|0,0:3|0:2|0:0,0:0:0:0:
19,217,156065,5,8,0:2:0:0:
19,217,156140,1,0,0:0:0:0:
19,217,156215,1,10,0:3:0:0:
137,104,156365,1,8,0:2:0:0:
129,257,156515,2,0,P|114:215|105:171,1,69.9999978637696,8|0,0:3|0:0,0:0:0:0:
212,294,156815,2,0,B|282:299|255:346|328:368,1,139.999995727539,12|0,0:1|0:0,0:0:0:0:
491,271,157265,6,0,L|424:292,1,69.9999978637696,10|0,0:3|0:0,0:0:0:0:
508,282,157565,1,8,0:2:0:0:
392,176,157715,2,0,L|418:110,1,69.9999978637696,8|0,0:3|0:0,0:0:0:0:
402,193,158015,1,8,0:2:0:0:
285,48,158165,2,0,L|304:115,1,69.9999978637696,8|0,0:3|0:0,0:0:0:0:
294,29,158465,1,8,0:2:0:0:
145,194,158615,6,0,L|162:35,1,139.999995727539,10|0,0:3|0:0,0:0:0:0:
69,110,159065,1,8,0:3:0:0:
179,261,159215,2,0,P|126:221|26:221,1,139.999995727539,12|8,0:1|0:3,0:0:0:0:
304,115,159665,6,0,B|342:85|342:85|446:76,1,139.999995727539,10|8,0:3|0:2,0:0:0:0:
512,242,160115,2,0,L|440:226,1,69.9999978637696,8|0,0:3|0:0,0:0:0:0:
330,361,160415,2,0,P|328:317|335:291,1,69.9999978637696,8|8,0:2|0:3,0:0:0:0:
512,74,160865,5,0,3:0:0:0:
512,74,160940,1,0,3:0:0:0:
512,74,161015,1,10,0:2:0:0:
497,156,161165,1,8,0:2:0:0:
408,197,161315,1,8,0:3:0:0:
324,132,161465,1,8,0:3:0:0:
205,233,161615,5,14,0:2:0:0:
313,109,161765,1,8,0:3:0:0:
323,265,161915,5,10,0:2:0:0:
302,86,162065,1,4,0:3:0:0:
186,249,162215,6,0,P|151:245|118:234,1,69.9999978637696,10|8,0:2|0:3,0:0:0:0:
292,63,162515,2,0,P|325:52|359:48,1,69.9999978637696,10|8,0:2|0:3,0:0:0:0:
512,283,162815,5,0,3:0:0:0:
508,254,162890,1,0,3:0:0:0:
503,228,162965,1,0,3:0:0:0:
498,201,163040,1,0,3:0:0:0:
505,158,163115,5,8,3:3:0:0:
482,181,163190,1,8,3:3:0:0:
457,205,163265,1,8,3:3:0:0:
432,232,163340,1,8,3:3:0:0:
418,225,163415,6,0,B|381:231|381:231|351:260|351:260|308:268,2,119.999996337891,12|0|12,0:3|0:0|0:2,0:0:0:0:
512,45,164315,1,2,0:2:0:0:
512,45,164465,2,0,P|459:35|377:18,1,119.999996337891,8|8,0:3|0:2,0:0:0:0:
482,135,164915,2,0,P|428:136|344:140,1,119.999996337891,8|8,0:3|0:2,0:0:0:0:
144,40,165665,5,0,3:0:0:0:
144,40,165740,1,0,3:0:0:0:
144,40,165815,1,10,0:3:0:0:
221,18,165965,2,0,B|177:46|177:46|161:185,1,179.999994506836,8|12,0:3|0:2,0:0:0:0:
162,173,166715,2,0,L|94:163,1,59.9999981689454,2|8,0:2|0:3,0:0:0:0:
0,265,167165,1,8,0:2:0:0:
0,265,167315,2,0,B|37:247|37:247|133:279,1,119.999996337891,8|8,0:3|0:2,0:0:0:0:
189,377,167765,2,0,L|212:246,1,119.999996337891,8|8,0:3|0:2,0:0:0:0:
351,342,168215,6,0,L|328:211,1,119.999996337891,10|0,0:3|0:0,0:0:0:0:
231,181,168665,1,8,0:3:0:0:
377,106,168815,1,12,0:2:0:0:
180,31,169115,1,10,0:3:0:0:
180,31,169265,2,0,B|218:52|218:52|302:46,1,119.999996337891,8|8,0:3|0:2,0:0:0:0:
171,124,169715,2,0,P|148:176|169:240,1,119.999996337891,8|8,0:3|0:2,0:0:0:0:
350,351,170465,5,0,3:0:0:0:
350,351,170540,1,0,3:0:0:0:
350,351,170615,1,10,0:3:0:0:
429,311,170765,2,0,B|336:288|360:344|258:364,1,179.999994506836,8|12,0:2|0:2,0:0:0:0:
77,276,171515,1,2,0:2:0:0:
127,340,171665,2,0,L|134:218,1,119.999996337891,8|8,0:3|0:2,0:0:0:0:
0,260,172115,2,0,L|31:129,1,119.999996337891,12|8,0:1|0:2,0:0:0:0:
202,10,172715,5,10,0:2:0:0:
256,152,172865,1,8,0:3:0:0:
398,72,173015,6,0,B|323:49|323:49|261:78,2,119.999996337891,12|0|12,0:3|0:0|0:2,0:0:0:0:
483,266,173915,1,2,0:2:0:0:
483,266,174065,2,0,L|495:139,1,119.999996337891,8|8,0:3|0:2,0:0:0:0:
399,300,174515,2,0,L|380:177,1,119.999996337891,8|8,0:3|0:2,0:0:0:0:
193,333,175265,5,0,3:0:0:0:
193,333,175340,1,0,3:0:0:0:
193,333,175415,1,10,0:3:0:0:
102,335,175565,2,0,P|179:302|168:196,1,179.999994506836,8|12,0:3|0:2,0:0:0:0:
183,215,176315,2,0,L|112:203,1,59.9999981689454,2|8,0:2|0:3,0:0:0:0:
0,110,176765,1,8,0:2:0:0:
0,110,176915,2,0,L|123:81,1,119.999996337891,8|8,0:3|0:2,0:0:0:0:
217,17,177365,2,0,L|342:52,1,119.999996337891,8|8,0:3|0:2,0:0:0:0:
452,8,177815,6,0,P|425:47|415:135,1,119.999996337891,10|0,0:3|0:0,0:0:0:0:
474,201,178265,1,8,0:3:0:0:
321,147,178415,1,12,0:2:0:0:
301,352,178715,5,10,0:1:0:0:
338,255,178865,1,10,0:3:0:0:
301,352,179015,2,0,P|266:361|222:359,1,59.9999981689454,2|8,0:1|0:2,0:0:0:0:
391,330,179315,2,0,P|442:327|509:346,1,119.999996337891,8|8,0:3|0:2,0:0:0:0:
296,125,179915,5,2,0:1:0:0:
232,239,180065,1,2,3:2:0:0:
232,239,180140,1,2,3:2:0:0:
232,239,180215,5,10,0:1:0:0:
186,92,180365,1,8,0:2:0:0:
95,221,180515,5,8,0:3:0:0:
180,66,180665,1,8,0:3:0:0:
156,289,180815,5,12,0:2:0:0:
0,118,181115,5,10,3:1:0:0:
27,113,181215,1,8,3:1:0:0:
54,107,181315,1,8,3:1:0:0:
82,102,181415,5,10,0:3:0:0:
180,66,181565,2,0,L|122:25,1,59.9999981689454,10|0,0:3|0:0,0:0:0:0:
304,118,181865,2,0,L|310:47,1,59.9999981689454,6|0,0:3|0:0,0:0:0:0:
389,210,182165,2,0,L|453:180,1,59.9999981689454,4|10,0:3|0:3,0:0:0:0:
469,173,182615,6,0,B|274:157|392:365|203:364,1,359.999989013672,4|0,1:3|0:0,0:0:0:0:
100,376,183965,2,0,L|105:315,1,44.999998626709,8|8,0:3|0:3,0:0:0:0:
0,244,184415,2,0,L|31:140,1,89.9999972534181,0|0,1:0|0:0,0:0:0:0:
0,40,185015,6,0,B|195:45|55:237|249:258,1,359.999989013672,10|0,2:3|0:0,0:0:0:0:
362,341,186515,2,0,L|375:249,1,89.9999972534181,8|0,0:3|1:0,0:0:0:0:
388,232,187415,6,0,B|338:224|306:259|306:259|262:275|221:232,2,179.999994506836,10|4|0,0:3|1:1|0:0,0:0:0:0:
479,302,188765,2,0,L|470:251,1,44.999998626709,8|8,0:3|0:3,0:0:0:0:
478,94,189215,2,0,P|470:134|452:182,1,89.9999972534181,0|0,1:0|0:0,0:0:0:0:
314,55,189815,5,8,0:3:0:0:
314,55,189965,1,8,0:3:0:0:
314,55,190115,2,0,P|365:29|402:20,2,89.9999972534181,2|0|0,0:0|1:0|0:0,0:0:0:0:
214,107,191015,2,0,P|170:94|131:72,1,89.9999972534181,2|8,0:0|0:3,0:0:0:0:
0,19,191615,2,0,L|45:11,1,44.999998626709,0|8,1:0|0:3,0:0:0:0:
214,107,192065,5,0,3:0:0:0:
179,34,192215,2,0,B|139:271|139:271|90:324|32:286,1,359.999989013672,12|0,0:3|0:0,0:0:0:0:
0,186,193565,2,0,L|13:129,1,44.999998626709,8|8,0:3|0:3,0:0:0:0:
167,230,194015,2,0,L|165:130,1,89.9999972534181,0|0,1:0|0:0,0:0:0:0:
266,57,194615,6,0,B|371:97|369:226|369:226|451:290|514:212,1,359.999989013672,10|0,0:3|0:0,0:0:0:0:
483,0,196115,2,0,L|466:98,1,89.9999972534181,8|0,0:3|1:0,0:0:0:0:
462,114,197015,6,0,P|400:52|313:62,2,179.999994506836,10|4|0,0:3|1:1|0:0,0:0:0:0:
502,231,198365,2,0,L|517:167,1,44.999998626709,8|8,0:3|0:3,0:0:0:0:
433,335,198815,2,0,L|417:235,1,89.9999972534181,0|0,1:0|0:0,0:0:0:0:
278,365,199415,5,8,0:3:0:0:
278,365,199565,1,8,0:3:0:0:
278,365,199715,2,0,L|289:268,2,89.9999972534181,2|0|0,0:0|1:0|0:0,0:0:0:0:
156,206,200915,5,12,0:1:0:0:
50,376,201215,1,0,1:0:0:0:
0,272,201365,1,8,0:3:0:0:
24,282,201815,6,0,L|19:69,2,200,12|0|0,0:3|1:0|0:0,0:0:0:0:
91,364,203165,2,0,L|102:310,1,50,8|8,0:3|0:3,0:0:0:0:
260,236,203615,2,0,P|225:255|155:251,1,100,0|0,1:0|0:0,0:0:0:0:
68,159,204215,6,0,L|60:47,2,100,10|8|0,0:3|0:3|1:0,0:0:0:0:
165,254,205115,2,0,L|184:151,2,100,2|0|8,0:0|0:0|0:3,0:0:0:0:
295,336,206015,2,0,L|290:232,1,100,0|0,1:0|0:0,0:0:0:0:
390,139,206615,6,0,P|430:157|491:164,1,100,12|0,2:1|0:0,0:0:0:0:
390,58,207065,1,8,0:3:0:0:
390,58,207215,2,0,P|344:38|294:32,1,100,8|0,0:2|0:0,0:0:0:0:
185,156,207965,1,8,0:3:0:0:
185,156,208115,2,0,P|139:176|89:182,1,100,8|0,0:3|1:0,0:0:0:0:
8,62,209015,5,8,0:3:0:0:
8,62,209165,1,8,0:3:0:0:
8,62,209315,2,0,P|54:42|104:36,2,100,2|0|0,0:0|1:0|0:0,0:0:0:0:
91,182,210215,2,0,P|137:202|187:208,1,100,2|8,0:0|0:3,0:0:0:0:
244,348,210815,2,0,L|252:290,1,50,0|8,1:0|0:3,0:0:0:0:
493,384,211415,6,0,L|473:274,1,100,12|0,0:3|0:0,0:0:0:0:
355,346,211865,1,8,0:3:0:0:
355,346,212015,2,0,L|375:236,1,100,0|0,1:0|0:0,0:0:0:0:
234,163,212765,2,0,L|273:123,1,50,8|8,0:3|0:3,0:0:0:0:
442,64,213215,2,0,L|335:41,1,100,0|0,1:0|0:0,0:0:0:0:
147,61,213815,5,8,0:3:0:0:
147,61,213965,1,8,0:3:0:0:
147,61,214115,2,0,L|248:41,1,100,2|0,0:0|1:0,0:0:0:0:
336,191,214715,2,0,P|323:142|321:85,2,100,2|0|8,0:0|0:0|0:3,0:0:0:0:
468,272,215615,2,0,L|481:207,1,50,0|8,1:0|0:3,0:0:0:0:
481,202,216215,6,0,B|412:203|437:238|375:271,1,131.999999597168,12|0,0:3|0:0,0:0:0:0:
332,342,216665,1,8,0:3:0:0:
271,155,216815,2,0,L|298:21,2,131.999999597168,12|0|0,0:2|0:0|0:0,0:0:0:0:
152,285,217565,5,8,0:3:0:0:
80,83,217715,1,8,0:3:0:0:
14,369,218015,5,8,0:3:0:0:
207,123,218315,5,2,0:2:0:0:
62,65,218465,1,8,0:2:0:0:
21,340,218615,5,10,0:2:0:0:
174,280,218765,1,0,3:0:0:0:
174,280,218840,1,0,3:0:0:0:
174,280,218915,2,0,L|183:192,1,65.999999798584,0|0,1:1|0:0,0:0:0:0:
345,378,219215,2,0,L|362:310,1,65.999999798584,12|0,0:2|0:0,0:0:0:0:
471,91,219515,5,8,1:3:0:0:
503,352,219665,1,4,1:3:0:0:
319,61,220115,5,8,0:3:0:0:
265,346,220415,5,12,0:2:0:0:
265,346,220565,2,0,L|242:262,1,73.0000020050049,8|0,0:3|0:0,0:0:0:0:
13,159,221015,5,12,0:3:0:0:
62,91,221165,2,0,B|74:221|74:221|114:256,1,170.000003242493,8|0,0:3|0:0,0:0:0:0:
184,361,221615,2,0,L|205:272,1,85.0000016212464,14|0,0:1|0:0,0:0:0:0:
347,155,221915,5,10,0:3:0:0:
435,328,222065,2,0,B|355:310|390:246|290:236,1,170.000003242493,10|8,0:1|0:2,0:0:0:0:
436,164,222515,2,0,P|452:125|451:82,1,85.0000016212464,10|0,0:1|0:0,0:0:0:0:
255,24,222815,5,10,0:1:0:0:
298,237,222965,1,10,0:3:0:0:
451,82,223115,1,2,0:1:0:0:
512,238,223265,5,0,3:3:0:0:
512,238,223340,1,0,3:3:0:0:
512,238,223415,1,10,1:1:0:0:
451,82,223565,1,8,0:2:0:0:
371,273,223715,2,0,P|362:194|436:164,1,170.000003242493,10|12,0:3|0:2,0:0:0:0:
450,177,224315,5,10,0:3:0:0:
451,82,224465,1,8,0:3:0:0:
462,194,224615,5,2,0:1:0:0:
344,95,224765,2,0,B|326:61|326:61|332:7,1,85.0000016212464,8|8,0:2|0:3,0:0:0:0:
473,211,225065,1,2,0:1:0:0:
330,237,225215,2,0,L|237:212,1,85.0000016212464,8|8,0:2|0:3,0:0:0:0:
108,351,225515,2,0,L|127:264,1,85.0000016212464,2|8,0:0|0:2,0:0:0:0:
61,68,225815,6,0,B|113:102|113:102|120:152|120:152|175:199,1,170.000003242493,10|0,0:3|0:0,0:0:0:0:
254,321,226265,1,8,0:3:0:0:
207,114,226415,2,0,P|237:76|372:68,1,170.000003242493,14|8,0:0|0:3,0:0:0:0:
418,17,226865,1,8,0:3:0:0:
496,201,227015,5,2,0:1:0:0:
351,57,227165,1,8,0:2:0:0:
341,275,227315,2,0,L|362:190,1,85.0000016212464,10|0,0:3|0:0,0:0:0:0:
171,197,227615,2,0,L|157:112,1,85.0000016212464,10|0,0:1|0:0,0:0:0:0:
44,277,227915,5,2,0:2:0:0:
163,99,228065,1,0,3:3:0:0:
163,99,228140,1,0,3:3:0:0:
163,99,228215,2,0,P|217:70|257:67,1,85.0000016212464,10|8,0:1|0:2,0:0:0:0:
77,0,228515,5,10,0:3:0:0:
259,79,228665,2,0,P|308:88|358:85,1,85.0000016212464,2|12,0:1|0:1,0:0:0:0:
241,252,228965,5,2,0:2:0:0:
364,78,229115,2,0,P|407:65|452:66,1,85.0000016212464,10|8,0:1|0:3,0:0:0:0:
468,73,229565,5,8,0:2:0:0:
373,286,229715,2,0,L|358:187,1,85.0000016212464,12|0,0:1|0:0,0:0:0:0:
248,17,230015,5,10,0:1:0:0:
173,201,230165,1,8,0:3:0:0:
0,289,230315,5,10,0:1:0:0:
86,94,230465,1,4,0:3:0:0:
230,328,230615,6,0,B|334:341|297:234|401:252,1,200,12|12,0:3|0:1,0:0:0:0:
418,266,231515,5,10,0:3:0:0:
498,371,231665,2,0,P|466:301|490:201,1,170.000003242493,10|8,0:3|0:2,0:0:0:0:
396,114,232115,2,0,B|436:126|436:126|474:106,1,85.0000016212464,10|0,0:3|0:0,0:0:0:0:
337,0,232415,5,10,0:1:0:0:
239,166,232565,1,8,0:3:0:0:
185,85,232715,5,10,0:1:0:0:
249,262,232865,1,0,3:0:0:0:
249,262,232940,1,0,3:0:0:0:
249,262,233015,2,0,L|219:360,1,85.0000016212464,10|8,0:1|0:2,0:0:0:0:
80,271,233315,5,10,0:3:0:0:
231,367,233465,2,0,L|328:354,1,85.0000016212464,2|12,0:1|0:1,0:0:0:0:
117,361,233765,5,2,0:2:0:0:
340,348,233915,2,0,L|427:366,1,85.0000016212464,2|8,0:1|0:3,0:0:0:0:
445,379,234365,5,8,0:2:0:0:
334,247,234515,2,0,P|321:197|327:132,1,85.0000016212464,8|0,0:3|0:0,0:0:0:0:
448,24,234815,5,10,0:1:0:0:
214,133,234965,1,8,0:3:0:0:
150,48,235115,5,2,0:1:0:0:
415,120,235265,1,8,0:2:0:0:
318,319,235415,6,0,P|290:240|322:163,1,170.000003242493,10|0,0:3|0:0,0:0:0:0:
415,120,235865,1,10,0:3:0:0:
250,222,236015,2,0,L|148:207,1,85.0000016212464,12|0,0:1|0:0,0:0:0:0:
4,288,236315,5,10,0:1:0:0:
65,113,236465,2,0,B|106:214|63:182|100:294,1,170.000003242493,8|8,0:3|0:2,0:0:0:0:
211,50,236915,2,0,P|172:47|125:32,1,85.0000016212464,10|0,0:1|0:0,0:0:0:0:
250,222,237215,2,0,P|290:209|332:205,1,85.0000016212464,10|8,0:0|0:3,0:0:0:0:
508,332,237515,5,2,0:0:0:0:
425,126,237665,1,0,3:0:0:0:
431,96,237740,1,0,3:0:0:0:
452,74,237815,5,14,0:1:0:0:
508,216,237965,1,8,0:2:0:0:
390,330,238115,1,8,0:3:0:0:
250,222,238265,1,8,0:3:0:0:
127,384,238415,5,14,0:0:0:0:
233,128,238565,1,8,0:3:0:0:
424,248,238715,5,10,0:1:0:0:
160,188,238865,1,4,0:3:0:0:
408,68,239015,6,0,L|425:152,1,85.0000016212464,10|8,0:0|0:3,0:0:0:0:
160,188,239315,2,0,L|150:272,1,85.0000016212464,10|8,0:0|0:3,0:0:0:0:
420,382,239615,5,8,3:2:0:0:
417,356,239690,1,0,3:0:0:0:
415,331,239765,1,0,3:0:0:0:
413,307,239840,1,0,3:0:0:0:
449,282,239915,5,8,3:3:0:0:
424,248,239990,1,8,3:3:0:0:
400,213,240065,1,8,3:3:0:0:
374,180,240140,1,8,3:3:0:0:
364,194,240215,5,12,0:3:0:0:
495,154,240365,2,0,P|534:87|485:18,1,170.000003242493,8|0,0:3|0:0,0:0:0:0:
364,194,240815,2,0,L|272:181,1,85.0000016212464,14|0,0:1|0:0,0:0:0:0:
55,274,241115,5,10,0:3:0:0:
110,150,241265,2,0,B|195:157|161:221|227:268,1,170.000003242493,10|8,0:1|0:2,0:0:0:0:
295,50,241715,2,0,P|268:76|222:97,1,85.0000016212464,10|0,0:1|0:0,0:0:0:0:
432,226,242015,2,0,P|386:187|262:190,1,170.000003242493,10|0,0:1|0:1,0:0:0:0:
156,32,242465,5,0,3:3:0:0:
156,32,242540,1,0,3:3:0:0:
156,32,242615,1,10,1:1:0:0:
81,232,242765,1,8,0:2:0:0:
7,63,242915,2,0,B|63:82|63:82|92:124|92:124|152:150,1,170.000003242493,10|12,0:3|0:2,0:0:0:0:
166,156,243515,5,10,0:3:0:0:
156,32,243665,1,8,0:3:0:0:
184,165,243815,5,2,0:1:0:0:
308,102,243965,2,0,P|328:60|323:6,1,85.0000016212464,8|8,0:2|0:3,0:0:0:0:
392,284,244265,1,2,0:1:0:0:
485,180,244415,2,0,L|383:165,1,85.0000016212464,8|8,0:2|0:3,0:0:0:0:
273,333,244715,2,0,L|285:246,1,85.0000016212464,2|8,0:0|0:2,0:0:0:0:
502,349,245015,6,0,L|484:173,1,170.000003242493,10|0,0:3|0:0,0:0:0:0:
466,72,245465,1,8,0:3:0:0:
292,218,245615,2,0,L|319:50,1,170.000003242493,14|8,0:0|0:3,0:0:0:0:
484,179,246065,1,8,0:3:0:0:
278,234,246215,5,2,0:1:0:0:
339,42,246365,1,8,0:2:0:0:
410,289,246515,2,0,L|394:198,1,85.0000016212464,10|0,0:3|0:0,0:0:0:0:
161,341,246815,2,0,L|177:250,1,85.0000016212464,10|0,0:1|0:0,0:0:0:0:
121,32,247115,5,2,0:2:0:0:
18,221,247265,1,0,3:3:0:0:
18,221,247340,1,0,3:3:0:0:
18,221,247415,2,0,L|106:177,1,85.0000016212464,10|8,0:1|0:2,0:0:0:0:
304,303,247715,5,10,0:3:0:0:
187,170,247865,2,0,B|172:134|172:134|185:71,1,85.0000016212464,2|12,0:1|0:1,0:0:0:0:
166,342,248165,5,2,0:2:0:0:
323,194,248315,2,0,B|338:158|338:158|325:95,1,85.0000016212464,10|8,0:1|0:3,0:0:0:0:
314,94,248765,5,8,0:2:0:0:
174,255,248915,2,0,L|76:261,1,85.0000016212464,12|0,0:1|0:0,0:0:0:0:
303,75,249215,5,10,1:1:0:0:
369,335,249365,1,8,1:3:0:0:
358,342,249440,1,8,3:3:0:0:
345,343,249515,5,10,1:1:0:0:
427,119,249665,1,4,1:3:0:0:
512,353,249815,6,0,B|402:327|476:252|335:250,1,200,12|12,0:3|0:1,0:0:0:0:
340,268,250715,5,10,0:3:0:0:
231,373,250865,2,0,B|245:195,1,170.000003242493,10|8,0:3|0:2,0:0:0:0:
123,380,251315,2,0,L|111:289,1,85.0000016212464,10|0,0:3|0:0,0:0:0:0:
109,75,251615,5,10,0:1:0:0:
0,292,251765,1,8,0:3:0:0:
20,97,251915,5,10,0:1:0:0:
124,182,252065,1,0,3:0:0:0:
124,182,252140,1,0,3:0:0:0:
124,182,252215,5,10,0:1:0:0:
251,0,252365,1,8,0:2:0:0:
463,60,252515,1,8,0:3:0:0:
336,242,252665,1,8,0:3:0:0:
232,14,252815,5,12,0:2:0:0:
220,34,253115,6,0,L|135:21,1,85.0000016212464,2|8,0:2|0:3,0:0:0:0:
12,126,253415,5,2,0:1:0:0:
229,55,253565,2,0,L|349:43,1,85.0000016212464,10|8,0:2|0:3,0:0:0:0:
202,254,253865,5,2,0:1:0:0:
9,102,254015,2,0,L|26:11,1,85.0000016212464,10|8,0:2|0:3,0:0:0:0:
52,284,254315,5,2,0:1:0:0:
133,75,254465,1,8,0:2:0:0:
299,259,254615,6,0,B|388:270|361:334|430:366,1,170.000003242493,10|0,0:3|0:0,0:0:0:0:
490,243,255065,1,8,0:3:0:0:
308,351,255215,2,0,L|209:354,1,85.0000016212464,14|0,0:2|0:0,0:0:0:0:
30,230,255515,5,10,0:1:0:0:
146,275,255665,2,0,P|210:268|217:157,1,170.000003242493,8|8,0:3|0:2,0:0:0:0:
380,35,256115,2,0,P|337:27|269:8,1,85.0000016212464,10|0,0:3|0:2,0:0:0:0:
377,245,256415,2,0,P|395:205|419:165,1,85.0000016212464,10|8,0:2|0:3,0:0:0:0:
216,156,256715,5,2,0:1:0:0:
463,87,256865,1,0,3:0:0:0:
472,63,256940,1,0,3:0:0:0:
483,40,257015,5,10,2:1:0:0:
512,179,257165,1,8,0:2:0:0:
470,247,257315,1,0,0:2:0:0:
493,286,257465,1,0,0:2:0:0:
502,155,257615,5,14,0:2:0:0:
447,102,257765,1,0,0:0:0:0:
427,121,257915,1,0,0:0:0:0:
348,70,258065,1,8,0:3:0:0:
296,158,258215,5,2,0:0:0:0:
305,192,258365,1,0,0:0:0:0:
263,296,258515,1,8,0:3:0:0:
213,240,258665,1,0,0:0:0:0:
45,328,258815,5,8,3:2:0:0:
38,304,258890,1,0,3:0:0:0:
32,279,258965,1,0,3:0:0:0:
26,255,259040,1,0,3:0:0:0:
0,239,259115,5,8,3:3:0:0:
29,209,259190,1,8,3:3:0:0:
60,178,259265,1,8,3:3:0:0:
89,149,259340,1,8,3:3:0:0:
105,164,259415,6,0,B|219:174|137:261|265:308,1,204.000001245117,12|0,0:3|0:0,0:0:0:0:
383,376,260015,6,0,L|396:232,1,136.000000830078,14|0,0:1|0:0,0:0:0:0:
471,282,260465,1,8,0:3:0:0:
512,65,260615,5,2,0:1:0:0:
497,141,260765,2,0,L|470:73,1,68.0000004150391,8|8,0:2|0:3,0:0:0:0:
323,50,261065,5,2,0:1:0:0:
270,107,261215,2,0,L|300:41,1,68.0000004150391,8|0,0:2|0:0,0:0:0:0:
137,170,261515,6,0,L|111:83,1,68.0000004150391,2|0,0:1|3:0,0:0:0:0:
117,104,261740,1,0,3:0:0:0:
117,104,261815,5,10,0:1:0:0:
63,275,261965,1,8,0:2:0:0:
20,199,262115,2,0,B|69:207|69:207|88:233|88:233|154:259,1,136.000000830078,8|12,0:3|0:2,0:0:0:0:
498,345,262715,6,0,L|489:271,1,68.0000004150391,0|8,0:0|0:3,0:0:0:0:
273,210,263015,5,2,0:1:0:0:
334,273,263165,2,0,L|351:207,1,68.0000004150391,8|8,0:2|0:3,0:0:0:0:
512,93,263465,5,2,0:1:0:0:
451,157,263615,2,0,L|431:83,1,68.0000004150391,8|8,0:2|0:3,0:0:0:0:
279,0,263915,5,2,0:1:0:0:
260,86,264065,1,8,0:2:0:0:
126,62,264215,6,0,B|201:87|155:125|218:162,1,136.000000830078,10|0,0:1|0:0,0:0:0:0:
250,229,264665,1,8,0:3:0:0:
260,86,264815,2,0,P|303:66|350:62,1,68.0000004150391,12|0,0:1|0:0,0:0:0:0:
507,213,265115,5,10,0:1:0:0:
425,237,265265,2,0,B|363:209|405:166|330:143,1,136.000000830078,0|8,0:0|0:2,0:0:0:0:
172,245,265715,2,0,L|309:217,2,136.000000830078,8|8|0,0:3|0:2|0:0,0:0:0:0:
72,208,266465,5,0,3:0:0:0:
72,208,266540,1,0,3:0:0:0:
72,208,266615,1,8,0:3:0:0:
12,319,266765,2,0,B|3:218|44:248|39:118,1,204.000001245117,8|12,0:2|0:2,0:0:0:0:
28,105,267515,5,10,0:3:0:0:
118,154,267665,1,8,0:3:0:0:
229,29,267815,5,2,0:1:0:0:
398,1,267965,1,8,0:2:0:0:
476,180,268115,5,10,0:3:0:0:
302,120,268265,1,0,0:0:0:0:
489,59,268415,5,10,0:1:0:0:
512,290,268565,1,8,0:3:0:0:
332,366,268715,5,10,0:3:0:0:
379,178,268865,1,4,0:3:0:0:
185,308,269015,5,14,0:1:0:0:
273,198,269165,1,0,0:0:0:0:
283,297,269315,1,0,0:0:0:0:
174,209,269465,2,0,L|88:193,1,68.0000004150391,0|8,0:0|0:2,0:0:0:0:
289,50,269765,5,2,0:1:0:0:
384,117,269915,1,0,0:0:0:0:
395,2,270065,1,8,0:3:0:0:
279,79,270215,5,2,0:1:0:0:
170,13,270365,1,8,0:2:0:0:
67,126,270515,1,8,0:3:0:0:
176,192,270665,1,0,0:0:0:0:
172,103,270815,5,10,0:1:0:0:
62,267,270965,1,0,0:0:0:0:
67,126,271115,1,0,0:0:0:0:
156,290,271265,1,0,0:0:0:0:
273,205,271415,5,10,3:3:0:0:
311,181,271515,1,0,3:0:0:0:
355,174,271615,1,0,3:0:0:0:
400,184,271715,1,0,3:0:0:0:
437,207,271815,1,0,3:0:0:0:
465,244,271915,1,0,3:0:0:0:
480,288,272015,5,14,3:1:0:0:
424,282,272115,1,0,3:0:0:0:
376,265,272215,1,0,3:0:0:0:
336,229,272315,1,0,3:0:0:0:
311,181,272415,1,0,3:0:0:0:
305,127,272515,1,0,3:0:0:0:
317,78,272615,6,0,L|332:16,1,34.0000002075195,2|0,3:1|2:0,0:0:0:0:
228,203,272765,2,0,L|220:240,1,34.0000002075195,10|0,3:2|2:0,0:0:0:0:
18,103,272915,5,2,3:2:0:0:
62,90,273015,1,0,3:2:0:0:
105,107,273115,1,0,3:2:0:0:
122,149,273215,2,0,B|154:215|112:219|138:281,1,136.000000830078,10|0,3:1|3:0,0:0:0:0:
141,381,273665,5,10,3:2:0:0:
235,232,273815,2,0,P|276:176|420:183,1,204.000001245117,14|8,0:1|0:3,0:0:0:0:
512,339,274415,2,0,L|395:319,1,102.000000622559,12|0,0:2|0:0,0:0:0:0:
390,360,274715,2,0,L|380:282,1,68.0000004150391,2|0,0:0|0:0,0:0:0:0:
503,57,275015,5,2,0:1:0:0:
486,135,275165,1,8,0:3:0:0:
426,81,275315,2,0,L|351:64,1,68.0000004150391,8|0,0:3|0:0,0:0:0:0:
193,137,275615,6,0,P|198:96|217:59,1,68.0000004150391,10|0,0:1|0:0,0:0:0:0:
381,230,275915,2,0,P|379:188|364:149,1,68.0000004150391,2|8,0:1|0:2,0:0:0:0:
188,337,276215,5,10,0:1:0:0:
98,213,276365,1,0,3:0:0:0:
98,213,276440,1,0,3:0:0:0:
98,213,276515,1,0,3:0:0:0:
0,258,276815,5,12,0:1:0:0:
138,4,277115,5,8,0:3:0:0:
214,208,277265,1,4,0:3:0:0:
255,89,277715,5,8,0:3:0:0:
512,225,278015,5,12,0:2:0:0:
477,154,278165,2,0,B|464:133|431:127|431:127|451:147|452:176,1,100,8|0,0:3|2:0,0:0:0:0:
480,299,278615,5,12,0:3:0:0:
373,188,278765,2,0,B|285:169|314:253|232:281,1,179.999994506836,8|0,0:3|0:0,0:0:0:0:
65,366,279215,2,0,L|72:270,1,89.9999972534181,14|0,0:1|0:0,0:0:0:0:
164,60,279515,5,10,0:3:0:0:
11,115,279665,2,0,B|107:117|66:186|152:211,1,179.999994506836,10|8,0:1|0:2,0:0:0:0:
312,319,280115,2,0,L|322:213,1,89.9999972534181,10|0,0:1|0:0,0:0:0:0:
470,19,280415,5,10,0:1:0:0:
447,251,280565,1,10,0:3:0:0:
302,66,280715,1,2,0:1:0:0:
160,219,280865,5,0,3:3:0:0:
160,219,280940,1,0,3:3:0:0:
160,219,281015,1,10,1:1:0:0:
302,66,281165,1,8,0:2:0:0:
273,278,281315,2,0,B|245:226|245:226|251:165|251:165|220:103,1,179.999994506836,10|12,0:3|0:2,0:0:0:0:
209,94,281915,5,10,0:3:0:0:
302,66,282065,1,8,0:3:0:0:
195,76,282215,5,2,0:1:0:0:
371,128,282365,2,0,B|395:92|395:92|389:45,1,89.9999972534181,8|8,0:2|0:3,0:0:0:0:
185,55,282665,1,2,0:1:0:0:
362,149,282815,2,0,L|479:140,1,89.9999972534181,8|8,0:2|0:3,0:0:0:0:
182,32,283115,2,0,L|65:41,1,89.9999972534181,2|8,0:0|0:2,0:0:0:0:
255,268,283415,6,0,B|277:167|240:200|263:89,1,179.999994506836,10|0,0:3|0:0,0:0:0:0:
162,236,283865,1,8,0:3:0:0:
346,222,284015,2,0,B|446:222|398:288|478:341,1,179.999994506836,14|8,0:0|0:3,0:0:0:0:
384,374,284465,1,8,0:3:0:0:
460,163,284615,5,2,0:1:0:0:
329,311,284765,1,8,0:2:0:0:
275,97,284915,2,0,L|371:67,1,89.9999972534181,10|0,0:3|0:0,0:0:0:0:
224,267,285215,2,0,P|213:222|190:164,1,89.9999972534181,10|0,0:1|0:0,0:0:0:0:
24,241,285515,5,2,0:2:0:0:
239,303,285665,1,0,3:3:0:0:
239,303,285740,1,0,3:3:0:0:
239,303,285815,2,0,L|354:312,1,89.9999972534181,10|8,0:1|0:2,0:0:0:0:
113,330,286115,5,10,0:3:0:0:
351,324,286265,2,0,L|423:269,1,89.9999972534181,2|12,0:1|0:1,0:0:0:0:
231,384,286565,5,2,0:2:0:0:
447,257,286715,2,0,L|458:168,1,89.9999972534181,10|8,0:1|0:3,0:0:0:0:
477,148,287165,5,8,0:2:0:0:
313,245,287315,2,0,L|219:227,1,89.9999972534181,12|0,0:1|0:0,0:0:0:0:
96,37,287615,5,10,0:1:0:0:
81,297,287765,1,8,0:3:0:0:
261,377,287915,5,10,0:1:0:0:
276,105,288065,1,4,0:3:0:0:
462,355,288215,6,0,B|359:341|420:243|311:245,1,200,12|12,0:3|0:1,0:0:0:0:
294,262,289115,5,10,0:3:0:0:
437,212,289265,2,0,P|456:143|371:84,1,179.999994506836,10|8,0:3|0:2,0:0:0:0:
223,32,289715,2,0,B|265:50|265:50|301:24,1,89.9999972534181,10|0,0:3|0:0,0:0:0:0:
172,209,290015,5,10,0:1:0:0:
104,20,290165,1,8,0:3:0:0:
16,234,290315,5,10,0:1:0:0:
208,122,290465,1,0,3:0:0:0:
208,122,290540,1,0,3:0:0:0:
208,122,290615,2,0,L|87:99,1,89.9999972534181,10|8,0:1|0:2,0:0:0:0:
197,291,290915,5,10,0:3:0:0:
321,95,291065,2,0,L|311:1,1,89.9999972534181,2|12,0:1|0:1,0:0:0:0:
119,105,291365,5,2,0:2:0:0:
381,183,291515,2,0,L|470:164,1,89.9999972534181,2|8,0:1|0:3,0:0:0:0:
493,176,291965,5,8,0:2:0:0:
313,107,292115,2,0,L|218:88,1,89.9999972534181,8|0,0:3|0:0,0:0:0:0:
7,247,292415,5,10,0:1:0:0:
161,7,292565,1,8,0:3:0:0:
50,21,292715,5,2,0:1:0:0:
109,310,292865,1,8,0:2:0:0:
347,203,293015,6,0,B|303:181|303:181|274:111|274:111|224:88,1,179.999994506836,10|0,0:3|0:0,0:0:0:0:
161,7,293465,1,10,0:3:0:0:
127,221,293615,2,0,L|109:310,1,89.9999972534181,12|0,0:2|0:0,0:0:0:0:
55,138,293915,5,10,0:1:0:0:
224,88,294065,2,0,B|315:103|248:181|350:204,1,179.999994506836,8|8,0:3|0:2,0:0:0:0:
508,368,294515,2,0,L|499:279,1,89.9999972534181,10|0,0:1|0:0,0:0:0:0:
262,367,294815,2,0,L|272:249,1,89.9999972534181,10|8,0:0|0:3,0:0:0:0:
403,43,295115,5,2,0:0:0:0:
499,278,295265,1,0,3:0:0:0:
479,303,295340,1,0,3:0:0:0:
452,320,295415,5,10,0:1:0:0:
386,163,295565,1,8,0:2:0:0:
214,102,295715,1,8,0:3:0:0:
68,212,295865,1,8,0:3:0:0:
23,21,296015,5,10,0:0:0:0:
154,242,296165,1,8,0:3:0:0:
0,366,296315,5,10,0:1:0:0:
139,156,296465,1,4,0:3:0:0:
317,381,296615,6,0,P|282:369|227:360,1,89.9999972534181,10|8,0:0|0:3,0:0:0:0:
410,79,296915,2,0,P|365:77|321:67,1,89.9999972534181,10|8,0:0|0:3,0:0:0:0:
512,316,297215,5,8,3:2:0:0:
483,310,297290,1,0,3:0:0:0:
459,302,297365,1,0,3:0:0:0:
434,294,297440,1,0,3:0:0:0:
422,260,297515,5,8,3:3:0:0:
376,267,297590,1,8,3:3:0:0:
333,271,297665,1,8,3:3:0:0:
289,281,297740,1,8,3:3:0:0:
280,295,297815,5,12,0:3:0:0:
384,189,297965,2,0,B|411:92|356:120|382:12,1,179.999994506836,8|0,0:3|0:0,0:0:0:0:
283,149,298415,2,0,L|195:134,1,89.9999972534181,14|0,0:1|0:0,0:0:0:0:
0,273,298715,5,10,0:3:0:0:
20,89,298865,2,0,B|109:109|63:180|136:234,1,179.999994506836,10|8,0:1|0:2,0:0:0:0:
249,382,299315,2,0,L|238:267,1,89.9999972534181,10|0,0:1|0:0,0:0:0:0:
481,165,299615,2,0,B|393:195|446:246|357:296,1,179.999994506836,10|0,0:1|0:1,0:0:0:0:
208,71,300065,5,0,3:3:0:0:
208,71,300140,1,0,3:3:0:0:
208,71,300215,1,10,1:1:0:0:
122,268,300365,1,8,0:2:0:0:
0,90,300515,2,0,P|109:112|142:173,1,179.999994506836,10|12,0:3|0:2,0:0:0:0:
142,188,301115,5,10,0:3:0:0:
208,71,301265,1,8,0:3:0:0:
139,210,301415,5,2,0:1:0:0:
290,115,301565,2,0,B|312:78|312:78|293:30,1,89.9999972534181,8|8,0:2|0:3,0:0:0:0:
336,303,301865,1,2,0:1:0:0:
452,213,302015,2,0,B|413:187|413:187|350:198,1,89.9999972534181,8|8,0:2|0:3,0:0:0:0:
244,347,302315,2,0,B|201:354|201:354|162:328,1,89.9999972534181,2|8,0:0|0:2,0:0:0:0:
287,192,302615,6,0,P|281:106|202:75,1,179.999994506836,10|0,0:3|0:0,0:0:0:0:
116,3,303065,1,8,0:3:0:0:
9,246,303215,2,0,P|14:160|93:129,1,179.999994506836,14|8,0:0|0:3,0:0:0:0:
198,230,303665,1,8,0:3:0:0:
279,52,303815,5,2,0:1:0:0:
192,255,303965,1,8,0:2:0:0:
167,31,304115,2,0,L|180:121,1,89.9999972534181,10|0,0:3|0:0,0:0:0:0:
278,312,304415,2,0,L|290:222,1,89.9999972534181,10|0,0:1|0:0,0:0:0:0:
498,117,304715,5,2,0:2:0:0:
408,357,304865,1,0,3:3:0:0:
408,357,304940,1,0,3:3:0:0:
408,357,305015,2,0,L|390:261,1,89.9999972534181,10|8,0:1|0:2,0:0:0:0:
209,348,305315,5,10,0:3:0:0:
392,246,305465,2,0,B|412:137,1,89.9999972534181,2|12,0:1|0:1,0:0:0:0:
512,335,305765,5,2,0:2:0:0:
398,137,305915,2,0,B|386:37,1,89.9999972534181,10|8,0:1|0:3,0:0:0:0:
394,26,306365,5,8,0:2:0:0:
299,199,306515,2,0,L|205:174,1,89.9999972534181,12|0,0:1|0:0,0:0:0:0:
0,226,306815,5,10,0:1:0:0:
272,24,306965,1,8,0:3:0:0:
299,199,307115,5,10,0:1:0:0:
0,60,307265,1,4,0:3:0:0:
119,339,307415,6,0,B|105:225|145:262|123:138,1,200,12|12,0:3|0:1,0:0:0:0:
109,123,308315,5,10,0:3:0:0:
228,21,308465,2,0,B|291:39|291:39|311:85|311:85|373:130,1,179.999994506836,10|8,0:3|0:2,0:0:0:0:
500,292,308915,2,0,L|513:196,1,89.9999972534181,10|0,0:3|0:0,0:0:0:0:
368,12,309215,5,10,0:1:0:0:
196,256,309365,1,8,0:3:0:0:
348,223,309515,5,10,0:1:0:0:
386,359,309665,1,0,3:0:0:0:
386,359,309740,1,0,3:0:0:0:
386,359,309815,5,10,0:1:0:0:
454,128,309965,1,8,0:2:0:0:
225,58,310115,1,8,0:3:0:0:
155,288,310265,1,8,0:3:0:0:
0,35,310415,5,12,0:2:0:0:
11,54,310715,6,0,L|108:66,1,89.9999972534181,2|8,0:2|0:3,0:0:0:0:
343,3,311015,5,2,0:1:0:0:
191,193,311165,2,0,P|178:156|184:101,1,89.9999972534181,10|8,0:2|0:3,0:0:0:0:
402,264,311465,5,2,0:1:0:0:
200,330,311615,2,0,L|100:313,1,89.9999972534181,10|8,0:2|0:3,0:0:0:0:
52,71,311915,5,2,0:1:0:0:
191,193,312065,1,8,0:2:0:0:
394,18,312215,6,0,B|298:34|359:79|274:160,1,179.999994506836,10|0,0:3|0:0,0:0:0:0:
191,193,312665,1,8,0:3:0:0:
368,310,312815,2,0,L|467:290,1,89.9999972534181,14|0,0:2|0:0,0:0:0:0:
263,365,313115,5,10,0:1:0:0:
475,280,313265,2,0,P|490:221|388:162,1,179.999994506836,8|8,0:3|0:2,0:0:0:0:
221,46,313715,2,0,P|266:41|325:30,1,89.9999972534181,10|0,0:3|0:2,0:0:0:0:
179,243,314015,2,0,P|223:247|283:259,1,89.9999972534181,10|8,0:2|0:3,0:0:0:0:
89,16,314315,5,2,0:0:0:0:
27,224,314465,1,0,3:0:0:0:
16,198,314540,1,0,3:0:0:0:
18,171,314615,5,10,2:1:0:0:
179,243,314765,1,8,0:2:0:0:
139,318,314915,1,0,0:2:0:0:
107,332,315065,1,0,0:2:0:0:
193,153,315215,5,14,0:2:0:0:
203,246,315365,1,0,0:0:0:0:
231,269,315515,1,0,0:0:0:0:
210,126,315665,1,8,0:3:0:0:
108,180,315815,5,2,0:0:0:0:
87,151,315965,1,0,0:0:0:0:
208,89,316115,1,8,0:3:0:0:
253,168,316265,1,0,0:0:0:0:
329,70,316415,5,8,3:2:0:0:
354,63,316490,1,0,3:0:0:0:
379,58,316565,1,0,3:0:0:0:
405,53,316640,1,0,3:0:0:0:
435,27,316715,5,8,3:3:0:0:
461,62,316790,1,8,3:3:0:0:
487,100,316865,1,8,3:3:0:0:
512,136,316940,1,8,3:3:0:0:
502,158,317015,6,0,B|474:184|474:184|469:244|469:244|439:278,1,139.999995727539,12|0,0:3|0:0,0:0:0:0:
392,350,317465,1,0,0:0:0:0:
370,218,317615,2,0,P|318:169|247:169,1,139.999995727539,12|0,0:1|0:0,0:0:0:0:
187,34,318065,6,0,L|174:105,1,69.9999978637696,2|0,0:2|0:0,0:0:0:0:
338,14,318365,1,8,0:2:0:0:
175,103,318515,2,0,B|25:82,2,139.999995727539,8|8|0,0:3|0:2|0:0,0:0:0:0:
338,14,319265,1,8,1:2:0:0:
314,183,319415,5,10,0:3:0:0:
233,32,319565,1,8,0:2:0:0:
166,200,319715,2,0,L|77:214,1,69.9999978637696,8|0,0:3|0:0,0:0:0:0:
267,292,320015,2,0,P|261:226|313:183,1,139.999995727539,12|0,0:1|0:0,0:0:0:0:
511,122,320465,6,0,B|467:114|467:114|431:134|431:134|361:122,1,139.999995727539,10|8,0:3|0:2,0:0:0:0:
285,290,320915,2,0,L|266:220,1,69.9999978637696,8|0,0:3|0:0,0:0:0:0:
84,363,321215,1,8,0:2:0:0:
83,234,321365,2,0,B|126:251|126:251|146:297|146:297|202:324,1,139.999995727539,8|8,0:3|0:2,0:0:0:0:
159,164,321815,6,0,P|169:99|249:85,1,139.999995727539,10|0,0:3|0:0,0:0:0:0:
179,0,322265,1,8,0:3:0:0:
288,141,322415,2,0,P|333:183|409:184,1,139.999995727539,12|8,0:1|0:3,0:0:0:0:
255,251,322865,6,0,B|179:262|221:307|142:346,1,139.999995727539,10|8,0:3|0:2,0:0:0:0:
0,243,323315,2,0,L|74:227,1,69.9999978637696,8|0,0:3|0:0,0:0:0:0:
166,77,323615,2,0,L|152:174,1,69.9999978637696,8|8,0:2|0:3,0:0:0:0:
0,365,324065,5,0,3:0:0:0:
0,365,324140,1,0,3:0:0:0:
0,365,324215,1,10,0:3:0:0:
45,257,324365,2,0,B|112:267|84:321|168:344,1,139.999995727539,8|0,0:2|0:0,0:0:0:0:
197,202,324815,2,0,P|202:134|275:100,1,139.999995727539,12|8,0:1|0:3,0:0:0:0:
425,50,325265,6,0,L|351:30,1,69.9999978637696,10|0,0:3|0:0,0:0:0:0:
506,170,325565,1,10,0:2:0:0:
384,233,325715,2,0,L|364:155,1,69.9999978637696,8|0,0:3|0:0,0:0:0:0:
488,354,326015,2,0,L|501:285,1,69.9999978637696,10|0,0:2|0:0,0:0:0:0:
425,50,326315,5,10,0:2:0:0:
285,238,326465,1,8,0:3:0:0:
180,58,326615,6,0,B|256:64|222:117|290:144,1,139.999995727539,12|0,0:3|0:0,0:0:0:0:
386,127,327065,1,0,0:0:0:0:
212,198,327215,2,0,B|143:204|176:248|102:284,1,139.999995727539,12|0,0:1|0:0,0:0:0:0:
0,384,327665,6,0,L|12:300,1,69.9999978637696,2|0,0:2|0:0,0:0:0:0:
231,287,327965,1,8,0:2:0:0:
66,192,328115,2,0,P|40:152|55:49,2,139.999995727539,8|8|0,0:3|0:2|0:0,0:0:0:0:
231,287,328865,1,8,0:2:0:0:
224,130,329015,5,10,0:3:0:0:
119,326,329165,1,8,0:2:0:0:
66,192,329315,2,0,L|147:187,1,69.9999978637696,8|0,0:3|0:0,0:0:0:0:
0,57,329615,2,0,L|153:76,1,139.999995727539,12|0,0:1|0:0,0:0:0:0:
355,85,330065,6,0,L|335:17,1,69.9999978637696,10|0,0:3|0:0,0:0:0:0:
345,103,330365,1,8,0:2:0:0:
483,213,330515,2,0,L|494:143,1,69.9999978637696,8|0,0:3|0:0,0:0:0:0:
495,230,330815,1,8,0:2:0:0:
350,362,330965,2,0,L|339:292,1,69.9999978637696,8|0,0:3|0:0,0:0:0:0:
365,375,331265,1,8,0:2:0:0:
283,207,331415,6,0,B|206:210|243:257|175:292,1,139.999995727539,10|0,0:3|0:0,0:0:0:0:
132,369,331865,1,8,0:3:0:0:
121,219,332015,2,0,B|76:168|76:168|7:188,1,139.999995727539,12|8,0:1|0:3,0:0:0:0:
124,76,332465,6,0,P|177:32|262:46,1,139.999995727539,10|8,0:3|0:2,0:0:0:0:
331,191,332915,2,0,L|339:109,1,69.9999978637696,8|0,0:3|0:0,0:0:0:0:
505,226,333215,2,0,L|483:143,1,69.9999978637696,8|8,0:2|0:3,0:0:0:0:
188,26,333665,5,0,3:0:0:0:
188,26,333740,1,0,3:0:0:0:
188,26,333815,1,10,0:2:0:0:
280,13,333965,1,8,0:2:0:0:
353,83,334115,1,8,0:3:0:0:
331,191,334265,1,8,0:3:0:0:
439,331,334415,5,14,0:2:0:0:
318,174,334565,1,8,0:3:0:0:
260,364,334715,5,10,0:2:0:0:
457,320,334865,1,4,0:3:0:0:
219,248,335015,6,0,L|201:162,1,69.9999978637696,10|8,0:2|0:3,0:0:0:0:
466,175,335315,2,0,L|480:87,1,69.9999978637696,10|8,0:2|0:3,0:0:0:0:
374,297,335615,5,0,3:0:0:0:
363,268,335690,1,0,3:0:0:0:
353,244,335765,1,0,3:0:0:0:
342,219,335840,1,0,3:0:0:0:
329,182,335915,5,8,3:3:0:0:
323,215,335990,1,8,3:3:0:0:
315,248,336065,1,8,3:3:0:0:
309,285,336140,1,8,3:3:0:0:
300,300,336215,6,0,B|192:367|88:320|50:246|50:246|148:155|246:204|246:204|160:142|173:35|173:35|283:40|319:121|319:121|314:50|374:15,1,1000,12|0,0:3|2:2,0:0:0:0:
