osu file format v14

[General]
AudioFilename: audio.mp3
AudioLeadIn: 0
PreviewTime: 92730
Countdown: 0
SampleSet: Soft
StackLeniency: 0.7
Mode: 0
LetterboxInBreaks: 0
WidescreenStoryboard: 1

[Editor]
Bookmarks: 16080,35280,54480,73680,92880,116880,136080,156480,180480,199680,209280,218880,242880,259680
DistanceSpacing: 1.6
BeatDivisor: 4
GridSize: 16
TimelineZoom: 0.9499999

[Metadata]
Title:nothing
TitleUnicode:nothing
Artist:solfa feat. Aitsuki Nakuru
ArtistUnicode:solfa feat. 藍月なくる
Creator:Hinsvar
Version:Hard
Source:
Tags:iyuna star dome Japanese Pop J-Pop JPop Featured Artist FA Mappers' Guild MG MPG
BeatmapID:4114045
BeatmapSetID:1977902

[Difficulty]
HPDrainRate:4
CircleSize:4
OverallDifficulty:6
ApproachRate:7
SliderMultiplier:2.40000000000001
SliderTickRate:1

[Events]
//Background and Video events
0,0,"BG.jpg",0,0
//Break Periods
2,199880,207780
//Storyboard Layer 0 (Background)
//Storyboard Layer 1 (Fail)
//Storyboard Layer 2 (Pass)
//Storyboard Layer 3 (Foreground)
//Storyboard Layer 4 (Overlay)
//Storyboard Sound Samples

[TimingPoints]
480,600.000000000001,3,2,1,50,1,0
16080,600.000000000001,4,2,1,50,1,0
16080,-125,4,2,1,50,0,0
35280,-166.666666666667,4,2,1,40,0,0
90480,-125,4,2,1,50,0,0
92880,-100,4,2,1,60,0,1
101880,-100,4,2,1,60,0,0
102480,-100,4,2,1,60,0,1
112080,-125,4,2,1,50,0,0
116880,600.000000000001,4,2,1,40,1,0
116880,-166.666666666667,4,2,1,40,0,0
152880,-125,4,2,1,50,0,0
156480,600.000000000001,4,2,1,60,1,1
165480,-100,4,2,1,60,0,0
166080,-100,4,2,1,60,0,1
175680,-125,4,2,1,50,0,0
180480,600.000000000001,4,2,1,50,1,0
180480,-125,4,2,1,50,0,0
208680,-100,4,2,1,60,0,0
209280,-100,4,2,1,60,0,1
218280,-100,4,2,1,60,0,0
218880,-83.3333333333333,4,2,1,70,0,1
227880,-83.3333333333333,4,2,1,70,0,0
228480,-83.3333333333333,4,2,1,70,0,1
238080,-125,4,2,1,50,0,0
242880,600.000000000001,4,2,1,60,1,0
261080,-100,4,2,1,50,0,0
262080,-100,4,2,1,40,0,0
263280,-100,4,2,1,30,0,0
264480,-100,4,2,1,20,0,0
265680,-100,4,2,1,10,0,0
266880,-100,4,2,1,5,0,0

[Colours]
Combo1 : 141,199,220
Combo2 : 248,141,248
Combo3 : 143,191,239
Combo4 : 207,176,227

[HitObjects]
38,355,16080,6,0,P|87:360|150:339,1,96.0000000000004,6|0,3:2|0:0,0:0:0:0:
204,322,16530,1,2,0:0:0:0:
269,183,16830,1,2,0:0:0:0:
193,48,17130,1,2,0:0:0:0:
128,187,17430,1,2,0:0:0:0:
128,187,17580,2,0,P|50:156|35:56,1,192.000000000001,2|0,0:0|0:0,0:0:0:0:
193,48,18480,6,0,P|232:63|239:113,1,96.0000000000004,2|0,3:2|0:0,0:0:0:0:
223,188,18930,1,2,3:2:0:0:
360,257,19230,1,2,0:0:0:0:
482,164,19530,1,2,0:0:0:0:
482,164,19680,2,0,L|486:214,1,48.0000000000002,0|2,1:0|1:2,0:0:0:0:
491,288,19980,2,0,L|367:373,1,144.000000000001,2|0,0:0|3:0,0:0:0:0:
129,339,20880,6,0,P|118:290|124:226,1,96.0000000000004,2|0,3:2|0:0,0:0:0:0:
194,264,21330,1,2,0:0:0:0:
311,164,21630,1,2,0:0:0:0:
252,21,21930,1,2,0:0:0:0:
97,32,22230,1,2,0:0:0:0:
97,32,22380,1,2,0:0:0:0:
63,184,22680,1,2,0:0:0:0:
194,264,22980,1,2,0:0:0:0:
311,164,23280,6,0,L|317:106,2,48.0000000000002,2|0|0,3:2|0:0|0:0,0:0:0:0:
378,200,23730,2,0,L|368:295,1,96.0000000000004,2|0,3:2|0:0,0:0:0:0:
360,371,24180,1,2,3:2:0:0:
511,343,24480,1,0,1:0:0:0:
499,266,24630,1,0,1:0:0:0:
196,239,25230,1,0,1:0:0:0:
196,239,25530,1,8,0:0:0:0:
163,308,25680,6,0,P|102:339|68:331,1,96.0000000000004,6|0,3:2|0:0,0:0:0:0:
44,265,26130,1,2,0:0:0:0:
57,111,26430,1,2,0:0:0:0:
209,85,26730,1,2,0:0:0:0:
196,239,27030,1,2,0:0:0:0:
196,239,27180,2,0,P|310:311|330:380,1,192.000000000001,2|0,0:0|0:0,0:0:0:0:
477,318,28080,6,0,L|487:213,1,96.0000000000004,2|0,3:2|0:0,0:0:0:0:
490,145,28530,1,2,3:2:0:0:
375,42,28830,1,2,0:0:0:0:
229,91,29130,2,0,L|266:123,1,48.0000000000002,2|0,0:0|1:0,0:0:0:0:
326,178,29430,1,2,1:2:0:0:
326,178,29580,2,0,L|187:226,1,144.000000000001,2|0,0:0|3:0,0:0:0:0:
144,287,30180,2,0,P|118:289|95:272,1,48.0000000000002,2|0,0:0|0:0,0:0:0:0:
56,213,30480,6,0,P|52:163|44:105,1,96.0000000000004,2|0,3:2|0:0,0:0:0:0:
78,47,30930,2,0,P|128:43|186:35,1,96.0000000000004,2|0,0:0|0:0,0:0:0:0:
229,91,31380,1,2,3:2:0:0:
334,202,31680,6,0,P|409:208|496:220,2,144.000000000001,2|2|2,0:0|0:0|0:0,0:0:0:0:
185,237,32880,1,2,3:2:0:0:
185,237,35280,6,0,P|187:278|142:347,1,107.999996704102,2|0,3:2|3:0,0:0:0:0:
84,359,35880,1,8,0:0:0:0:
37,230,36180,1,2,1:2:0:0:
37,230,37080,2,0,P|35:202|65:156,1,71.9999978027348,0|0,1:0|0:0,0:0:0:0:
123,45,37680,6,0,P|180:47|236:62,1,107.999996704102,2|0,3:2|3:0,0:0:0:0:
299,88,38280,1,8,0:0:0:0:
420,151,38580,2,0,P|391:150|363:142,1,35.9999989013674,2|0,3:2|0:0,0:0:0:0:
388,152,39630,1,8,1:2:0:0:
388,152,39780,2,0,P|387:181|379:209,1,35.9999989013674,0|0,3:0|0:0,0:0:0:0:
311,171,40080,6,0,P|262:173|208:206,1,107.999996704102,2|0,3:2|3:0,0:0:0:0:
182,271,40680,1,8,0:0:0:0:
299,341,40980,2,0,P|377:306|393:250,1,143.99999560547,2|0,1:2|0:0,0:0:0:0:
431,123,41880,2,0,P|435:80|415:59,1,71.9999978027348,8|0,0:0|0:0,0:0:0:0:
284,27,42480,6,0,L|171:40,1,107.999996704102,2|0,3:2|3:0,0:0:0:0:
101,50,43080,1,8,0:0:0:0:
38,171,43380,2,0,L|44:227,2,35.9999989013674,2|0|2,3:2|0:0|0:0,0:0:0:0:
113,159,43830,2,0,L|119:215,1,35.9999989013674,2|2,3:2|0:0,0:0:0:0:
248,242,44280,1,2,0:0:0:0:
248,242,44430,2,0,L|241:298,1,35.9999989013674,8|0,1:2|3:0,0:0:0:0:
130,355,44880,6,0,P|83:351|21:317,1,107.999996704102,2|0,3:2|3:0,0:0:0:0:
14,249,45480,1,8,0:0:0:0:
80,129,45780,2,0,P|111:131|152:154,1,71.9999978027348,2|0,1:2|3:0,0:0:0:0:
258,230,46380,2,0,P|259:266|247:301,2,71.9999978027348,2|0|0,3:2|1:0|0:0,0:0:0:0:
330,114,47280,6,0,P|329:78|340:44,1,71.9999978027348,2|0,3:2|0:0,0:0:0:0:
409,15,47730,2,0,P|426:14|444:19,1,35.9999989013674,2|8,3:2|0:0,0:0:0:0:
492,146,48180,2,0,P|494:199|476:250,1,107.999996704102,2|2,3:2|0:0,0:0:0:0:
476,250,49230,2,0,P|458:250|440:245,1,35.9999989013674,8|0,1:2|3:0,0:0:0:0:
309,208,49680,6,0,P|259:203|213:259,1,107.999996704102,2|0,3:2|3:0,0:0:0:0:
190,310,50280,1,8,0:0:0:0:
60,283,50580,1,2,1:2:0:0:
60,283,51180,2,0,P|65:249|49:205,2,71.9999978027348,2|8|0,0:0|0:0|0:0,0:0:0:0:
182,344,52080,6,0,P|233:328|286:335,1,107.999996704102,2|0,3:2|3:0,0:0:0:0:
358,358,52680,1,8,0:0:0:0:
430,243,52980,1,0,3:0:0:0:
430,243,53130,2,0,P|419:208|424:173,1,71.9999978027348,2|0,0:0|3:0,0:0:0:0:
450,102,53580,1,2,0:0:0:0:
250,29,54030,2,0,P|232:34|215:32,1,35.9999989013674,8|0,1:2|3:0,0:0:0:0:
72,82,54480,6,0,P|136:87|168:126,1,107.999996704102,2|0,3:2|3:0,0:0:0:0:
185,189,55080,1,8,0:0:0:0:
100,314,55380,1,2,1:2:0:0:
100,314,56280,2,0,P|57:310|36:284,1,71.9999978027348,0|0,1:0|0:0,0:0:0:0:
8,156,56880,6,0,P|69:146|135:147,1,107.999996704102,2|0,3:2|3:0,0:0:0:0:
190,150,57480,1,8,0:0:0:0:
327,181,57780,1,0,3:0:0:0:
327,181,57930,2,0,P|317:120|318:54,1,107.999996704102,2|0,0:0|0:0,0:0:0:0:
460,222,58830,1,8,1:2:0:0:
460,222,58980,2,0,P|463:242|462:264,1,35.9999989013674,0|0,3:0|0:0,0:0:0:0:
412,312,59280,6,0,P|371:290|299:270,1,107.999996704102,2|0,3:2|3:0,0:0:0:0:
236,281,59880,1,8,0:0:0:0:
123,356,60180,2,0,P|52:338|55:261,1,143.99999560547,2|0,1:2|0:0,0:0:0:0:
48,139,61080,2,0,P|57:103|95:105,1,71.9999978027348,8|0,0:0|0:0,0:0:0:0:
208,161,61680,6,0,P|209:215|224:277,1,107.999996704102,2|0,3:2|3:0,0:0:0:0:
287,305,62280,1,8,0:0:0:0:
413,254,62580,2,0,L|457:257,2,35.9999989013674,2|0|2,3:2|0:0|0:0,0:0:0:0:
359,200,63030,2,0,L|315:197,1,35.9999989013674,2|2,3:2|0:0,0:0:0:0:
239,96,63480,1,2,0:0:0:0:
239,96,63630,2,0,L|242:52,1,35.9999989013674,8|0,1:2|3:0,0:0:0:0:
105,37,64080,6,0,P|119:87|129:161,1,107.999996704102,2|0,3:2|3:0,0:0:0:0:
130,217,64680,1,8,0:0:0:0:
190,339,64980,2,0,P|225:333|260:323,1,71.9999978027348,2|0,1:2|3:0,0:0:0:0:
316,197,65580,2,0,P|321:161|331:126,2,71.9999978027348,2|0|0,3:2|1:0|0:0,0:0:0:0:
196,267,66480,6,0,P|158:273|126:249,1,71.9999978027348,2|0,3:2|0:0,0:0:0:0:
55,253,66930,2,0,P|51:234|63:218,1,35.9999989013674,2|8,3:2|0:0,0:0:0:0:
24,88,67380,2,0,P|79:78|128:114,1,107.999996704102,2|2,3:2|0:0,0:0:0:0:
121,103,68430,2,0,L|117:54,1,35.9999989013674,8|0,1:2|3:0,0:0:0:0:
254,65,68880,6,0,L|263:182,1,107.999996704102,2|0,3:2|3:0,0:0:0:0:
268,248,69480,1,8,0:0:0:0:
388,320,69780,1,2,1:2:0:0:
388,320,70380,2,0,P|420:347|460:351,2,71.9999978027348,2|8|0,0:0|0:0|0:0,0:0:0:0:
426,188,71280,6,0,P|376:147|317:141,1,107.999996704102,2|0,3:2|3:0,0:0:0:0:
259,151,71880,1,8,0:0:0:0:
137,213,72180,1,2,0:0:0:0:
137,213,72330,2,0,L|87:219,1,35.9999989013674,2|2,3:2|0:0,0:0:0:0:
62,151,72630,2,0,L|56:101,1,35.9999989013674,0|2,3:0|0:0,0:0:0:0:
253,26,73230,2,0,L|259:76,1,35.9999989013674,8|0,1:2|3:0,0:0:0:0:
390,93,73680,6,0,P|428:96|455:125,1,71.9999978027348,2|0,3:2|0:0,0:0:0:0:
461,193,74130,2,0,P|459:212|445:225,1,35.9999989013674,2|0,0:0|0:0,0:0:0:0:
365,333,74580,1,0,3:0:0:0:
365,333,74730,2,0,P|329:289|307:152,1,179.999994506837,2|0,0:0|0:0,0:0:0:0:
67,31,76080,5,2,0:0:0:0:
10,157,76380,1,0,3:0:0:0:
10,157,76530,1,2,0:0:0:0:
136,214,76830,2,0,P|138:232|137:258,2,35.9999989013674,0|2|0,3:0|0:0|0:0,0:0:0:0:
193,88,77430,2,0,P|211:85|237:86,1,35.9999989013674,2|0,0:0|0:0,0:0:0:0:
228,85,78180,1,2,0:0:0:0:
359,48,78480,6,0,P|397:55|411:89,1,71.9999978027348,2|0,3:2|0:0,0:0:0:0:
379,151,78930,2,0,P|360:147|353:130,1,35.9999989013674,2|0,0:0|0:0,0:0:0:0:
220,168,79380,2,0,P|216:187|199:194,1,35.9999989013674,0|0,3:0|0:0,0:0:0:0:
134,159,79680,2,0,P|71:155|-6:211,1,143.99999560547,2|0,0:0|0:0,0:0:0:0:
4,196,80880,5,2,0:0:0:0:
103,289,81180,2,0,P|115:325|113:366,1,71.9999978027348,0|0,3:0|0:0,0:0:0:0:
193,371,81630,1,0,3:0:0:0:
193,371,81780,2,0,P|205:356|223:347,1,35.9999989013674,2|0,0:0|0:0,0:0:0:0:
223,211,82230,2,0,P|204:208|187:197,1,35.9999989013674,2|0,0:0|0:0,0:0:0:0:
189,199,82980,2,0,P|207:201|224:212,1,35.9999989013674,2|0,0:0|0:0,0:0:0:0:
286,249,83280,6,0,L|373:244,1,71.9999978027348,2|0,3:2|0:0,0:0:0:0:
397,180,83730,2,0,L|394:136,1,35.9999989013674,2|0,0:0|0:0,0:0:0:0:
331,27,84180,1,0,3:0:0:0:
331,27,84330,2,0,L|200:34,1,107.999996704102,2|0,0:0|0:0,0:0:0:0:
98,90,85080,2,0,L|103:177,1,71.9999978027348,2|0,0:0|0:0,0:0:0:0:
24,274,85680,5,2,0:0:0:0:
154,315,85980,2,0,P|172:308|189:286,2,35.9999989013674,0|0|0,3:0|0:0|0:0,0:0:0:0:
124,245,86430,1,0,3:0:0:0:
242,64,86880,2,0,P|312:69|370:111,1,143.99999560547,2|0,0:0|0:0,0:0:0:0:
481,364,88080,6,0,P|451:350|418:322,1,71.9999978027348,2|0,3:2|0:0,0:0:0:0:
345,334,88530,2,0,P|343:317|347:296,1,35.9999989013674,2|0,0:0|0:0,0:0:0:0:
211,270,88980,2,0,P|213:302|206:345,1,71.9999978027348,0|0,3:0|0:0,0:0:0:0:
76,372,89580,1,2,0:0:0:0:
76,372,89730,1,2,0:0:0:0:
299,33,90480,5,2,1:2:0:0:
450,59,90780,1,0,1:0:0:0:
424,210,91080,1,2,0:0:0:0:
273,184,91380,1,0,1:0:0:0:
155,85,91680,6,0,P|127:81|67:118,1,96.0000000000004,2|0,1:2|0:0,0:0:0:0:
74,194,92130,1,0,1:0:0:0:
74,194,92280,2,0,P|87:195|117:177,2,48.0000000000002,2|0|0,1:2|1:0|3:0,0:0:0:0:
194,328,92880,6,0,L|330:347,1,120.000000000001,6|0,3:2|0:0,0:0:0:0:
384,313,93330,2,0,L|393:245,1,60.0000000000003,2|8,0:0|0:0,0:0:0:0:
338,204,93630,1,2,0:0:0:0:
338,204,93780,1,2,0:0:0:0:
445,91,94080,2,0,P|374:26|291:44,1,180.000000000001,2|0,3:2|0:0,0:0:0:0:
225,69,94680,2,0,L|214:10,2,60.0000000000003,8|0|2,0:0|0:0|0:0,0:0:0:0:
230,224,95280,6,0,L|208:342,1,120.000000000001,2|0,3:2|0:0,0:0:0:0:
133,364,95730,2,0,L|74:353,1,60.0000000000003,2|8,0:0|0:0,0:0:0:0:
34,291,96030,1,2,0:0:0:0:
34,291,96180,1,2,0:0:0:0:
0,139,96480,2,0,P|88:109|176:132,1,180.000000000001,2|0,3:2|0:0,0:0:0:0:
232,176,97080,2,0,P|260:182|288:172,2,60.0000000000003,8|0|2,0:0|0:0|0:0,0:0:0:0:
265,23,97680,6,0,L|395:34,1,120.000000000001,2|0,3:2|0:0,0:0:0:0:
452,82,98130,1,2,0:0:0:0:
452,82,98280,2,0,L|441:212,1,120.000000000001,8|0,0:0|0:0,0:0:0:0:
396,350,98880,2,0,L|266:339,1,120.000000000001,2|0,3:2|0:0,0:0:0:0:
128,294,99480,2,0,L|139:164,1,120.000000000001,8|0,0:0|0:0,0:0:0:0:
147,18,100080,6,0,P|84:23|48:64,1,120.000000000001,2|0,3:2|0:0,0:0:0:0:
21,139,100530,1,2,0:0:0:0:
21,139,100680,2,0,P|56:190|110:201,1,120.000000000001,8|0,0:0|0:0,0:0:0:0:
248,274,101280,2,0,P|288:190|261:111,1,180.000000000001,2|0,3:2|0:0,0:0:0:0:
189,82,101880,1,0,1:0:0:0:
127,129,102030,1,0,1:0:0:0:
199,158,102180,1,0,1:0:0:0:
363,85,102480,6,0,P|426:83|489:107,1,120.000000000001,6|2,3:2|0:0,0:0:0:0:
506,174,102930,2,0,P|507:205|495:237,1,60.0000000000003,2|8,0:0|0:0,0:0:0:0:
470,307,103230,1,2,0:0:0:0:
470,307,103380,1,2,0:0:0:0:
323,360,103680,2,0,L|281:185,1,180.000000000001,2|0,3:2|0:0,0:0:0:0:
213,145,104280,2,0,L|226:86,2,60.0000000000003,8|0|2,0:0|0:0|0:0,0:0:0:0:
57,168,104880,6,0,P|19:213|19:277,1,120.000000000001,2|0,3:2|0:0,0:0:0:0:
63,335,105330,2,0,P|91:340|119:324,1,60.0000000000003,2|8,0:0|0:0,0:0:0:0:
145,254,105630,1,2,0:0:0:0:
145,254,105780,1,2,0:0:0:0:
280,184,106080,2,0,P|366:189|459:206,1,180.000000000001,2|0,3:2|0:0,0:0:0:0:
489,277,106680,2,0,P|483:306|481:336,2,60.0000000000003,8|0|2,0:0|0:0|0:0,0:0:0:0:
482,120,107280,6,0,P|463:68|396:47,1,120.000000000001,2|0,3:2|0:0,0:0:0:0:
335,26,107730,1,2,0:0:0:0:
335,26,107880,2,0,P|283:45|262:112,1,120.000000000001,8|0,0:0|0:0,0:0:0:0:
105,82,108480,2,0,P|95:136|142:188,1,120.000000000001,2|0,3:2|0:0,0:0:0:0:
38,309,109080,2,0,P|80:344|148:329,1,120.000000000001,8|0,0:0|0:0,0:0:0:0:
296,353,109680,6,0,L|283:228,1,120.000000000001,2|0,3:2|0:0,0:0:0:0:
305,161,110130,1,2,0:0:0:0:
305,161,110280,2,0,L|292:36,1,120.000000000001,8|0,0:0|0:0,0:0:0:0:
441,89,110880,2,0,L|460:276,1,180.000000000001,2|0,3:2|0:0,0:0:0:0:
468,346,111480,1,0,1:0:0:0:
390,355,111630,1,0,1:0:0:0:
381,277,111780,1,0,1:0:0:0:
256,192,112080,6,0,P|187:170|103:163,2,144.000000000001,2|2|2,0:0|0:0|0:0,0:0:0:0:
256,192,113280,12,2,114480,0:0:0:0:
204,29,116280,5,0,1:0:0:0:
204,29,116430,2,0,L|185:83,1,48.0000000000002,0|0,1:0|3:0,0:0:0:0:
115,100,116730,1,8,0:0:0:0:
91,171,116880,6,0,P|126:212|185:208,1,107.999996704102,2|0,3:2|3:0,0:0:0:0:
250,196,117480,1,8,0:0:0:0:
371,256,117780,1,2,1:2:0:0:
371,256,118680,2,0,P|383:223|387:179,1,71.9999978027348,0|0,1:0|0:0,0:0:0:0:
265,124,119280,6,0,P|247:173|241:239,1,107.999996704102,2|0,3:2|3:0,0:0:0:0:
242,303,119880,1,8,0:0:0:0:
114,352,120180,2,0,L|59:361,1,35.9999989013674,2|0,3:2|0:0,0:0:0:0:
82,361,121230,1,8,1:2:0:0:
82,361,121380,2,0,L|73:306,1,35.9999989013674,0|0,3:0|0:0,0:0:0:0:
27,267,121680,6,0,L|147:279,1,107.999996704102,2|0,3:2|3:0,0:0:0:0:
209,285,122280,1,8,0:0:0:0:
322,361,122580,2,0,P|334:285|307:215,1,143.99999560547,2|0,1:2|0:0,0:0:0:0:
185,170,123480,2,0,P|147:164|112:177,1,71.9999978027348,8|0,0:0|0:0,0:0:0:0:
29,68,124080,6,0,P|76:77|116:36,1,107.999996704102,2|0,3:2|3:0,0:0:0:0:
189,55,124680,1,8,0:0:0:0:
323,23,124980,2,0,P|338:20|351:33,2,35.9999989013674,2|0|2,3:2|0:0|0:0,0:0:0:0:
294,93,125430,2,0,P|305:106|322:103,1,35.9999989013674,2|2,3:2|0:0,0:0:0:0:
462,88,125880,1,2,0:0:0:0:
462,88,126030,2,0,P|448:99|451:116,1,35.9999989013674,8|0,1:2|3:0,0:0:0:0:
336,192,126480,6,0,P|327:239|361:301,1,107.999996704102,2|0,3:2|3:0,0:0:0:0:
416,331,127080,1,8,0:0:0:0:
472,206,127380,2,0,P|477:174|455:133,1,71.9999978027348,2|0,1:2|3:0,0:0:0:0:
363,43,127980,2,0,P|331:37|290:59,2,71.9999978027348,2|0|0,3:2|1:0|0:0,0:0:0:0:
362,178,128880,6,0,L|305:230,1,71.9999978027348,2|0,3:2|0:0,0:0:0:0:
237,201,129330,2,0,L|211:172,1,35.9999989013674,2|8,3:2|0:0,0:0:0:0:
98,249,129780,2,0,L|170:328,1,107.999996704102,2|2,3:2|0:0,0:0:0:0:
170,328,130830,2,0,L|196:303,1,35.9999989013674,8|0,1:2|3:0,0:0:0:0:
334,295,131280,6,0,P|352:251|332:189,1,107.999996704102,2|0,3:2|3:0,0:0:0:0:
262,174,131880,1,8,0:0:0:0:
171,78,132180,1,2,1:2:0:0:
171,78,132780,2,0,P|141:66|100:79,2,71.9999978027348,2|8|0,0:0|0:0|0:0,0:0:0:0:
143,212,133680,6,0,P|125:257|144:318,1,107.999996704102,2|0,3:2|3:0,0:0:0:0:
195,364,134280,1,8,0:0:0:0:
332,338,134580,1,2,0:0:0:0:
332,338,134730,2,0,L|382:333,1,35.9999989013674,0|2,3:0|0:0,0:0:0:0:
359,259,135030,2,0,L|309:264,1,35.9999989013674,0|2,3:0|0:0,0:0:0:0:
234,65,135630,2,0,L|229:15,1,35.9999989013674,8|0,1:2|3:0,0:0:0:0:
366,20,136080,6,0,P|404:29|436:62,1,71.9999978027348,2|0,3:2|0:0,0:0:0:0:
466,115,136530,2,0,P|461:134|444:150,1,35.9999989013674,2|0,0:0|0:0,0:0:0:0:
317,157,136980,1,0,3:0:0:0:
317,157,137130,2,0,P|228:171|170:246,1,179.999994506837,2|0,0:0|0:0,0:0:0:0:
416,361,138480,5,2,0:0:0:0:
469,235,138780,1,0,3:0:0:0:
469,235,138930,1,2,0:0:0:0:
377,133,139230,2,0,L|368:87,2,35.9999989013674,0|2|0,3:0|0:0|0:0,0:0:0:0:
324,259,139830,2,0,L|288:265,1,35.9999989013674,2|0,0:0|0:0,0:0:0:0:
288,265,140580,1,2,0:0:0:0:
194,364,140880,6,0,P|160:318|156:290,1,71.9999978027348,2|0,3:2|0:0,0:0:0:0:
98,255,141330,2,0,L|53:251,1,35.9999989013674,2|0,0:0|0:0,0:0:0:0:
69,114,141780,2,0,L|114:118,1,35.9999989013674,0|0,3:0|0:0,0:0:0:0:
175,89,142080,2,0,P|267:21|323:13,1,143.99999560547,2|0,0:0|0:0,0:0:0:0:
468,226,143280,5,2,0:0:0:0:
340,274,143580,2,0,P|310:271|257:251,1,71.9999978027348,0|0,3:0|0:0,0:0:0:0:
249,190,144030,1,0,3:0:0:0:
249,190,144180,2,0,L|237:145,1,35.9999989013674,2|0,0:0|0:0,0:0:0:0:
107,193,144630,2,0,L|119:238,1,35.9999989013674,2|0,0:0|0:0,0:0:0:0:
116,227,145380,2,0,L|104:272,1,35.9999989013674,2|0,0:0|0:0,0:0:0:0:
53,316,145680,6,0,P|90:354|122:356,1,71.9999978027348,2|0,3:2|0:0,0:0:0:0:
182,361,146130,2,0,P|201:342|202:326,1,35.9999989013674,2|0,0:0|0:0,0:0:0:0:
312,250,146580,1,0,3:0:0:0:
312,250,146730,2,0,P|256:193|208:190,1,107.999996704102,2|0,0:0|0:0,0:0:0:0:
109,124,147480,2,0,P|71:161|69:193,1,71.9999978027348,2|0,0:0|0:0,0:0:0:0:
58,315,148080,5,2,0:0:0:0:
190,281,148380,2,0,L|183:236,2,35.9999989013674,0|0|0,3:0|0:0|0:0,0:0:0:0:
245,332,148830,1,0,3:0:0:0:
459,357,149280,1,2,0:0:0:0:
459,357,149880,2,0,P|469:311|469:242,1,107.999996704102,2|0,0:0|0:0,0:0:0:0:
412,201,150480,6,0,L|335:188,1,71.9999978027348,2|0,3:2|0:0,0:0:0:0:
363,116,150930,2,0,L|401:122,1,35.9999989013674,2|0,0:0|0:0,0:0:0:0:
312,15,151380,2,0,L|248:60,1,71.9999978027348,0|0,3:0|0:0,0:0:0:0:
110,63,151980,1,2,0:0:0:0:
110,63,152130,1,2,0:0:0:0:
415,333,152880,5,0,1:0:0:0:
387,191,153180,1,0,1:0:0:0:
245,219,153480,1,2,0:0:0:0:
273,361,153780,1,0,1:0:0:0:
136,314,154080,2,0,P|90:318|36:297,1,96.0000000000004,0|0,1:0|0:0,0:0:0:0:
35,225,154530,1,0,1:0:0:0:
35,225,154680,2,0,P|33:202|43:175,2,48.0000000000002,0|0|0,1:0|1:0|3:0,0:0:0:0:
35,225,156480,6,0,P|77:189|72:122,1,120.000000000001,6|0,3:2|0:0,0:0:0:0:
141,87,156930,2,0,P|159:108|192:105,1,60.0000000000003,2|8,0:0|0:0,0:0:0:0:
196,32,157230,1,2,0:0:0:0:
196,32,157380,1,2,0:0:0:0:
351,44,157680,2,0,P|353:137|373:230,1,180.000000000001,2|0,3:2|0:0,0:0:0:0:
448,212,158280,2,0,P|447:181|440:150,2,60.0000000000003,8|0|2,0:0|0:0|0:0,0:0:0:0:
347,331,158880,6,0,P|290:305|222:302,1,120.000000000001,2|0,3:2|0:0,0:0:0:0:
166,341,159330,2,0,P|147:366|119:384,1,60.0000000000003,2|8,0:0|0:0,0:0:0:0:
58,347,159630,1,2,0:0:0:0:
58,347,159780,1,2,0:0:0:0:
17,196,160080,2,0,P|106:203|187:241,1,180.000000000001,2|0,3:2|0:0,0:0:0:0:
258,209,160680,2,0,P|246:182|243:153,2,60.0000000000003,8|0|2,0:0|0:0|0:0,0:0:0:0:
356,330,161280,6,0,L|481:344,1,120.000000000001,2|0,3:2|0:0,0:0:0:0:
483,269,161730,1,2,0:0:0:0:
483,269,161880,2,0,L|358:255,1,120.000000000001,8|0,0:0|0:0,0:0:0:0:
337,101,162480,2,0,L|224:145,1,120.000000000001,2|0,3:2|0:0,0:0:0:0:
125,25,163080,2,0,L|28:97,1,120.000000000001,8|0,0:0|0:0,0:0:0:0:
29,253,163680,6,0,P|21:316|42:372,1,120.000000000001,2|0,3:2|0:0,0:0:0:0:
120,363,164130,1,2,0:0:0:0:
120,363,164280,2,0,P|128:300|106:243,1,120.000000000001,8|0,0:0|0:0,0:0:0:0:
38,108,164880,2,0,P|71:43|172:43,1,180.000000000001,2|0,3:2|0:0,0:0:0:0:
239,81,165480,1,0,1:0:0:0:
200,148,165630,1,0,1:0:0:0:
132,110,165780,1,0,1:0:0:0:
295,185,166080,6,0,P|357:201|410:231,1,120.000000000001,6|2,3:2|0:0,0:0:0:0:
468,180,166530,2,0,P|459:149|459:118,1,60.0000000000003,2|8,0:0|0:0,0:0:0:0:
465,46,166830,1,2,0:0:0:0:
465,46,166980,1,2,0:0:0:0:
311,18,167280,2,0,P|253:72|157:57,1,180.000000000001,2|0,3:2|0:0,0:0:0:0:
88,25,167880,2,0,P|59:19|37:38,2,60.0000000000003,8|0|2,0:0|0:0|0:0,0:0:0:0:
74,183,168480,6,0,L|99:315,1,120.000000000001,2|0,3:2|0:0,0:0:0:0:
170,323,168930,2,0,L|181:264,1,60.0000000000003,2|8,0:0|0:0,0:0:0:0:
193,190,169230,1,2,0:0:0:0:
193,190,169380,1,2,0:0:0:0:
247,43,169680,2,0,L|429:27,1,180.000000000001,2|0,3:2|0:0,0:0:0:0:
452,101,170280,2,0,L|512:106,2,60.0000000000003,8|0|2,0:0|0:0|0:0,0:0:0:0:
323,189,170880,6,0,P|286:221|277:297,1,120.000000000001,2|0,3:2|0:0,0:0:0:0:
320,358,171330,1,2,0:0:0:0:
320,358,171480,2,0,P|366:374|436:343,1,120.000000000001,8|0,0:0|0:0,0:0:0:0:
500,210,172080,2,0,P|490:161|429:116,1,120.000000000001,2|0,3:2|0:0,0:0:0:0:
307,31,172680,2,0,P|258:40|213:101,1,120.000000000001,8|0,0:0|0:0,0:0:0:0:
156,237,173280,6,0,L|38:209,1,120.000000000001,2|0,3:2|0:0,0:0:0:0:
18,287,173730,1,2,0:0:0:0:
18,287,173880,2,0,L|136:315,1,120.000000000001,8|0,0:0|0:0,0:0:0:0:
271,239,174480,2,0,L|229:62,1,180.000000000001,2|0,3:2|0:0,0:0:0:0:
170,13,175080,1,0,1:0:0:0:
101,50,175230,1,0,1:0:0:0:
160,100,175380,1,0,1:0:0:0:
31,184,175680,6,0,P|31:262|56:326,2,144.000000000001,2|2|2,0:0|0:0|0:0,0:0:0:0:
256,192,176880,12,2,178080,0:0:0:0:
11,240,179880,5,0,1:0:0:0:
11,240,180030,2,0,L|70:234,1,48.0000000000002,0|0,1:0|3:0,0:0:0:0:
125,197,180330,1,8,0:0:0:0:
178,252,180480,6,0,P|236:247|305:182,1,144.000000000001,0|10,3:0|0:0,0:0:0:0:
262,44,181230,1,2,3:2:0:0:
114,21,181530,1,2,0:0:0:0:
114,21,181680,2,0,P|88:50|86:113,1,96.0000000000004,0|0,3:0|0:0,0:0:0:0:
99,179,182130,2,0,L|47:185,1,48.0000000000002,8|2,0:0|0:0,0:0:0:0:
52,261,182430,2,0,L|0:267,2,48.0000000000002,0|0|0,3:0|0:0|0:0,0:0:0:0:
126,277,182880,6,0,L|221:265,1,96.0000000000004,0|0,3:0|0:0,0:0:0:0:
298,260,183330,2,0,L|329:302,1,48.0000000000002,10|0,0:0|0:0,0:0:0:0:
372,362,183630,1,8,0:0:0:0:
372,362,185280,6,0,P|456:344|484:289,1,144.000000000001,0|10,3:0|0:0,0:0:0:0:
343,231,186030,1,2,3:2:0:0:
473,144,186330,1,2,0:0:0:0:
473,144,186480,2,0,P|454:101|472:58,1,96.0000000000004,0|0,3:0|0:0,0:0:0:0:
413,10,186930,2,0,P|399:28|376:31,1,48.0000000000002,8|2,0:0|0:0,0:0:0:0:
347,103,187230,2,0,P|370:105|383:124,2,48.0000000000002,0|0|0,3:0|0:0|0:0,0:0:0:0:
270,108,187680,6,0,L|163:121,1,96.0000000000004,0|0,3:0|0:0,0:0:0:0:
126,179,188130,2,0,L|132:232,1,48.0000000000002,10|0,0:0|0:0,0:0:0:0:
142,302,188430,1,10,0:0:0:0:
142,302,190080,6,0,P|111:351|24:353,1,144.000000000001,0|10,3:0|0:0,0:0:0:0:
5,205,190830,1,2,3:2:0:0:
66,66,191130,1,2,0:0:0:0:
66,66,191280,2,0,P|104:67|134:116,1,96.0000000000004,0|0,3:0|0:0,0:0:0:0:
208,131,191730,2,0,L|215:76,1,48.0000000000002,8|2,0:0|0:0,0:0:0:0:
288,63,192030,2,0,L|281:8,2,48.0000000000002,0|0|0,3:0|0:0|0:0,0:0:0:0:
361,85,192480,6,0,L|373:180,1,96.0000000000004,0|0,3:0|0:0,0:0:0:0:
432,228,192930,2,0,L|470:198,1,48.0000000000002,10|0,0:0|0:0,0:0:0:0:
495,126,193230,1,10,0:0:0:0:
495,126,194880,6,0,P|428:127|353:96,1,144.000000000001,0|8,3:0|0:0,0:0:0:0:
223,175,195630,1,2,3:2:0:0:
157,41,195930,1,2,0:0:0:0:
157,41,196080,2,0,P|112:40|62:60,1,96.0000000000004,0|0,3:0|0:0,0:0:0:0:
36,129,196530,2,0,P|35:151|45:176,1,48.0000000000002,8|2,0:0|0:0,0:0:0:0:
106,221,196830,2,0,P|106:243|96:268,2,48.0000000000002,0|0|0,3:0|0:0|0:0,0:0:0:0:
182,213,197280,6,0,P|225:246|218:286,1,96.0000000000004,0|0,3:0|0:0,0:0:0:0:
284,324,197730,2,0,P|300:302|322:306,1,48.0000000000002,10|0,0:0|0:0,0:0:0:0:
380,350,198030,1,10,0:0:0:0:
256,192,198480,12,4,199680,0:0:0:0:
114,29,208680,5,0,1:0:0:0:
189,48,208830,1,0,1:0:0:0:
170,123,208980,1,0,1:0:0:0:
26,231,209280,6,0,L|48:352,1,120.000000000001,6|2,3:2|0:0,0:0:0:0:
122,371,209730,2,0,L|182:360,1,60.0000000000003,2|8,0:0|0:0,0:0:0:0:
202,285,210030,1,2,0:0:0:0:
202,285,210180,1,2,0:0:0:0:
334,366,210480,2,0,P|429:323|433:248,1,180.000000000001,2|0,3:2|0:0,0:0:0:0:
409,183,211080,2,0,P|415:154|442:146,2,60.0000000000003,8|0|2,0:0|0:0|0:0,0:0:0:0:
275,285,211680,6,0,P|262:239|252:157,1,120.000000000001,2|0,3:2|0:0,0:0:0:0:
183,129,212130,2,0,P|160:135|119:140,1,60.0000000000003,2|8,0:0|0:0,0:0:0:0:
86,210,212430,1,2,0:0:0:0:
86,210,212580,1,2,0:0:0:0:
7,75,212880,2,0,P|76:30|175:42,1,180.000000000001,2|0,3:2|0:0,0:0:0:0:
223,95,213480,2,0,P|237:117|233:150,2,60.0000000000003,8|0|2,0:0|0:0|0:0,0:0:0:0:
360,21,214080,6,0,L|475:80,1,120.000000000001,2|0,3:2|0:0,0:0:0:0:
491,154,214530,1,2,0:0:0:0:
491,154,214680,2,0,L|432:269,1,120.000000000001,8|0,0:0|0:0,0:0:0:0:
300,359,215280,2,0,L|245:252,1,120.000000000001,2|0,3:2|0:0,0:0:0:0:
109,153,215880,2,0,L|2:207,1,120.000000000001,8|0,0:0|0:0,0:0:0:0:
54,367,216480,6,0,P|119:350|130:290,1,120.000000000001,2|0,3:2|0:0,0:0:0:0:
213,314,216930,1,2,0:0:0:0:
213,314,217080,2,0,P|246:256|212:205,1,120.000000000001,8|0,0:0|0:0,0:0:0:0:
310,82,217680,2,0,P|223:31|147:83,1,180.000000000001,2|0,3:2|0:0,0:0:0:0:
140,139,218280,1,0,1:0:0:0:
67,109,218430,1,0,1:0:0:0:
86,33,218580,1,0,1:0:0:0:
254,172,218880,6,0,P|316:174|403:157,1,143.99999560547,4|0,3:2|0:0,0:0:0:0:
486,183,219330,2,0,P|487:152|478:108,1,71.9999978027348,2|10,0:0|0:0,0:0:0:0:
465,23,219630,1,2,0:0:0:0:
465,23,219780,2,0,P|434:22|390:30,1,71.9999978027348,2|0,0:0|0:0,0:0:0:0:
306,64,220080,2,0,P|194:79|91:7,1,215.999993408204,2|0,3:2|0:0,0:0:0:0:
35,89,220680,2,0,P|57:118|54:160,1,71.9999978027348,8|0,0:0|0:0,0:0:0:0:
40,243,220980,1,2,0:0:0:0:
182,364,221280,6,0,P|211:329|238:231,1,143.99999560547,2|0,3:2|0:0,0:0:0:0:
330,222,221730,2,0,P|337:243|373:279,1,71.9999978027348,2|8,0:0|0:0,0:0:0:0:
346,371,222030,1,2,0:0:0:0:
346,371,222180,2,0,P|323:367|274:380,1,71.9999978027348,2|0,0:0|0:0,0:0:0:0:
182,364,222480,2,0,P|135:272|16:215,1,215.999993408204,2|0,3:2|0:0,0:0:0:0:
13,128,223080,2,0,P|47:129|83:104,1,71.9999978027348,8|0,0:0|0:0,0:0:0:0:
125,28,223380,1,2,0:0:0:0:
311,11,223680,6,0,P|383:18|475:47,1,143.99999560547,2|0,3:2|0:0,0:0:0:0:
490,128,224130,1,2,0:0:0:0:
490,128,224280,2,0,P|447:186|376:252,1,143.99999560547,8|0,0:0|0:0,0:0:0:0:
215,283,224880,2,0,L|155:242,1,71.9999978027348,2|0,3:2|0:0,0:0:0:0:
76,192,225180,2,0,L|117:132,1,71.9999978027348,0|0,3:0|0:0,0:0:0:0:
167,53,225480,2,0,L|227:94,1,71.9999978027348,8|0,0:0|0:0,0:0:0:0:
306,144,225780,2,0,L|265:204,1,71.9999978027348,2|0,0:0|0:0,0:0:0:0:
215,283,226080,6,0,P|271:346|339:323,1,143.99999560547,2|0,3:2|0:0,0:0:0:0:
415,367,226530,1,2,0:0:0:0:
415,367,226680,2,0,P|478:311|455:243,1,143.99999560547,8|0,0:0|0:0,0:0:0:0:
505,75,227280,2,0,P|378:67|331:164,1,215.999993408204,2|0,3:2|0:0,0:0:0:0:
414,180,227880,1,0,1:0:0:0:
350,248,228030,1,0,1:0:0:0:
269,199,228180,1,0,1:0:0:0:
118,354,228480,6,0,P|100:300|87:202,1,143.99999560547,6|2,3:2|0:0,0:0:0:0:
76,120,228930,2,0,P|103:125|149:144,1,71.9999978027348,2|8,0:0|0:0,0:0:0:0:
232,185,229230,1,2,0:0:0:0:
232,185,229380,2,0,P|213:206|173:236,1,71.9999978027348,2|0,0:0|0:0,0:0:0:0:
232,310,229680,2,0,P|308:321|365:286,1,143.99999560547,2|0,3:2|0:0,0:0:0:0:
432,224,230130,1,2,0:0:0:0:
445,131,230280,1,8,0:0:0:0:
262,88,230580,1,2,0:0:0:0:
156,245,230880,6,0,P|94:216|30:152,1,143.99999560547,2|0,3:2|0:0,0:0:0:0:
53,74,231330,1,2,0:0:0:0:
53,74,231480,2,0,P|109:34|196:11,1,143.99999560547,8|0,0:0|0:0,0:0:0:0:
363,51,232080,2,0,P|393:67|439:70,1,71.9999978027348,2|0,3:2|0:0,0:0:0:0:
484,147,232380,2,0,P|468:177|465:223,1,71.9999978027348,0|0,3:0|0:0,0:0:0:0:
414,294,232680,2,0,P|384:278|338:275,1,71.9999978027348,8|0,0:0|0:0,0:0:0:0:
293,198,232980,2,0,P|309:168|312:122,1,71.9999978027348,2|0,0:0|0:0,0:0:0:0:
261,51,233280,6,0,B|161:36|103:188|200:219|132:366|24:347,1,431.999986816409,2|0,3:2|0:0,0:0:0:0:
68,164,234480,2,0,P|66:126|45:94,2,71.9999978027348,2|0|0,3:2|0:0|0:0,0:0:0:0:
240,238,235080,2,0,P|317:211|466:213,1,215.999993408204,8|0,0:0|0:0,0:0:0:0:
402,291,235680,6,0,P|348:195|478:129,2,287.999991210939,2|8|2,3:2|0:0|3:2,0:0:0:0:
34,366,237480,1,0,1:0:0:0:
82,286,237630,1,0,1:0:0:0:
2,238,237780,1,0,1:0:0:0:
119,139,238080,6,0,P|186:129|218:62,2,144.000000000001,2|2|2,0:0|0:0|0:0,0:0:0:0:
256,192,239280,12,2,240480,0:0:0:0:
480,175,242280,5,0,1:0:0:0:
480,175,242430,2,0,L|426:152,1,48.0000000000002,0|0,1:0|3:0,0:0:0:0:
359,148,242730,1,8,0:0:0:0:
289,183,242880,6,0,P|266:123|201:86,1,120.000000000001,6|0,3:2|0:0,0:0:0:0:
146,71,243330,1,2,0:0:0:0:
4,135,243630,1,2,0:0:0:0:
149,191,243930,1,2,0:0:0:0:
7,255,244230,1,2,0:0:0:0:
7,255,244380,2,0,P|106:335|256:335,1,240.000000000001,2|0,0:0|0:0,0:0:0:0:
370,333,245280,6,0,P|376:283|393:210,1,120.000000000001,2|0,3:2|0:0,0:0:0:0:
423,143,245730,1,2,3:2:0:0:
316,29,246030,1,2,0:0:0:0:
167,77,246330,2,0,L|208:121,1,60.0000000000003,2|0,0:0|1:0,0:0:0:0:
263,183,246630,1,0,1:0:0:0:
263,183,246780,2,0,L|139:315,1,180.000000000001,2|0,0:0|3:0,0:0:0:0:
9,99,247680,6,0,P|53:36|96:37,1,120.000000000001,2|0,3:2|0:0,0:0:0:0:
166,50,248130,1,2,0:0:0:0:
321,31,248430,1,2,0:0:0:0:
387,172,248730,1,2,0:0:0:0:
273,279,249030,1,2,0:0:0:0:
273,279,249180,1,2,0:0:0:0:
137,203,249480,1,2,0:0:0:0:
166,50,249780,1,2,0:0:0:0:
321,31,250080,6,0,P|351:27|377:4,2,60.0000000000003,2|0|0,3:2|0:0|0:0,0:0:0:0:
252,68,250530,2,0,P|228:123|242:191,1,120.000000000001,2|0,3:2|0:0,0:0:0:0:
269,252,250980,1,2,3:2:0:0:
386,355,251280,1,0,1:0:0:0:
461,336,251430,1,0,1:0:0:0:
149,345,252030,1,0,1:0:0:0:
149,345,252330,1,8,0:0:0:0:
72,327,252480,6,0,P|48:272|45:200,1,120.000000000001,6|0,3:2|0:0,0:0:0:0:
49,134,252930,1,2,0:0:0:0:
158,244,253230,1,2,0:0:0:0:
281,149,253530,1,2,0:0:0:0:
172,39,253830,1,2,0:0:0:0:
172,39,253980,2,0,P|291:44|405:10,1,240.000000000001,2|0,0:0|0:0,0:0:0:0:
487,143,254880,6,0,P|462:180|461:256,1,120.000000000001,2|0,3:2|0:0,0:0:0:0:
483,328,255330,1,2,3:2:0:0:
331,367,255630,1,2,0:0:0:0:
183,315,255930,2,0,P|186:284|174:250,1,60.0000000000003,2|0,0:0|1:0,0:0:0:0:
209,186,256230,1,0,1:0:0:0:
209,186,256380,2,0,P|132:131|26:111,1,180.000000000001,2|0,0:0|3:0,0:0:0:0:
23,185,256980,2,0,P|48:203|83:209,1,60.0000000000003,2|0,0:0|0:0,0:0:0:0:
148,239,257280,6,0,L|163:358,1,120.000000000001,2|0,3:2|0:0,0:0:0:0:
240,352,257730,2,0,L|359:337,1,120.000000000001,2|0,0:0|0:0,0:0:0:0:
353,260,258180,1,2,3:2:0:0:
397,110,258480,2,0,L|218:87,2,180.000000000001,2|2|2,0:0|0:0|3:2,0:0:0:0:
256,192,261080,12,0,266880,0:0:0:0:
