osu file format v14

[General]
AudioFilename: audio.mp3
AudioLeadIn: 0
PreviewTime:67134
Countdown: 0
SampleSet: Soft
StackLeniency: 0.7
Mode: 0
LetterboxInBreaks: 0
WidescreenStoryboard: 1

[Editor]
Bookmarks: 26213,39186,53781,60267,63916,68376,94322,107295,117024
DistanceSpacing: 1
BeatDivisor: 4
GridSize: 32
TimelineZoom: 1.6

[Metadata]
Title:Battle 3: Shiryoku no Kagiri -The force of mortality-
TitleUnicode:バトル3:死力の限り -The force of mortality-
Artist:solfa
ArtistUnicode:solfa
Creator:Lasse
Version:Easy
Source:VenusBlood -HYPNO-
Tags:featured artist garden gibune visual novel eroge bgm instrumental piano electronic classical venus blood hollow mappers' guild mpg vn fa
BeatmapID:4261142
BeatmapSetID:2042113

[Difficulty]
HPDrainRate:2
CircleSize:3
OverallDifficulty:3.6
ApproachRate:5
SliderMultiplier:0.84
SliderTickRate:1

[Events]
//Background and Video events
0,0,"a2.jpg",0,0
//Break Periods
2,53781,59067
//Storyboard Layer 0 (Background)
//Storyboard Layer 1 (Fail)
//Storyboard Layer 2 (Pass)
//Storyboard Layer 3 (Foreground)
//Storyboard Layer 4 (Overlay)
//Storyboard Sound Samples

[TimingPoints]
268,405.405405405405,4,2,1,50,1,0
268,-125,4,2,1,50,0,0
6754,-111.111111111111,4,2,1,50,0,0
11619,-111.111111111111,4,2,1,55,0,0
12430,-111.111111111111,4,2,1,60,0,0
12835,-111.111111111111,4,2,1,65,0,0
13038,-111.111111111111,4,2,1,50,0,0
13240,-100,4,2,1,60,0,0
22970,-100,4,3,1,60,0,0
23173,-100,4,3,1,60,0,0
23376,-100,4,3,1,60,0,0
23578,-100,4,3,1,60,0,0
23781,-100,4,3,1,60,0,0
23984,-100,4,3,1,60,0,0
24186,-100,4,3,1,60,0,0
24389,-100,4,3,1,60,0,0
24795,-100,4,3,1,60,0,0
24997,-100,4,3,1,65,0,0
26011,-100,4,2,1,60,0,0
26213,-100,4,2,1,60,0,0
53376,-100,4,2,1,65,0,0
53680,-100,4,2,1,30,0,0
53781,-200,4,2,1,50,0,0
57024,-166.666666666667,4,2,1,52,0,0
60267,-166.666666666667,4,2,1,55,0,0
63916,-142.857142857143,4,2,1,60,0,0
65740,-125,4,2,1,65,0,0
66754,-111.111111111111,4,2,1,70,0,0
67159,-111.111111111111,4,2,1,65,0,0
68376,-90.9090909090909,4,2,1,75,0,1
94322,-125,4,2,1,50,0,0
100808,-111.111111111111,4,2,1,50,0,0
105673,-111.111111111111,4,2,1,55,0,0
106484,-111.111111111111,4,2,1,60,0,0
106889,-111.111111111111,4,2,1,65,0,0
107092,-111.111111111111,4,2,1,55,0,0
107295,-100,4,2,1,60,0,0
110538,-111.111111111111,4,2,1,55,0,0
112159,-117.647058823529,4,2,1,50,0,0
112767,-125,4,2,1,45,0,0
113578,-125,4,2,1,40,0,0
113882,-125,4,2,1,30,0,0
115403,-125,4,2,1,20,0,0
117024,-125,4,2,1,10,0,0

[Colours]
Combo1 : 67,187,233
Combo2 : 192,192,192

[HitObjects]
53,225,268,6,0,P|40:273|44:330,2,100.8,12|2|2,1:1|0:2|0:2,0:0:0:0:
192,53,2903,2,0,L|299:61,1,100.8,2|2,0:2|0:2,0:0:0:0:
426,72,4322,2,0,P|438:110|416:203,1,134.4,2|2,0:2|0:2,0:0:0:0:
213,242,6754,6,0,P|166:234|86:232,2,113.399996539307,6|0|0,0:2|0:2|0:0,0:2:0:0:
285,282,8376,1,2,0:2:0:0:
325,175,8984,1,2,0:2:0:0:
226,47,9795,6,0,P|166:32|101:36,1,113.399996539307,2|4,0:2|3:2,0:0:0:0:
42,71,10808,2,0,P|34:94|28:189,1,113.399996539307,2|0,0:2|0:2,0:0:0:0:
33,219,11619,2,0,P|57:241|224:190,1,226.799993078614,10|8,0:2|1:1,0:0:0:0:
304,160,13240,6,0,P|362:145|440:158,1,126,14|2,0:2|0:2,0:2:0:0:
477,220,14254,1,2,0:2:0:0:
436,293,14659,2,0,P|378:308|303:291,1,126,2|8,0:2|0:2,0:0:0:0:
194,254,15876,1,2,0:2:0:0:
236,135,16484,5,10,0:2:0:0:
156,37,17092,2,0,P|88:33|35:72,1,126,2|8,0:2|0:2,0:0:0:0:
9,141,18105,2,0,L|14:272,2,126,10|4|8,0:2|0:2|0:2,0:2:0:0:
49,67,19727,6,0,P|127:42|223:65,1,168,14|8,0:2|0:2,0:2:0:0:
278,106,20943,1,10,0:2:0:0:
332,169,21349,2,0,P|413:185|458:172,2,126,10|0|8,0:2|0:2|0:2,0:2:0:0:
253,140,22970,5,14,0:2:0:0:
237,222,23376,1,2,0:2:0:0:
217,303,23781,2,0,P|164:319|87:298,2,126,2|14|14,0:2|0:2|1:2,0:2:0:0:
419,152,26213,6,0,P|424:113|415:61,1,84,14|8,1:2|0:2,0:2:0:0:
341,33,27024,1,10,0:2:0:0:
270,79,27430,1,10,0:2:0:0:
195,39,27835,2,0,P|121:27|55:104,1,168,10|8,0:2|0:2,0:2:0:0:
25,164,29051,1,10,0:2:0:0:
65,237,29457,6,0,P|120:238|156:230,1,84,10|8,0:2|0:2,0:2:0:0:
229,211,30267,1,10,0:2:0:0:
293,265,30673,1,10,0:2:0:0:
363,218,31078,2,0,P|365:159|374:84,2,126,10|4|10,0:2|0:2|0:2,0:0:0:0:
361,302,32700,6,0,P|329:297|271:292,1,84,14|8,0:2|0:2,0:2:0:0:
216,350,33511,2,0,P|174:346|132:340,1,84,10|8,0:2|0:2,0:0:0:0:
49,329,34322,2,0,P|49:295|71:199,1,126,10|2,0:2|0:2,0:2:0:0:
278,195,35943,6,0,P|320:203|372:212,1,84,10|12,0:2|0:2,0:2:0:0:
443,222,36754,1,10,0:2:0:0:
455,139,37159,1,8,0:2:0:0:
469,56,37565,2,0,P|413:44|346:34,2,126,10|4|10,0:2|0:2|0:2,0:0:0:0:
503,132,39186,6,0,P|493:177|486:223,1,84,14|8,0:2|0:2,0:2:0:0:
477,298,39997,1,10,0:2:0:0:
396,320,40403,1,10,0:2:0:0:
347,251,40808,2,0,P|356:210|374:82,1,168,10|8,0:2|0:2,0:2:0:0:
311,28,42024,1,10,0:2:0:0:
243,77,42430,6,0,P|207:71|153:59,1,84,10|8,0:2|0:2,0:2:0:0:
80,36,43240,1,10,0:2:0:0:
23,98,43646,1,8,0:2:0:0:
64,170,44051,2,0,P|52:231|41:301,2,126,10|4|10,0:2|0:2|0:2,0:0:0:0:
140,134,45673,6,0,P|172:139|230:144,1,84,14|8,0:2|0:2,0:2:0:0:
294,187,46484,2,0,P|335:190|377:196,1,84,10|8,0:2|0:2,0:0:0:0:
460,205,47295,2,0,P|457:290|449:379,2,168,10|10|8,0:2|0:2|0:2,0:2:0:0:
299,154,49727,5,10,0:2:0:0:
287,237,50132,1,8,0:2:0:0:
203,224,50538,2,8,P|140:214|79:201,2,126,10|12|10,0:2|0:2|0:2,0:2:0:0:
259,286,52159,6,0,P|378:345|466:279,1,252,10|8,0:2|1:1,0:0:0:0:
256,192,60267,12,12,66754,1:1:0:0:
199,18,68376,6,0,P|194:66|196:114,1,92.4000028198243,14|10,2:2|0:2,0:0:0:0:
209,201,69186,1,10,0:2:0:0:
301,191,69592,2,0,P|343:184|396:182,1,92.4000028198243,10|10,0:2|0:2,0:0:0:0:
482,160,70403,1,10,0:2:0:0:
509,248,70808,1,10,0:2:0:0:
419,269,71213,2,0,P|377:276|324:278,1,92.4000028198243,10|10,0:2|0:2,0:0:0:0:
246,322,72024,6,0,P|178:315|102:312,2,138.600004229736,10|2|10,0:2|0:2|0:2,0:0:0:0:
327,365,73646,1,10,0:2:0:0:
414,334,74051,1,10,0:2:0:0:
419,241,74457,1,10,0:2:0:0:
368,163,74862,6,0,P|325:155|264:151,1,92.4000028198243,14|8,0:2|0:2,0:0:0:0:
204,208,75673,2,0,P|157:204|112:196,1,92.4000028198243,10|8,0:2|0:2,0:0:0:0:
31,151,76484,2,0,P|34:104|42:59,1,92.4000028198243,10|10,0:2|0:2,0:0:0:0:
131,33,77295,1,10,0:2:0:0:
208,83,77700,1,10,0:2:0:0:
290,40,78105,6,0,P|335:31|381:28,1,92.4000028198243,10|14,0:2|0:2,0:0:0:0:
462,72,78916,2,0,P|486:127|460:253,1,184.800005639649,10|10,3:2|0:2,0:0:0:0:
401,313,80132,1,10,0:2:0:0:
316,276,80538,1,10,0:2:0:0:
247,337,80943,1,10,0:2:0:0:
174,279,81349,6,0,P|98:302|31:285,2,138.600004229736,14|2|10,0:2|0:2|0:2,0:0:0:0:
253,231,82970,2,0,P|329:254|396:237,2,138.600004229736,10|2|10,0:2|0:2|0:2,0:0:0:0:
170,188,84592,5,10,0:2:0:0:
229,117,84997,1,10,0:2:0:0:
310,160,85403,1,10,0:2:0:0:
380,100,85808,2,0,P|377:53|356:11,2,92.4000028198243,10|10|10,0:2|0:2|0:2,0:0:0:0:
310,160,87024,1,10,0:2:0:0:
229,117,87430,1,10,0:2:0:0:
170,188,87835,6,0,P|136:179|75:178,1,92.4000028198243,14|10,0:2|0:2,0:0:0:0:
9,238,88646,2,0,P|0:272|-1:333,1,92.4000028198243,10|8,0:2|0:2,0:0:0:0:
81,370,89457,2,0,P|157:353|275:349,1,184.800005639649,10|8,0:2|0:2,0:0:0:0:
355,368,90673,1,10,0:2:0:0:
427,310,91078,6,0,P|431:267|421:217,1,92.4000028198243,10|14,0:2|0:2,0:0:0:0:
345,164,91889,2,0,P|299:166|254:173,1,92.4000028198243,10|8,0:2|0:2,0:0:0:0:
184,234,92700,1,10,0:2:0:0:
105,187,93105,1,10,0:2:0:0:
125,97,93511,1,10,0:2:0:0:
216,88,93916,1,10,0:2:0:0:
254,173,94322,6,0,P|255:222|242:280,2,100.8,12|2|2,1:1|0:2|0:2,0:0:0:0:
32,93,96957,2,0,P|22:138|20:200,1,100.8,2|2,0:2|0:2,0:0:0:0:
79,313,98376,2,0,P|121:308|225:301,1,134.4,2|2,0:2|0:2,0:0:0:0:
474,260,100808,6,0,P|479:304|478:374,2,113.399996539307,6|0|0,0:2|0:2|3:2,0:2:0:0:
451,182,102430,1,2,0:2:0:0:
338,195,103038,1,2,0:2:0:0:
313,45,103849,6,0,P|262:41|186:55,1,113.399996539307,2|4,0:2|3:2,0:0:0:0:
144,111,104862,2,0,P|140:162|154:238,1,113.399996539307,2|0,0:2|0:2,0:0:0:0:
173,252,105673,2,0,P|227:223|403:195,1,226.799993078614,14|8,0:2|1:1,0:0:0:0:
467,221,107295,6,0,L|453:352,1,126,14|2,0:2|0:2,0:2:0:0:
377,379,108308,1,2,0:2:0:0:
319,318,108713,2,0,L|333:187,1,126,2|8,0:2|0:2,0:0:0:0:
345,67,109930,1,2,0:2:0:0:
232,52,110538,5,10,0:2:0:0:
119,36,111146,2,0,P|103:90|100:158,1,113.399996539307,2|8,0:2|0:2,0:0:0:0:
160,203,112159,2,0,P|204:206|279:226,2,107.10000204277,10|4|8,0:2|0:2|2:2,0:2:0:0:
87,243,113781,5,14,2:2:0:0:
256,192,113984,12,12,117024,1:1:0:0:
