osu file format v14

[General]
AudioFilename: audio.ogg
AudioLeadIn: 0
PreviewTime: 572
Countdown: 0
SampleSet: Drum
StackLeniency: 0.8
Mode: 0
LetterboxInBreaks: 0
WidescreenStoryboard: 1

[Editor]
Bookmarks: 74072,80072
DistanceSpacing: 3.5
BeatDivisor: 4
GridSize: 32
TimelineZoom: 2.1

[Metadata]
Title:soumonka
TitleUnicode:相聞詩
Artist:sokoninaru
ArtistUnicode:そこに鳴る
Creator:AirinCat
Version:insane
Source:魔女と野獣
Tags:kyouren anime rock japanese jrock The Witch And The Beast Majo to Yajuu opening gokugohan12468 kittyadventure
BeatmapID:4472422
BeatmapSetID:2119925

[Difficulty]
HPDrainRate:5
CircleSize:3.8
OverallDifficulty:8
ApproachRate:9
SliderMultiplier:1.4
SliderTickRate:1

[Events]
//Background and Video events
0,0,"cutpic.jpg",0,0
//Break Periods
//Storyboard Layer 0 (Background)
//Storyboard Layer 1 (Fail)
//Storyboard Layer 2 (Pass)
//Storyboard Layer 3 (Foreground)
//Storyboard Layer 4 (Overlay)
//Storyboard Sound Samples

[TimingPoints]
872,300,4,3,4,60,1,0
872,-142.857142857143,4,3,4,60,0,0
5072,-83.3333333333333,4,3,1,90,0,0
5672,-90.9090909090909,4,3,1,90,0,0
9272,-66.6666666666667,4,3,1,90,0,0
10472,-83.3333333333333,4,3,1,80,0,0
17672,-166.666666666667,4,3,1,60,0,0
24272,-100,4,3,1,70,0,0
24872,-90.9090909090909,4,3,1,70,0,0
25172,-90.9090909090909,4,3,1,70,0,0
29672,-83.3333333333333,4,3,1,75,0,0
36872,-83.3333333333333,4,3,23,80,0,0
39272,-83.3333333333333,4,3,1,80,0,0
40472,-71.4285714285714,4,3,1,60,0,0
40547,-71.4285714285714,4,3,2,64,0,0
40622,-71.4285714285714,4,3,1,68,0,0
40697,-71.4285714285714,4,3,2,74,0,0
40772,-71.4285714285714,4,3,1,80,0,0
40847,-71.4285714285714,4,3,2,86,0,0
40922,-71.4285714285714,4,3,1,92,0,0
40997,-71.4285714285714,4,3,2,96,0,0
41072,-71.4285714285714,4,3,1,36,0,0
41672,-83.3333333333333,4,3,1,80,0,0
65672,-83.3333333333333,4,3,1,80,0,1
68072,-133.333333333333,4,3,1,60,0,0
70472,-100,4,3,1,60,0,0
75272,-100,4,3,4,60,0,0
80072,-83.3333333333333,4,3,1,70,0,0
84872,-83.3333333333333,4,3,1,50,0,0
87272,-83.3333333333333,4,3,1,80,0,0
89672,-90.9090909090909,4,3,1,70,0,0
99272,300,3,3,1,80,1,0
99272,-71.4285714285714,4,3,1,80,0,0
101972,-71.4285714285714,4,3,23,80,0,0
102722,-71.4285714285714,4,3,1,80,0,0
102872,-66.6666666666667,4,3,1,80,0,0
104672,-66.6666666666667,4,3,1,70,0,0
105572,-66.6666666666667,4,3,1,80,0,0
106472,-66.6666666666667,4,3,1,90,0,0
107372,-66.6666666666667,4,3,2,70,0,0
108572,300,4,3,4,60,1,0
116972,-200,4,3,4,50,0,0
117572,-200,4,3,1,50,0,0
118172,-100,4,3,2,80,0,0
121772,-83.3333333333333,4,3,1,80,0,0
122972,-83.3333333333333,4,3,23,80,0,0
125372,-142.857142857143,4,3,5,60,0,0
126572,-90.9090909090909,4,3,5,60,0,0
126647,-90.9090909090909,4,3,5,62,0,0
126722,-90.9090909090909,4,3,2,68,0,0
126797,-90.9090909090909,4,3,5,72,0,0
126872,-90.9090909090909,4,3,2,78,0,0
126947,-90.9090909090909,4,3,5,84,0,0
127022,-90.9090909090909,4,3,2,90,0,0
127097,-90.9090909090909,4,3,5,98,0,0
127172,-90.9090909090909,4,3,5,38,0,0
127772,-83.3333333333333,4,3,1,80,0,0
152372,-83.3333333333333,4,3,23,80,0,0
152822,-83.3333333333333,4,3,1,80,0,0
154772,-83.3333333333333,4,3,23,80,0,0
155222,-83.3333333333333,4,3,1,80,0,0
161372,-83.3333333333333,4,3,1,80,0,1
163772,-125,4,3,1,60,0,0
167372,-90.9090909090909,4,3,1,60,0,0
168572,-111.111111111111,4,3,1,70,0,0
170372,-142.857142857143,4,3,1,70,0,0
170822,-142.857142857143,4,3,1,40,0,0
170972,-142.857142857143,4,3,1,70,0,0
173222,-142.857142857143,4,3,1,40,0,0
173372,-142.857142857143,4,3,1,70,0,0

[Colours]
Combo1 : 231,160,90
Combo2 : 193,132,255
Combo3 : 17,254,176

[HitObjects]
41,356,872,6,0,P|-1:241|38:176,1,195.999994018555,4|0,0:3|0:2,0:2:0:0:
30,182,1772,2,0,L|88:198,1,48.9999985046387,0|0,0:2|0:2,0:2:0:0:
160,184,2072,2,0,P|202:69|163:4,1,195.999994018555,0|0,0:2|0:2,0:2:0:0:
170,10,2972,2,0,L|123:22,1,48.9999985046387,0|0,0:2|0:2,0:2:0:0:
271,144,3272,6,0,L|463:182,1,195.999994018555,4|0,0:3|0:2,0:2:0:0:
463,182,4172,2,0,L|516:163,1,48.9999985046387,0|0,0:2|0:2,0:2:0:0:
430,272,4472,2,0,L|414:386,1,97.9999970092774,0|0,0:2|0:2,0:2:0:0:
244,67,5072,6,0,L|332:44,1,83.9999974365235,2|2,0:1|0:1,0:0:0:0:
351,132,5297,1,2,0:1:0:0:
345,140,5372,2,0,L|221:172,1,125.999996154785,2|0,0:3|0:2,0:2:0:0:
222,171,5672,6,0,L|204:249,1,77.0000023498536,0|2,1:2|0:2,0:2:0:0:
350,327,5972,2,0,L|328:244,1,77.0000023498536,0|2,1:2|0:2,0:2:0:0:
204,355,6272,2,0,L|124:376,1,77.0000023498536,0|2,1:2|0:2,0:2:0:0:
31,229,6572,2,0,L|123:255,1,77.0000023498536,0|2,1:2|0:2,0:2:0:0:
296,98,6872,6,0,P|236:149|163:149,1,154.000004699707,2|0,1:2|1:2,0:2:0:0:
95,79,7322,1,0,0:2:0:0:
95,79,7472,2,0,L|113:-2,1,77.0000023498536,0|0,1:2|0:2,0:2:0:0:
250,172,7772,2,0,B|240:273|219:253|218:349,1,154.000004699707,0|2,1:2|0:2,0:2:0:0:
218,322,9272,6,0,L|280:334,1,52.5000020027161,4|0,1:2|1:2,1:2:0:0:
302,346,9422,2,0,L|354:337,1,52.5000020027161,0|0,1:2|1:2,1:2:0:0:
225,231,9572,6,0,L|287:243,1,52.5000020027161,0|0,1:2|1:2,1:2:0:0:
309,255,9722,2,0,L|361:246,1,52.5000020027161,0|0,1:2|1:2,1:2:0:0:
227,128,9872,6,0,L|289:140,1,52.5000020027161,0|0,1:2|1:2,1:2:0:0:
311,152,10022,2,0,L|363:143,1,52.5000020027161,2|0,1:1|1:2,1:2:0:0:
121,184,10172,6,0,B|45:208|45:208|122:219,1,157.500006008148,14|0,0:1|0:2,0:2:0:0:
115,221,10472,6,0,P|184:262|185:342,1,167.999994873047,6|8,1:2|0:3,0:2:0:0:
175,352,10847,1,8,0:3:0:0:
161,356,10922,2,0,L|108:365,3,41.9999987182618,8|8|8|8,0:3|0:3|0:3|0:3,0:0:0:0:
42,307,11222,2,8,L|-3:315,3,41.9999987182618,8|8|8|8,0:3|0:3|0:3|0:3,0:3:0:0:
13,212,11522,5,8,0:3:0:0:
13,212,11597,1,8,0:3:0:0:
13,212,11672,2,0,L|1:145,3,41.9999987182618,4|8|8|8,1:2|0:3|0:3|0:3,0:0:0:0:
98,102,11972,1,8,0:3:0:0:
98,102,12047,1,8,0:3:0:0:
98,102,12122,2,8,L|112:164,3,41.9999987182618,4|8|8|8,1:2|0:3|0:3|0:3,0:3:0:0:
230,166,12422,1,8,0:3:0:0:
230,166,12497,1,8,0:3:0:0:
230,166,12572,2,0,L|220:116,3,41.9999987182618,8|8|8|8,0:3|0:3|0:2|0:2,0:0:0:0:
203,264,12872,6,0,P|296:261|353:196,1,167.999994873047,6|8,1:1|0:2,0:2:0:0:
323,70,13322,2,0,L|236:42,1,83.9999974365235,2|0,0:2|1:2,0:2:0:0:
346,211,13622,2,0,L|438:193,1,83.9999974365235,2|8,1:2|0:2,0:2:0:0:
470,12,13922,5,0,1:2:0:0:
470,12,13997,1,0,1:2:0:0:
470,12,14072,2,0,L|454:108,1,83.9999974365235,0|0,1:2|1:2,0:2:0:0:
245,167,14372,2,0,L|261:263,1,83.9999974365235,8|0,0:2|1:2,0:0:0:0:
458,357,14672,2,0,L|470:305,2,41.9999987182618,8|8|8,0:3|0:3|0:3,0:0:0:0:
211,321,14972,2,0,P|274:269|356:275,1,167.999994873047,12|4,0:1|1:2,0:2:0:0:
256,192,15572,12,4,17072,3:2:0:0:
156,123,17672,5,2,1:3:0:0:
156,123,17822,1,0,1:2:0:0:
0,183,17972,2,0,L|82:198,2,83.9999974365235,2|2|2,0:3|0:3|0:3,0:2:0:0:
261,64,18872,5,2,1:3:0:0:
261,64,19022,2,0,L|267:22,1,41.9999987182618,0|2,1:2|0:3,0:2:0:0:
261,310,19472,5,2,1:3:0:0:
261,310,19622,2,0,L|267:351,1,41.9999987182618,0|2,1:2|0:3,0:2:0:0:
336,136,20072,5,2,1:3:0:0:
336,136,20222,1,0,1:2:0:0:
483,192,20372,2,0,L|400:206,2,83.9999974365235,2|2|2,0:3|0:3|0:3,0:2:0:0:
261,366,21272,5,2,1:3:0:0:
214,279,21422,2,0,L|221:237,1,41.9999987182618,0|2,1:2|0:3,0:2:0:0:
321,299,21722,2,0,L|370:310,1,41.9999987182618,0|2,1:2|0:3,0:2:0:0:
167,347,22022,2,0,L|120:366,1,41.9999987182618,0|2,1:2|0:3,0:0:0:0:
266,98,22472,5,2,1:3:0:0:
266,98,22622,1,0,1:2:0:0:
221,237,22772,2,0,L|200:152,2,83.9999974365235,2|2|2,0:3|0:3|0:3,0:2:0:0:
507,228,23672,5,2,1:3:0:0:
507,228,23822,1,0,1:2:0:0:
374,257,23972,2,0,L|425:270,1,41.9999987182618,2|0,0:3|0:0,0:0:0:0:
283,99,24272,6,0,L|191:117,1,93.3333333333333,2|0,3:1|0:2,0:2:0:0:
117,168,24572,1,2,1:1:0:0:
122,192,24672,2,2,L|167:201,1,46.6666666666667,2|2,1:1|1:1,1:1:0:0:
191,117,24872,6,0,P|184:78|176:41,1,77.0000023498536,12|0,0:2|0:0,0:2:0:0:
22,198,25172,2,0,P|40:279|53:369,1,154.000004699707,2|0,1:2|1:2,0:2:0:0:
168,380,25622,1,0,0:2:0:0:
168,380,25772,1,0,1:2:0:0:
236,264,25922,2,0,P|277:255|327:239,1,77.0000023498536,2|0,0:2|1:2,0:2:0:0:
510,321,26222,2,0,P|441:351|370:324,1,154.000004699707,2|0,0:2|0:2,0:2:0:0:
310,245,26672,2,0,P|318:198|323:164,1,77.0000023498536,0|0,1:2|0:2,0:0:0:0:
452,72,26972,2,0,P|457:111|462:147,1,77.0000023498536,0|8,1:2|0:2,0:0:0:0:
427,260,27272,5,2,1:2:0:0:
216,49,27572,2,0,L|198:123,1,77.0000023498536,2|0,1:2|0:2,0:2:0:0:
86,208,27872,2,0,P|144:256|219:256,1,154.000004699707,2|2,1:2|0:2,0:2:0:0:
422,121,28322,2,0,P|347:110|286:154,1,154.000004699707,12|0,0:2|0:2,0:2:0:0:
369,209,28772,2,0,B|373:294|388:266|402:363,1,154.000004699707,8|0,1:2|0:2,0:2:0:0:
487,262,29222,1,8,0:2:0:0:
487,262,29297,1,8,0:2:0:0:
487,262,29372,1,8,0:2:0:0:
487,262,29447,1,8,0:2:0:0:
487,262,29522,2,8,L|530:267,1,38.5000011749268,8|8,0:2|0:2,0:2:0:0:
411,363,29672,6,0,L|311:383,1,83.9999974365235,6|0,1:2|0:0,0:2:0:0:
121,261,29972,2,0,P|200:238|275:271,1,167.999994873047,10|0,0:2|1:2,0:2:0:0:
225,353,30422,1,0,1:2:0:0:
225,353,30572,1,0,0:2:0:0:
175,201,30722,2,0,L|196:119,1,83.9999974365235,10|0,0:2|0:2,0:2:0:0:
306,17,31022,1,2,1:2:0:0:
370,143,31172,2,0,P|451:148|511:80,1,167.999994873047,8|0,0:2|1:2,0:2:0:0:
476,9,31622,1,0,1:2:0:0:
476,9,31772,2,0,L|385:36,1,83.9999974365235,8|0,0:2|0:2,0:0:0:0:
299,197,32072,6,0,B|304:302|323:277|328:371,1,167.999994873047,2|10,1:2|0:2,0:2:0:0:
430,319,32522,2,0,P|417:274|411:223,1,83.9999974365235,2|0,0:2|1:2,0:2:0:0:
203,278,32822,2,0,P|213:319|222:374,1,83.9999974365235,2|0,1:2|0:0,0:2:0:0:
68,201,33122,6,0,P|63:118|115:55,1,167.999994873047,10|2,0:2|1:2,0:2:0:0:
364,131,33572,2,0,P|314:159|234:164,1,125.999996154785,10|0,0:2|0:2,0:2:0:0:
246,165,33872,2,0,P|241:123|231:67,1,83.9999974365235,0|0,1:2|0:2,0:2:0:0:
388,265,34172,2,0,P|379:308|371:346,1,83.9999974365235,0|0,1:2|0:2,0:2:0:0:
454,180,34472,5,4,1:2:0:0:
269,294,34622,1,8,0:2:0:0:
247,285,34697,1,8,0:2:0:0:
226,279,34772,1,8,0:2:0:0:
204,272,34847,1,8,0:2:0:0:
185,267,34922,2,0,L|144:276,1,41.9999987182618,8|8,0:2|0:2,0:0:0:0:
54,308,35072,6,8,L|13:298,1,41.9999987182618,8|8,0:2|0:2,0:2:0:0:
74,232,35222,2,0,L|33:221,5,41.9999987182618,8|8|8|8|8|8,0:3|0:3|0:3|0:3|0:3|0:3,0:0:0:0:
143,138,35672,2,0,L|183:128,1,41.9999987182618,12|12,1:3|0:3,0:0:0:0:
163,50,35822,2,0,L|123:60,5,41.9999987182618,12|12|12|12|12|12,0:3|0:3|0:3|0:3|0:3|0:3,0:0:0:0:
250,60,36272,5,4,1:3:0:0:
278,48,36347,1,4,0:3:0:0:
310,51,36422,1,4,0:3:0:0:
337,59,36497,1,4,0:3:0:0:
359,70,36572,1,4,0:3:0:0:
387,86,36647,1,4,0:3:0:0:
417,90,36722,1,4,0:3:0:0:
443,75,36797,1,4,0:3:0:0:
441,53,36872,6,0,L|411:228,1,167.999994873047,4|8,1:2|0:1,0:2:0:0:
496,376,37322,1,0,0:2:0:0:
496,376,37397,1,0,0:0:0:0:
496,376,37472,2,0,L|514:287,2,83.9999974365235,0|0|0,1:2|1:2|0:2,0:0:0:0:
240,353,37922,2,0,P|296:293|377:292,1,167.999994873047,8|0,0:1|1:2,0:2:0:0:
246,194,38372,2,0,L|224:107,1,83.9999974365235,8|0,0:1|0:2,0:2:0:0:
391,11,38672,1,0,1:2:0:0:
346,134,38822,1,0,1:2:0:0:
170,23,38972,2,0,L|250:0,1,83.9999974365235,8|0,0:1|0:2,0:2:0:0:
486,139,39272,5,4,1:2:0:0:
486,139,40472,6,2,P|412:311|226:334,1,391.99998803711,4|0,1:2|0:2,0:1:0:0:
226,334,41672,6,0,P|232:287|238:250,1,83.9999974365235,6|0,1:1|0:2,0:2:0:0:
60,88,41972,2,0,P|67:129|72:171,1,83.9999974365235,10|0,0:2|0:2,0:2:0:0:
351,156,42272,2,0,P|281:111|200:123,1,167.999994873047,2|10,1:2|0:2,0:2:0:0:
333,302,42722,1,2,0:2:0:0:
452,168,42872,2,0,P|458:135|469:67,1,83.9999974365235,2|0,1:2|0:0,0:2:0:0:
333,302,43172,2,0,P|340:335|351:389,1,83.9999974365235,10|0,0:2|0:2,0:2:0:0:
108,275,43472,2,0,P|171:219|254:221,1,167.999994873047,2|10,1:2|0:2,0:2:0:0:
211,319,43922,1,2,0:2:0:0:
27,176,44072,6,0,B|48:80|20:104|42:5,1,167.999994873047,2|8,1:2|0:2,0:2:0:0:
143,85,44522,2,0,P|186:96|230:106,1,83.9999974365235,2|0,0:2|1:2,0:2:0:0:
407,0,44822,2,0,P|364:14|320:30,1,83.9999974365235,2|8,0:2|0:2,0:2:0:0:
320,240,45122,1,2,0:2:0:0:
452,215,45272,2,0,P|403:141|322:130,1,167.999994873047,2|0,1:2|0:2,0:2:0:0:
168,221,45722,1,8,0:3:0:0:
168,221,45797,1,8,0:3:0:0:
168,221,45872,2,0,L|181:289,3,41.9999987182618,8|8|8|8,1:3|0:3|0:3|0:3,0:0:0:0:
249,316,46172,2,0,L|238:356,3,41.9999987182618,8|8|8|8,0:3|0:3|0:3|0:3,0:0:0:0:
140,343,46472,6,0,P|101:333|57:325,1,83.9999974365235,4|2,1:1|0:2,0:0:0:0:
255,194,46772,2,0,P|297:203|338:210,1,83.9999974365235,8|2,0:2|0:1,0:0:0:0:
447,296,47072,1,0,1:2:0:0:
335,317,47222,1,2,1:1:0:0:
452,189,47372,1,2,0:2:0:0:
342,102,47522,5,10,0:1:0:0:
478,14,47672,2,0,L|490:97,1,83.9999974365235,2|2,0:2|1:1,0:2:0:0:
359,234,47972,1,8,0:2:0:0:
244,139,48122,2,0,P|161:131|100:186,1,167.999994873047,2|2,0:1|1:1,0:2:0:0:
0,23,48572,2,0,P|12:62|21:104,1,83.9999974365235,10|2,0:2|0:1,0:2:0:0:
337,209,48872,6,0,P|418:210|477:152,1,167.999994873047,4|8,1:2|0:2,0:2:0:0:
275,104,49322,2,0,P|235:116|187:128,1,83.9999974365235,2|0,0:2|1:2,0:2:0:0:
376,311,49622,2,0,P|417:319|482:338,1,83.9999974365235,2|8,1:2|0:2,0:2:0:0:
383,99,49922,1,0,0:2:0:0:
242,259,50072,2,0,P|232:299|223:340,1,83.9999974365235,12|0,0:2|1:2,0:0:0:0:
383,99,50372,2,0,P|392:139|401:180,1,83.9999974365235,14|0,0:2|1:2,0:0:0:0:
99,77,50672,2,0,L|180:95,1,83.9999974365235,2|8,1:2|0:2,0:2:0:0:
180,95,50897,1,8,0:2:0:0:
180,95,50972,1,8,0:2:0:0:
78,182,51122,5,8,0:2:0:0:
78,182,51197,1,8,0:2:0:0:
78,182,51272,2,0,P|87:222|94:264,1,83.9999974365235,6|0,1:1|0:0,0:2:0:0:
300,80,51572,2,0,P|285:31|272:-23,1,83.9999974365235,10|0,0:2|0:2,0:2:0:0:
201,263,51872,2,0,P|289:278|369:221,1,167.999994873047,2|10,1:2|0:2,0:2:0:0:
439,81,52322,1,2,0:2:0:0:
354,241,52472,2,0,L|377:321,1,83.9999974365235,2|0,1:2|0:0,0:2:0:0:
154,144,52772,2,0,L|167:61,1,83.9999974365235,10|0,0:2|0:2,0:2:0:0:
439,81,53072,2,0,P|366:140|286:126,1,167.999994873047,2|10,1:2|0:2,0:2:0:0:
319,44,53522,1,2,0:2:0:0:
490,186,53672,6,0,P|530:268|492:355,1,167.999994873047,2|8,1:2|0:2,0:2:0:0:
275,213,54122,2,0,P|286:174|298:127,1,83.9999974365235,2|0,0:2|1:2,0:2:0:0:
413,339,54422,2,0,P|372:351|316:369,1,83.9999974365235,2|8,0:2|0:2,0:2:0:0:
134,234,54722,1,2,0:2:0:0:
74,351,54872,2,0,P|167:363|234:306,1,167.999994873047,2|8,1:2|0:2,0:2:0:0:
150,111,55322,1,8,0:3:0:0:
150,111,55397,1,8,0:3:0:0:
150,111,55472,2,0,L|95:128,3,41.9999987182618,8|8|8|8,1:3|0:3|0:3|0:3,0:0:0:0:
40,188,55772,2,0,L|-23:172,3,41.9999987182618,8|8|8|8,0:3|0:3|0:3|0:3,0:0:0:0:
17,82,56072,6,0,P|25:35|32:-7,1,83.9999974365235,4|2,1:1|0:2,0:0:0:0:
129,220,56372,2,0,P|120:266|114:309,1,83.9999974365235,8|2,0:2|3:1,0:0:0:0:
321,142,56672,1,0,1:2:0:0:
258,281,56822,1,2,1:1:0:0:
197,152,56972,1,2,0:2:0:0:
365,245,57122,5,10,0:1:0:0:
435,82,57272,2,0,P|426:38|416:-15,1,83.9999974365235,2|2,0:2|1:1,0:2:0:0:
292,49,57572,1,8,0:2:0:0:
468,180,57722,2,0,P|504:260|478:338,1,167.999994873047,2|2,0:1|1:1,0:2:0:0:
282,165,58172,2,0,P|327:155|366:145,1,83.9999974365235,10|2,0:2|0:1,0:2:0:0:
157,355,58472,6,0,P|76:348|22:275,1,167.999994873047,6|10,1:2|0:2,0:2:0:0:
180,100,58922,2,0,P|99:86|32:146,1,167.999994873047,2|0,0:2|1:2,0:2:0:0:
145,233,59372,2,0,P|193:245|247:260,1,83.9999974365235,10|0,0:2|0:2,0:2:0:0:
379,83,59672,6,0,L|363:-2,1,83.9999974365235,12|0,0:2|1:2,0:0:0:0:
226,254,59972,2,0,L|246:346,1,83.9999974365235,10|0,0:2|1:2,0:0:0:0:
472,237,60272,1,8,0:2:0:0:
472,237,60347,1,8,0:2:0:0:
472,237,60422,1,8,0:2:0:0:
472,237,60497,1,8,0:2:0:0:
472,237,60572,2,8,L|521:251,1,41.9999987182618,8|8,0:2|0:2,0:2:0:0:
338,177,60722,6,0,P|274:108|290:27,1,167.999994873047,6|0,1:1|1:2,0:2:0:0:
380,260,61172,2,0,L|358:352,1,83.9999974365235,8|0,0:2|0:2,0:2:0:0:
219,188,61472,1,4,1:3:0:0:
376,90,61622,1,4,1:3:0:0:
219,188,61772,1,4,1:3:0:0:
460,75,61922,6,0,L|296:34,1,167.999994873047,6|0,1:2|1:2,0:2:0:0:
319,232,62372,2,0,L|427:209,1,83.9999974365235,8|0,0:2|0:2,0:2:0:0:
196,54,62672,1,8,0:2:0:0:
196,54,62747,1,8,0:2:0:0:
196,54,62822,2,0,L|180:118,3,41.9999987182618,8|8|8|8,0:2|0:2|0:2|0:2,0:0:0:0:
189,197,63122,6,0,P|107:189|54:127,1,167.999994873047,4|0,1:2|1:2,0:2:0:0:
285,57,63572,2,0,L|365:81,1,83.9999974365235,8|0,0:2|0:2,0:2:0:0:
375,318,63872,1,4,1:3:0:0:
308,179,64022,1,4,1:3:0:0:
442,200,64172,1,4,1:3:0:0:
214,316,64322,6,0,B|121:298|136:341|37:325,1,167.999994873047,4|0,1:2|1:2,0:2:0:0:
216,200,64772,2,0,P|211:158|214:110,1,83.9999974365235,8|0,0:2|1:2,0:2:0:0:
326,331,65072,2,0,L|317:372,2,41.9999987182618,8|8|8,0:3|0:3|0:3,0:0:0:0:
105,206,65372,5,12,0:2:0:0:
105,206,65672,5,12,0:3:0:0:
171,109,65872,1,12,3:3:0:0:
282,124,66072,1,12,0:3:0:0:
349,215,66272,5,12,0:3:0:0:
288,100,66472,1,12,0:3:0:0:
148,88,66672,1,12,0:3:0:0:
82,215,66872,5,12,0:3:0:0:
139,64,67072,1,12,0:3:0:0:
306,71,67272,1,12,0:3:0:0:
376,206,67472,5,12,0:3:0:0:
320,46,67672,1,12,0:3:0:0:
118,34,67872,1,12,0:3:0:0:
41,205,68072,5,4,1:1:0:0:
76,130,69872,5,8,0:2:0:0:
81,150,69947,1,8,0:2:0:0:
88,170,70022,1,8,0:2:0:0:
95,191,70097,1,8,0:2:0:0:
100,208,70172,2,0,L|110:250,1,26.2500010013581,8|8,0:2|0:2,0:0:0:0:
77,269,70322,2,0,L|67:310,1,26.2500010013581,8|8,0:2|0:2,0:0:0:0:
142,336,70472,6,0,L|210:323,1,70,12|12,1:3|1:3,0:2:0:0:
512,162,71672,6,0,L|432:148,1,70,12|12,1:3|1:3,0:2:0:0:
141,225,72872,5,12,1:3:0:0:
141,225,73022,1,12,1:3:0:0:
451,324,73472,5,12,1:3:0:0:
451,324,73622,1,12,1:3:0:0:
214,24,74072,6,0,B|200:55|200:55|200:92,1,70,6|2,1:2|0:2,0:2:0:0:
360,236,74372,2,0,B|361:201|361:201|346:167,1,70,2|0,1:2|0:2,0:2:0:0:
96,210,74672,2,0,B|129:225|129:225|184:232,1,70,2|0,1:2|0:2,0:2:0:0:
406,33,74972,2,0,B|366:31|366:31|320:48,1,70,0|2,1:2|0:2,0:2:0:0:
251,181,75272,6,0,L|272:319,2,140,6|0|0,1:2|1:2|1:2,0:2:0:0:
4,27,76172,2,0,L|87:40,1,70,0|2,1:2|0:2,0:2:0:0:
84,51,76397,1,2,0:2:0:0:
92,59,76472,2,0,B|84:131|64:123|51:204,1,140,2|0,1:2|1:2,0:2:0:0:
103,313,76922,2,0,P|170:326|230:292,1,140,2|0,0:2|0:2,0:2:0:0:
278,196,77372,2,0,L|258:128,1,70,2|0,1:2|0:2,0:2:0:0:
352,289,77672,6,0,B|425:297|415:315|495:332,1,140,2|0,1:2|1:2,0:0:0:0:
512,185,78122,2,0,P|480:196|437:208,1,70,2|0,0:2|1:2,0:2:0:0:
359,166,78422,1,2,0:2:0:0:
501,92,78572,2,0,P|465:85|426:69,1,70,2|0,1:2|0:2,0:2:0:0:
282,251,78872,6,0,L|82:333,1,210,2|0,1:2|1:2,0:2:0:0:
87,330,79472,1,2,0:2:0:0:
87,330,80072,6,0,P|45:275|66:178,1,167.999994873047,4|0,1:2|0:2,0:2:0:0:
188,45,80522,2,0,P|232:97|221:198,1,167.999994873047,2|0,1:2|0:2,0:2:0:0:
199,351,80972,2,0,B|218:314|271:299|271:299|299:321|341:328,1,167.999994873047,2|0,1:2|0:2,0:2:0:0:
512,244,81422,2,0,B|493:207|439:192|439:192|411:214|369:221,1,167.999994873047,2|0,1:2|0:2,0:2:0:0:
265,125,81872,2,0,P|276:80|280:35,1,83.9999974365235,6|8,1:2|0:3,0:0:0:0:
295,27,82097,1,8,0:3:0:0:
320,24,82172,1,8,0:3:0:0:
345,37,82247,1,8,0:3:0:0:
359,50,82322,2,0,P|355:73|352:100,1,41.9999987182618,8|8,0:3|0:3,0:0:0:0:
183,89,82472,6,0,B|90:78|111:50|23:40,1,167.999994873047,4|0,1:2|0:2,0:2:0:0:
105,222,82922,2,0,B|94:315|66:294|56:381,1,167.999994873047,2|0,1:2|0:2,0:2:0:0:
253,265,83372,2,0,P|337:271|392:332,1,167.999994873047,2|0,1:2|0:2,0:2:0:0:
509,100,83822,2,0,P|452:160|371:165,1,167.999994873047,2|0,1:2|1:2,0:2:0:0:
353,152,84197,1,0,1:2:0:0:
341,136,84272,2,0,P|343:87|355:37,1,83.9999974365235,12|0,1:2|1:2,0:0:0:0:
506,267,84572,2,0,P|505:317|494:363,1,83.9999974365235,2|0,1:2|0:0,0:2:0:0:
202,159,84872,6,0,L|161:171,1,41.9999987182618,4|0,1:2|2:2,0:2:0:0:
459,365,85322,2,0,L|504:347,1,41.9999987182618,4|0,1:2|2:2,0:2:0:0:
189,151,85772,2,0,L|148:163,1,41.9999987182618,4|0,1:2|2:2,0:2:0:0:
454,347,86222,2,0,L|499:329,1,41.9999987182618,4|0,1:2|2:2,0:2:0:0:
185,135,86672,2,0,L|144:147,1,41.9999987182618,4|0,1:2|2:2,0:2:0:0:
451,329,86972,2,0,L|491:316,1,41.9999987182618,4|0,1:2|2:2,0:2:0:0:
314,59,87272,6,0,L|300:147,1,83.9999974365235,14|0,1:2|1:2,0:0:0:0:
373,286,87572,1,0,1:2:0:0:
464,80,87722,2,0,L|476:163,1,83.9999974365235,12|0,1:2|1:2,0:0:0:0:
262,266,88022,1,0,1:2:0:0:
190,45,88172,2,0,L|169:139,1,83.9999974365235,12|0,1:2|1:2,0:0:0:0:
374,180,88472,5,0,1:2:0:0:
171,230,88622,2,0,L|88:214,1,83.9999974365235,12|0,1:2|1:2,0:0:0:0:
258,361,88922,1,0,1:2:0:0:
298,98,89072,2,0,L|423:72,1,111.999996582031,14|0,1:2|0:2,0:2:0:0:
512,123,89372,1,2,1:3:0:0:
511,142,89472,2,2,L|445:156,1,55.9999982910157,2|2,1:3|1:3,1:3:0:0:
408,77,89672,6,0,L|427:2,1,77.0000023498536,6|0,1:1|0:2,0:2:0:0:
482,260,89972,2,0,P|418:290|329:258,1,154.000004699707,2|0,1:2|1:2,0:2:0:0:
284,192,90422,1,0,0:2:0:0:
284,192,90572,1,0,1:2:0:0:
197,321,90722,2,0,P|237:330|288:344,1,77.0000023498536,2|0,0:2|1:2,0:2:0:0:
333,88,91022,2,0,P|258:77|192:114,1,154.000004699707,2|0,0:2|0:0,0:0:0:0:
124,215,91472,2,0,P|87:226|44:233,1,77.0000023498536,0|0,1:2|0:2,0:0:0:0:
17,82,91772,2,0,P|54:69|100:67,1,77.0000023498536,0|8,1:2|0:2,0:0:0:0:
192,113,92072,5,2,1:2:0:0:
19,321,92372,2,0,P|67:339|107:350,1,77.0000023498536,2|0,1:2|0:0,0:0:0:0:
325,303,92672,2,0,P|285:244|206:229,1,154.000004699707,2|0,1:2|1:2,0:0:0:0:
345,165,93122,2,0,P|357:128|369:84,1,77.0000023498536,8|0,0:2|0:0,0:2:0:0:
269,0,93422,1,0,0:2:0:0:
161,6,93572,2,0,B|121:159,1,154.000004699707,8|0,0:2|1:2,0:2:0:0:
235,329,94022,1,8,0:2:0:0:
235,329,94097,1,8,0:2:0:0:
235,329,94172,1,8,0:2:0:0:
235,329,94247,1,8,0:2:0:0:
235,329,94322,2,0,L|286:344,1,38.5000011749268,8|8,0:2|0:2,0:0:0:0:
129,274,94472,6,0,L|54:294,1,77.0000023498536,4|0,1:1|0:2,0:2:0:0:
214,118,94772,2,0,P|289:124|343:190,1,154.000004699707,10|0,0:2|1:2,0:2:0:0:
272,243,95222,1,0,1:2:0:0:
272,243,95372,1,0,0:2:0:0:
294,84,95522,2,0,L|316:10,1,77.0000023498536,10|0,0:2|0:2,0:2:0:0:
418,126,95822,1,2,1:2:0:0:
198,180,95972,2,0,P|122:166|70:96,1,154.000004699707,8|2,0:2|1:2,0:2:0:0:
19,38,96422,1,0,0:2:0:0:
19,38,96572,2,0,P|55:24|92:17,1,77.0000023498536,8|0,0:2|0:2,0:0:0:0:
118,230,96872,6,0,B|111:316|94:310|90:381,1,154.000004699707,0|10,1:2|0:2,0:0:0:0:
226,318,97322,2,0,P|231:272|240:226,1,77.0000023498536,2|0,0:2|1:2,0:2:0:0:
11,197,97622,2,0,P|6:235|0:273,1,77.0000023498536,2|0,1:2|0:0,0:0:0:0:
245,116,97922,6,0,P|207:125|167:133,1,77.0000023498536,10|0,0:2|0:2,0:2:0:0:
417,293,98222,1,2,1:2:0:0:
333,329,98372,2,0,B|327:295|308:263|308:263|343:219,1,115.50000352478,8|0,0:2|0:2,0:2:0:0:
337,228,98672,2,0,L|417:199,1,77.0000023498536,2|0,1:2|0:2,0:2:0:0:
223,326,98972,2,0,L|130:298,1,77.0000023498536,2|0,1:2|0:2,0:2:0:0:
217,9,99272,6,0,B|236:57|236:57|229:96|229:96|245:149,2,146.999995513916,14|10|10,0:2|0:2|0:2,0:2:0:0:
12,106,99872,1,8,0:2:0:0:
12,106,99947,1,8,0:2:0:0:
12,106,100022,2,0,L|74:132,1,48.9999985046387,8|8,0:2|0:2,0:0:0:0:
141,122,100172,2,0,B|88:137|88:137|61:175|61:175|20:195,2,146.999995513916,6|2|2,1:2|1:2|1:2,0:2:0:0:
230,314,100772,1,10,0:2:0:0:
230,314,100847,1,8,0:3:0:0:
230,314,100922,2,8,L|167:292,1,48.9999985046387,8|8,0:3|0:3,0:3:0:0:
155,221,101072,2,0,B|142:264|142:264|153:310|153:310|128:359,2,146.999995513916,6|2|2,1:2|1:2|1:2,0:2:0:0:
197,119,101672,5,8,0:3:0:0:
197,119,101747,1,8,0:3:0:0:
197,119,101822,1,8,0:3:0:0:
276,240,101972,5,12,0:1:0:0:
328,45,102122,1,8,0:1:0:0:
276,240,102422,5,12,0:1:0:0:
328,45,102572,1,8,0:1:0:0:
325,141,102722,5,0,1:2:0:0:
325,141,102797,1,0,1:2:0:0:
325,141,102872,2,0,B|379:149|379:149|428:129,1,105.000004005432,14|0,1:2|1:2,0:2:0:0:
497,96,103097,2,0,B|468:136|468:136|484:199,1,105.000004005432,10|0,0:2|1:2,0:2:0:0:
512,266,103322,2,0,B|470:238|470:238|410:254,1,105.000004005432,10|8,0:2|0:2,0:2:0:0:
407,263,103547,1,8,0:2:0:0:
398,277,103622,2,0,L|409:328,1,52.5000020027161,8|8,0:2|0:2,0:0:0:0:
254,350,103772,6,0,L|202:362,2,52.5000020027161,6|8|8,1:2|0:2|0:2,0:2:0:0:
213,236,103997,2,0,L|160:231,2,52.5000020027161,2|8|8,1:2|0:2|0:2,0:2:0:0:
261,118,104222,2,0,L|217:90,3,52.5000020027161,2|8|10|8,1:2|0:2|0:2|0:2,0:2:0:0:
372,140,104522,5,8,0:2:0:0:
372,140,104597,1,8,0:2:0:0:
372,140,104672,2,0,P|398:95|397:43,1,105.000004005432,6|0,1:2|0:2,0:2:0:0:
416,237,104897,2,0,P|460:262|512:257,1,105.000004005432,6|0,1:2|0:2,0:2:0:0:
314,214,105122,2,0,P|263:222|227:259,1,105.000004005432,6|2,1:2|1:2,0:2:0:0:
227,259,105572,6,0,P|175:261|129:227,1,105.000004005432,6|0,1:2|0:2,0:2:0:0:
25,141,105797,2,0,P|70:110|122:113,1,105.000004005432,6|0,1:2|0:2,0:2:0:0:
199,3,106022,2,0,P|236:44|239:96,1,105.000004005432,6|2,1:2|1:2,0:2:0:0:
239,91,106472,6,0,P|280:60|331:62,1,105.000004005432,6|0,1:2|0:2,0:2:0:0:
500,96,106697,2,0,P|486:145|446:179,1,105.000004005432,6|0,1:2|0:2,0:2:0:0:
342,300,106922,2,0,P|309:260|309:208,1,105.000004005432,6|2,0:2|1:2,0:2:0:0:
308,208,107372,6,0,L|239:229,2,70.0000026702882,2|2|2,1:1|0:2|0:2,0:0:0:0:
443,280,107672,2,0,L|517:263,2,70.0000026702882,2|2|2,1:1|0:2|0:2,0:0:0:0:
443,280,107972,1,2,1:1:0:0:
256,96,108572,5,4,0:3:0:0:
256,352,109772,1,0,0:2:0:0:
256,32,110972,1,4,0:3:0:0:
256,352,112172,1,0,0:2:0:0:
256,224,112772,1,0,0:2:0:0:
256,32,113372,1,4,0:3:0:0:
256,160,113972,1,0,0:2:0:0:
256,352,114572,1,2,0:2:0:0:
256,160,115172,1,0,0:2:0:0:
256,0,115772,1,4,0:3:0:0:
256,192,116372,1,0,0:2:0:0:
256,371,116972,2,0,P|261:305|255:247,1,122.5,2|0,0:2|0:2,0:2:0:0:
255,249,117572,2,0,L|252:222,7,17.5,0|0|0|0|0|0|0|0,0:3|0:3|0:3|0:3|0:3|0:3|0:3|0:3,0:0:0:0:
324,172,118172,6,0,P|360:179|397:182,1,70,4|0,1:1|0:0,0:2:0:0:
159,232,118472,2,0,P|119:225|90:221,1,70,8|0,1:2|0:2,0:2:0:0:
189,0,118772,2,0,P|198:28|212:73,1,70,0|8,1:2|0:2,0:2:0:0:
102,68,119072,1,0,1:2:0:0:
102,68,119222,1,8,0:2:0:0:
276,138,119372,6,0,P|312:146|344:151,1,70,2|0,1:2|0:0,0:2:0:0:
476,16,119672,2,0,P|434:22|407:29,1,70,8|0,1:2|0:2,0:2:0:0:
480,269,119972,2,0,P|486:240|491:196,1,70,0|8,1:2|0:2,0:2:0:0:
441,121,120272,1,0,1:2:0:0:
441,121,120422,1,8,0:2:0:0:
366,251,120572,6,0,P|302:278|234:264,1,140,2|8,1:2|1:2,0:2:0:0:
158,142,121022,2,0,P|161:106|172:64,1,70,0|0,0:2|1:2,0:2:0:0:
70,297,121322,2,0,P|37:305|-17:317,1,70,8|0,0:2|1:2,0:2:0:0:
49,189,121622,5,8,1:2:0:0:
202,278,121772,2,0,B|277:282|263:309|374:323,1,167.999994873047,0|0,1:2|1:2,0:2:0:0:
489,170,122222,2,8,L|485:123,2,41.9999987182618,8|8|8,0:2|0:2|0:2,0:2:0:0:
341,220,122522,1,8,0:2:0:0:
341,220,122597,1,8,0:2:0:0:
341,220,122672,1,8,0:2:0:0:
341,220,122747,1,8,0:2:0:0:
341,220,122822,2,8,L|405:237,1,41.9999987182618,8|8,0:2|0:2,0:2:0:0:
479,268,122972,6,0,P|399:279|351:351,1,167.999994873047,4|8,1:2|0:1,0:2:0:0:
411,99,123572,1,0,1:2:0:0:
411,99,123722,2,0,P|399:58|393:17,1,83.9999974365235,0|0,1:2|0:2,0:2:0:0:
265,195,124022,2,0,P|184:202|113:151,1,167.999994873047,8|0,0:1|1:2,0:2:0:0:
0,29,124472,2,0,P|14:81|22:125,1,83.9999974365235,8|0,0:1|0:2,0:2:0:0:
1,270,124772,1,0,1:2:0:0:
115,154,124922,1,0,1:2:0:0:
119,367,125072,2,0,P|110:326|103:284,1,83.9999974365235,8|0,0:1|0:2,0:2:0:0:
317,84,125372,5,4,1:1:0:0:
235,132,125522,2,0,L|227:178,3,24.4999992523194,2|2|2|2,0:2|0:2|0:2|0:2,0:0:0:0:
310,202,125822,2,0,L|319:243,3,24.4999992523194,2|2|2|2,0:2|0:2|0:2|0:2,0:0:0:0:
219,257,126122,2,0,L|210:297,1,24.4999992523194,2|2,0:2|0:2,0:0:0:0:
290,322,126272,2,10,L|292:354,2,32.6666656697591,10|10|10,0:3|0:3|0:3,0:3:0:0:
382,316,126572,6,2,B|406:231|319:243|324:103|411:107|381:5,1,308.000009399414,2|0,0:1|0:2,0:1:0:0:
384,19,127772,6,0,P|342:24|301:40,1,83.9999974365235,6|0,1:1|0:2,0:2:0:0:
155,264,128072,2,0,P|193:262|244:243,1,83.9999974365235,10|0,0:2|0:2,0:2:0:0:
201,0,128372,2,0,P|145:68|151:151,1,167.999994873047,2|10,1:2|0:2,0:2:0:0:
334,172,128822,1,2,0:2:0:0:
267,323,128972,2,0,P|245:286|235:246,1,83.9999974365235,2|0,1:2|0:2,0:2:0:0:
458,148,129272,2,0,P|479:184|489:224,1,83.9999974365235,10|0,0:2|0:2,0:2:0:0:
218,105,129572,2,0,P|263:52|362:37,1,167.999994873047,2|10,1:2|0:2,0:2:0:0:
339,128,130022,1,2,0:2:0:0:
165,203,130172,6,0,P|75:178|0:169,1,167.999994873047,2|8,1:2|0:2,0:2:0:0:
111,83,130622,2,0,P|123:33|127:-7,1,83.9999974365235,2|0,0:2|1:2,0:2:0:0:
115,276,130922,2,0,P|102:320|96:370,1,83.9999974365235,2|8,0:2|0:2,0:2:0:0:
266,184,131222,1,2,0:2:0:0:
309,271,131372,2,0,P|382:310|474:291,1,167.999994873047,2|8,1:2|0:2,0:2:0:0:
407,104,131822,1,8,0:3:0:0:
407,104,131897,1,8,0:3:0:0:
407,104,131972,2,0,L|352:119,3,41.9999987182618,8|8|8|8,1:3|0:3|0:3|0:3,0:0:0:0:
405,216,132272,2,0,L|447:221,3,41.9999987182618,8|8|8|8,1:3|0:3|0:3|0:3,0:0:0:0:
512,154,132572,6,0,L|495:71,1,83.9999974365235,4|2,1:1|0:2,0:0:0:0:
314,238,132872,2,0,L|328:331,1,83.9999974365235,8|2,0:2|0:1,0:0:0:0:
137,171,133172,1,0,1:2:0:0:
267,127,133322,1,2,1:1:0:0:
206,267,133472,1,2,0:2:0:0:
174,74,133622,5,10,0:1:0:0:
355,153,133772,2,0,L|447:136,1,83.9999974365235,2|2,0:2|1:1,0:2:0:0:
285,2,134072,1,8,0:2:0:0:
159,165,134222,2,0,P|76:158|16:102,1,167.999994873047,2|2,0:1|1:1,0:0:0:0:
109,281,134672,2,0,P|115:325|124:367,1,83.9999974365235,10|2,0:2|0:1,0:2:0:0:
286,102,134972,6,0,P|359:64|441:78,1,167.999994873047,6|8,1:2|0:2,0:2:0:0:
488,188,135422,2,0,P|480:230|471:275,1,83.9999974365235,2|0,0:2|1:2,0:2:0:0:
185,194,135722,2,0,P|192:236|202:281,1,83.9999974365235,2|8,1:2|0:2,0:2:0:0:
358,185,136022,1,2,0:2:0:0:
317,366,136172,2,0,P|304:319|294:277,1,83.9999974365235,14|0,0:2|1:2,0:0:0:0:
276,39,136472,2,0,P|265:79|254:120,1,83.9999974365235,14|0,0:2|1:2,0:0:0:0:
429,255,136772,2,0,L|511:270,1,83.9999974365235,4|8,1:2|0:2,0:2:0:0:
510,246,136997,1,8,0:2:0:0:
501,226,137072,1,8,0:2:0:0:
491,205,137147,1,8,0:2:0:0:
486,187,137222,2,0,L|497:132,1,41.9999987182618,8|8,0:2|0:2,0:0:0:0:
336,260,137372,6,0,P|291:268|254:280,1,83.9999974365235,6|0,1:1|0:2,0:2:0:0:
352,10,137672,2,0,P|359:55|374:96,1,83.9999974365235,10|0,0:2|0:2,0:2:0:0:
111,227,137972,2,0,P|109:129|171:64,1,167.999994873047,2|10,1:2|0:2,0:2:0:0:
295,147,138422,1,2,0:2:0:0:
149,76,138572,2,0,P|113:86|58:97,1,83.9999974365235,2|0,1:2|0:2,0:2:0:0:
334,272,138872,2,0,P|369:261|425:251,1,83.9999974365235,10|0,0:2|0:2,0:2:0:0:
183,190,139172,2,0,P|136:258|145:339,1,167.999994873047,2|10,1:2|0:2,0:2:0:0:
250,355,139622,1,2,0:2:0:0:
337,175,139772,6,0,B|328:83|311:93|309:9,1,167.999994873047,2|10,1:2|0:2,0:2:0:0:
414,47,140222,2,0,P|448:57|501:55,1,83.9999974365235,2|0,0:2|1:2,0:2:0:0:
243,144,140522,2,0,P|201:142|160:153,1,83.9999974365235,2|8,0:2|0:2,0:2:0:0:
442,260,140822,5,2,0:2:0:0:
330,354,140972,2,0,P|320:271|374:199,1,167.999994873047,2|8,1:2|0:2,0:2:0:0:
500,64,141422,1,8,0:3:0:0:
500,64,141497,1,8,0:3:0:0:
500,64,141572,2,0,L|519:130,3,41.9999987182618,8|8|8|8,1:3|0:3|0:3|0:3,0:0:0:0:
374,92,141872,2,0,L|382:50,3,41.9999987182618,8|8|8|8,1:3|0:3|0:3|0:3,0:0:0:0:
431,193,142172,6,0,L|510:219,1,83.9999974365235,4|2,1:1|0:2,0:0:0:0:
278,41,142472,2,0,L|199:67,1,83.9999974365235,8|2,0:2|0:1,0:0:0:0:
252,269,142772,1,0,1:2:0:0:
302,155,142922,1,2,1:1:0:0:
183,183,143072,1,2,0:2:0:0:
355,264,143222,1,10,0:1:0:0:
183,183,143372,6,0,L|100:197,1,83.9999974365235,2|2,0:2|1:1,0:2:0:0:
223,355,143672,1,8,0:2:0:0:
352,256,143822,2,0,P|434:253|500:302,1,167.999994873047,2|2,0:1|1:1,0:2:0:0:
378,125,144272,2,0,P|383:78|388:35,1,83.9999974365235,10|2,0:2|0:1,0:2:0:0:
142,279,144572,6,0,P|60:274|3:215,1,167.999994873047,6|8,1:2|0:2,0:2:0:0:
49,47,145022,2,0,P|127:65|229:90,1,167.999994873047,2|0,0:2|1:2,0:2:0:0:
383,0,145472,2,0,P|371:48|360:92,1,83.9999974365235,10|0,0:2|0:2,0:2:0:0:
344,322,145772,6,0,L|324:233,1,83.9999974365235,14|0,0:2|1:2,0:0:0:0:
512,50,146072,2,0,L|492:139,1,83.9999974365235,14|0,0:2|1:2,0:0:0:0:
257,128,146372,1,8,0:2:0:0:
257,128,146447,1,8,0:2:0:0:
257,128,146522,1,8,0:2:0:0:
257,128,146597,1,8,0:2:0:0:
257,128,146672,2,8,L|320:147,1,41.9999987182618,8|8,0:2|0:2,0:2:0:0:
405,144,146822,6,0,P|324:158|279:227,1,167.999994873047,6|0,1:1|1:2,0:2:0:0:
382,363,147272,2,0,L|393:274,1,83.9999974365235,8|0,0:2|0:2,0:2:0:0:
180,190,147572,1,12,1:3:0:0:
247,374,147722,1,12,1:3:0:0:
277,226,147872,1,12,1:3:0:0:
103,338,148022,6,0,P|29:300|1:223,1,167.999994873047,12|0,1:2|1:2,0:2:0:0:
127,21,148472,2,0,L|145:102,1,83.9999974365235,8|0,0:2|0:2,0:2:0:0:
10,207,148772,1,8,0:2:0:0:
10,207,148847,1,8,0:2:0:0:
10,207,148922,2,8,L|20:150,3,41.9999987182618,8|8|8|8,0:2|0:2|0:2|0:2,0:2:0:0:
127,195,149222,6,0,B|214:208|195:228|311:239,1,167.999994873047,6|0,1:2|1:2,0:2:0:0:
392,130,149672,2,0,P|381:83|376:35,1,83.9999974365235,8|0,0:2|0:2,0:2:0:0:
285,132,149972,1,12,1:3:0:0:
445,240,150122,1,12,1:3:0:0:
285,132,150272,1,12,1:3:0:0:
488,162,150422,6,0,P|475:244|451:325,1,167.999994873047,4|8,1:2|0:3,0:2:0:0:
436,338,150797,1,8,0:3:0:0:
421,342,150872,2,0,P|381:339|331:322,1,83.9999974365235,8|4,0:3|0:3,0:2:0:0:
123,238,151172,2,0,P|83:245|34:259,1,83.9999974365235,14|0,0:2|1:2,0:0:0:0:
122,375,151472,1,8,0:2:0:0:
241,178,151622,6,0,B|230:86|207:103|199:15,1,167.999994873047,6|8,1:2|0:0,0:2:0:0:
215,8,151997,1,8,0:2:0:0:
226,2,152072,2,0,L|279:12,3,41.9999987182618,8|8|0|0,0:2|0:2|1:2|1:2,0:0:0:0:
118,87,152372,2,0,P|76:80|35:70,2,83.9999974365235,8|8|8,3:1|3:1|3:1,0:0:0:0:
307,158,152822,6,0,P|224:162|166:220,1,167.999994873047,4|8,1:2|0:3,0:2:0:0:
161,242,153197,1,8,0:3:0:0:
155,258,153272,2,0,P|161:287|170:340,1,83.9999974365235,8|4,0:3|0:3,0:2:0:0:
406,288,153572,1,12,1:3:0:0:
284,247,153722,1,12,1:3:0:0:
359,384,153872,1,12,1:3:0:0:
496,245,154022,6,0,P|489:161|459:83,1,167.999994873047,6|8,1:2|0:2,0:2:0:0:
452,72,154397,1,8,0:2:0:0:
435,66,154472,2,0,P|391:80|343:93,1,83.9999974365235,8|4,0:2|0:3,0:2:0:0:
216,191,154772,1,8,3:1:0:0:
226,0,154922,2,0,P|237:42|251:93,1,83.9999974365235,8|8,3:1|3:1,0:0:0:0:
21,260,155222,6,0,P|12:170|59:103,1,167.999994873047,6|8,1:1|0:2,0:2:0:0:
64,104,155597,1,8,0:2:0:0:
84,102,155672,2,0,L|150:126,3,41.9999987182618,8|8|8|8,0:2|0:2|0:2|0:2,0:0:0:0:
175,200,155972,2,8,L|230:187,3,41.9999987182618,8|8|8|8,0:3|0:3|0:2|0:2,0:3:0:0:
299,113,156272,5,8,0:2:0:0:
299,113,156347,1,8,0:2:0:0:
299,113,156422,2,0,P|352:174|349:256,1,167.999994873047,6|0,1:1|1:2,0:2:0:0:
167,92,156872,2,0,P|175:47|180:2,1,83.9999974365235,10|0,0:2|1:2,0:2:0:0:
235,272,157172,2,0,P|226:319|219:374,1,83.9999974365235,8|0,0:2|1:2,0:0:0:0:
58,218,157472,1,8,0:2:0:0:
271,172,157622,6,0,P|343:158|466:139,1,167.999994873047,2|0,1:1|1:2,0:2:0:0:
410,328,158072,2,0,L|304:301,1,83.9999974365235,10|0,0:2|1:2,0:2:0:0:
334,68,158372,1,8,0:2:0:0:
478,249,158522,1,0,1:2:0:0:
496,100,158672,1,8,1:3:0:0:
305,240,158822,1,4,1:3:0:0:
393,187,158972,6,0,P|321:146|242:167,1,167.999994873047,14|0,1:1|1:2,0:2:0:0:
112,336,159422,2,0,L|195:354,1,83.9999974365235,14|0,1:1|1:2,0:2:0:0:
136,127,159722,1,0,1:2:0:0:
16,229,159872,2,0,L|1:146,1,83.9999974365235,14|0,1:1|0:2,0:2:0:0:
281,142,160172,5,0,1:2:0:0:
103,219,160322,2,0,B|202:233|172:259|274:273,1,167.999994873047,14|0,1:1|1:2,0:2:0:0:
445,166,160772,1,12,1:3:0:0:
445,166,160847,1,12,1:3:0:0:
445,166,160922,1,12,1:3:0:0:
426,267,161072,2,0,L|410:350,1,83.9999974365235,14|0,0:2|0:0,0:2:0:0:
120,207,161372,5,12,3:3:0:0:
231,120,161572,1,12,0:3:0:0:
359,188,161772,1,12,0:3:0:0:
480,96,161972,5,12,0:3:0:0:
363,211,162172,1,12,0:3:0:0:
228,102,162372,1,12,0:3:0:0:
118,220,162572,5,12,0:3:0:0:
225,83,162772,1,12,0:3:0:0:
365,228,162972,1,12,0:3:0:0:
472,85,163172,5,12,0:3:0:0:
367,246,163372,1,12,0:3:0:0:
222,64,163572,1,12,0:3:0:0:
114,236,163772,1,6,1:1:0:0:
434,133,165572,5,8,0:2:0:0:
439,152,165647,1,8,0:2:0:0:
443,173,165722,1,8,0:2:0:0:
447,193,165797,1,8,0:2:0:0:
452,210,165872,2,0,L|460:253,1,28,8|8,0:2|0:2,0:0:0:0:
378,275,166022,2,0,L|372:312,1,28,10|0,1:2|0:0,0:0:0:0:
73,295,167372,6,0,L|110:285,3,38.5000011749268,8|8|8|8,1:2|1:2|1:2|1:2,0:0:0:0:
119,181,167672,2,0,L|166:190,3,38.5000011749268,8|8|8|8,1:2|1:2|1:2|1:2,0:0:0:0:
204,106,167972,1,8,1:2:0:0:
219,113,168047,1,8,1:2:0:0:
238,121,168122,1,8,1:2:0:0:
256,129,168197,1,8,1:2:0:0:
305,115,168272,1,8,1:2:0:0:
320,133,168347,1,8,1:2:0:0:
335,151,168422,1,8,1:2:0:0:
350,167,168497,1,8,1:2:0:0:
361,186,168572,6,0,B|350:276|241:301|241:301|213:262|133:253|133:253|99:296|38:290|38:290|-16:258|5:178,1,503.999984619141,4|0,1:1|0:0,0:2:0:0:
179,384,170372,2,0,P|178:310|170:228,1,146.999995513916,4|0,1:1|2:2,0:2:0:0:
346,30,170972,2,0,B|289:73|255:36|255:36|207:84|213:137|213:137|250:165|260:202|260:202|321:235|360:193,1,391.99998803711,4|0,1:1|0:0,0:2:0:0:
512,348,172772,2,0,P|441:329|368:319,1,146.999995513916,4|0,1:1|2:2,0:2:0:0:
156,340,173372,5,6,1:2:0:0:
156,340,173522,1,0,1:2:0:0:
259,239,173672,2,0,P|248:286|246:337,2,97.9999970092774,2|2|2,0:3|0:3|0:3,0:2:0:0:
35,98,174572,1,2,1:3:0:0:
113,29,174722,2,0,L|125:82,1,48.9999985046387,0|2,1:2|0:3,0:0:0:0:
205,125,175022,2,0,L|252:139,1,48.9999985046387,2|2,1:2|0:3,0:2:0:0:
113,176,175322,2,0,L|59:211,2,48.9999985046387,2|2|2,1:2|0:3|0:2,0:2:0:0:
243,347,175772,5,2,1:3:0:0:
243,347,175922,2,0,L|252:290,2,48.9999985046387,2|2|2,1:2|0:3|0:2,0:0:0:0:
382,114,176372,5,2,1:3:0:0:
382,114,176522,2,0,L|391:171,2,48.9999985046387,2|2|2,1:2|0:3|0:2,0:2:0:0:
469,277,176972,5,2,1:3:0:0:
469,277,177122,1,2,1:2:0:0:
372,271,177272,5,2,1:3:0:0:
372,271,177422,1,2,0:2:0:0:
244,257,177572,5,2,1:3:0:0:
244,257,177722,1,2,0:2:0:0:
124,246,177872,6,0,L|73:243,3,32.6666656697591,2|2|2|2,0:3|0:3|0:3|0:2,0:0:0:0:
