osu file format v14

[General]
AudioFilename: audio.ogg
AudioLeadIn: 0
PreviewTime: 572
Countdown: 0
SampleSet: Drum
StackLeniency: 0.7
Mode: 0
LetterboxInBreaks: 0
WidescreenStoryboard: 1

[Editor]
Bookmarks: 74072,80072
DistanceSpacing: 3.5
BeatDivisor: 2
GridSize: 8
TimelineZoom: 1.6

[Metadata]
Title:soumonka
TitleUnicode:相聞詩
Artist:sokoninaru
ArtistUnicode:そこに鳴る
Creator:AirinCat
Version:hard
Source:魔女と野獣
Tags:kyouren anime rock japanese jrock The Witch And The Beast Majo to Yajuu opening gokugohan12468 kittyadventure
BeatmapID:4472421
BeatmapSetID:2119925

[Difficulty]
HPDrainRate:4
CircleSize:3
OverallDifficulty:6
ApproachRate:8
SliderMultiplier:1.2
SliderTickRate:1

[Events]
//Background and Video events
0,0,"cutpic.jpg",0,0
//Break Periods
2,108772,110222
2,111172,112622
2,113572,115022
//Storyboard Layer 0 (Background)
//Storyboard Layer 1 (Fail)
//Storyboard Layer 2 (Pass)
//Storyboard Layer 3 (Foreground)
//Storyboard Layer 4 (Overlay)
//Storyboard Sound Samples

[TimingPoints]
872,300,4,3,4,60,1,0
872,-125,4,3,4,60,0,0
5072,-100,4,3,1,90,0,0
9272,-71.4285714285714,4,3,1,90,0,0
10472,-83.3333333333333,4,3,1,80,0,0
17672,-125,4,3,1,60,0,0
24272,-100,4,3,1,70,0,0
24872,-90.9090909090909,4,3,1,70,0,0
25172,-90.9090909090909,4,3,1,70,0,0
29672,-83.3333333333333,4,3,1,75,0,0
36872,-83.3333333333333,4,3,23,80,0,0
39272,-83.3333333333333,4,3,1,80,0,0
40472,-71.4285714285714,4,3,1,60,0,0
40547,-71.4285714285714,4,3,2,64,0,0
40622,-71.4285714285714,4,3,1,68,0,0
40697,-71.4285714285714,4,3,2,74,0,0
40772,-71.4285714285714,4,3,1,80,0,0
40847,-71.4285714285714,4,3,2,86,0,0
40922,-71.4285714285714,4,3,1,92,0,0
40997,-71.4285714285714,4,3,2,96,0,0
41072,-71.4285714285714,4,3,1,36,0,0
41672,-83.3333333333333,4,3,1,80,0,0
65672,-83.3333333333333,4,3,1,80,0,1
68072,-133.333333333333,4,3,1,60,0,0
70472,-100,4,3,1,60,0,0
75272,-100,4,3,4,60,0,0
80072,-100,4,3,1,70,0,0
84872,-100,4,3,1,50,0,0
87272,-100,4,3,1,80,0,0
89672,-90.9090909090909,4,3,1,70,0,0
99272,300,3,3,1,80,1,0
99272,-83.3333333333333,4,3,1,80,0,0
101972,-83.3333333333333,4,3,23,80,0,0
102722,-83.3333333333333,4,3,1,80,0,0
102872,-83.3333333333333,4,3,1,80,0,0
104672,-83.3333333333333,4,3,1,70,0,0
105572,-83.3333333333333,4,3,1,80,0,0
106472,-83.3333333333333,4,3,1,90,0,0
107372,-83.3333333333333,4,3,2,70,0,0
108572,300,4,3,4,60,1,0
116972,-200,4,3,4,50,0,0
117572,-200,4,3,1,50,0,0
118172,-100,4,3,2,80,0,0
121772,-83.3333333333333,4,3,1,80,0,0
122972,-83.3333333333333,4,3,23,80,0,0
125372,-76.9230769230769,4,3,5,60,0,0
126647,-76.9230769230769,4,3,5,62,0,0
126722,-76.9230769230769,4,3,2,68,0,0
126797,-76.9230769230769,4,3,5,72,0,0
126872,-76.9230769230769,4,3,2,78,0,0
126947,-76.9230769230769,4,3,5,84,0,0
127022,-76.9230769230769,4,3,2,90,0,0
127097,-76.9230769230769,4,3,5,98,0,0
127172,-76.9230769230769,4,3,5,38,0,0
127772,-83.3333333333333,4,3,1,80,0,0
152372,-83.3333333333333,4,3,23,80,0,0
152822,-83.3333333333333,4,3,1,80,0,0
154772,-83.3333333333333,4,3,23,80,0,0
155222,-83.3333333333333,4,3,1,80,0,0
161372,-83.3333333333333,4,3,1,80,0,1
163772,-125,4,3,1,60,0,0
167372,-90.9090909090909,4,3,1,60,0,0
168572,-111.111111111111,4,3,1,70,0,0
170372,-125,4,3,1,70,0,0
170822,-125,4,3,1,40,0,0
170972,-125,4,3,1,70,0,0
173222,-125,4,3,1,40,0,0
173372,-125,4,3,1,70,0,0

[Colours]
Combo1 : 231,160,90
Combo2 : 193,132,255
Combo3 : 17,254,176

[HitObjects]
97,295,872,6,0,L|2:278,2,96,4|0|0,0:3|0:0|0:2,0:2:0:0:
226,252,1772,2,0,L|230:196,1,48,0|0,0:2|0:2,0:2:0:0:
298,147,2072,2,0,L|408:156,1,96,0|0,0:2|0:0,0:2:0:0:
443,284,2672,2,0,L|334:273,1,96,0|0,0:2|0:2,0:0:0:0:
198,110,3272,6,0,L|211:5,2,96,4|0|0,0:3|0:0|0:2,0:2:0:0:
84,206,4172,2,0,L|75:264,1,48,0|0,0:2|0:2,0:2:0:0:
135,319,4472,2,0,L|245:337,1,96,0|0,0:2|0:2,0:2:0:0:
351,207,5072,2,0,L|413:218,1,60,2|2,0:1|0:1,0:0:0:0:
512,290,5372,2,0,L|423:307,1,90,2|0,0:3|0:2,0:2:0:0:
423,307,5672,6,0,L|430:366,1,60,0|2,1:2|0:2,0:2:0:0:
342,382,5972,2,0,L|333:317,1,60,0|2,1:2|0:2,0:2:0:0:
259,274,6272,2,0,L|194:284,1,60,0|2,1:2|0:2,0:2:0:0:
144,357,6572,2,0,L|69:341,1,60,0|2,1:2|0:2,0:2:0:0:
20,261,6872,2,0,P|17:201|56:147,1,120,2|0,1:2|1:2,0:2:0:0:
134,113,7322,2,0,P|195:132|264:148,1,120,0|0,0:2|0:2,0:0:0:0:
339,124,7772,2,0,P|369:73|361:15,1,120,0|2,1:2|0:2,0:2:0:0:
213,272,9272,6,0,B|222:299|222:299|222:319|222:319|231:362,5,83.9999974365235,4|0|0|0|0|2,1:2|1:2|1:2|1:2|1:2|1:1,1:2:0:0:
322,298,10172,2,0,B|352:313|352:313|397:299|397:299|456:318,1,125.999996154785,14|0,0:1|0:2,0:2:0:0:
448,315,10472,6,0,P|484:240|459:168,1,143.999995605469,6|8,1:2|0:3,0:2:0:0:
512,91,10922,2,0,P|419:108|352:121,1,143.999995605469,8|8,0:3|0:3,0:0:0:0:
306,179,11372,2,0,P|272:170|225:155,1,71.9999978027344,8|8,0:3|0:3,0:0:0:0:
171,83,11672,2,0,P|101:70|37:100,1,143.999995605469,4|8,1:2|0:3,0:0:0:0:
3,188,12122,2,8,B|-1:260|24:258|22:341,1,143.999995605469,4|8,1:2|0:3,0:3:0:0:
105,376,12572,2,0,P|121:336|119:293,1,71.9999978027344,8|8,0:3|0:2,0:0:0:0:
174,224,12872,6,0,P|243:212|306:244,1,143.999995605469,6|8,1:1|0:2,0:2:0:0:
348,329,13322,2,0,P|382:338|417:347,1,71.9999978027344,2|0,0:2|1:2,0:2:0:0:
493,297,13622,2,0,P|499:262|511:228,1,71.9999978027344,2|8,1:2|0:2,0:2:0:0:
500,145,13922,5,0,1:2:0:0:
500,145,13997,1,0,1:2:0:0:
500,145,14072,2,0,P|435:111|365:123,1,143.999995605469,0|8,1:2|0:2,0:2:0:0:
177,3,14672,2,0,L|184:74,1,71.9999978027344,8|8,0:3|0:3,0:0:0:0:
93,138,14972,2,0,P|148:189|218:185,1,143.999995605469,12|4,0:1|1:2,0:2:0:0:
256,192,15872,12,4,17072,3:2:0:0:
66,128,17672,6,0,L|72:175,1,48,2|0,1:3|1:2,0:0:0:0:
29,260,17972,2,0,L|40:362,2,96,2|2|2,0:3|0:3|0:3,0:2:0:0:
170,147,18872,2,0,L|164:100,2,48,2|0|2,1:3|1:2|0:3,0:0:0:0:
269,237,19472,2,0,L|275:284,2,48,2|0|2,1:3|1:2|0:3,0:0:0:0:
426,77,20072,6,0,L|372:86,1,48,2|0,1:3|1:2,0:0:0:0:
383,174,20372,2,0,L|491:154,2,96,2|2|2,0:3|0:3|0:3,0:2:0:0:
194,94,21272,2,0,L|142:102,2,48,2|0|2,1:3|1:2|0:3,0:0:0:0:
279,47,21722,2,0,L|288:103,1,48,0|2,1:2|0:3,0:2:0:0:
238,175,22022,2,0,L|247:231,1,48,0|2,1:2|0:3,0:0:0:0:
467,346,22472,6,0,L|420:357,1,48,2|0,1:3|1:2,0:0:0:0:
375,277,22772,2,0,L|468:255,2,96,2|2|2,0:3|0:3|0:3,0:2:0:0:
191,384,23672,1,2,1:3:0:0:
191,384,23822,1,0,1:2:0:0:
109,333,23972,2,0,L|125:233,1,96,2|2,0:3|3:1,0:0:0:0:
203,72,24572,2,0,L|193:33,2,40,2|2|2,1:1|1:1|1:1,0:0:0:0:
252,96,24872,6,0,L|317:78,1,66.0000020141602,12|0,0:2|0:0,0:2:0:0:
413,100,25172,2,0,P|454:149|459:214,1,132.00000402832,2|0,1:2|1:2,0:2:0:0:
416,298,25622,1,0,0:2:0:0:
416,298,25772,1,0,1:2:0:0:
326,278,25922,2,0,P|313:237|309:199,1,66.0000020141602,2|0,0:2|1:2,0:2:0:0:
226,167,26222,2,0,P|160:162|99:201,1,132.00000402832,2|0,0:2|0:2,0:2:0:0:
39,259,26672,2,0,P|46:290|51:323,1,66.0000020141602,0|0,1:2|0:2,0:0:0:0:
133,371,26972,2,0,P|167:375|205:388,1,66.0000020141602,0|8,1:2|0:2,0:0:0:0:
265,326,27272,5,2,1:2:0:0:
307,171,27572,1,2,1:2:0:0:
340,18,27872,2,0,P|405:9|462:40,1,132.00000402832,2|2,1:2|0:2,0:2:0:0:
510,125,28322,2,0,B|509:199|488:183|482:263,1,132.00000402832,12|0,0:2|0:2,0:2:0:0:
415,319,28772,2,0,P|350:323|294:289,1,132.00000402832,8|0,1:2|0:2,0:2:0:0:
213,229,29222,2,0,L|174:237,2,33.0000010070801,8|8|8,0:2|0:2|0:2,0:0:0:0:
283,152,29522,5,8,0:2:0:0:
283,152,29597,1,8,0:2:0:0:
283,152,29672,2,0,P|275:116|272:70,1,71.9999978027344,6|0,1:2|0:0,0:2:0:0:
192,24,29972,2,0,P|121:14|61:52,1,143.999995605469,10|0,0:2|1:2,0:2:0:0:
21,129,30422,1,0,1:2:0:0:
21,129,30572,1,0,0:2:0:0:
79,197,30722,2,0,P|111:203|152:210,1,71.9999978027344,10|0,0:2|0:2,0:2:0:0:
248,185,31022,1,2,1:2:0:0:
248,185,31172,2,0,P|285:244|271:313,1,143.999995605469,8|0,0:2|1:2,0:2:0:0:
185,353,31622,1,0,1:2:0:0:
185,353,31772,2,0,P|147:342|100:335,1,71.9999978027344,8|0,0:2|0:2,0:0:0:0:
276,318,32072,6,0,P|362:326|426:350,1,143.999995605469,2|10,1:2|0:2,0:2:0:0:
488,291,32522,2,0,P|518:226|498:148,1,143.999995605469,2|2,0:2|1:2,0:2:0:0:
297,1,33122,2,0,P|289:46|287:79,1,71.9999978027344,10|0,0:2|0:2,0:2:0:0:
305,158,33422,1,2,1:2:0:0:
394,153,33572,2,0,P|432:76|412:1,2,143.999995605469,10|0|0,0:2|1:2|1:2,0:2:0:0:
194,80,34472,6,0,P|123:73|64:111,1,143.999995605469,4|8,1:2|0:2,0:0:0:0:
97,222,34922,1,8,0:2:0:0:
97,222,34997,1,8,0:2:0:0:
97,222,35072,2,8,P|167:228|226:190,1,143.999995605469,8|8,0:2|0:3,0:2:0:0:
293,115,35522,1,8,0:3:0:0:
293,115,35597,1,8,0:3:0:0:
293,115,35672,2,0,P|361:98|424:129,1,143.999995605469,12|12,1:3|0:3,0:0:0:0:
490,209,36122,1,12,0:3:0:0:
490,209,36197,1,12,0:3:0:0:
490,209,36272,2,0,P|472:277|461:366,1,143.999995605469,4|4,1:3|0:3,0:0:0:0:
358,370,36722,5,4,0:3:0:0:
358,370,36797,1,4,0:3:0:0:
358,370,36872,2,0,L|348:298,1,71.9999978027344,4|0,1:2|0:2,0:2:0:0:
274,247,37172,2,0,L|193:261,1,71.9999978027344,8|0,0:1|0:2,0:2:0:0:
134,185,37472,1,0,1:2:0:0:
198,118,37622,2,0,L|288:130,1,71.9999978027344,0|0,1:2|0:2,0:2:0:0:
374,133,37922,6,0,P|398:66|375:0,1,143.999995605469,8|0,0:1|1:2,0:2:0:0:
294,32,38372,1,8,0:1:0:0:
342,225,38672,1,0,1:2:0:0:
342,225,38822,1,0,1:2:0:0:
434,209,38972,2,0,P|473:213|518:224,1,71.9999978027344,8|0,0:1|0:2,0:2:0:0:
512,306,39272,1,4,1:2:0:0:
512,306,40472,6,2,B|431:288|405:361|348:365|297:340|285:287|188:336,1,335.999989746094,4|0,1:2|0:2,0:1:0:0:
189,336,41672,6,0,P|195:294|199:256,1,71.9999978027344,6|0,1:1|0:2,0:2:0:0:
122,202,41972,2,0,P|78:195|38:189,1,71.9999978027344,10|0,0:2|0:2,0:2:0:0:
14,92,42272,2,0,P|67:46|137:47,1,143.999995605469,2|10,1:2|0:2,0:2:0:0:
194,119,42722,1,2,0:2:0:0:
282,86,42872,2,0,P|290:41|298:-6,1,71.9999978027344,2|0,1:2|0:0,0:2:0:0:
391,36,43172,2,0,P|384:76|374:125,1,71.9999978027344,10|0,0:2|0:2,0:2:0:0:
313,185,43472,2,0,B|311:275|332:255|334:338,1,143.999995605469,2|10,1:2|0:2,0:2:0:0:
416,384,43922,5,2,0:2:0:0:
473,320,44072,2,0,B|478:249|499:256|504:180,1,143.999995605469,2|8,1:2|0:2,0:2:0:0:
484,94,44522,2,0,P|448:87|407:79,1,71.9999978027344,2|0,0:2|1:2,0:2:0:0:
341,15,44822,2,0,P|308:21|269:29,1,71.9999978027344,2|8,0:2|0:2,0:2:0:0:
208,109,45122,2,0,B|207:184|228:182|229:275,1,143.999995605469,2|0,0:2|0:2,0:0:0:0:
169,321,45572,1,0,0:2:0:0:
13,219,45872,2,0,L|6:159,3,35.9999989013672,8|8|8|8,1:3|0:3|0:3|0:3,0:0:0:0:
37,134,46172,2,0,L|29:98,3,35.9999989013672,8|8|8|8,0:3|0:3|0:3|0:3,0:0:0:0:
64,65,46472,6,0,P|99:57|141:52,1,71.9999978027344,4|2,1:1|0:2,0:0:0:0:
202,117,46772,2,0,P|236:120|284:129,1,71.9999978027344,8|2,0:2|0:1,0:0:0:0:
348,59,47072,1,0,1:2:0:0:
348,59,47222,1,2,1:1:0:0:
428,105,47372,2,0,P|427:137|436:179,1,71.9999978027344,2|10,0:2|0:1,0:0:0:0:
360,240,47672,2,0,P|322:246|271:252,1,71.9999978027344,2|2,0:2|1:1,0:2:0:0:
226,314,47972,1,8,0:2:0:0:
289,379,48122,2,0,P|352:367|440:366,1,143.999995605469,2|2,0:1|1:1,0:2:0:0:
512,307,48572,2,0,P|504:265|505:229,1,71.9999978027344,10|2,0:2|0:1,0:2:0:0:
462,137,48872,6,0,P|397:107|328:123,1,143.999995605469,4|8,1:2|0:2,0:2:0:0:
250,177,49322,2,0,P|214:184|179:189,1,71.9999978027344,2|0,0:2|1:2,0:2:0:0:
119,106,49622,2,0,P|83:98|48:93,1,71.9999978027344,2|8,1:2|0:2,0:2:0:0:
0,168,49922,1,0,0:2:0:0:
61,234,50072,2,0,P|67:269|72:304,1,71.9999978027344,12|0,0:2|1:2,0:0:0:0:
157,358,50372,2,0,P|166:320|176:287,1,71.9999978027344,14|0,0:2|1:2,0:0:0:0:
260,238,50672,1,2,1:2:0:0:
394,354,50972,2,0,L|432:362,3,35.9999989013672,8|0|8|8,0:2|0:0|0:2|0:2,0:0:0:0:
471,365,51272,6,0,P|477:329|485:294,1,71.9999978027344,6|0,1:1|0:0,0:2:0:0:
382,263,51572,2,0,P|374:228|368:193,1,71.9999978027344,10|0,0:2|0:2,0:2:0:0:
385,90,51872,2,0,P|465:81|524:140,1,143.999995605469,2|10,1:2|0:2,0:2:0:0:
469,198,52322,1,2,0:2:0:0:
368,193,52472,2,0,P|332:202|298:212,1,71.9999978027344,2|0,1:2|0:0,0:2:0:0:
234,139,52772,2,0,P|198:129|164:119,1,71.9999978027344,10|0,0:2|0:2,0:2:0:0:
78,169,53072,2,0,P|33:223|40:293,1,143.999995605469,2|10,1:2|0:2,0:2:0:0:
97,358,53522,1,2,0:2:0:0:
186,322,53672,6,0,B|261:328|248:343|341:348,1,143.999995605469,2|8,1:2|0:2,0:2:0:0:
394,286,54122,2,0,P|398:246|409:207,1,71.9999978027344,2|0,0:2|1:2,0:2:0:0:
316,187,54422,2,0,P|311:147|301:108,1,71.9999978027344,2|8,0:2|0:2,0:2:0:0:
380,38,54722,2,0,P|450:29|510:66,1,143.999995605469,2|0,0:2|0:0,0:0:0:0:
448,132,55172,1,8,0:2:0:0:
283,24,55472,2,0,L|220:38,3,35.9999989013672,8|8|8|8,1:3|0:3|0:3|0:3,0:0:0:0:
218,80,55772,2,0,L|170:88,3,35.9999989013672,8|8|8|8,0:3|0:3|0:3|0:3,0:0:0:0:
138,53,56072,6,0,L|57:70,1,71.9999978027344,4|2,1:1|0:2,0:0:0:0:
16,148,56372,2,0,L|28:225,1,71.9999978027344,8|2,0:2|3:1,0:0:0:0:
115,259,56672,2,0,L|199:242,1,71.9999978027344,0|2,1:2|1:1,0:0:0:0:
252,165,56972,1,2,0:2:0:0:
252,165,57122,1,10,0:1:0:0:
331,216,57272,2,0,L|347:286,1,71.9999978027344,2|2,0:2|1:1,0:2:0:0:
300,361,57572,1,8,0:2:0:0:
394,384,57722,2,0,P|453:345|472:277,1,143.999995605469,2|2,0:1|1:1,0:2:0:0:
507,189,58172,2,0,P|462:177|415:166,1,71.9999978027344,10|2,0:2|0:1,0:2:0:0:
380,94,58472,6,0,P|309:106|243:82,1,143.999995605469,6|10,1:2|0:2,0:2:0:0:
150,92,58922,2,0,P|117:154|127:224,1,143.999995605469,2|0,0:2|1:2,0:2:0:0:
188,296,59372,1,10,0:2:0:0:
398,163,59672,2,0,P|385:122|377:80,1,71.9999978027344,12|0,0:2|1:2,0:0:0:0:
309,194,59972,2,0,P|301:235|288:277,1,71.9999978027344,10|0,0:2|1:2,0:0:0:0:
391,266,60272,2,0,L|440:284,5,35.9999989013672,8|8|8|8|8|8,0:2|0:2|0:2|0:2|0:2|0:2,0:0:0:0:
472,267,60722,6,0,P|504:203|493:133,1,143.999995605469,6|0,1:1|1:2,0:2:0:0:
421,72,61172,2,0,P|386:80|348:93,1,71.9999978027344,8|0,0:2|0:2,0:2:0:0:
242,70,61472,1,4,1:3:0:0:
242,70,61622,2,0,P|232:33|227:-16,1,71.9999978027344,4|4,1:3|1:3,0:0:0:0:
176,154,61922,6,0,P|188:212|199:322,1,143.999995605469,6|0,1:2|1:2,0:2:0:0:
123,351,62372,2,0,P|89:360|51:364,1,71.9999978027344,8|0,0:2|0:2,0:2:0:0:
0,270,62672,2,8,L|52:257,4,35.9999989013672,8|8|8|8|8,0:2|0:2|0:2|0:2|0:2,0:2:0:0:
59,169,63122,6,0,P|60:97|26:35,1,143.999995605469,4|0,1:2|1:2,0:2:0:0:
117,0,63572,2,0,P|146:3|199:9,1,71.9999978027344,8|0,0:2|0:2,0:2:0:0:
253,80,63872,1,4,1:3:0:0:
253,80,64022,2,0,P|282:76|335:71,1,71.9999978027344,4|4,1:3|1:3,0:0:0:0:
402,0,64322,6,0,P|428:66|428:138,1,143.999995605469,4|0,1:2|1:2,0:2:0:0:
359,198,64772,2,0,P|359:241|355:283,1,71.9999978027344,8|0,0:2|1:2,0:2:0:0:
445,324,65072,2,0,P|447:291|449:239,1,71.9999978027344,8|8,0:3|0:3,0:0:0:0:
512,194,65372,1,12,0:2:0:0:
283,349,65672,6,0,L|161:377,2,95.9999970703126,12|12|12,0:3|3:3|0:3,0:2:0:0:
265,242,66272,2,0,L|166:222,2,95.9999970703126,12|12|12,0:3|0:3|0:3,0:2:0:0:
331,160,66872,2,0,L|279:72,2,95.9999970703126,12|12|12,0:3|0:3|0:3,0:2:0:0:
440,152,67472,2,0,L|469:53,2,95.9999970703126,12|12|12,0:3|0:3|0:3,0:2:0:0:
391,272,68072,5,4,1:1:0:0:
391,272,69872,2,0,L|352:282,7,22.5000008583069,8|8|8|8|8|8|8|8,0:2|0:2|0:2|0:2|0:2|0:2|0:2|0:2,0:0:0:0:
329,310,70472,6,0,L|340:372,1,60,12|12,1:3|1:3,0:2:0:0:
76,188,71672,6,0,L|65:250,1,60,12|12,1:3|1:3,0:2:0:0:
414,69,72872,6,0,L|425:131,1,60,12|12,1:3|1:3,0:2:0:0:
256,166,73472,6,0,L|245:228,1,60,12|12,1:3|1:3,0:2:0:0:
505,319,74072,6,0,P|448:306|393:330,1,120,6|2,1:2|1:2,0:2:0:0:
312,366,74522,1,0,0:2:0:0:
312,366,74672,2,0,P|273:363|240:364,1,60,2|0,1:2|0:2,0:2:0:0:
185,304,74972,2,0,P|156:307|113:313,1,60,0|2,1:2|0:2,0:2:0:0:
35,343,75272,6,0,P|5:291|9:232,2,120,6|0|0,1:2|1:2|1:2,0:2:0:0:
168,189,76172,2,0,L|156:126,1,60,0|2,1:2|0:2,0:2:0:0:
170,111,76397,1,2,0:2:0:0:
185,100,76472,2,0,P|243:90|297:114,1,120,2|0,1:2|1:2,0:2:0:0:
380,167,76922,2,0,P|438:172|490:142,1,120,2|0,0:2|0:2,0:2:0:0:
438,68,77372,1,2,1:2:0:0:
512,258,77672,6,0,P|452:256|403:289,1,120,2|0,1:2|1:2,0:0:0:0:
328,340,78122,2,0,P|269:347|214:324,1,120,2|2,0:2|0:2,0:2:0:0:
188,242,78572,1,2,1:2:0:0:
22,384,78872,2,0,L|-2:186,1,180,2|0,1:2|1:2,0:2:0:0:
45,126,79472,1,2,0:2:0:0:
45,126,80072,6,0,P|103:119|156:145,1,120,4|0,1:2|0:2,0:2:0:0:
251,126,80522,2,0,B|249:194|240:178|235:244,1,120,2|0,1:2|0:2,0:2:0:0:
296,321,80972,2,0,P|371:326|425:282,1,120,2|0,1:2|0:2,0:2:0:0:
512,304,81422,2,0,B|504:241|486:257|479:174,1,120,2|0,1:2|0:2,0:2:0:0:
415,131,81872,2,0,L|426:83,7,30,6|8|8|8|8|8|8|8,1:2|0:3|0:3|0:3|0:3|0:3|0:3|0:3,0:0:0:0:
469,69,82472,6,0,P|412:70|328:45,1,120,4|0,1:2|0:2,0:2:0:0:
265,91,82922,2,0,P|227:134|226:193,1,120,2|0,1:2|0:2,0:2:0:0:
309,244,83372,2,0,P|337:292|325:367,1,120,2|0,1:2|0:2,0:2:0:0:
238,350,83822,2,0,P|169:364|102:380,1,120,2|0,1:2|1:2,0:2:0:0:
42,344,84272,2,0,P|34:307|26:276,1,60,12|0,1:2|1:2,0:0:0:0:
61,199,84572,1,2,1:2:0:0:
214,264,84872,5,4,1:2:0:0:
138,44,85322,1,4,1:2:0:0:
214,264,85772,1,4,1:2:0:0:
138,44,86222,1,4,1:2:0:0:
327,271,86672,5,4,1:2:0:0:
219,144,86972,5,4,1:2:0:0:
372,59,87272,6,0,L|458:74,1,60,14|0,1:2|1:2,0:0:0:0:
512,133,87572,1,0,1:2:0:0:
435,186,87722,2,0,L|425:264,1,60,12|0,1:2|1:2,0:0:0:0:
499,309,88022,1,0,1:2:0:0:
433,369,88172,2,0,L|356:377,1,60,12|0,1:2|1:2,0:0:0:0:
282,325,88472,6,0,L|273:252,1,60,0|12,1:2|1:2,0:0:0:0:
338,201,88772,1,0,1:2:0:0:
338,201,88922,1,0,1:2:0:0:
292,114,89072,2,0,L|233:102,1,60,14|0,1:2|0:0,0:2:0:0:
153,159,89372,2,0,L|114:168,2,40,2|2|2,1:3|1:3|1:3,0:0:0:0:
201,191,89672,5,6,1:1:0:0:
44,93,89972,2,0,P|10:148|17:213,1,132.00000402832,2|0,1:2|1:2,0:2:0:0:
70,290,90422,1,0,0:2:0:0:
70,290,90572,1,0,1:2:0:0:
161,296,90722,2,0,P|201:286|236:280,1,66.0000020141602,2|0,0:2|1:2,0:2:0:0:
303,228,91022,2,0,P|313:163|284:105,1,132.00000402832,2|0,0:2|0:0,0:0:0:0:
219,43,91472,2,0,P|188:54|157:63,1,66.0000020141602,0|0,1:2|0:2,0:0:0:0:
284,105,91772,2,0,P|311:97|358:83,1,66.0000020141602,0|8,1:2|0:2,0:0:0:0:
404,6,92072,5,2,1:2:0:0:
452,165,92372,1,2,1:2:0:0:
489,318,92672,2,0,P|431:348|366:342,1,132.00000402832,2|0,1:2|1:2,0:0:0:0:
271,340,93122,2,0,B|283:269|302:289|310:195,1,132.00000402832,10|0,0:2|0:2,0:2:0:0:
264,133,93572,2,0,P|203:109|140:126,1,132.00000402832,10|0,0:2|1:2,0:2:0:0:
85,206,94022,1,8,0:2:0:0:
85,206,94097,1,8,0:2:0:0:
85,206,94172,2,0,L|94:257,3,33.0000010070801,8|8|8|8,0:2|0:2|0:2|0:2,0:0:0:0:
128,264,94472,6,0,L|112:328,1,66.0000020141602,4|0,1:1|0:2,0:2:0:0:
205,330,94772,2,0,P|261:336|354:370,1,132.00000402832,10|0,0:2|1:2,0:2:0:0:
410,306,95222,1,0,1:2:0:0:
410,306,95372,1,0,0:2:0:0:
363,221,95522,2,0,P|330:214|281:207,1,66.0000020141602,10|0,0:2|0:2,0:2:0:0:
205,219,95822,1,2,1:2:0:0:
205,219,95972,2,0,P|175:161|193:99,1,132.00000402832,8|2,0:2|1:2,0:2:0:0:
415,5,96572,2,0,P|427:46|428:88,1,66.0000020141602,8|0,0:2|0:2,0:0:0:0:
497,132,96872,6,0,P|443:167|379:158,1,132.00000402832,0|10,1:2|0:2,0:0:0:0:
316,92,97322,2,0,P|247:76|187:102,1,132.00000402832,2|2,0:2|1:2,0:2:0:0:
211,322,97922,2,0,P|247:324|288:334,1,66.0000020141602,10|0,0:2|0:2,0:2:0:0:
356,285,98222,1,2,1:2:0:0:
294,217,98372,2,0,B|218:208|239:232|139:213,2,132.00000402832,8|2|2,0:2|1:2|1:2,0:2:0:0:
451,96,99272,6,0,B|441:41|441:41|473:0,2,107.999996704102,14|10|10,0:2|0:2|0:2,0:2:0:0:
512,173,99872,2,0,P|503:205|498:252,1,71.9999978027344,8|8,0:2|0:2,0:0:0:0:
413,270,100172,2,0,B|394:320|394:320|434:394,2,107.999996704102,6|2|2,1:2|1:2|1:2,0:2:0:0:
350,182,100772,1,10,0:2:0:0:
183,327,101072,2,0,B|129:330|129:330|77:301,2,107.999996704102,6|2|2,1:2|1:2|1:2,0:2:0:0:
250,267,101672,1,8,0:3:0:0:
173,149,101972,5,12,0:1:0:0:
173,149,102122,1,8,0:1:0:0:
331,67,102422,5,12,0:1:0:0:
331,67,102572,1,8,0:1:0:0:
411,210,102872,6,0,B|459:231|459:231|511:215,2,107.999996704102,14|10|10,1:2|0:2|0:2,0:2:0:0:
327,173,103472,2,0,P|290:180|242:192,1,71.9999978027344,8|8,0:2|0:2,0:0:0:0:
189,251,103772,2,0,B|176:306|176:306|217:369,2,107.999996704102,6|2|2,1:2|1:2|1:2,0:2:0:0:
111,199,104372,2,0,L|98:127,1,71.9999978027344,10|8,0:2|0:2,0:0:0:0:
137,42,104672,5,6,1:2:0:0:
272,76,104897,1,6,1:2:0:0:
364,0,105122,1,6,1:2:0:0:
364,0,105272,1,2,1:2:0:0:
485,184,105572,5,6,1:2:0:0:
378,196,105797,1,6,1:2:0:0:
339,304,106022,1,6,1:2:0:0:
339,304,106172,1,2,1:2:0:0:
114,211,106472,5,6,1:2:0:0:
118,98,106697,1,6,1:2:0:0:
215,47,106922,1,6,0:2:0:0:
215,47,107072,1,2,1:2:0:0:
414,165,107372,6,0,B|412:239|390:236|387:313,2,143.999995605469,2|2|2,1:1|1:1|1:1,0:0:0:0:
414,165,108572,5,4,0:3:0:0:
414,165,110972,5,4,0:3:0:0:
414,165,113372,5,4,0:3:0:0:
414,165,115772,5,4,0:3:0:0:
317,274,116372,1,0,0:2:0:0:
421,378,116972,1,2,0:2:0:0:
512,273,117572,1,0,0:3:0:0:
512,273,117872,1,0,0:3:0:0:
350,174,118172,6,0,L|224:198,1,120,4|8,1:1|1:2,0:2:0:0:
113,86,118772,2,0,L|49:68,1,60,0|8,1:2|0:2,0:2:0:0:
0,143,119072,1,0,1:2:0:0:
0,143,119222,1,8,0:2:0:0:
45,221,119372,2,0,P|35:292|24:354,1,120,2|8,1:2|1:2,0:2:0:0:
222,363,119972,2,0,P|227:321|232:290,1,60,0|8,1:2|0:2,0:2:0:0:
162,239,120272,1,0,1:2:0:0:
162,239,120422,1,8,0:2:0:0:
234,185,120572,6,0,P|293:192|350:211,1,120,2|8,1:2|1:2,0:2:0:0:
421,268,121022,2,0,P|459:262|481:258,1,60,0|0,0:2|1:2,0:2:0:0:
512,181,121322,2,0,P|504:149|501:119,1,60,8|0,0:2|1:2,0:2:0:0:
427,61,121622,5,8,1:2:0:0:
350,100,121772,2,0,P|279:106|215:74,1,143.999995605469,0|0,1:2|1:2,0:2:0:0:
131,22,122222,2,8,L|69:37,2,35.9999989013672,8|8|8,0:2|0:2|0:2,0:2:0:0:
215,74,122522,2,0,L|221:122,5,35.9999989013672,8|8|8|8|8|8,0:2|0:2|0:2|0:2|0:2|0:2,0:0:0:0:
193,146,122972,6,0,P|108:141|57:188,1,143.999995605469,4|8,1:2|0:1,0:2:0:0:
180,295,123572,1,0,1:2:0:0:
180,295,123722,2,0,P|222:284|258:275,1,71.9999978027344,0|0,1:2|0:2,0:2:0:0:
294,188,124022,2,0,P|358:158|427:175,1,143.999995605469,8|0,0:1|1:2,0:2:0:0:
508,230,124472,2,0,P|499:266|494:308,1,71.9999978027344,8|0,0:1|0:2,0:2:0:0:
437,367,124772,1,0,1:2:0:0:
437,367,124922,1,0,1:2:0:0:
360,318,125072,2,0,P|319:327|276:337,1,71.9999978027344,8|0,0:1|0:2,0:2:0:0:
196,310,125372,5,4,1:1:0:0:
256,192,125522,12,0,127172,0:2:0:0:
233,71,127772,6,0,P|228:106|223:142,1,71.9999978027344,6|0,1:1|0:2,0:2:0:0:
300,203,128072,2,0,P|307:247|313:287,1,71.9999978027344,10|0,0:2|0:2,0:2:0:0:
243,347,128372,2,0,P|172:353|112:315,1,143.999995605469,2|10,1:2|0:2,0:2:0:0:
49,243,128822,1,2,0:2:0:0:
92,152,128972,2,0,P|84:107|76:60,1,71.9999978027344,2|0,1:2|0:2,0:2:0:0:
170,22,129272,2,0,P|177:62|187:111,1,71.9999978027344,10|0,0:2|0:2,0:2:0:0:
274,133,129572,2,0,P|344:137|404:98,1,143.999995605469,2|10,1:2|0:2,0:2:0:0:
459,19,130022,5,2,0:2:0:0:
512,106,130172,2,0,B|496:249,1,143.999995605469,2|8,1:2|0:2,0:2:0:0:
437,329,130622,2,0,P|401:322|360:314,1,71.9999978027344,2|0,0:2|1:2,0:2:0:0:
298,254,130922,2,0,P|265:260|226:268,1,71.9999978027344,2|8,0:2|0:2,0:2:0:0:
160,345,131222,2,0,P|89:347|32:305,1,143.999995605469,2|0,0:2|0:0,0:0:0:0:
22,216,131672,1,8,0:2:0:0:
185,149,131972,2,0,L|192:209,3,35.9999989013672,8|8|8|8,1:3|0:3|0:3|0:3,0:0:0:0:
219,232,132272,2,0,L|227:268,3,35.9999989013672,8|8|8|8,1:3|0:3|0:3|0:3,0:0:0:0:
268,308,132572,6,0,P|303:300|345:295,1,71.9999978027344,4|2,1:1|0:2,0:0:0:0:
379,214,132872,2,0,P|413:217|461:226,1,71.9999978027344,8|2,0:2|0:1,0:0:0:0:
506,149,133172,2,0,P|505:113|512:77,1,71.9999978027344,0|2,1:2|1:1,0:0:0:0:
434,24,133472,1,2,0:2:0:0:
434,24,133622,1,10,0:1:0:0:
363,79,133772,2,0,P|326:84|291:90,1,71.9999978027344,2|2,0:2|1:1,0:2:0:0:
222,18,134072,1,8,0:2:0:0:
149,79,134223,2,0,P|122:144|144:211,1,143.999995605469,2|2,0:1|1:1,0:0:0:0:
247,237,134672,2,0,P|247:201|241:166,1,71.9999978027344,10|2,0:2|0:1,0:2:0:0:
144,211,134972,6,0,P|72:206|18:253,1,143.999995605469,6|8,1:2|0:2,0:2:0:0:
44,341,135422,2,0,P|122:350|177:305,1,143.999995605469,2|2,0:2|1:2,0:2:0:0:
260,342,135872,2,0,P|289:347|343:358,1,71.9999978027344,8|2,0:2|0:2,0:0:0:0:
409,302,136172,2,0,P|402:266|397:230,1,71.9999978027344,14|0,0:2|1:2,0:0:0:0:
311,176,136472,2,0,P|320:138|326:100,1,71.9999978027344,14|0,0:2|1:2,0:0:0:0:
408,54,136772,1,4,1:2:0:0:
232,61,137072,2,0,L|197:51,3,35.9999989013672,8|8|8|8,0:2|0:2|0:2|0:2,0:0:0:0:
155,89,137372,6,0,P|147:124|141:159,1,71.9999978027344,6|0,1:1|0:2,0:2:0:0:
233,198,137672,2,0,P|239:233|247:268,1,71.9999978027344,10|0,0:2|0:2,0:2:0:0:
183,343,137972,2,0,P|114:357|53:322,1,143.999995605469,2|10,1:2|0:2,0:2:0:0:
12,241,138422,1,2,0:2:0:0:
69,170,138572,6,0,P|106:166|142:159,1,71.9999978027344,2|0,1:2|0:2,0:2:0:0:
233,198,138872,2,0,P|274:191|313:187,1,71.9999978027344,10|0,0:2|0:2,0:2:0:0:
389,137,139172,2,0,P|395:67|350:13,1,143.999995605469,2|10,1:2|0:2,0:2:0:0:
277,58,139622,1,2,0:2:0:0:
350,13,139772,6,0,P|429:31|511:35,1,143.999995605469,2|10,1:2|0:2,0:2:0:0:
510,135,140222,2,0,P|501:170|498:206,1,71.9999978027344,2|0,0:2|1:2,0:2:0:0:
410,248,140522,2,0,P|418:283|422:318,1,71.9999978027344,2|8,0:2|0:2,0:2:0:0:
337,344,140822,2,0,B|253:350|275:367|196:376,1,143.999995605469,2|0,0:2|0:0,0:0:0:0:
124,307,141272,1,8,0:2:0:0:
199,135,141572,2,0,L|262:149,3,35.9999989013672,8|8|8|8,1:3|0:3|0:3|0:3,0:0:0:0:
264,191,141872,2,0,L|312:199,3,35.9999989013672,8|8|8|8,1:3|0:3|0:3|0:3,0:0:0:0:
338,170,142172,6,0,P|345:128|350:90,1,71.9999978027344,4|2,1:1|0:2,0:0:0:0:
284,22,142472,2,0,P|249:16|211:8,1,71.9999978027344,8|2,0:2|0:1,0:0:0:0:
135,71,142772,2,0,L|65:86,1,71.9999978027344,0|2,1:2|1:1,0:0:0:0:
2,152,143072,1,2,0:2:0:0:
2,152,143222,1,10,0:1:0:0:
73,208,143372,2,0,L|89:278,1,71.9999978027344,2|2,0:2|1:1,0:2:0:0:
155,343,143672,1,8,0:2:0:0:
220,278,143822,2,0,P|289:267|349:305,1,143.999995605469,2|2,0:1|1:1,0:2:0:0:
437,366,144272,2,0,P|448:323|455:287,1,71.9999978027344,10|2,0:2|0:1,0:2:0:0:
512,217,144572,6,0,P|496:136|488:61,1,143.999995605469,6|8,1:2|0:2,0:2:0:0:
392,44,145022,2,0,P|376:119|357:193,1,143.999995605469,2|0,0:2|1:2,0:2:0:0:
263,212,145472,1,10,0:2:0:0:
58,76,145772,2,0,P|102:69|133:59,1,71.9999978027344,14|0,0:2|1:2,0:0:0:0:
217,0,146072,2,0,P|223:35|233:70,1,71.9999978027344,14|0,0:2|1:2,0:0:0:0:
168,148,146372,2,0,P|141:154|113:164,5,35.9999989013672,8|8|8|8|8|8,0:2|0:2|0:2|0:2|0:2|0:2,0:0:0:0:
89,174,146822,6,0,P|50:233|54:304,1,143.999995605469,6|0,1:1|1:2,0:2:0:0:
134,356,147272,2,0,P|169:364|207:377,1,71.9999978027344,8|0,0:2|0:2,0:2:0:0:
287,313,147572,1,12,1:3:0:0:
287,313,147722,2,0,P|277:276|272:227,1,71.9999978027344,12|12,1:3|1:3,0:0:0:0:
325,154,148022,6,0,P|394:143|457:176,1,143.999995605469,12|0,1:2|1:2,0:2:0:0:
512,256,148472,2,0,P|501:294|495:333,1,71.9999978027344,8|0,0:2|0:2,0:2:0:0:
416,370,148772,2,0,L|381:361,4,35.9999989013672,8|8|8|8|8,0:2|0:2|0:2|0:2|0:2,0:0:0:0:
354,324,149222,6,0,P|269:337|210:351,1,143.999995605469,6|0,1:2|1:2,0:2:0:0:
143,303,149672,2,0,P|134:262|131:226,1,71.9999978027344,8|0,0:2|0:2,0:2:0:0:
207,182,149972,1,12,1:3:0:0:
207,182,150122,2,0,P|217:149|219:100,1,71.9999978027344,12|12,1:3|1:3,0:0:0:0:
151,35,150422,6,0,P|77:23|20:65,1,143.999995605469,4|8,1:2|0:3,0:2:0:0:
14,75,150797,1,8,0:3:0:0:
8,90,150872,2,0,P|8:133|4:175,1,71.9999978027344,8|4,0:3|0:3,0:2:0:0:
66,239,151172,1,14,0:2:0:0:
66,239,151322,2,0,P|64:274|62:310,1,71.9999978027344,0|8,1:2|0:2,0:0:0:0:
161,351,151622,6,0,P|225:320|295:330,1,143.999995605469,6|8,1:2|0:0,0:2:0:0:
314,339,151997,1,8,0:2:0:0:
331,350,152072,2,0,P|370:345|416:343,1,71.9999978027344,8|0,0:2|1:2,0:0:0:0:
488,290,152372,2,0,P|491:254|501:219,2,71.9999978027344,8|8|8,3:1|3:1|3:1,0:0:0:0:
394,249,152822,6,0,P|346:196|345:126,1,143.999995605469,4|8,1:2|0:3,0:2:0:0:
357,114,153197,1,8,0:3:0:0:
369,106,153272,1,8,0:3:0:0:
152,0,153572,2,0,P|143:40|142:91,1,71.9999978027344,12|12,1:3|1:3,0:0:0:0:
212,145,153872,1,12,1:3:0:0:
139,211,154022,2,0,P|69:211|16:164,1,143.999995605469,6|8,1:2|0:2,0:2:0:0:
20,144,154397,1,8,0:2:0:0:
31,135,154472,1,8,0:2:0:0:
89,312,154772,1,8,3:1:0:0:
89,312,154922,2,0,P|138:318|182:327,1,71.9999978027344,8|8,3:1|3:1,0:0:0:0:
250,283,155222,6,0,P|280:218|271:148,1,143.999995605469,6|8,1:1|0:2,0:2:0:0:
215,72,155672,2,0,L|222:26,3,35.9999989013672,8|8|8|8,0:2|0:2|0:2|0:2,0:0:0:0:
273,12,155972,2,8,L|328:26,4,35.9999989013672,8|8|8|8|8,0:3|0:3|0:2|0:2|0:2,0:3:0:0:
388,63,156422,6,0,B|408:100|431:114|431:114|442:158|416:217,1,143.999995605469,6|0,1:1|1:2,0:2:0:0:
432,293,156872,2,0,B|397:296|397:296|363:278,1,71.9999978027344,10|0,0:2|1:2,0:2:0:0:
301,211,157172,1,8,0:2:0:0:
218,261,157322,2,0,B|201:293|201:293|201:355,1,71.9999978027344,0|8,1:2|0:2,0:0:0:0:
108,367,157622,6,0,B|87:347|57:336|57:336|32:287|69:232,1,143.999995605469,2|0,1:1|1:2,0:2:0:0:
6,166,158072,2,0,B|38:146|38:146|89:151,1,71.9999978027344,10|0,0:2|1:2,0:2:0:0:
163,176,158372,1,8,0:2:0:0:
234,112,158522,2,0,B|250:76|250:76|242:40,1,71.9999978027344,0|8,1:2|1:3,0:0:0:0:
150,69,158822,1,4,1:3:0:0:
243,44,158972,6,0,B|318:51|290:67|393:81,1,143.999995605469,14|0,1:1|1:2,0:2:0:0:
484,124,159422,2,0,P|485:85|494:43,2,71.9999978027344,14|0|0,1:1|1:2|1:2,0:2:0:0:
388,181,159872,2,0,P|395:218|403:270,1,71.9999978027344,14|0,1:1|0:2,0:2:0:0:
340,317,160172,1,0,1:2:0:0:
246,290,160322,2,0,P|222:216|268:139,1,143.999995605469,14|0,1:1|1:2,0:2:0:0:
318,93,160772,2,0,L|362:102,2,35.9999989013672,12|12|12,1:3|1:3|1:3,0:0:0:0:
253,32,161072,1,14,0:2:0:0:
94,180,161372,6,0,L|0:196,2,95.9999970703126,12|12|12,3:3|0:3|0:3,0:2:0:0:
158,271,161972,2,0,L|112:363,2,95.9999970703126,12|12|12,0:3|0:3|0:3,0:2:0:0:
274,285,162572,2,0,L|299:390,2,95.9999970703126,12|12|12,0:3|0:3|0:3,0:2:0:0:
360,213,163172,2,0,L|473:241,2,95.9999970703126,12|12|12,0:3|0:3|0:3,0:2:0:0:
234,166,163772,5,6,1:1:0:0:
234,166,165572,2,0,L|240:130,6,24,8|8|8|8|8|8|10,0:2|0:2|0:2|0:2|0:2|0:2|1:2,0:0:0:0:
234,166,167372,6,0,B|269:147|269:147|299:155|338:148,1,99.0000030212403,8|8,1:2|1:2,0:0:0:0:
334,140,167672,2,0,B|379:145|379:145|397:172|427:189,1,99.0000030212403,8|8,1:2|1:2,0:0:0:0:
431,185,167972,2,0,B|448:216|448:216|435:246|447:287,1,99.0000030212403,8|8,1:2|1:2,0:0:0:0:
457,286,168272,2,0,B|456:324|456:324|428:341|403:381,1,99.0000030212403,8|8,1:2|1:2,0:0:0:0:
400,365,168572,5,4,1:1:0:0:
208,0,170372,6,0,P|200:71|200:143,1,144,4|0,1:1|2:2,0:2:0:0:
127,191,170972,2,0,B|176:164|240:170|240:170|293:209|350:211|350:211|401:273|401:273|439:253|477:254,1,384,4|0,1:1|0:0,0:2:0:0:
204,321,172772,2,0,P|125:336|56:347,1,144,4|0,1:1|2:2,0:2:0:0:
0,278,173372,6,0,L|6:230,1,48,6|0,1:2|1:2,0:2:0:0:
63,168,173672,2,0,L|43:62,2,96,2|2|2,0:3|0:3|0:3,0:2:0:0:
228,216,174572,1,2,1:3:0:0:
228,216,174722,2,0,L|277:207,1,48,0|2,1:2|0:3,0:0:0:0:
345,264,175022,2,0,L|354:318,1,48,2|2,1:2|0:3,0:2:0:0:
283,369,175322,2,0,L|236:377,1,48,2|2,1:2|0:3,0:2:0:0:
394,175,175772,6,0,L|386:126,2,48,2|2|2,1:3|1:2|0:3,0:2:0:0:
506,301,176372,2,0,L|514:364,2,48,2|2|2,1:3|1:2|0:3,0:0:0:0:
298,290,176972,2,0,L|239:298,1,48,2|2,1:3|1:2,0:0:0:0:
193,227,177272,2,0,L|137:236,1,48,2|2,1:3|0:2,0:0:0:0:
100,314,177572,2,0,L|50:325,1,48,2|2,1:3|0:2,0:0:0:0:
0,250,177872,6,0,L|10:204,3,32,2|2|2|2,0:3|0:3|0:3|0:2,0:0:0:0:
