osu file format v14

[General]
AudioFilename: audio.ogg
AudioLeadIn: 0
PreviewTime: 572
Countdown: 0
SampleSet: Drum
StackLeniency: 0.7
Mode: 0
LetterboxInBreaks: 0
WidescreenStoryboard: 0

[Editor]
Bookmarks: 74072,80072
DistanceSpacing: 3.5
BeatDivisor: 4
GridSize: 8
TimelineZoom: 2.2

[Metadata]
Title:soumonka
TitleUnicode:相聞詩
Artist:sokoninaru
ArtistUnicode:そこに鳴る
Creator:AirinCat
Version:extra
Source:魔女と野獣
Tags:kyouren anime rock japanese jrock The Witch And The Beast Majo to Yajuu opening gokugohan12468 kittyadventure
BeatmapID:4453839
BeatmapSetID:2119925

[Difficulty]
HPDrainRate:6
CircleSize:4
OverallDifficulty:9
ApproachRate:9.3
SliderMultiplier:1.4
SliderTickRate:1

[Events]
//Background and Video events
0,0,"cutpic.jpg",0,0
//Break Periods
//Storyboard Layer 0 (Background)
//Storyboard Layer 1 (Fail)
//Storyboard Layer 2 (Pass)
//Storyboard Layer 3 (Foreground)
//Storyboard Layer 4 (Overlay)
//Storyboard Sound Samples

[TimingPoints]
872,300,4,3,4,60,1,0
872,-250,4,3,4,60,0,0
5072,-100,4,3,1,90,0,0
9272,-71.4285714285714,4,3,1,90,0,0
10472,-71.4285714285714,4,3,1,80,0,0
17672,-200,4,3,1,60,0,0
24272,-66.6666666666667,4,3,1,70,0,0
25172,-83.3333333333333,4,3,1,70,0,0
29672,-83.3333333333333,4,3,1,75,0,0
36872,-83.3333333333333,4,3,23,80,0,0
39272,-83.3333333333333,4,3,1,80,0,0
40472,-71.4285714285714,4,3,1,60,0,0
40547,-71.4285714285714,4,3,2,64,0,0
40622,-71.4285714285714,4,3,1,68,0,0
40697,-71.4285714285714,4,3,2,74,0,0
40772,-71.4285714285714,4,3,1,80,0,0
40847,-71.4285714285714,4,3,2,86,0,0
40922,-71.4285714285714,4,3,1,92,0,0
40997,-71.4285714285714,4,3,2,96,0,0
41072,-71.4285714285714,4,3,1,36,0,0
41672,-71.4285714285714,4,3,1,80,0,0
65672,-71.4285714285714,4,3,1,80,0,1
68072,-399.999999999997,4,3,1,60,0,0
70472,-71.4285714285714,4,3,1,60,0,0
75272,-100,4,3,4,60,0,0
80072,-62.5,4,3,1,70,0,0
84872,-62.5,4,3,1,50,0,0
87272,-62.5,4,3,1,80,0,0
89672,-83.3333333333333,4,3,1,70,0,0
99272,300,3,3,1,80,1,0
99272,-66.6666666666667,4,3,1,80,0,0
101972,-66.6666666666667,4,3,23,80,0,0
102722,-66.6666666666667,4,3,1,80,0,0
102872,-55.5555555555556,4,3,1,80,0,0
104672,-55.5555555555556,4,3,1,70,0,0
105572,-55.5555555555556,4,3,1,80,0,0
106472,-55.5555555555556,4,3,1,90,0,0
107372,-55.5555555555556,4,3,2,70,0,0
108572,300,4,3,4,60,1,0
116972,-200,4,3,4,50,0,0
117572,-200,4,3,1,50,0,0
118172,-83.3333333333333,4,3,2,80,0,0
121772,-83.3333333333333,4,3,1,80,0,0
122972,-76.9230769230769,4,3,23,80,0,0
125372,-76.9230769230769,4,3,5,60,0,0
126647,-76.9230769230769,4,3,5,62,0,0
126722,-76.9230769230769,4,3,2,68,0,0
126797,-76.9230769230769,4,3,5,72,0,0
126872,-76.9230769230769,4,3,2,78,0,0
126947,-76.9230769230769,4,3,5,84,0,0
127022,-76.9230769230769,4,3,2,90,0,0
127097,-76.9230769230769,4,3,5,98,0,0
127172,-76.9230769230769,4,3,5,38,0,0
127772,-71.4285714285714,4,3,1,80,0,0
152372,-71.4285714285714,4,3,23,80,0,0
152822,-71.4285714285714,4,3,1,80,0,0
154772,-71.4285714285714,4,3,23,80,0,0
155222,-71.4285714285714,4,3,1,80,0,0
161372,-71.4285714285714,4,3,1,80,0,1
163772,-250,4,3,1,60,0,0
168572,-111.111111111111,4,3,1,70,0,0
170372,-125,4,3,1,70,0,0
170822,-125,4,3,1,40,0,0
170972,-125,4,3,1,70,0,0
172622,-125,4,3,1,40,0,0
172772,-125,4,3,1,70,0,0
173222,-125,4,3,1,40,0,0
173372,-125,4,3,1,70,0,0

[Colours]
Combo1 : 231,160,90
Combo2 : 193,132,255
Combo3 : 17,254,176

[HitObjects]
130,52,872,6,0,L|113:162,1,112,4|0,0:3|0:2,0:2:0:0:
113,162,1772,2,0,L|151:168,1,28,0|0,0:2|0:2,0:2:0:0:
233,191,2072,2,0,L|252:301,1,112,0|0,0:2|0:2,0:2:0:0:
252,301,2972,2,0,L|225:309,1,28,0|0,0:2|0:2,0:2:0:0:
324,113,3272,6,0,L|444:135,1,112,4|0,0:3|0:2,0:2:0:0:
434,133,4172,2,0,L|397:144,1,28,0|0,0:2|0:2,0:2:0:0:
222,51,4472,2,0,L|276:36,1,56,0|0,0:2|0:2,0:2:0:0:
275,36,5072,5,2,0:1:0:0:
34,176,5222,1,2,0:1:0:0:
34,176,5297,1,2,0:1:0:0:
34,176,5372,2,0,P|77:205|137:195,1,105,2|0,0:3|0:2,0:2:0:0:
147,120,5672,6,0,P|135:80|129:40,1,70,0|2,1:2|0:2,0:2:0:0:
3,273,5972,2,0,P|13:309|22:353,1,70,0|2,1:2|0:2,0:2:0:0:
234,197,6272,2,0,P|267:187|299:173,1,70,0|2,1:2|0:2,0:2:0:0:
236,377,6572,2,0,P|206:357|176:340,1,70,0|2,1:2|0:2,0:2:0:0:
380,107,6872,6,0,P|445:169|433:237,1,140,2|0,1:2|1:2,0:2:0:0:
273,67,7322,1,0,0:2:0:0:
273,67,7397,1,0,0:2:0:0:
273,67,7472,2,0,P|284:25|293:-7,1,70,0|0,1:2|0:2,0:2:0:0:
129,130,7772,2,0,P|51:128|-1:80,1,140,0|2,1:2|0:2,0:2:0:0:
7,78,9272,6,0,B|25:81|25:81|30:84|30:84|71:93,1,48.9999985046387,4|0,1:2|1:2,1:2:0:0:
266,196,9422,2,0,B|244:200|244:200|241:204|241:204|213:210,1,48.9999985046387,0|0,1:2|1:2,1:2:0:0:
4,190,9572,6,0,B|21:188|21:188|27:186|27:186|63:181,1,48.9999985046387,0|0,1:2|1:2,1:2:0:0:
261,99,9722,2,0,B|240:109|240:109|235:108|235:108|215:125,1,48.9999985046387,0|0,1:2|1:2,1:2:0:0:
20,279,9872,6,0,B|42:272|42:272|44:267|44:267|65:260,1,48.9999985046387,0|0,1:2|1:2,1:2:0:0:
182,39,10022,2,0,B|175:47|175:47|169:44|169:44|144:69,1,48.9999985046387,2|0,1:1|1:2,1:2:0:0:
68,264,10172,6,0,B|73:334|73:334|121:257,1,146.999995513916,14|0,0:1|0:2,0:2:0:0:
169,158,10472,2,0,L|195:263,1,97.9999970092774,6|8,1:2|0:3,0:2:0:0:
224,319,10697,1,8,0:3:0:0:
251,320,10772,1,8,0:3:0:0:
271,302,10847,1,8,0:3:0:0:
280,281,10922,1,8,0:3:0:0:
292,267,10997,1,8,0:3:0:0:
307,264,11072,1,8,0:3:0:0:
325,270,11147,1,8,0:3:0:0:
332,282,11222,2,8,P|356:287|387:293,1,48.9999985046387,8|8,0:3|0:3,0:3:0:0:
441,224,11372,5,8,0:3:0:0:
433,207,11447,1,8,0:3:0:0:
416,197,11522,1,8,0:3:0:0:
389,197,11597,1,8,0:3:0:0:
349,179,11672,1,4,1:2:0:0:
324,142,11747,1,8,0:3:0:0:
321,94,11822,1,8,0:3:0:0:
348,56,11897,1,8,0:3:0:0:
389,41,11972,1,8,0:3:0:0:
432,55,12047,1,8,0:3:0:0:
466,86,12122,2,8,L|477:136,3,48.9999985046387,4|8|8|8,1:2|0:3|0:3|0:3,0:3:0:0:
339,208,12422,2,8,L|327:261,3,48.9999985046387,8|8|8|8,0:3|0:3|0:3|0:3,0:3:0:0:
445,292,12722,5,8,0:2:0:0:
445,292,12797,1,8,0:2:0:0:
445,292,12872,2,0,P|369:350|274:339,1,195.999994018555,6|8,1:1|0:2,0:2:0:0:
95,179,13322,2,0,P|105:133|119:75,1,97.9999970092774,2|0,0:2|1:2,0:2:0:0:
274,339,13622,2,0,L|161:372,1,97.9999970092774,2|8,1:2|0:2,0:2:0:0:
338,25,13922,5,0,1:2:0:0:
338,25,13997,1,0,1:2:0:0:
338,25,14072,2,0,L|359:128,1,97.9999970092774,0|0,1:2|1:2,0:2:0:0:
225,256,14372,1,8,0:2:0:0:
222,63,14522,1,0,1:2:0:0:
410,244,14672,1,8,0:3:0:0:
418,243,14747,1,8,0:3:0:0:
426,239,14822,2,8,L|437:179,1,48.9999985046387,8|8,0:3|0:3,0:3:0:0:
301,191,14972,2,0,P|220:144|124:170,1,195.999994018555,12|4,0:1|1:2,0:2:0:0:
148,163,15872,5,2,0:2:0:0:
148,163,15947,1,2,0:2:0:0:
148,163,16022,1,2,0:2:0:0:
138,189,16097,1,2,0:2:0:0:
134,207,16172,1,2,0:2:0:0:
145,230,16247,1,2,0:2:0:0:
169,239,16322,1,2,0:2:0:0:
194,253,16397,1,2,0:2:0:0:
206,280,16472,1,2,0:2:0:0:
202,326,16547,1,2,0:2:0:0:
168,357,16622,1,2,0:2:0:0:
126,352,16697,1,2,0:2:0:0:
107,306,16772,2,2,L|55:292,1,48.9999985046387,2|2,0:2|0:2,0:2:0:0:
52,322,16922,2,2,L|0:336,1,48.9999985046387,2|2,0:2|0:2,0:2:0:0:
288,287,17072,6,0,L|350:300,1,48.9999985046387,4|0,3:2|0:2,0:2:0:0:
335,297,17672,5,2,1:3:0:0:
430,104,17822,1,0,1:2:0:0:
328,87,17972,2,0,L|350:162,2,70,2|2|2,0:3|0:3|0:3,0:2:0:0:
386,23,18872,5,2,1:3:0:0:
199,182,19022,2,0,L|208:138,1,35,0|2,1:2|0:3,0:2:0:0:
287,202,19472,5,2,1:3:0:0:
88,53,19622,2,0,L|99:99,1,35,0|2,1:2|0:3,0:2:0:0:
183,46,20072,5,2,1:3:0:0:
12,231,20222,1,0,1:2:0:0:
117,274,20372,2,0,L|97:195,2,70,2|2|2,0:3|0:3|0:3,0:2:0:0:
53,327,21272,5,2,1:3:0:0:
207,164,21422,2,0,L|200:209,1,35,0|2,1:2|0:3,0:2:0:0:
133,118,21722,2,0,L|123:78,2,35,0|2|0,1:2|0:3|1:2,0:2:0:0:
133,118,22172,1,2,0:3:0:0:
237,76,22472,5,2,1:3:0:0:
367,239,22622,1,0,1:2:0:0:
264,284,22772,2,0,L|281:200,2,70,2|2|2,0:3|0:3|0:3,0:2:0:0:
198,164,23672,5,2,1:3:0:0:
404,286,23822,2,0,L|396:251,1,35,0|2,1:2|0:3,0:2:0:0:
397,252,24272,6,0,B|448:200|448:200|511:222,1,140.000005340576,2|0,3:1|0:2,0:2:0:0:
489,312,24572,1,2,1:1:0:0:
480,304,24672,2,2,L|499:394,1,70.0000026702882,2|2,1:1|1:1,1:1:0:0:
299,165,24872,2,0,B|307:115|307:115|338:77|338:77|347:13,1,157.500006008148,12|0,0:2|0:2,0:2:0:0:
345,18,25172,6,0,P|263:8|190:46,1,167.999994873047,2|0,1:2|1:2,0:2:0:0:
191,161,25622,1,0,0:2:0:0:
23,90,25772,1,0,1:2:0:0:
23,90,25922,2,0,L|123:107,1,83.9999974365235,2|0,0:2|1:2,0:2:0:0:
300,246,26222,6,0,P|229:288|146:286,1,167.999994873047,2|0,0:2|0:2,0:2:0:0:
6,208,26672,1,0,1:2:0:0:
153,195,26822,1,0,0:2:0:0:
67,320,26972,1,0,1:2:0:0:
81,132,27122,1,8,0:2:0:0:
246,190,27272,2,0,P|298:183|350:164,1,83.9999974365235,2|0,1:2|0:2,0:2:0:0:
403,123,27497,5,0,0:2:0:0:
406,113,27572,2,0,P|400:55|394:8,1,83.9999974365235,2|0,1:2|0:2,0:2:0:0:
281,275,27872,2,0,P|295:333|304:389,1,83.9999974365235,2|0,1:2|0:2,0:2:0:0:
397,254,28172,1,2,0:2:0:0:
189,363,28322,2,0,L|90:341,1,83.9999974365235,12|0,0:2|1:2,0:2:0:0:
211,219,28622,1,0,0:2:0:0:
100,147,28772,2,0,B|33:144|14:212|14:212|39:248|45:270,1,167.999994873047,8|0,1:2|0:2,0:2:0:0:
202,88,29222,1,8,0:2:0:0:
197,73,29297,1,8,0:2:0:0:
192,58,29372,1,8,0:2:0:0:
188,45,29447,1,8,0:2:0:0:
184,34,29522,2,8,L|175:77,1,41.9999987182618,8|8,0:2|0:2,0:2:0:0:
282,201,29672,6,0,P|333:203|403:154,1,125.999996154785,6|0,1:2|0:2,0:2:0:0:
389,166,29972,2,0,L|374:281,1,83.9999974365235,10|0,0:2|0:2,0:2:0:0:
300,302,30272,1,0,1:2:0:0:
313,111,30422,1,0,1:2:0:0:
464,266,30572,1,0,0:2:0:0:
450,81,30722,2,0,L|476:-8,1,83.9999974365235,10|0,0:2|0:2,0:2:0:0:
307,202,31022,5,2,1:2:0:0:
188,95,31172,2,0,L|24:132,1,167.999994873047,8|0,0:2|1:2,0:2:0:0:
132,207,31622,1,0,1:2:0:0:
53,39,31772,1,8,0:2:0:0:
0,221,31922,1,0,0:2:0:0:
225,181,32072,6,0,L|329:207,1,83.9999974365235,2|0,1:2|1:2,0:2:0:0:
271,6,32372,1,10,0:2:0:0:
110,123,32522,2,0,L|195:102,1,83.9999974365235,2|0,0:2|1:2,0:2:0:0:
509,128,32822,2,0,P|458:164|397:161,1,125.999996154785,2|0,1:2|0:2,0:2:0:0:
396,161,33122,6,0,L|421:257,1,83.9999974365235,10|0,0:2|0:2,0:2:0:0:
431,26,33422,1,2,1:2:0:0:
240,256,33572,2,0,B|254:212|254:212|281:187|281:187|309:117,1,125.999996154785,10|0,0:2|0:2,0:2:0:0:
294,138,33872,2,0,P|283:178|277:220,1,83.9999974365235,0|0,1:2|0:2,0:2:0:0:
14,121,34172,2,0,P|25:170|31:213,1,83.9999974365235,0|0,1:2|0:2,0:2:0:0:
159,28,34472,5,4,1:2:0:0:
144,247,34622,1,8,0:2:0:0:
132,224,34697,1,8,0:2:0:0:
137,195,34772,1,8,0:2:0:0:
159,173,34847,1,8,0:2:0:0:
173,148,34922,1,8,0:2:0:0:
169,130,34997,1,8,0:2:0:0:
152,117,35072,2,8,L|112:132,1,41.9999987182618,8|8,0:2|0:2,0:2:0:0:
240,218,35222,1,8,0:3:0:0:
268,209,35297,1,8,0:3:0:0:
296,202,35372,1,8,0:3:0:0:
321,195,35447,1,8,0:3:0:0:
345,189,35522,2,8,L|385:199,1,41.9999987182618,8|8,0:3|0:3,0:3:0:0:
479,329,35672,5,12,1:3:0:0:
450,345,35747,1,12,0:3:0:0:
415,343,35822,1,12,0:3:0:0:
384,326,35897,1,12,0:3:0:0:
363,310,35972,1,12,0:3:0:0:
335,310,36047,1,12,0:3:0:0:
319,321,36122,2,12,L|302:371,1,41.9999987182618,12|12,0:3|0:3,0:3:0:0:
200,365,36272,1,4,1:3:0:0:
181,337,36347,1,4,0:3:0:0:
190,298,36422,1,4,0:3:0:0:
220,264,36497,1,4,0:3:0:0:
229,218,36572,1,4,0:3:0:0:
213,203,36647,1,4,0:3:0:0:
188,206,36722,2,4,L|198:261,1,41.9999987182618,4|4,0:3|0:3,0:3:0:0:
76,367,36872,6,0,P|86:322|98:278,1,83.9999974365235,4|0,1:2|0:2,0:2:0:0:
304,73,37172,2,0,P|310:116|324:180,1,83.9999974365235,8|0,0:1|0:2,0:2:0:0:
72,181,37472,1,0,1:2:0:0:
362,293,37622,2,0,P|323:307|273:311,1,83.9999974365235,0|0,1:2|0:2,0:2:0:0:
24,93,37922,2,0,P|126:90|205:142,1,167.999994873047,8|0,0:1|1:2,0:2:0:0:
392,200,38372,2,0,P|442:194|480:178,1,83.9999974365235,8|0,0:1|0:2,0:2:0:0:
368,12,38672,1,0,1:2:0:0:
257,198,38822,1,0,1:2:0:0:
368,12,38972,2,0,P|382:51|390:93,1,83.9999974365235,8|0,0:1|0:2,0:2:0:0:
196,307,39272,5,4,1:2:0:0:
190,304,40472,6,2,B|176:254|251:264|249:330|225:380|139:370|112:314|94:229|217:166|330:237|299:359|224:379,1,391.99998803711,4|0,1:2|0:2,0:1:0:0:
248,368,41672,6,0,P|248:319|256:270,1,97.9999970092774,6|0,1:1|0:2,0:2:0:0:
357,18,41972,2,0,P|369:66|373:118,1,97.9999970092774,10|0,0:2|0:2,0:2:0:0:
0,123,42272,2,0,P|70:104|177:166,1,195.999994018555,2|10,1:2|0:2,0:2:0:0:
70,218,42722,5,2,0:2:0:0:
391,106,42872,2,0,P|321:124|254:96,1,146.999995513916,2|0,1:2|0:2,0:2:0:0:
254,96,43172,2,0,P|266:38|262:-11,1,97.9999970092774,10|0,0:2|0:2,0:2:0:0:
459,226,43472,2,0,P|427:322|454:398,1,146.999995513916,2|0,1:2|0:2,0:2:0:0:
435,364,43772,1,10,0:2:0:0:
483,106,43922,5,2,0:2:0:0:
180,191,44072,2,0,P|253:251|347:236,1,195.999994018555,2|8,1:2|0:2,0:2:0:0:
170,45,44522,2,0,P|122:60|54:74,1,97.9999970092774,2|0,0:2|1:2,0:2:0:0:
347,236,44822,2,0,P|385:249|448:265,1,97.9999970092774,2|8,0:2|0:2,0:2:0:0:
303,34,45122,5,2,0:2:0:0:
153,227,45272,2,0,P|162:276|169:336,1,97.9999970092774,2|0,1:2|0:2,0:2:0:0:
456,266,45572,1,0,0:2:0:0:
318,141,45722,1,8,0:3:0:0:
318,141,45797,1,8,0:3:0:0:
318,141,45872,1,8,1:3:0:0:
271,156,45947,1,8,0:3:0:0:
245,198,46022,1,8,0:3:0:0:
251,244,46097,1,8,0:3:0:0:
278,285,46172,1,8,0:3:0:0:
296,328,46247,1,8,0:3:0:0:
271,372,46322,1,8,0:3:0:0:
227,382,46397,1,8,0:3:0:0:
195,363,46472,5,4,1:1:0:0:
348,212,46622,2,0,P|398:199|449:176,1,97.9999970092774,2|8,0:2|0:2,0:2:0:0:
409,292,46922,1,2,0:1:0:0:
196,142,47072,1,0,1:2:0:0:
338,100,47222,1,2,1:1:0:0:
190,270,47372,1,2,0:2:0:0:
247,35,47522,5,10,0:1:0:0:
80,216,47672,2,0,L|106:310,1,97.9999970092774,2|2,0:2|1:1,0:2:0:0:
320,181,47972,1,8,0:2:0:0:
110,118,48122,2,0,L|14:95,1,97.9999970092774,2|0,0:1|1:2,0:2:0:0:
351,31,48422,5,2,1:1:0:0:
268,302,48572,2,0,P|215:218|229:149,1,146.999995513916,10|0,0:2|0:2,0:2:0:0:
297,99,48872,2,0,P|249:88|201:79,1,97.9999970092774,4|0,1:2|1:2,0:2:0:0:
405,217,49172,1,8,0:2:0:0:
466,2,49322,2,0,L|492:96,1,97.9999970092774,2|0,0:2|1:2,0:2:0:0:
293,354,49622,2,0,L|317:247,1,97.9999970092774,2|8,1:2|0:2,0:2:0:0:
512,208,49922,1,0,0:2:0:0:
184,251,50072,5,12,0:2:0:0:
392,143,50222,1,0,1:2:0:0:
129,124,50372,5,14,0:2:0:0:
384,217,50522,1,0,1:2:0:0:
224,109,50672,6,0,L|242:12,1,97.9999970092774,2|8,1:2|0:2,0:2:0:0:
224,9,50897,1,8,0:2:0:0:
212,11,50972,1,8,0:2:0:0:
69,230,51122,5,8,0:2:0:0:
57,214,51197,1,8,0:2:0:0:
71,200,51272,2,0,P|143:205|203:247,1,146.999995513916,6|0,1:1|0:2,0:2:0:0:
210,265,51572,2,0,P|190:313|177:366,1,97.9999970092774,10|0,0:2|0:2,0:2:0:0:
112,94,51872,2,0,P|132:33|139:-27,1,97.9999970092774,2|0,1:2|0:2,0:2:0:0:
395,216,52172,2,0,P|443:208|502:189,1,97.9999970092774,10|2,0:2|0:2,0:2:0:0:
69,167,52472,6,0,P|109:188|207:181,1,146.999995513916,2|0,1:2|0:2,0:2:0:0:
219,167,52772,2,0,P|213:115|205:68,1,97.9999970092774,10|0,0:2|0:2,0:2:0:0:
477,274,53072,2,0,P|467:319|450:370,1,97.9999970092774,2|0,1:2|0:2,0:2:0:0:
329,158,53372,1,10,0:2:0:0:
510,151,53522,5,2,0:2:0:0:
359,324,53672,2,0,P|262:326|187:262,1,195.999994018555,2|8,1:2|0:2,0:2:0:0:
190,12,54122,2,0,P|208:53|226:114,1,97.9999970092774,2|0,0:2|1:2,0:2:0:0:
39,315,54422,2,0,P|50:265|72:213,1,97.9999970092774,2|8,0:2|0:2,0:2:0:0:
402,129,54722,5,2,0:2:0:0:
86,132,54872,2,0,B|136:148|136:148|184:188|184:188|277:205,1,195.999994018555,2|8,1:2|0:2,0:2:0:0:
436,41,55322,1,8,0:3:0:0:
436,41,55397,1,8,0:3:0:0:
436,41,55472,1,8,1:3:0:0:
386,33,55547,1,8,0:3:0:0:
348,54,55622,1,8,0:3:0:0:
327,92,55697,1,8,0:3:0:0:
326,139,55772,1,8,0:3:0:0:
348,179,55847,1,8,0:3:0:0:
364,217,55922,1,8,0:3:0:0:
351,260,55997,1,8,0:3:0:0:
314,288,56072,5,4,1:1:0:0:
110,160,56222,2,0,P|124:107|129:43,1,97.9999970092774,2|8,0:2|0:2,0:2:0:0:
250,190,56522,1,2,3:1:0:0:
66,275,56672,1,0,1:2:0:0:
245,367,56822,1,2,1:1:0:0:
352,141,56972,1,2,0:2:0:0:
175,251,57122,5,10,0:1:0:0:
249,8,57272,2,0,P|273:60|283:108,1,97.9999970092774,2|2,0:2|1:1,0:2:0:0:
145,168,57572,1,8,0:2:0:0:
450,164,57722,2,0,P|383:246|271:252,1,195.999994018555,2|2,0:1|1:1,0:2:0:0:
341,3,58172,2,0,P|384:12|442:38,1,97.9999970092774,10|2,0:2|0:1,0:2:0:0:
196,224,58472,6,0,P|153:298|135:405,1,146.999995513916,6|0,1:2|0:2,0:2:0:0:
138,357,58772,1,10,0:2:0:0:
199,115,58922,2,0,P|185:57|180:9,1,97.9999970092774,2|0,0:2|1:2,0:2:0:0:
368,192,59222,1,0,1:2:0:0:
104,174,59372,2,0,P|47:184|-3:199,1,97.9999970092774,10|0,0:2|0:2,0:2:0:0:
403,79,59672,5,12,0:2:0:0:
283,280,59822,1,0,1:2:0:0:
477,155,59972,5,10,0:2:0:0:
197,222,60122,1,0,1:2:0:0:
261,59,60272,5,8,0:2:0:0:
268,42,60347,1,8,0:2:0:0:
276,28,60422,2,8,L|296:109,1,48.9999985046387,8|8,0:2|0:2,0:2:0:0:
87,176,60572,2,8,L|101:106,1,48.9999985046387,8|8,0:2|0:2,0:2:0:0:
341,175,60722,6,0,P|246:179|183:108,1,195.999994018555,6|0,1:1|1:2,0:2:0:0:
437,90,61172,2,0,L|475:0,1,97.9999970092775,8|0,0:2|0:2,0:2:0:0:
451,290,61472,1,4,1:3:0:0:
312,66,61622,1,4,1:3:0:0:
451,290,61772,1,4,1:3:0:0:
511,148,61922,6,0,P|421:183|318:230,1,195.999994018555,6|0,1:2|1:2,0:2:0:0:
164,361,62372,2,0,L|68:340,1,97.9999970092774,8|0,0:2|0:2,0:2:0:0:
169,79,62672,2,8,L|190:143,1,48.9999985046387,8|8,0:2|0:2,0:2:0:0:
13,210,62822,1,8,0:2:0:0:
13,210,62897,1,8,0:2:0:0:
13,210,62972,2,8,L|23:149,1,48.9999985046387,8|8,0:2|0:2,0:2:0:0:
145,267,63122,6,0,P|240:259|294:181,1,195.999994018555,4|0,1:2|1:2,0:2:0:0:
68,22,63572,2,0,L|95:116,1,97.9999970092774,8|0,0:2|0:2,0:2:0:0:
296,97,63872,1,4,1:3:0:0:
61,229,64022,1,4,1:3:0:0:
296,97,64172,1,4,1:3:0:0:
5,144,64322,6,0,P|99:121|190:181,1,195.999994018555,4|0,1:2|1:2,0:2:0:0:
330,352,64772,2,0,L|224:378,1,97.9999970092774,8|0,0:2|1:2,0:2:0:0:
150,256,65072,1,8,0:3:0:0:
150,256,65147,1,8,0:3:0:0:
150,256,65222,1,8,0:3:0:0:
405,146,65372,1,12,0:2:0:0:
405,146,65672,6,0,B|442:154|442:154|410:174,1,65.3333313395183,12|0,3:3|3:2,3:2:0:0:
402,266,65872,6,0,B|414:301|414:301|375:276,1,65.3333313395183,12|0,3:3|3:2,3:2:0:0:
298,313,66072,6,0,B|279:343|279:343|274:292,1,65.3333313395183,12|0,3:3|3:2,3:2:0:0:
208,260,66272,6,0,B|174:268|174:268|198:219,1,65.3333313395183,12|0,3:3|3:2,3:2:0:0:
284,323,66472,6,0,B|286:352|286:352|305:321,1,65.3333313395183,12|0,3:3|3:2,3:2:0:0:
404,285,66672,6,0,B|427:300|427:300|415:265,1,65.3333313395183,12|0,3:3|3:2,3:2:0:0:
436,177,66872,6,0,B|459:162|459:162|421:154,1,65.3333313395183,12|0,3:3|3:2,3:2:0:0:
426,276,67072,6,0,B|438:311|438:311|414:295,1,65.3333313395183,12|0,3:3|3:2,3:2:0:0:
308,336,67272,6,0,B|289:366|289:366|286:337,1,65.3333313395183,12|0,3:3|3:2,3:2:0:0:
198,275,67472,6,0,B|164:283|164:283|177:255,1,65.3333313395183,12|0,3:3|3:2,3:2:0:0:
172,152,67672,6,0,B|152:123|152:123|182:125,1,65.3333313395183,12|0,3:3|3:2,3:2:0:0:
283,78,67872,6,0,B|299:47|299:47|311:75,1,65.3333313395183,12|0,3:3|3:2,3:2:0:0:
299,221,68072,6,0,P|303:174|306:222,1,140,4|0,1:1|0:2,0:2:0:0:
302,223,69872,5,8,0:2:0:0:
297,271,69947,1,8,0:2:0:0:
271,312,70022,1,8,0:2:0:0:
231,336,70097,1,8,0:2:0:0:
184,342,70172,1,8,0:2:0:0:
136,335,70247,1,8,0:2:0:0:
98,309,70322,1,8,0:2:0:0:
77,263,70397,1,8,0:2:0:0:
81,255,70472,6,0,L|87:322,1,48.9999985046387,12|0,1:3|0:2,0:2:0:0:
249,94,70622,2,0,L|239:152,1,48.9999985046387,12|0,1:3|0:2,0:2:0:0:
153,168,71672,6,0,L|145:119,1,48.9999985046387,12|0,1:3|0:2,0:2:0:0:
347,293,71822,2,0,L|354:244,1,48.9999985046387,12|0,1:3|0:2,0:2:0:0:
358,113,72872,6,0,L|340:171,1,48.9999985046387,12|0,1:3|0:2,0:2:0:0:
133,279,73022,2,0,L|151:337,1,48.9999985046387,12|0,1:3|0:2,0:2:0:0:
358,113,73472,6,0,L|340:171,1,48.9999985046387,12|0,1:3|0:2,0:2:0:0:
133,279,73622,2,0,L|151:337,1,48.9999985046387,12|0,1:3|0:2,0:2:0:0:
481,97,74072,6,0,P|467:143|453:191,1,97.9999970092774,6|2,1:2|0:2,0:2:0:0:
403,255,74297,1,2,0:2:0:0:
395,268,74372,2,0,P|407:315|420:362,1,97.9999970092774,2|0,1:2|0:2,0:2:0:0:
94,197,74672,2,0,L|-1:170,1,97.9999970092774,2|0,1:2|0:2,0:2:0:0:
419,40,74972,2,0,L|512:11,1,97.9999970092774,0|2,1:2|0:2,0:2:0:0:
509,107,75197,5,2,0:2:0:0:
510,113,75272,2,0,L|487:272,2,140,6|0|0,1:2|1:2|1:2,0:2:0:0:
121,77,76172,2,0,L|142:161,1,70,0|2,1:2|0:2,0:2:0:0:
203,188,76397,1,2,0:2:0:0:
209,172,76472,2,0,L|74:209,1,140,2|0,1:2|1:2,0:2:0:0:
253,264,76847,1,2,0:2:0:0:
258,252,76922,2,0,L|406:297,1,140,2|0,0:2|0:2,0:2:0:0:
312,172,77297,1,2,0:2:0:0:
300,168,77372,2,0,L|313:96,1,70,2|0,1:2|0:2,0:2:0:0:
257,356,77672,5,2,1:2:0:0:
130,280,77822,2,0,L|147:358,1,70,2|0,0:2|1:2,0:2:0:0:
19,171,78122,2,0,L|34:95,1,70,2|0,0:2|1:2,0:2:0:0:
159,48,78422,1,2,0:2:0:0:
32,102,78572,2,0,L|122:126,1,70,2|0,1:2|0:2,0:2:0:0:
310,83,78872,6,0,L|522:22,1,210,2|0,1:2|1:2,0:2:0:0:
512,25,79472,1,2,0:2:0:0:
0,353,80072,6,0,P|109:341|167:237,1,224,4|0,1:2|0:2,0:2:0:0:
262,20,80522,2,0,P|208:113|254:210,1,224,2|0,1:2|0:2,0:2:0:0:
512,229,80972,2,0,B|422:241|422:241|385:278|385:278|299:298,1,224,2|0,1:2|0:2,0:2:0:0:
116,60,81422,2,0,B|206:72|206:72|242:109|242:109|329:129,1,224,2|0,1:2|0:2,0:2:0:0:
509,68,81872,1,6,1:2:0:0:
429,12,82022,5,8,0:3:0:0:
398,47,82097,1,8,0:3:0:0:
400,90,82172,1,8,0:3:0:0:
424,127,82247,1,8,0:3:0:0:
441,174,82322,1,8,0:3:0:0:
422,222,82397,1,8,0:3:0:0:
378,248,82472,2,0,L|158:291,1,224,4|0,1:2|0:2,0:2:0:0:
15,61,82922,2,0,P|128:64|180:162,1,224,2|0,1:2|0:2,0:2:0:0:
23,370,83372,2,0,P|-7:267|65:188,1,224,2|0,1:2|0:2,0:2:0:0:
291,309,83822,2,0,L|520:354,1,224,2|0,1:2|1:2,0:2:0:0:
510,352,84197,1,0,1:2:0:0:
510,352,84272,1,12,1:2:0:0:
433,113,84422,5,0,1:2:0:0:
422,105,84497,1,0,1:2:0:0:
434,100,84572,2,0,P|487:162|445:254,1,168,2|0,1:2|0:2,0:2:0:0:
378,263,84872,6,0,L|316:250,1,56,4|0,1:2|2:2,0:2:0:0:
54,3,85322,2,0,L|-11:19,1,56,4|0,1:2|2:2,0:2:0:0:
394,289,85772,2,0,L|334:275,1,56,4|0,1:2|2:2,0:2:0:0:
55,21,86222,2,0,L|-18:41,1,56,4|0,1:2|2:2,0:2:0:0:
407,321,86672,2,0,L|351:300,1,56,4|0,1:2|2:2,0:2:0:0:
61,36,86972,2,0,L|-11:58,1,56,4|0,1:2|2:2,0:2:0:0:
10,64,87272,5,14,1:2:0:0:
186,244,87422,1,0,1:2:0:0:
258,42,87572,1,0,1:2:0:0:
71,284,87722,5,12,1:2:0:0:
167,100,87872,1,0,1:2:0:0:
298,287,88022,1,0,1:2:0:0:
386,36,88172,5,12,1:2:0:0:
249,162,88322,1,0,1:2:0:0:
404,257,88472,1,0,1:2:0:0:
212,312,88622,5,12,1:2:0:0:
327,124,88772,1,0,1:2:0:0:
327,124,88922,1,0,1:2:0:0:
6,162,89072,6,0,B|47:169|47:169|71:211|71:211|143:206,1,149.333333333333,14|0,1:2|0:2,0:2:0:0:
150,77,89372,1,2,1:3:0:0:
139,50,89472,2,2,L|117:121,1,74.6666666666667,2|2,1:3|1:3,1:3:0:0:
338,218,89672,6,0,L|442:240,1,83.9999974365235,6|0,1:1|0:2,0:2:0:0:
170,331,89972,2,0,L|-10:379,1,167.999994873047,2|0,1:2|1:2,0:2:0:0:
118,225,90422,1,0,0:2:0:0:
253,346,90572,1,0,1:2:0:0:
311,123,90722,2,0,L|292:23,1,83.9999974365235,2|0,0:2|1:2,0:2:0:0:
147,138,91022,1,0,0:2:0:0:
255,236,91172,2,0,L|434:260,1,167.999994873047,2|0,1:2|1:2,0:2:0:0:
477,179,91622,1,0,0:2:0:0:
380,141,91772,1,0,1:2:0:0:
393,346,91922,5,8,0:2:0:0:
483,90,92072,2,0,B|499:138|499:138|497:197|497:197|520:285,2,167.999994873047,2|2|2,1:2|1:2|1:2,0:2:0:0:
483,90,92972,1,0,1:2:0:0:
250,107,93122,2,0,P|308:167|392:162,1,167.999994873047,8|0,0:2|0:2,0:2:0:0:
167,36,93572,2,0,L|64:71,1,83.9999974365235,8|0,0:2|1:2,0:2:0:0:
76,61,93797,1,0,1:2:0:0:
64,56,93872,1,0,1:2:0:0:
156,142,94022,5,8,0:2:0:0:
190,174,94097,1,8,0:2:0:0:
197,227,94172,1,8,0:2:0:0:
178,269,94247,1,8,0:2:0:0:
140,294,94322,1,8,0:2:0:0:
84,295,94397,1,8,0:2:0:0:
38,273,94472,2,0,L|25:178,1,83.9999974365235,4|0,1:1|0:2,0:2:0:0:
350,296,94772,2,0,L|543:345,1,167.999994873047,10|0,0:2|1:2,0:2:0:0:
445,213,95222,5,0,1:2:0:0:
278,368,95372,1,0,0:2:0:0:
203,144,95522,2,0,L|224:62,1,83.9999974365235,10|0,0:2|0:2,0:2:0:0:
387,153,95822,5,2,1:2:0:0:
167,255,95972,2,0,L|43:230,1,125.999996154785,8|0,0:2|0:2,0:2:0:0:
35,221,96272,2,0,L|51:318,1,83.9999974365235,2|0,1:2|0:2,0:2:0:0:
214,141,96572,1,8,0:2:0:0:
58,41,96722,1,0,0:2:0:0:
120,151,96872,5,0,1:2:0:0:
120,151,97022,1,0,1:2:0:0:
232,25,97172,1,10,0:2:0:0:
374,226,97322,2,0,L|352:318,1,83.9999974365235,2|0,0:2|1:2,0:2:0:0:
115,244,97622,1,2,1:2:0:0:
115,244,97922,6,0,L|138:335,1,83.9999974365235,10|0,0:2|0:2,0:2:0:0:
392,83,98222,1,2,1:2:0:0:
201,206,98372,2,0,B|257:186|257:186|273:190|273:190|346:156,1,125.999996154785,8|0,0:2|0:2,0:2:0:0:
323,165,98672,2,0,L|228:136,1,83.9999974365235,2|0,1:2|0:2,0:2:0:0:
399,348,98972,2,0,L|481:329,1,83.9999974365235,2|0,1:2|0:2,0:2:0:0:
92,125,99272,6,0,B|40:126|40:126|0:160,1,105.000004005432,14|0,0:2|0:2,0:2:0:0:
108,223,99497,2,0,B|134:267|134:267|124:320,1,105.000004005432,10|0,0:2|0:2,0:2:0:0:
16,356,99722,2,0,B|4:327|4:327|13:308,1,52.5000020027161,10|0,0:2|0:2,0:2:0:0:
227,278,99872,5,8,0:2:0:0:
252,284,99947,1,8,0:2:0:0:
281,292,100022,1,8,0:2:0:0:
309,301,100097,1,8,0:2:0:0:
331,305,100172,2,0,B|360:259|360:259|350:205,1,105.000004005432,6|0,1:2|0:2,0:2:0:0:
246,134,100397,2,0,B|238:84|238:84|267:39,1,105.000004005432,2|0,1:2|0:2,0:2:0:0:
368,101,100622,2,0,B|388:88|388:88|416:85,1,52.5000020027161,2|0,1:2|0:2,0:2:0:0:
480,230,100772,5,10,0:2:0:0:
469,246,100847,1,8,0:3:0:0:
481,254,100922,2,8,B|491:228|491:228|482:184,1,52.5000020027161,8|8,0:3|0:3,0:3:0:0:
344,206,101072,2,0,B|293:203|293:203|269:214|218:230,1,105.000004005432,6|0,1:2|0:2,0:2:0:0:
171,166,101297,2,0,B|136:159|136:159|106:169|67:149,1,105.000004005432,2|0,1:2|0:2,0:2:0:0:
18,222,101522,2,0,B|24:246|24:246|28:278,1,52.5000020027161,2|0,1:2|0:2,0:2:0:0:
82,351,101672,1,8,0:3:0:0:
82,351,101747,1,8,0:3:0:0:
82,351,101822,1,8,0:3:0:0:
264,109,101972,5,12,0:1:0:0:
192,361,102122,1,8,0:1:0:0:
264,109,102422,5,12,0:1:0:0:
192,361,102572,1,8,0:1:0:0:
170,248,102722,5,0,1:2:0:0:
170,248,102797,1,0,1:2:0:0:
170,248,102872,2,0,B|220:251|220:251|241:287|283:300,1,125.999996154785,14|0,1:2|1:2,0:2:0:0:
449,168,103097,2,0,B|410:191|379:182|379:182|322:225,1,125.999996154785,10|0,0:2|1:2,0:2:0:0:
365,319,103322,2,0,B|385:353|385:353|382:389,1,62.9999980773926,10|0,0:2|0:2,0:2:0:0:
265,175,103472,5,8,0:2:0:0:
258,135,103547,1,8,0:2:0:0:
284,117,103622,1,8,0:2:0:0:
268,76,103697,1,8,0:2:0:0:
260,60,103772,6,0,B|247:21|247:21|249:-6,1,62.9999980773926,6|8,1:2|0:2,0:2:0:0:
378,85,103922,1,8,0:2:0:0:
386,70,103997,2,0,B|426:74|426:74|465:103,1,62.9999980773926,2|8,1:2|0:2,0:2:0:0:
178,115,104147,1,8,0:2:0:0:
173,134,104222,2,0,B|133:130|133:130|94:101,1,62.9999980773926,2|8,1:2|0:2,0:2:0:0:
137,244,104372,5,10,0:2:0:0:
157,288,104447,1,8,0:2:0:0:
197,312,104522,1,8,0:2:0:0:
240,319,104597,1,8,0:2:0:0:
281,299,104672,2,0,B|300:247|300:247|291:224|291:224|307:170,1,125.999996154785,6|0,1:2|0:2,0:2:0:0:
301,52,104897,2,0,B|316:92|316:92|306:122|306:122|327:196,1,125.999996154785,6|0,1:2|0:2,0:2:0:0:
400,205,105122,2,0,B|433:208|433:208|467:199,1,62.9999980773926,6|0,1:2|0:2,0:2:0:0:
223,109,105272,2,0,B|163:114|163:114|142:130|86:136,1,125.999996154785,2|0,1:2|0:2,0:2:0:0:
101,134,105572,6,0,B|133:159|147:205|147:205|133:254,1,125.999996154785,6|0,1:2|0:2,0:2:0:0:
53,383,105797,2,0,B|16:349|18:303|18:303|36:266,1,125.999996154785,6|0,1:2|0:2,0:2:0:0:
138,242,106022,2,0,L|199:257,1,62.9999980773926,6|0,1:2|0:2,0:2:0:0:
406,329,106172,2,0,L|281:350,1,125.999996154785,2|0,1:2|0:2,0:2:0:0:
281,350,106472,6,0,P|315:287|301:229,1,125.999996154785,6|0,1:2|0:2,0:2:0:0:
286,12,106697,2,0,P|252:75|266:133,1,125.999996154785,6|0,1:2|0:2,0:2:0:0:
376,159,106922,2,0,L|437:144,1,62.9999980773926,6|0,0:2|0:2,0:2:0:0:
154,40,107072,2,0,L|32:73,1,125.999996154785,2|0,1:2|0:2,0:2:0:0:
32,73,107372,5,2,1:1:0:0:
20,148,107472,5,2,0:2:0:0:
69,200,107572,5,2,0:2:0:0:
148,205,107672,5,2,1:1:0:0:
184,229,107772,5,2,0:2:0:0:
189,275,107872,5,2,0:2:0:0:
142,337,107972,5,2,1:1:0:0:
256,16,108572,5,4,0:3:0:0:
256,96,109472,1,0,0:2:0:0:
256,96,109772,1,0,0:2:0:0:
256,184,110372,1,0,0:2:0:0:
256,360,110972,1,4,0:3:0:0:
256,272,111872,1,0,0:2:0:0:
256,272,112172,1,0,0:2:0:0:
256,176,112772,1,0,0:2:0:0:
256,0,113372,1,4,0:3:0:0:
256,0,113972,1,0,0:2:0:0:
256,176,114572,1,2,0:2:0:0:
256,176,115172,1,0,0:2:0:0:
256,384,115772,1,4,0:3:0:0:
256,384,116372,1,0,0:2:0:0:
256,304,116972,2,0,P|254:242|259:179,1,122.5,2|0,0:2|0:2,0:2:0:0:
243,105,117572,1,0,0:3:0:0:
236,98,117647,1,0,0:3:0:0:
233,89,117722,1,0,0:3:0:0:
237,77,117797,1,0,0:3:0:0:
255,63,117872,1,0,0:3:0:0:
259,39,117947,1,0,0:3:0:0:
249,21,118022,2,0,L|252:48,1,17.5,0|0,0:3|0:3,0:3:0:0:
362,96,118172,6,0,P|419:119|481:112,1,125.999996154785,4|0,1:1|0:2,0:2:0:0:
487,106,118472,2,0,P|497:60|497:17,1,83.9999974365235,8|0,1:2|0:2,0:2:0:0:
336,183,118772,2,0,P|325:227|326:275,1,83.9999974365235,0|8,1:2|0:2,0:2:0:0:
414,375,119072,1,0,1:2:0:0:
481,276,119222,5,8,0:2:0:0:
191,312,119372,2,0,P|248:347|311:352,1,125.999996154785,2|0,1:2|0:2,0:2:0:0:
305,353,119672,2,0,P|246:360|200:378,1,83.9999974365235,8|0,1:2|0:2,0:2:0:0:
72,197,119972,2,0,P|116:203|152:215,1,83.9999974365235,0|8,1:2|0:2,0:2:0:0:
44,295,120272,1,0,1:2:0:0:
0,116,120422,5,8,0:2:0:0:
198,103,120572,2,0,P|253:164|242:257,1,167.999994873047,2|8,1:2|1:2,0:2:0:0:
92,83,121022,2,0,P|98:41|119:-7,1,83.9999974365235,0|0,0:2|1:2,0:2:0:0:
153,215,121322,2,0,P|150:251|134:298,1,83.9999974365235,8|0,0:2|1:2,0:2:0:0:
337,149,121622,5,8,1:2:0:0:
337,149,121697,1,0,1:2:0:0:
337,149,121772,2,0,B|436:162|409:186|504:196,1,167.999994873047,0|0,1:2|1:2,0:2:0:0:
408,65,122222,2,8,P|411:45|418:11,1,41.9999987182618,8|8,0:2|0:2,0:2:0:0:
496,48,122372,1,8,0:2:0:0:
291,226,122522,1,8,0:2:0:0:
242,221,122597,1,8,0:2:0:0:
207,186,122672,1,8,0:2:0:0:
201,131,122747,1,8,0:2:0:0:
235,94,122822,2,8,P|256:91|284:80,1,41.9999987182618,8|8,0:2|0:2,0:2:0:0:
380,172,122972,6,0,P|390:223|398:269,1,90.9999958343508,4|0,1:2|0:2,0:2:0:0:
477,156,123272,1,8,0:1:0:0:
320,335,123422,1,2,0:2:0:0:
275,84,123572,1,0,1:2:0:0:
395,261,123722,2,0,P|439:269|497:283,1,90.9999958343508,0|0,1:2|0:2,0:2:0:0:
177,177,124022,2,0,L|0:216,1,181.999991668702,8|0,0:1|1:2,0:2:0:0:
83,15,124472,2,0,L|189:44,1,90.9999958343508,8|0,0:1|0:2,0:2:0:0:
250,308,124772,1,0,1:2:0:0:
316,128,124922,1,0,1:2:0:0:
121,321,125072,2,0,L|102:221,1,90.9999958343508,8|0,0:1|0:2,0:2:0:0:
408,138,125372,5,4,1:1:0:0:
243,51,125522,1,2,0:2:0:0:
214,72,125597,1,2,0:2:0:0:
201,107,125672,1,2,0:2:0:0:
210,140,125747,1,2,0:2:0:0:
234,171,125822,1,2,0:2:0:0:
260,196,125897,1,2,0:2:0:0:
271,233,125972,1,2,0:2:0:0:
257,272,126047,1,2,0:2:0:0:
259,303,126122,1,2,0:2:0:0:
282,331,126197,1,2,0:2:0:0:
317,344,126272,2,10,L|383:322,2,60.6666638895672,10|10|10,0:3|0:3|0:3,0:3:0:0:
464,360,126572,2,2,L|101:325,1,363.999983337403,2|0,0:1|0:2,0:1:0:0:
101,325,127772,6,0,P|119:279|120:231,1,97.9999970092774,6|0,1:1|0:2,0:2:0:0:
33,0,128072,2,0,P|14:45|13:93,1,97.9999970092774,10|0,0:2|0:2,0:2:0:0:
395,103,128372,2,0,P|300:89|225:149,1,195.999994018555,2|10,1:2|0:2,0:2:0:0:
347,192,128822,5,2,0:2:0:0:
48,95,128972,2,0,P|95:83|147:70,1,97.9999970092774,2|0,1:2|0:2,0:2:0:0:
282,296,129272,2,0,P|234:280|174:260,1,97.9999970092774,10|0,0:2|0:2,0:2:0:0:
421,56,129572,2,0,P|454:121|465:193,1,146.999995513916,2|0,1:2|0:2,0:2:0:0:
465,193,129872,1,10,0:2:0:0:
510,7,130022,5,2,0:2:0:0:
296,179,130172,2,0,P|200:170|135:99,1,195.999994018555,2|8,1:2|0:2,0:2:0:0:
332,0,130622,2,0,P|338:48|352:113,1,97.9999970092774,2|0,0:2|1:2,0:2:0:0:
136,335,130922,2,0,P|147:293|157:225,1,97.9999970092774,2|8,0:2|0:2,0:2:0:0:
483,160,131222,5,2,0:2:0:0:
184,164,131372,2,0,B|252:176|252:176|291:213|291:213|367:229,1,195.999994018555,2|8,1:2|0:2,0:2:0:0:
465,43,131822,1,8,0:3:0:0:
465,43,131897,1,8,0:3:0:0:
465,43,131972,1,8,1:3:0:0:
416,45,132047,1,8,0:3:0:0:
381,75,132122,1,8,0:3:0:0:
369,116,132197,1,8,0:3:0:0:
382,164,132272,1,8,1:3:0:0:
388,215,132347,1,8,0:3:0:0:
366,248,132422,1,8,0:3:0:0:
323,272,132497,1,8,0:3:0:0:
275,260,132572,5,4,1:1:0:0:
212,97,132722,2,0,P|220:39|228:-8,1,97.9999970092774,2|8,0:2|0:2,0:2:0:0:
463,128,133022,1,2,0:1:0:0:
205,195,133172,1,0,1:2:0:0:
346,77,133322,1,2,1:1:0:0:
113,89,133472,1,2,0:2:0:0:
306,187,133622,5,10,0:1:0:0:
96,192,133772,2,0,L|2:216,1,97.9999970092774,2|2,0:2|1:1,0:2:0:0:
194,44,134072,1,8,0:2:0:0:
169,274,134222,2,0,P|178:323|189:382,1,97.9999970092774,2|0,0:1|1:0,0:0:0:0:
393,120,134522,5,2,1:1:0:0:
93,75,134672,2,0,P|147:124|219:124,1,146.999995513916,10|0,0:2|0:2,0:2:0:0:
313,54,134972,2,0,P|302:106|296:153,1,97.9999970092774,6|0,1:2|1:2,0:2:0:0:
470,253,135272,1,8,0:2:0:0:
162,285,135422,2,0,L|284:234,1,97.9999970092774,2|0,0:2|1:2,0:2:0:0:
512,366,135722,2,0,L|410:342,1,97.9999970092774,2|8,1:2|0:2,0:2:0:0:
296,150,136022,1,2,0:2:0:0:
315,367,136172,5,14,0:2:0:0:
388,141,136322,1,0,1:2:0:0:
230,292,136472,5,14,0:2:0:0:
196,79,136622,1,0,1:2:0:0:
342,263,136772,6,0,L|437:285,1,97.9999970092774,4|8,1:2|0:2,0:2:0:0:
458,275,136997,1,8,0:2:0:0:
494,254,137072,1,8,0:2:0:0:
511,203,137147,1,8,0:2:0:0:
496,153,137222,1,8,0:2:0:0:
453,128,137297,1,8,0:2:0:0:
406,121,137372,6,0,L|312:149,1,97.9999970092774,6|0,1:1|0:2,0:2:0:0:
33,9,137672,2,0,L|126:37,1,97.9999970092774,10|0,0:2|0:2,0:2:0:0:
146,313,137972,2,0,P|138:234|179:154,1,146.999995513916,2|0,1:2|0:2,0:2:0:0:
163,172,138272,1,10,0:2:0:0:
245,352,138422,5,2,0:2:0:0:
62,141,138572,2,0,P|44:181|39:251,1,97.9999970092774,2|0,1:2|0:2,0:2:0:0:
338,311,138872,2,0,P|355:270|361:201,1,97.9999970092774,10|0,0:2|0:2,0:2:0:0:
282,0,139172,2,0,P|255:63|247:161,1,146.999995513916,2|0,1:2|0:2,0:2:0:0:
245,140,139472,1,10,0:2:0:0:
368,37,139622,5,2,0:2:0:0:
131,154,139772,2,0,P|83:141|36:129,1,97.9999970092774,2|0,1:2|0:2,0:2:0:0:
186,18,140072,1,10,0:2:0:0:
227,234,140222,2,0,L|245:347,1,97.9999970092774,2|0,0:2|1:2,0:2:0:0:
480,156,140522,2,0,L|461:265,1,97.9999970092774,2|8,0:2|0:2,0:2:0:0:
151,224,140822,5,2,0:2:0:0:
427,87,140972,2,0,B|370:91|370:91|320:138|320:138|238:153,1,195.999994018555,2|8,1:2|0:2,0:2:0:0:
52,40,141422,1,8,0:3:0:0:
52,40,141497,1,8,0:3:0:0:
52,40,141572,1,8,1:3:0:0:
84,15,141647,1,8,0:3:0:0:
138,22,141722,1,8,0:3:0:0:
165,62,141797,1,8,0:3:0:0:
161,114,141872,1,8,1:3:0:0:
137,161,141947,1,8,0:3:0:0:
141,207,142022,1,8,0:3:0:0:
177,244,142097,1,8,0:3:0:0:
229,251,142172,5,4,1:1:0:0:
15,210,142322,2,0,P|8:162|0:114,1,97.9999970092774,2|8,0:2|0:2,0:2:0:0:
250,150,142622,1,2,0:1:0:0:
94,305,142772,1,0,1:2:0:0:
315,217,142922,1,2,1:1:0:0:
100,122,143072,1,2,0:2:0:0:
324,94,143222,5,10,0:1:0:0:
212,347,143372,2,0,L|228:251,1,97.9999970092774,2|2,0:2|1:1,0:2:0:0:
141,45,143672,1,8,0:2:0:0:
385,167,143822,2,0,L|481:182,1,97.9999970092774,2|0,0:1|1:2,0:2:0:0:
346,15,144122,5,2,1:1:0:0:
228,250,144272,2,0,P|186:192|226:96,1,146.999995513916,10|0,0:2|0:2,0:2:0:0:
238,29,144572,2,0,L|141:46,1,97.9999970092774,6|0,1:2|1:2,0:2:0:0:
385,167,144872,1,8,0:2:0:0:
238,345,145022,2,0,L|144:320,1,97.9999970092774,2|0,0:2|1:2,0:2:0:0:
297,185,145322,1,0,1:2:0:0:
416,372,145472,2,0,B|444:335|444:335|440:283,1,97.9999970092774,10|0,0:2|0:2,0:2:0:0:
186,116,145772,5,14,0:2:0:0:
321,318,145922,1,0,1:2:0:0:
338,37,146072,5,14,0:2:0:0:
221,230,146222,1,0,1:2:0:0:
234,0,146372,5,8,0:2:0:0:
234,0,146447,1,8,0:2:0:0:
234,0,146522,2,8,L|242:48,1,48.9999985046387,8|8,0:2|0:2,0:2:0:0:
319,225,146672,2,8,L|327:176,1,48.9999985046387,8|8,0:2|0:2,0:2:0:0:
47,80,146822,6,0,P|120:142|216:145,1,195.999994018555,6|0,1:1|1:2,0:2:0:0:
503,44,147272,2,0,L|391:81,1,97.9999970092774,8|0,0:2|0:2,0:2:0:0:
250,276,147572,1,12,1:3:0:0:
308,49,147722,1,12,1:3:0:0:
250,276,147872,1,12,1:3:0:0:
222,3,148022,6,0,P|279:80|278:176,1,195.999994018555,12|0,1:2|1:2,0:2:0:0:
99,332,148472,2,0,L|122:236,1,97.9999970092774,8|0,0:2|0:2,0:2:0:0:
510,249,148772,1,8,0:2:0:0:
510,249,148847,1,8,0:2:0:0:
510,249,148922,2,8,L|436:266,1,48.9999985046387,8|8,0:2|0:2,0:2:0:0:
394,161,149072,2,8,L|346:150,1,48.9999985046387,8|8,0:2|0:2,0:2:0:0:
206,286,149222,6,0,P|300:304|382:254,1,195.999994018555,6|0,1:2|1:2,0:2:0:0:
223,95,149672,2,0,L|245:-4,1,97.9999970092774,8|0,0:2|0:2,0:2:0:0:
381,78,149972,1,12,1:3:0:0:
146,174,150122,1,12,1:3:0:0:
381,78,150272,1,12,1:3:0:0:
83,72,150422,6,0,L|132:281,1,195.999994018555,4|8,1:2|0:3,0:2:0:0:
208,285,150797,1,8,0:3:0:0:
222,277,150872,2,0,L|204:380,1,97.9999970092774,8|4,0:3|0:3,0:2:0:0:
5,173,151172,5,14,0:2:0:0:
223,127,151322,1,0,1:2:0:0:
127,262,151472,1,8,0:2:0:0:
228,36,151622,6,0,P|300:34|359:76,1,146.999995513916,6|0,1:2|0:2,0:2:0:0:
359,96,151922,1,8,0:0:0:0:
365,146,151997,1,8,0:2:0:0:
400,182,152072,1,8,0:2:0:0:
448,189,152147,1,8,0:2:0:0:
484,168,152222,2,0,P|490:142|499:110,1,48.9999985046387,0|0,1:2|1:2,0:2:0:0:
417,1,152372,5,8,3:1:0:0:
274,193,152522,1,8,3:1:0:0:
417,1,152672,1,8,3:1:0:0:
355,263,152822,6,0,P|425:350|521:346,1,195.999994018555,4|8,1:2|0:3,0:2:0:0:
512,269,153197,1,8,0:3:0:0:
499,267,153272,2,0,P|447:282|406:297,1,97.9999970092775,8|4,0:3|0:3,0:2:0:0:
92,249,153572,5,12,1:3:0:0:
343,171,153722,1,12,1:3:0:0:
267,360,153872,1,12,1:3:0:0:
192,197,154022,6,0,B|198:108|198:108|224:73|224:73|232:1,1,195.999994018555,6|8,1:2|0:2,0:2:0:0:
324,56,154397,1,8,0:2:0:0:
335,62,154472,2,0,L|240:88,1,97.9999970092774,8|4,0:2|0:3,0:2:0:0:
85,163,154772,5,8,3:1:0:0:
335,225,154922,1,8,3:1:0:0:
85,163,155072,1,8,3:1:0:0:
277,284,155222,6,0,B|349:263|349:263|388:234|388:234|496:209,1,195.999994018555,6|8,1:1|0:2,0:2:0:0:
477,231,155597,1,8,0:2:0:0:
498,267,155672,1,8,0:2:0:0:
491,325,155747,1,8,0:2:0:0:
451,359,155822,1,8,0:2:0:0:
402,367,155897,1,8,0:2:0:0:
362,350,155972,6,8,L|345:275,1,48.9999985046387,8|8,0:3|0:3,0:3:0:0:
249,204,156122,6,8,L|259:156,1,48.9999985046387,8|8,0:2|0:2,0:2:0:0:
439,142,156272,6,8,L|428:94,1,48.9999985046387,8|8,0:2|0:2,0:2:0:0:
328,0,156422,6,0,B|347:67|347:67|332:117|332:117|358:216,1,195.999994018555,6|0,1:1|1:2,0:2:0:0:
133,377,156872,2,0,L|154:281,1,97.9999970092774,10|0,0:2|1:2,0:2:0:0:
404,249,157172,5,8,0:2:0:0:
173,118,157322,1,0,1:2:0:0:
415,129,157472,5,8,0:2:0:0:
154,281,157622,2,0,L|44:255,1,97.9999970092774,2|8,1:1|0:2,0:2:0:0:
224,25,157922,5,0,1:2:0:0:
284,262,158072,2,0,L|270:359,1,97.9999970092774,10|0,0:2|1:2,0:2:0:0:
58,258,158372,5,8,0:2:0:0:
327,149,158522,1,0,1:2:0:0:
270,358,158672,5,8,1:3:0:0:
132,151,158822,1,4,1:3:0:0:
444,76,158972,6,0,P|507:166|465:282,1,195.999994018555,14|0,1:1|1:2,0:2:0:0:
218,94,159422,2,0,L|251:-16,1,97.9999970092774,14|0,1:1|1:2,0:2:0:0:
417,206,159722,1,0,1:2:0:0:
132,212,159872,2,0,L|37:238,1,97.9999970092774,14|0,1:1|0:2,0:2:0:0:
362,101,160172,5,0,1:2:0:0:
245,384,160322,2,0,B|249:306|249:306|275:268|275:268|284:178,1,195.999994018555,14|0,1:1|1:2,0:2:0:0:
27,129,160772,1,12,1:3:0:0:
27,129,160847,1,12,1:3:0:0:
27,129,160922,1,12,1:3:0:0:
110,25,161072,2,0,P|189:24|232:59,1,130.666662679037,14|0,0:2|0:2,0:2:0:0:
227,53,161372,6,0,L|242:116,1,65.3333313395183,12|0,3:3|3:2,3:2:0:0:
122,192,161572,6,0,L|195:219,1,65.3333313395183,12|0,3:3|3:2,3:2:0:0:
191,349,161772,6,0,L|262:325,1,65.3333313395183,12|0,3:3|3:2,3:2:0:0:
379,384,161972,6,0,L|387:312,1,65.3333313395183,12|0,3:3|3:2,3:2:0:0:
248,310,162172,6,0,L|186:330,1,65.3333313395183,12|0,3:3|3:2,3:2:0:0:
185,201,162372,6,0,L|123:178,1,65.3333313395183,12|0,3:3|3:2,3:2:0:0:
241,43,162572,6,0,L|256:106,1,65.3333313395183,12|0,3:3|3:2,3:2:0:0:
122,192,162772,6,0,L|183:214,1,65.3333313395183,12|0,3:3|3:2,3:2:0:0:
191,349,162972,6,0,L|252:328,1,65.3333313395183,12|0,3:3|3:2,3:2:0:0:
368,384,163172,6,0,L|376:312,1,65.3333313395183,12|0,3:3|3:2,3:2:0:0:
512,255,163372,6,0,L|448:228,1,65.3333313395183,12|0,3:3|3:2,3:2:0:0:
478,69,163572,6,0,L|416:91,1,65.3333313395183,12|0,3:3|3:2,3:2:0:0:
309,174,163772,6,0,B|274:219|274:219|319:256|319:256|353:209|353:209|314:177,1,224,6|0,1:1|0:2,0:2:0:0:
309,174,165572,5,8,0:2:0:0:
265,155,165647,1,8,0:2:0:0:
217,153,165722,1,8,0:2:0:0:
174,172,165797,1,8,0:2:0:0:
139,201,165872,1,8,0:2:0:0:
120,244,165947,1,8,0:2:0:0:
121,290,166022,1,10,1:2:0:0:
446,342,167372,5,8,1:2:0:0:
407,321,167447,1,8,1:2:0:0:
403,281,167522,1,8,1:2:0:0:
436,256,167597,1,8,1:2:0:0:
452,212,167672,1,8,1:2:0:0:
428,174,167747,1,8,1:2:0:0:
388,159,167822,1,8,1:2:0:0:
345,175,167897,1,8,1:2:0:0:
316,205,167972,1,8,1:2:0:0:
270,207,168047,1,8,1:2:0:0:
226,177,168122,1,8,1:2:0:0:
220,131,168197,1,8,1:2:0:0:
248,85,168272,1,8,1:2:0:0:
227,39,168347,1,8,1:2:0:0:
177,32,168422,1,8,1:2:0:0:
138,70,168497,1,8,1:2:0:0:
135,113,168572,6,0,B|158:194|163:297|163:297|82:274|16:318|16:318|34:258|69:234|69:234|82:302|119:369|119:369|186:391|240:353,1,692.999978851319,4|0,1:1|0:2,0:2:0:0:
426,251,170372,2,0,B|387:260|348:235|348:235|299:257|286:295,1,168,4|0,1:1|2:2,0:2:0:0:
512,347,170972,2,0,B|450:344|438:268|438:268|472:237|511:214|511:214|524:145|421:77|421:77|385:149|314:153|314:153|269:88|301:48,1,616,4|0,1:1|0:2,0:2:0:0:
355,0,172772,2,0,B|406:-3|443:56|443:56|509:44,1,168,4|0,1:1|2:2,0:2:0:0:
289,70,173372,6,0,L|219:84,1,56,6|0,1:2|1:2,0:2:0:0:
102,216,173672,2,0,L|124:106,2,112,2|2|2,0:3|0:3|0:3,0:2:0:0:
458,235,174572,2,0,L|511:251,1,56,2|0,1:3|1:2,0:2:0:0:
399,374,174872,1,2,0:3:0:0:
329,338,175022,2,0,L|319:273,1,56,2|2,1:2|0:3,0:2:0:0:
347,199,175322,2,0,L|337:134,2,56,2|2|2,1:2|0:3|0:2,0:2:0:0:
114,335,175772,6,0,L|51:344,1,56,2|2,1:3|1:2,0:2:0:0:
101,239,176072,1,2,0:3:0:0:
193,273,176222,2,0,L|212:339,1,56,2|2,0:2|1:3,0:2:0:0:
162,168,176522,2,0,L|170:110,2,56,2|2|2,1:2|0:3|0:2,0:2:0:0:
425,313,176972,5,2,1:3:0:0:
378,375,177122,1,2,1:2:0:0:
385,211,177272,5,2,1:3:0:0:
331,286,177422,1,2,0:2:0:0:
353,76,177572,5,2,1:3:0:0:
267,196,177722,1,2,0:2:0:0:
443,72,177872,5,2,0:3:0:0:
462,32,177972,5,2,0:3:0:0:
423,14,178072,5,2,0:3:0:0:
435,0,178172,5,2,0:2:0:0:
