osu file format v14

[General]
AudioFilename: audio.mp3
AudioLeadIn: 0
PreviewTime: 173132
Countdown: 0
SampleSet: Normal
StackLeniency: 0.7
Mode: 1
LetterboxInBreaks: 0
EpilepsyWarning: 1
WidescreenStoryboard: 1

[Editor]
Bookmarks: 13492,22283,25771,31213,44608,49073,58003,66934,84934,89399,98190,107120,116050,120655,124841,131817,133910,158608,169073,175073
DistanceSpacing: 2.1
BeatDivisor: 8
GridSize: 32
TimelineZoom: 2.380001

[Metadata]
Title:Tenohira de odoru
TitleUnicode:掌で踊る
Artist:sokoninaru
ArtistUnicode:そこに鳴る
Creator:krytwal
Version:Identity
Source:
Tags:metal jmetal j-metal rock j-rock jrock progressive heavy heavy-rock heavyrock japanese male vocals 鈴木重厚 Juko Suzuki 藤原美咲 Misaki Fujiwara koga records ゼロ zero Capu spencer1404
BeatmapID:3426282
BeatmapSetID:1676940

[Difficulty]
HPDrainRate:5.5
CircleSize:5
OverallDifficulty:7
ApproachRate:5
SliderMultiplier:1.4
SliderTickRate:1

[Events]
//Background and Video events
0,0,"bg.jpg",0,145
//Break Periods
2,306,3231
2,26957,29603
2,82910,83742
2,87235,87928
2,129514,130626
2,158816,159509
//Storyboard Layer 0 (Background)
//Storyboard Layer 1 (Fail)
//Storyboard Layer 2 (Pass)
//Storyboard Layer 3 (Foreground)
//Storyboard Layer 4 (Overlay)
//Storyboard Sound Samples

[TimingPoints]
106,279.06976744186,4,1,0,75,1,0
106,-142.857142857143,4,1,0,75,0,0
132,-142.857142857143,4,1,0,30,0,0
4423,-111.111111111111,4,1,0,75,0,0
5260,-142.857142857143,4,1,0,75,0,0
6795,-111.111111111111,4,1,0,75,0,0
7493,-142.857142857143,4,1,0,75,0,0
7562,-141.019751952228,4,1,0,75,0,0
7631,-139.254286491881,4,1,0,75,0,0
7771,-135.804653631779,4,1,0,75,0,0
7910,-132.54468526034,4,1,0,75,0,0
8050,-129.415732231684,4,1,0,75,0,0
8120,-127.906007832681,4,1,0,75,0,0
8190,-126.431101227247,4,1,0,75,0,0
8329,-123.600934052661,4,1,0,75,0,0
8469,-120.875659500748,4,1,0,75,0,0
8538,-119.576224974683,4,1,0,75,0,0
8608,-118.286198659166,4,1,0,75,0,0
8748,-115.78788564532,4,1,0,75,0,0
8887,-113.409678611009,4,1,0,75,0,0
9028,-111.111111111111,4,1,0,85,0,0
11259,-111.111111111111,4,1,0,85,0,0
11329,-110.550954267195,4,1,0,85,0,0
11399,-109.996417054819,4,1,0,85,0,0
11538,-108.911593585923,4,1,0,85,0,0
11678,-107.840382183504,4,1,0,85,0,0
11748,-107.312639821029,4,1,0,85,0,0
11817,-106.797467473735,4,1,0,85,0,0
11957,-105.767243161304,4,1,0,85,0,0
12096,-104.763854763855,4,1,0,85,0,0
12166,-104.265724765657,4,1,0,85,0,0
12236,-103.772309356409,4,1,0,85,0,0
12376,-102.799357085454,4,1,0,85,0,0
12445,-102.326511565896,4,1,0,85,0,0
12515,-101.851237475947,4,1,0,85,0,0
12585,-101.38035796843,4,1,0,85,0,0
12655,-100.913812372625,4,1,0,85,0,0
12794,-100,4,1,0,85,0,0
13214,-133.333333333333,4,1,0,85,0,0
13501,-86.7678958785249,4,1,0,100,0,1
13632,-90.9090909090909,4,1,0,100,0,1
15725,-86.7678958785249,4,1,0,100,0,1
15865,-90.9090909090909,4,1,0,100,0,1
17958,-86.7678958785249,4,1,0,100,0,1
18097,-90.9090909090909,4,1,0,100,0,1
20190,-86.9565217391304,4,1,0,100,0,1
20329,-89.7471264367816,4,1,0,100,0,1
20399,-89.1731384193696,4,1,0,100,0,1
20469,-88.6064457557876,4,1,0,100,0,1
20538,-88.0548538433778,4,1,0,100,0,1
20608,-87.5022413483952,4,1,0,100,0,1
20678,-86.9565217391304,4,1,0,100,0,1
20748,-86.4175668496547,4,1,0,100,0,1
20817,-85.8928099973598,4,1,0,100,0,1
20887,-85.3669203183766,4,1,0,100,0,1
20957,-84.8474311049291,4,1,0,100,0,1
21027,-84.3342262161929,4,1,0,84,0,1
21175,-83.3333333333333,4,1,0,84,0,0
21446,-84.0336134453782,4,1,0,84,0,0
21725,-84.7457627118644,4,1,0,84,0,0
22004,-85.4700854700855,4,1,0,84,0,0
22292,-79.6812749003984,4,1,0,100,0,1
22423,-100,4,1,0,100,0,1
23679,-102.30179028133,4,1,0,100,0,1
23818,-104.166666666667,4,1,0,100,0,1
23958,-106.382978723404,4,1,0,100,0,1
24237,-108.40108401084,4,1,0,100,0,1
24516,-86.9565217391304,4,1,0,100,0,1
24656,-91.3242007858577,4,1,0,100,0,1
24934,-90.9090909090909,4,1,0,100,0,1
25003,-90.2328589909444,4,1,0,100,0,1
25073,-89.5570297453456,4,1,0,100,0,1
25143,-88.8912489379779,4,1,0,100,0,1
25213,-88.2352941176471,4,1,0,100,0,1
25283,-87.588949351193,4,1,0,100,0,1
25352,-86.961038961039,4,1,0,100,0,1
25422,-86.3331614234141,4,1,0,100,0,1
25492,-85.7142857142857,4,1,0,100,0,1
25562,-85.1042196237926,4,1,0,100,0,1
25631,-84.5113085621971,4,1,0,100,0,1
25701,-83.9181872869461,4,1,0,100,0,1
25780,-83.3333333333333,4,1,0,100,0,0
26051,-99.9999999254942,4,1,0,60,0,0
26370,-105.263157812182,4,1,0,60,0,0
26470,-93.0232558139535,4,1,0,60,0,0
26749,-86.9565217391304,4,1,0,80,0,0
26888,-99.7506237342284,4,1,0,30,0,0
28004,-110.803324643991,4,1,0,30,0,0
29121,-124.610592820056,4,1,0,30,0,0
30237,-142.348755950574,4,1,0,30,0,0
30795,-143.369177304173,4,1,0,70,0,0
31214,-91.1161731207289,4,1,0,85,0,0
31353,-100,4,1,0,85,0,0
33446,-91.1161731207289,4,1,0,85,0,0
33586,-100,4,1,0,85,0,0
34701,-100,4,1,0,85,0,0
34771,-101.013024602026,4,1,0,85,0,0
34841,-102.046783625731,4,1,0,85,0,0
34910,-103.086693250628,4,1,0,85,0,0
34980,-104.163557677958,4,1,0,85,0,0
35050,-105.263157894737,4,1,0,85,0,0
35120,-106.386221612559,4,1,0,85,0,0
35190,-107.533507934063,4,1,0,85,0,0
35259,-108.688881968234,4,1,0,85,0,0
35399,-111.111111111111,4,1,0,85,0,0
35679,-91.1161731207289,4,1,0,85,0,0
35818,-100,4,1,0,85,0,0
35957,-100,4,1,0,85,0,0
40144,-91.1161731207289,4,1,0,85,0,0
40284,-100,4,1,0,85,0,0
42377,-91.1161731207289,4,1,0,85,0,0
42516,-100,4,1,0,85,0,0
43633,-99.009900990099,4,1,0,85,0,0
43703,-98.0337078651684,4,1,0,85,0,0
43772,-97.0927806370848,4,1,0,85,0,0
43842,-96.1564953850392,4,1,0,85,0,0
43912,-95.2380952380954,4,1,0,85,0,0
43982,-94.3370725773749,4,1,0,85,0,0
44051,-93.4529388137638,4,1,0,85,0,0
44121,-92.5975059697532,4,1,0,85,0,0
44191,-91.7455310199789,4,1,0,85,0,0
44329,-93.0232558139535,4,1,0,85,0,0
44609,-90.7029478458049,4,1,0,85,0,0
44749,-100.000000298023,4,1,0,30,0,0
45865,-110.497238105777,4,1,0,30,0,0
46981,-125.000000931323,4,1,0,30,0,0
48097,-142.857144377669,4,1,0,30,0,0
49039,-91.1161732475335,4,1,0,85,0,0
49214,-100.250626869679,4,1,0,85,0,0
50191,-91.3242007920716,4,1,0,85,0,0
50329,-100,4,1,0,85,0,0
50470,-101.444756262343,4,1,0,85,0,0
50609,-102.188252539001,4,1,0,85,0,0
50679,-102.942727560384,4,1,0,85,0,0
50748,-103.697407564811,4,1,0,85,0,0
50888,-105.577430660724,4,1,0,85,0,0
51027,-106.865214058907,4,1,0,85,0,0
51097,-107.690610173232,4,1,0,85,0,0
51167,-108.528855776715,4,1,0,85,0,0
51237,-109.380253278046,4,1,0,85,0,0
51307,-110.245114650401,4,1,0,85,0,0
51376,-111.111111111111,4,1,0,85,0,0
51446,-112.359550561798,4,1,0,40,0,0
52004,-113.636363636364,4,1,0,40,0,0
52144,-114.942528735632,4,1,0,40,0,0
52423,-116.279069767442,4,1,0,40,0,0
52563,-117.647058823529,4,1,0,40,0,0
52841,-119.047619047619,4,1,0,40,0,0
52981,-120.845921450151,4,1,0,40,0,0
53121,-100.250626566416,4,1,0,85,0,0
53539,-90.7029479040364,4,1,0,85,0,0
53679,-99.5024878498777,4,1,0,85,0,0
53818,-100.071994240461,4,1,0,85,0,0
55772,-90.7029478488698,4,1,0,85,0,0
55911,-100.000000074506,4,1,0,85,0,0
56190,-89.2857142857143,4,1,0,85,0,0
56259,-90.0813638124758,4,1,0,85,0,0
56329,-90.9031669490421,4,1,0,85,0,0
56399,-91.7401025910825,4,1,0,85,0,0
56469,-92.5925925925926,4,1,0,85,0,0
56538,-93.4485530546624,4,1,0,85,0,0
56608,-94.3332431701379,4,1,0,85,0,0
56678,-95.2348443473512,4,1,0,85,0,0
56748,-96.1538461538461,4,1,0,85,0,0
56818,-97.0907572383073,4,1,0,85,0,0
56887,-98.0323260716795,4,1,0,85,0,0
56957,-99.0063875088715,4,1,0,85,0,0
57027,-100,4,1,0,85,0,0
57098,-100,4,1,0,30,0,0
58012,-80.1603205958013,4,1,0,100,0,1
58144,-90.0900900900901,4,1,0,100,0,1
58283,-90.9090909090909,4,1,0,100,0,1
58422,-88.928790563136,4,1,0,100,0,1
58492,-87.9638265840977,4,1,0,100,0,1
58562,-87.0195794053662,4,1,0,100,0,1
58631,-86.108453442795,4,1,0,100,0,1
58701,-85.2034142443414,4,1,0,100,0,1
58771,-84.3172019180401,4,1,0,100,0,1
58841,-83.4492350486787,4,1,0,100,0,1
58980,-81.7776127678595,4,1,0,100,0,1
59121,-80.1603206412826,4,1,0,100,0,1
59260,-90.0900900900901,4,1,0,100,0,1
59399,-90.9090909090909,4,1,0,100,0,1
59538,-88.928790563136,4,1,0,100,0,1
59608,-87.9638265840977,4,1,0,100,0,1
59678,-87.0195794053662,4,1,0,100,0,1
59748,-86.0953889593207,4,1,0,100,0,1
59817,-85.2034142443414,4,1,0,100,0,1
59887,-84.3172019180401,4,1,0,100,0,1
59957,-83.4492350486787,4,1,0,100,0,1
60096,-81.7776127678595,4,1,0,100,0,1
60236,-80.1603206412826,4,1,0,100,0,1
60376,-90.0900900900901,4,1,0,100,0,1
60515,-91.0643141718839,4,1,0,100,0,1
60655,-91.066387396412,4,1,0,100,0,1
60724,-90.2374241138219,4,1,0,100,0,1
60794,-89.4117272780684,4,1,0,100,0,1
60864,-88.6010041277644,4,1,0,100,0,1
60934,-87.8048510101589,4,1,0,100,0,1
61003,-87.0339516073747,4,1,0,100,0,1
61073,-86.2655898443741,4,1,0,100,0,1
61143,-85.5106760140346,4,1,0,100,0,1
61213,-84.7688601288268,4,1,0,100,0,1
61288,-84.0398042415142,4,1,0,100,0,1
61361,-83.3333333333333,4,1,0,84,0,0
61493,-84.7457627118644,4,1,0,84,0,0
61632,-86.2068965517241,4,1,0,84,0,0
61911,-89.2857142857143,4,1,0,84,0,0
62191,-92.5925925925926,4,1,0,84,0,0
62478,-83.3333333333333,4,1,0,90,0,1
62608,-90.9090909090909,4,1,0,90,0,1
65966,-90.9090909090909,4,1,0,90,0,0
66096,-92.5852235044435,4,1,0,60,0,0
66166,-93.4529388137636,4,1,0,60,0,0
66236,-94.3370725773753,4,1,0,60,0,0
66376,-96.1564953850393,4,1,0,60,0,0
66655,-100,4,1,0,60,0,0
66943,-80.1603205958013,4,1,0,100,0,1
67074,-90.0900900900901,4,1,0,100,0,1
67144,-90.9090909090909,4,1,0,100,0,1
67353,-88.928790563136,4,1,0,100,0,1
67423,-87.9638265840977,4,1,0,100,0,1
67493,-87.0195794053662,4,1,0,100,0,1
67562,-86.108453442795,4,1,0,100,0,1
67632,-85.2034142443414,4,1,0,100,0,1
67702,-84.3172019180401,4,1,0,100,0,1
67772,-83.4492350486787,4,1,0,100,0,1
67911,-81.7776127678595,4,1,0,100,0,1
68051,-80.1603206412826,4,1,0,100,0,1
68191,-90.0900900900901,4,1,0,100,0,1
68330,-90.9090909090909,4,1,0,100,0,1
68469,-88.928790563136,4,1,0,100,0,1
68539,-87.9638265840977,4,1,0,100,0,1
68609,-87.0195794053662,4,1,0,100,0,1
68679,-86.0953889593207,4,1,0,100,0,1
68748,-85.2034142443414,4,1,0,100,0,1
68818,-84.3172019180401,4,1,0,100,0,1
68888,-83.4492350486787,4,1,0,100,0,1
69027,-81.7776127678595,4,1,0,100,0,1
69167,-80.1603206412826,4,1,0,100,0,1
69307,-90.0900900900901,4,1,0,100,0,1
69446,-91.0643141718839,4,1,0,100,0,1
69586,-91.066387396412,4,1,0,100,0,1
69655,-90.2374241138219,4,1,0,100,0,1
69725,-89.4117272780684,4,1,0,100,0,1
69795,-88.6010041277644,4,1,0,100,0,1
69865,-87.8048510101589,4,1,0,100,0,1
69934,-87.0339516073747,4,1,0,100,0,1
70004,-86.2655898443741,4,1,0,100,0,1
70074,-85.5106760140346,4,1,0,100,0,1
70144,-84.7688601288268,4,1,0,100,0,1
70214,-84.0398042415142,4,1,0,100,0,1
70292,-83.3333333333333,4,1,0,84,0,0
70423,-84.7457627118644,4,1,0,84,0,0
70562,-86.2068965517241,4,1,0,84,0,0
70841,-89.2857142857143,4,1,0,84,0,0
71121,-92.5925925925926,4,1,0,84,0,0
71408,-83.3333333333333,4,1,0,90,0,1
71541,-90.9090909090909,4,1,0,90,0,1
74896,-90.9090909090909,4,1,0,90,0,0
75029,-92.5852235044435,4,1,0,60,0,0
75099,-93.4529388137636,4,1,0,60,0,0
75169,-94.3370725773753,4,1,0,60,0,0
75309,-96.1564953850393,4,1,0,60,0,0
75588,-100,4,1,0,60,0,0
75873,-83.3333333333333,4,1,0,100,0,1
76006,-84.8421692501411,4,1,0,100,0,1
76146,-86.4181150767326,4,1,0,100,0,1
76286,-88.0537154702357,4,1,0,100,0,1
76425,-89.7400569486544,4,1,0,100,0,1
76495,-90.6139862734187,4,1,0,100,0,1
76565,-91.5051044300834,4,1,0,100,0,1
76634,-92.4008133541401,4,1,0,100,0,1
76704,-93.3276018531786,4,1,0,100,0,1
76774,-94.2731702610122,4,1,0,100,0,1
76844,-95.2380952380952,4,1,0,100,0,1
76984,-83.3333333333333,4,1,0,100,0,1
77122,-84.8421692501411,4,1,0,100,0,1
77262,-86.4181150767326,4,1,0,100,0,1
77402,-88.0537154702357,4,1,0,100,0,1
77541,-89.7400569486544,4,1,0,100,0,1
77611,-90.6139862734187,4,1,0,100,0,1
77681,-91.5051044300834,4,1,0,100,0,1
77750,-92.4008133541401,4,1,0,100,0,1
77820,-93.3276018531786,4,1,0,100,0,1
77890,-94.2731702610122,4,1,0,100,0,1
77960,-95.2380952380952,4,1,0,100,0,1
78100,-83.3333333333333,4,1,0,100,0,1
78239,-84.8421692501411,4,1,0,100,0,1
78379,-86.4181150767326,4,1,0,100,0,1
78519,-88.0537154702357,4,1,0,100,0,1
78658,-89.7400569486544,4,1,0,100,0,1
78728,-90.6139862734187,4,1,0,100,0,1
78798,-91.5051044300834,4,1,0,100,0,1
78867,-92.4008133541401,4,1,0,100,0,1
78937,-93.3276018531786,4,1,0,100,0,1
79007,-94.2731702610122,4,1,0,100,0,1
79077,-95.2380952380952,4,1,0,100,0,1
79217,-83.3333333333333,4,1,0,100,0,1
79356,-84.8421692501411,4,1,0,100,0,1
79495,-91.743119266055,4,1,0,100,0,1
79634,-92.2636896249481,4,1,0,100,0,1
79704,-93.1662551823729,4,1,0,100,0,1
79774,-94.0866538081573,4,1,0,100,0,1
79844,-95.0254192996626,4,1,0,100,0,1
79913,-95.9692898272553,4,1,0,100,0,1
79983,-96.9461948618517,4,1,0,100,0,1
80053,-97.9431929480901,4,1,0,100,0,1
80123,-98.9609104403761,4,1,0,100,0,1
80193,-100,4,1,0,100,0,1
80473,-80.1603205958013,4,1,0,100,0,1
80670,279.06976744186,4,1,0,100,1,9
80670,-80.1603205958013,4,1,0,100,0,1
81062,279.06976744186,4,1,0,100,1,9
81062,-80.1603205958013,4,1,0,100,0,1
81234,279.06976744186,4,1,0,100,1,9
81234,-80.1603205958013,4,1,0,100,0,1
81411,279.06976744186,4,1,0,100,1,9
81411,-80.1603205958013,4,1,0,100,0,1
81597,279.06976744186,4,1,0,100,1,1
81597,-80.1603205958013,4,1,0,100,0,1
81776,279.06976744186,4,1,0,100,1,9
81776,-80.1603205958013,4,1,0,100,0,1
81965,279.06976744186,4,1,0,100,1,9
81965,-80.1603205958013,4,1,0,100,0,1
82144,279.06976744186,4,1,0,100,1,9
82144,-80.1603205958013,4,1,0,100,0,1
82323,279.06976744186,4,1,0,100,1,9
82323,-80.1603205958013,4,1,0,100,0,1
82496,279.06976744186,4,1,0,100,1,9
82496,-80.1603205958013,4,1,0,100,0,1
82710,279.06976744186,4,1,0,100,1,0
82710,-80,4,1,0,100,0,0
82807,-100,4,1,0,60,0,0
83818,-100.000000298023,4,1,0,60,0,0
84935,-66.5557406933407,4,1,0,70,0,0
86051,-142.348755950574,4,1,0,60,0,0
87167,-167.36401925119,4,1,0,30,0,0
88284,-201.005029355043,4,1,0,30,0,0
89124,-133.333333333333,4,1,0,70,0,0
89407,-87.1459694989107,4,1,0,100,0,1
89539,-90.9090909090909,4,1,0,100,0,1
91632,-86.7678958785249,4,1,0,100,0,1
91772,-90.9090909090909,4,1,0,100,0,1
93865,-86.7678958785249,4,1,0,100,0,1
94004,-90.9090909090909,4,1,0,100,0,1
96097,-86.9565217391304,4,1,0,100,0,1
96236,-89.7471264367816,4,1,0,100,0,1
96306,-89.1731384193696,4,1,0,100,0,1
96376,-88.6064457557876,4,1,0,100,0,1
96445,-88.0548538433778,4,1,0,100,0,1
96515,-87.5022413483952,4,1,0,100,0,1
96585,-86.9565217391304,4,1,0,100,0,1
96655,-86.4175668496547,4,1,0,100,0,1
96725,-85.8928099973598,4,1,0,100,0,1
96794,-85.3669203183766,4,1,0,100,0,1
96865,-84.8474311049291,4,1,0,100,0,1
96934,-84.3342262161929,4,1,0,100,0,1
97082,-83.3333333333333,4,1,0,100,0,0
97214,-99.9522900763359,4,1,0,60,0,0
97771,-83.3333333333333,4,1,0,80,0,0
98330,-90.4977376724973,4,1,0,80,0,0
101678,-90.4977375565611,4,1,0,80,0,0
101748,-89.9437046311342,4,1,0,80,0,0
101817,-89.4041856166327,4,1,0,80,0,0
101887,-88.8634213781561,4,1,0,80,0,0
101957,-88.3291594716524,4,1,0,80,0,0
102027,-87.8012833186549,4,1,0,80,0,0
102096,-87.2870869609888,4,1,0,80,0,0
102166,-86.7715563371213,4,1,0,80,0,0
102236,-86.262079560655,4,1,0,80,0,0
102306,-85.7585506190503,4,1,0,80,0,0
102376,-85.2608659606683,4,1,0,80,0,0
102445,-84.7759121870797,4,1,0,80,0,0
102515,-84.2895349840393,4,1,0,80,0,0
102585,-83.8087068410894,4,1,0,80,0,0
102655,-83.3333333333333,4,1,0,80,0,0
102795,-86.5800866303519,4,1,0,80,0,0
103074,-91.1161731207289,4,1,0,80,0,0
103143,-91.7982084543189,4,1,0,80,0,0
103213,-92.4905313232942,4,1,0,80,0,0
103283,-93.1933762557306,4,1,0,80,0,0
103352,-93.8967136150235,4,1,0,80,0,0
103422,-94.6211761513939,4,1,0,80,0,0
103492,-95.3569048310747,4,1,0,80,0,0
103562,-96.1041645137956,4,1,0,80,0,0
103631,-96.8523002421308,4,1,0,80,0,0
103701,-97.6232756282968,4,1,0,80,0,0
103771,-98.4066239297398,4,1,0,80,0,0
103841,-99.2026454038774,4,1,0,80,0,0
103910,-100,4,1,0,80,0,0
104469,-100,4,1,0,80,0,0
104538,-98.3760884914097,4,1,0,80,0,0
104608,-96.7816624218569,4,1,0,80,0,0
104678,-95.2380952380952,4,1,0,80,0,0
104748,-93.7429917021754,4,1,0,80,0,0
104817,-92.3144876325088,4,1,0,80,0,0
104887,-90.9090909090909,4,1,0,80,0,0
106144,-101.522842816216,4,1,0,30,0,0
106423,-110.803324643991,4,1,0,30,0,0
106702,-116.618076495834,4,1,0,30,0,0
107121,-83.3333333333333,4,1,0,80,0,0
107265,-90.9090909090909,4,1,0,80,0,0
107544,-83.3333333333333,4,1,0,80,0,0
107818,-90.9090909090909,4,1,0,80,0,0
107887,-91.745531019979,4,1,0,80,0,0
107957,-92.5975059697532,4,1,0,80,0,0
108027,-93.4654525977504,4,1,0,80,0,0
108096,-94.3370725773753,4,1,0,80,0,0
108166,-95.2380952380952,4,1,0,80,0,0
108237,-83.5073068893528,4,1,0,80,0,0
108377,-90.9090909090909,4,1,0,80,0,0
108656,-83.5073068893528,4,1,0,80,0,0
108935,-90.9090909090909,4,1,0,80,0,0
109004,-91.745531019979,4,1,0,80,0,0
109074,-92.5975059697532,4,1,0,80,0,0
109144,-93.4654525977504,4,1,0,80,0,0
109213,-94.3370725773753,4,1,0,80,0,0
109283,-95.2380952380952,4,1,0,80,0,0
109353,-83.3333333333333,4,1,0,80,0,0
109493,-90.9090909090909,4,1,0,80,0,0
109772,-83.3333333333333,4,1,0,80,0,0
110050,-100,4,1,0,80,0,0
110120,-101.013758146271,4,1,0,80,0,0
110190,-102.048280907096,4,1,0,80,0,0
110259,-103.088974283181,4,1,0,80,0,0
110329,-104.166666666667,4,1,0,80,0,0
110399,-105.267129489888,4,1,0,80,0,0
110469,-106.391092129347,4,1,0,80,0,0
110538,-107.522737783259,4,1,0,80,0,0
110608,-108.695652173913,4,1,0,80,0,0
111585,-86.9565217391304,4,1,0,80,0,0
111655,-88.2415030610091,4,1,0,80,0,0
111724,-89.5458440445587,4,1,0,80,0,0
111794,-90.9090909090909,4,1,0,80,0,0
111864,-92.3144876325088,4,1,0,80,0,0
111934,-93.7640197397936,4,1,0,80,0,0
112003,-95.2380952380952,4,1,0,80,0,0
112144,-97.5609756097561,4,1,0,80,0,0
112283,-100,4,1,0,80,0,0
112702,-86.9565217391304,4,1,0,80,0,0
112772,-88.2415030610091,4,1,0,80,0,0
112841,-89.5458440445587,4,1,0,80,0,0
112911,-90.9090909090909,4,1,0,80,0,0
112981,-92.3144876325088,4,1,0,80,0,0
113051,-93.7640197397936,4,1,0,80,0,0
113120,-95.2380952380952,4,1,0,80,0,0
113261,-97.5609756097561,4,1,0,80,0,0
113400,-100,4,1,0,80,0,0
113818,-86.9565217391304,4,1,0,80,0,0
113888,-88.2415030610091,4,1,0,80,0,0
113957,-89.5458440445587,4,1,0,80,0,0
114027,-90.9090909090909,4,1,0,80,0,0
114097,-92.3144876325088,4,1,0,80,0,0
114167,-93.7640197397936,4,1,0,80,0,0
114236,-95.2380952380952,4,1,0,80,0,0
114516,-49.9375780274657,4,1,0,80,0,0
115074,-100,4,1,0,80,0,0
115213,-98.0337078651685,4,1,0,80,0,0
115283,-97.0792767732962,4,1,0,80,0,0
115352,-96.1564953850393,4,1,0,80,0,0
115422,-95.2380952380952,4,1,0,80,0,0
115492,-94.3370725773753,4,1,0,80,0,0
115631,-92.5975059697532,4,1,0,80,0,0
115771,-90.9090909090909,4,1,0,80,0,0
116051,-83.6820082690702,4,1,0,80,0,0
116191,-110.497238105777,4,1,0,40,0,0
117307,-124.610592820056,4,1,0,40,0,0
118423,-141.843973115251,4,1,0,40,0,0
119539,-165.289258620638,4,1,0,40,0,0
120656,-142.857142857143,4,1,0,70,0,0
124981,-90.4977375565612,4,1,0,85,0,0
125120,-109.099610777127,4,1,0,85,0,0
125259,-107.746511139996,4,1,0,85,0,0
125329,-107.077722417541,4,1,0,85,0,0
125399,-106.417184898668,4,1,0,85,0,0
125469,-105.764746820311,4,1,0,85,0,0
125538,-105.129411764706,4,1,0,85,0,0
125608,-104.492621436423,4,1,0,85,0,0
125678,-103.863499000418,4,1,0,85,0,0
125748,-103.241906786515,4,1,0,85,0,0
125817,-102.636433177204,4,1,0,85,0,0
125887,-102.029398533499,4,1,0,85,0,0
125957,-101.429502182732,4,1,0,85,0,0
126096,-83.3468199341997,4,1,0,85,0,0
126236,-98.9618494089734,4,1,0,85,0,0
126376,-97.687254255501,4,1,0,85,0,0
126445,-97.0710633247779,4,1,0,85,0,0
126515,-96.4538349992939,4,1,0,85,0,0
126585,-95.8444063967725,4,1,0,85,0,0
126655,-95.2426306014572,4,1,0,85,0,0
126724,-94.6568016637205,4,1,0,85,0,0
126794,-94.0698009724086,4,1,0,85,0,0
126864,-93.490035813553,4,1,0,85,0,0
126934,-92.9173732258589,4,1,0,85,0,0
127003,-92.3597162669792,4,1,0,85,0,0
127073,-91.8007758646218,4,1,0,85,0,0
127214,-77.0712909441233,4,1,0,85,0,0
127352,-89.6897025613,4,1,0,85,0,0
127492,-88.6917960088692,4,1,0,85,0,0
127562,-88.2011238530297,4,1,0,85,0,0
127631,-87.7227458162696,4,1,0,85,0,0
127701,-87.2427082763311,4,1,0,85,0,0
127771,-86.767895878525,4,1,0,85,0,0
127841,-86.2982237722222,4,1,0,85,0,0
127910,-85.8402110623111,4,1,0,85,0,0
127980,-85.3805017252064,4,1,0,85,0,0
128050,-84.9256900212314,4,1,0,85,0,0
128120,-84.4756980977829,4,1,0,85,0,0
128190,-84.0304497436168,4,1,0,85,0,0
128330,-71.301247771836,4,1,0,85,0,0
128470,-76.7754319496387,4,1,0,85,0,0
129446,-132.890366626111,4,1,0,30,0,0
131818,-79.8403193114092,4,1,0,90,0,0
133919,-80.1603205958013,4,1,0,100,0,1
134051,-90.0900900900901,4,1,0,100,0,1
134190,-90.9090909090909,4,1,0,100,0,1
134329,-88.928790563136,4,1,0,100,0,1
134399,-87.9638265840977,4,1,0,100,0,1
134469,-87.0195794053662,4,1,0,100,0,1
134538,-86.108453442795,4,1,0,100,0,1
134608,-85.2034142443414,4,1,0,100,0,1
134678,-84.3172019180401,4,1,0,100,0,1
134748,-83.4492350486787,4,1,0,100,0,1
134887,-81.7776127678595,4,1,0,100,0,1
135028,-80.1603206412826,4,1,0,100,0,1
135167,-90.0900900900901,4,1,0,100,0,1
135306,-90.9090909090909,4,1,0,100,0,1
135445,-88.928790563136,4,1,0,100,0,1
135515,-87.9638265840977,4,1,0,100,0,1
135585,-87.0195794053662,4,1,0,100,0,1
135655,-86.0953889593207,4,1,0,100,0,1
135724,-85.2034142443414,4,1,0,100,0,1
135794,-84.3172019180401,4,1,0,100,0,1
135864,-83.4492350486787,4,1,0,100,0,1
136003,-81.7776127678595,4,1,0,100,0,1
136143,-80.1603206412826,4,1,0,100,0,1
136283,-90.0900900900901,4,1,0,100,0,1
136422,-91.0643141718839,4,1,0,100,0,1
136562,-91.066387396412,4,1,0,100,0,1
136631,-90.2374241138219,4,1,0,100,0,1
136701,-89.4117272780684,4,1,0,100,0,1
136771,-88.6010041277644,4,1,0,100,0,1
136841,-87.8048510101589,4,1,0,100,0,1
136910,-87.0339516073747,4,1,0,100,0,1
136980,-86.2655898443741,4,1,0,100,0,1
137050,-85.5106760140346,4,1,0,100,0,1
137120,-84.7688601288268,4,1,0,100,0,1
137190,-84.0398042415142,4,1,0,100,0,1
137268,-83.3333333333333,4,1,0,84,0,0
137400,-84.7457627118644,4,1,0,84,0,0
137539,-86.2068965517241,4,1,0,84,0,0
137818,-89.2857142857143,4,1,0,84,0,0
138098,-92.5925925925926,4,1,0,84,0,0
138384,-83.3333333333333,4,1,0,90,0,1
138515,-90.9090909090909,4,1,0,90,0,1
141872,-90.9090909090909,4,1,0,90,0,0
142003,-92.5852235044435,4,1,0,60,0,0
142004,-92.5852235044435,4,1,0,60,0,0
142073,-93.4529388137636,4,1,0,60,0,0
142143,-94.3370725773753,4,1,0,60,0,0
142283,-96.1564953850393,4,1,0,60,0,0
142562,-100,4,1,0,60,0,0
142849,-80.1603205958013,4,1,0,100,0,1
142981,-90.0900900900901,4,1,0,100,0,1
143051,-90.9090909090909,4,1,0,100,0,1
143260,-88.928790563136,4,1,0,100,0,1
143330,-87.9638265840977,4,1,0,100,0,1
143400,-87.0195794053662,4,1,0,100,0,1
143469,-86.108453442795,4,1,0,100,0,1
143539,-85.2034142443414,4,1,0,100,0,1
143609,-84.3172019180401,4,1,0,100,0,1
143679,-83.4492350486787,4,1,0,100,0,1
143818,-81.7776127678595,4,1,0,100,0,1
143958,-80.1603206412826,4,1,0,100,0,1
144098,-90.0900900900901,4,1,0,100,0,1
144237,-90.9090909090909,4,1,0,100,0,1
144376,-88.928790563136,4,1,0,100,0,1
144446,-87.9638265840977,4,1,0,100,0,1
144516,-87.0195794053662,4,1,0,100,0,1
144586,-86.0953889593207,4,1,0,100,0,1
144655,-85.2034142443414,4,1,0,100,0,1
144725,-84.3172019180401,4,1,0,100,0,1
144795,-83.4492350486787,4,1,0,100,0,1
144934,-81.7776127678595,4,1,0,100,0,1
145074,-80.1603206412826,4,1,0,100,0,1
145214,-90.0900900900901,4,1,0,100,0,1
145353,-91.0643141718839,4,1,0,100,0,1
145493,-91.066387396412,4,1,0,100,0,1
145562,-90.2374241138219,4,1,0,100,0,1
145632,-89.4117272780684,4,1,0,100,0,1
145702,-88.6010041277644,4,1,0,100,0,1
145772,-87.8048510101589,4,1,0,100,0,1
145841,-87.0339516073747,4,1,0,100,0,1
145911,-86.2655898443741,4,1,0,100,0,1
145981,-85.5106760140346,4,1,0,100,0,1
146051,-84.7688601288268,4,1,0,100,0,1
146121,-84.0398042415142,4,1,0,100,0,1
146198,-83.3333333333333,4,1,0,84,0,0
146330,-84.7457627118644,4,1,0,84,0,0
146469,-86.2068965517241,4,1,0,84,0,0
146748,-89.2857142857143,4,1,0,84,0,0
147028,-92.5925925925926,4,1,0,84,0,0
147314,-83.3333333333333,4,1,0,100,0,1
147445,-90.9090909090909,4,1,0,100,0,1
150803,-90.9090909090909,4,1,0,100,0,0
150934,-92.5975059697532,4,1,0,80,0,0
150935,-92.5975059697532,4,1,0,80,0,0
151003,-93.4529388137636,4,1,0,80,0,0
151073,-94.3370725773753,4,1,0,80,0,0
151213,-96.1564953850393,4,1,0,80,0,0
151492,-100,4,1,0,80,0,0
151779,-83.3333333333333,4,1,0,100,0,1
151910,-84.8421692501411,4,1,0,100,0,1
152050,-86.4181150767326,4,1,0,100,0,1
152190,-88.0537154702357,4,1,0,100,0,1
152329,-89.7400569486544,4,1,0,100,0,1
152399,-90.6139862734187,4,1,0,100,0,1
152469,-91.5051044300834,4,1,0,100,0,1
152538,-92.4008133541401,4,1,0,100,0,1
152608,-93.3276018531786,4,1,0,100,0,1
152678,-94.2731702610122,4,1,0,100,0,1
152748,-95.2380952380952,4,1,0,100,0,1
152888,-83.3333333333333,4,1,0,100,0,1
153026,-84.8421692501411,4,1,0,100,0,1
153166,-86.4181150767326,4,1,0,100,0,1
153306,-88.0537154702357,4,1,0,100,0,1
153445,-89.7400569486544,4,1,0,100,0,1
153515,-90.6139862734187,4,1,0,100,0,1
153585,-91.5051044300834,4,1,0,100,0,1
153654,-92.4008133541401,4,1,0,100,0,1
153724,-93.3276018531786,4,1,0,100,0,1
153794,-94.2731702610122,4,1,0,100,0,1
153864,-95.2380952380952,4,1,0,100,0,1
154004,-83.3333333333333,4,1,0,100,0,1
154143,-84.8421692501411,4,1,0,100,0,1
154283,-86.4181150767326,4,1,0,100,0,1
154423,-88.0537154702357,4,1,0,100,0,1
154562,-89.7400569486544,4,1,0,100,0,1
154632,-90.6139862734187,4,1,0,100,0,1
154702,-91.5051044300834,4,1,0,100,0,1
154771,-92.4008133541401,4,1,0,100,0,1
154841,-93.3276018531786,4,1,0,100,0,1
154911,-94.2731702610122,4,1,0,100,0,1
154981,-95.2380952380952,4,1,0,100,0,1
155121,-83.3333333333333,4,1,0,100,0,1
155260,-86.2068965517241,4,1,0,100,0,1
155399,-90.5223137503395,4,1,0,100,0,1
155538,-92.2636896249481,4,1,0,100,0,1
155608,-93.1662551823729,4,1,0,100,0,1
155678,-94.0866538081573,4,1,0,100,0,1
155748,-95.0254192996626,4,1,0,100,0,1
155817,-95.9692898272553,4,1,0,100,0,1
155887,-96.9461948618517,4,1,0,100,0,1
155957,-97.9431929480901,4,1,0,100,0,1
156027,-98.9609104403761,4,1,0,100,0,1
156105,-100,4,1,0,100,0,0
156377,-95.2685095415096,4,1,0,80,0,0
156516,-100,4,1,0,80,0,0
156934,-105.267569039936,4,1,0,80,0,0
157352,-111.106196647353,4,1,0,80,0,0
157492,-113.209247825499,4,1,0,80,0,0
157771,-117.647058823529,4,1,0,80,0,0
158190,-99.5024875621891,4,1,0,80,0,0
158329,-96.4700723525543,4,1,0,80,0,0
158399,-95.0118764845606,4,1,0,80,0,0
158469,-93.597106998511,4,1,0,80,0,0
158538,-92.2431865828092,4,1,0,80,0,0
158608,-87.9120879120879,4,1,0,80,0,0
158679,-111.111111663006,4,1,0,30,0,0
160702,-142.857142857143,4,1,0,75,0,0
167539,-142.348755950574,4,1,0,30,0,0
168656,-165.975106187137,4,1,0,30,0,0
169074,-100.755667684042,4,1,0,80,0,0
169632,-90.7029479653324,4,1,0,80,0,0
169772,-100,4,1,0,80,0,0
170051,-90.9090909090909,4,1,0,80,0,0
170191,-95.2380952380952,4,1,0,80,0,0
170261,-93.0232558139535,4,1,0,80,0,0
170331,-90.9090909090909,4,1,0,80,0,0
170887,-90.702947845805,4,1,0,80,0,0
170957,-91.4137180645848,4,1,0,80,0,0
171027,-92.1357157992938,4,1,0,80,0,0
171096,-92.8586485017251,4,1,0,80,0,0
171166,-93.603744149766,4,1,0,80,0,0
171236,-94.3608937791707,4,1,0,80,0,0
171306,-95.1303922850047,4,1,0,80,0,0
171376,-95.9125442607171,4,1,0,80,0,0
171445,-96.696212731668,4,1,0,80,0,0
171515,-97.5044340053994,4,1,0,80,0,0
171585,-98.3262799597062,4,1,0,80,0,0
171655,-99.162098042526,4,1,0,80,0,0
171724,-100,4,1,0,80,0,0
173121,-100,4,1,0,30,0,0
173958,-99.5024879457738,4,1,0,75,0,0
175074,-111.111111111111,4,1,0,84,0,0
175361,279.06976744186,4,1,0,75,1,0
175361,-86.7678958785249,4,1,0,100,0,1
175493,-90.9090909090909,4,1,0,100,0,1
177516,-86.7678958785249,4,1,0,100,0,1
177656,-90.9090909090909,4,1,0,100,0,1
179749,-86.7678958785249,4,1,0,100,0,1
179888,-90.9090909090909,4,1,0,100,0,1
182050,-86.9565217391304,4,1,0,100,0,1
182189,-90.9090909090909,4,1,0,100,0,1
182259,-90.2846904240494,4,1,0,100,0,1
182329,-89.659944642151,4,1,0,100,0,1
182398,-89.052528227786,4,1,0,100,0,1
182468,-88.4446611409069,4,1,0,100,0,1
182538,-87.8450363196126,4,1,0,100,0,1
182608,-87.2534872534872,4,1,0,100,0,1
182677,-86.6781345565749,4,1,0,100,0,1
182747,-86.1021454338333,4,1,0,100,0,1
182817,-85.5337608449642,4,1,0,100,0,1
182887,-84.9728311785647,4,1,0,100,0,1
182957,-84.4192107222636,4,1,0,100,0,1
183026,-83.8805141958753,4,1,0,100,0,1
183096,-83.3409905356979,4,1,0,100,0,1
183166,-82.8083630055692,4,1,0,100,0,1
183167,-82.8008033595034,4,1,0,100,0,1
183236,-82.2825002267985,4,1,0,100,0,1
183306,-81.7632741368431,4,1,0,100,0,1
183376,-81.2505598853355,4,1,0,100,0,1
183445,-80.7514245014245,4,1,0,100,0,1
183515,-80.2512829587684,4,1,0,100,0,1
183585,-79.7572986282096,4,1,0,100,0,1
183655,-79.2693585037581,4,1,0,100,0,1
183724,-78.794196855182,4,1,0,100,0,1
183794,-78.3179345479665,4,1,0,100,0,1
183864,-77.8473950733842,4,1,0,100,0,1
183934,-77.3824758979609,4,1,0,100,0,1
184003,-76.9296013570823,4,1,0,100,0,1
184144,-71.6845876279323,4,1,0,100,0,1
184291,-99.750623337608,4,1,0,70,0,0
184563,-100.000000298023,4,1,0,80,0,0
185538,-86.9565217391304,4,1,0,80,0,0
185608,-87.9155506538522,4,1,0,80,0,0
185678,-88.8959694121396,4,1,0,80,0,0
185748,-89.8985016916385,4,1,0,80,0,0
185817,-90.9090909090909,4,1,0,80,0,0
186377,-83.6820083682008,4,1,0,80,0,0
186516,-90.909091032241,4,1,0,80,0,0
187911,-90.9090909090909,4,1,0,80,0,0
188051,-91.743119266055,4,1,0,80,0,0
188330,-92.5925925925926,4,1,0,80,0,0
188609,-83.3333333333333,4,1,0,80,0,0
188749,-86.9565218518046,4,1,0,80,0,0
190849,-71.4285713924589,4,1,0,80,0,1
191895,-71.4285714285714,4,1,0,80,0,0
192098,-99.7506239640459,4,1,0,30,0,0
192802,-49.9375777292571,4,1,0,80,0,1
192942,-49.9375777292571,4,1,0,70,0,0
193214,-100.250626869679,4,1,0,70,0,0

[HitObjects]
256,192,106,5,0,0:0:0:0:
256,192,4431,5,8,0:0:0:0:
256,192,4501,1,8,0:0:0:0:
256,192,4571,1,4,0:0:0:0:
256,192,4989,1,4,0:0:0:0:
256,192,5268,1,8,0:0:0:0:
256,192,5408,1,8,0:0:0:0:
256,192,5547,1,8,0:0:0:0:
256,192,5687,1,8,0:0:0:0:
256,192,5826,1,8,0:0:0:0:
256,192,5966,1,8,0:0:0:0:
256,192,6105,1,8,0:0:0:0:
256,192,6245,1,8,0:0:0:0:
256,192,6385,1,8,0:0:0:0:
256,192,6524,1,8,0:0:0:0:
256,192,6664,1,8,0:0:0:0:
256,192,6803,1,4,0:0:0:0:
256,192,7222,1,4,0:0:0:0:
256,192,7501,1,0,0:0:0:0:
256,192,7571,1,0,0:0:0:0:
256,192,7640,1,8,0:0:0:0:
256,192,7780,1,8,0:0:0:0:
256,192,7919,1,0,0:0:0:0:
256,192,8059,1,0,0:0:0:0:
256,192,8129,1,0,0:0:0:0:
256,192,8199,1,8,0:0:0:0:
256,192,8338,1,0,0:0:0:0:
256,192,8478,1,8,0:0:0:0:
256,192,8547,1,0,0:0:0:0:
256,192,8617,1,8,0:0:0:0:
256,192,8757,1,8,0:0:0:0:
256,192,8896,1,0,0:0:0:0:
256,192,9036,1,8,0:0:0:0:
256,192,9175,1,8,0:0:0:0:
256,192,9245,1,0,0:0:0:0:
256,192,9315,1,0,0:0:0:0:
256,192,9385,1,0,0:0:0:0:
256,192,9454,1,8,0:0:0:0:
256,192,9559,1,8,0:0:0:0:
256,192,9629,1,8,0:0:0:0:
256,192,9733,1,0,0:0:0:0:
256,192,9803,1,0,0:0:0:0:
256,192,9873,1,8,0:0:0:0:
256,192,10012,1,0,0:0:0:0:
266,190,10082,1,0,0:0:0:0:
256,192,10152,1,8,0:0:0:0:
256,192,10292,1,0,0:0:0:0:
256,192,10431,1,8,0:0:0:0:
256,192,10487,1,8,0:0:0:0:
256,192,10543,1,8,0:0:0:0:
256,192,10599,1,8,0:0:0:0:
256,192,10710,1,0,0:0:0:0:
256,192,10850,1,8,0:0:0:0:
256,192,10989,1,0,0:0:0:0:
256,192,11129,1,8,0:0:0:0:
256,192,11268,1,8,0:0:0:0:
256,192,11338,1,0,0:0:0:0:
256,192,11408,1,0,0:0:0:0:
256,192,11547,1,8,0:0:0:0:
256,192,11687,1,8,0:0:0:0:
256,192,11757,1,0,0:0:0:0:
256,192,11826,1,0,0:0:0:0:
256,192,11966,1,8,0:0:0:0:
256,192,12105,1,8,0:0:0:0:
256,192,12175,1,0,0:0:0:0:
256,192,12245,1,0,0:0:0:0:
256,192,12385,1,8,0:0:0:0:
256,192,12454,1,8,0:0:0:0:
256,192,12524,1,0,0:0:0:0:
256,192,12594,1,0,0:0:0:0:
256,192,12664,1,8,0:0:0:0:
256,192,12803,1,0,0:0:0:0:
256,192,13222,1,0,0:0:0:0:
256,192,13501,1,4,0:0:0:0:
256,192,13640,1,0,0:0:0:0:
256,192,13780,1,8,0:0:0:0:
256,192,13850,1,0,0:0:0:0:
256,192,13919,1,8,0:0:0:0:
256,192,13989,1,0,0:0:0:0:
256,192,14059,1,8,0:0:0:0:
256,192,14129,1,8,0:0:0:0:
256,192,14199,1,0,0:0:0:0:
256,192,14268,1,0,0:0:0:0:
256,192,14338,1,8,0:0:0:0:
256,192,14478,1,8,0:0:0:0:
256,192,14617,1,0,0:0:0:0:
256,192,14687,1,0,0:0:0:0:
256,192,14757,1,0,0:0:0:0:
256,192,14826,1,0,0:0:0:0:
256,192,14896,1,8,0:0:0:0:
256,192,15036,1,0,0:0:0:0:
256,192,15175,1,8,0:0:0:0:
257,184,15245,1,8,0:0:0:0:
257,184,15315,1,0,0:0:0:0:
256,192,15385,1,0,0:0:0:0:
256,192,15454,1,8,0:0:0:0:
256,192,15510,1,8,0:0:0:0:
256,192,15566,1,8,0:1:0:0:
256,192,15622,1,8,0:0:0:0:
256,192,15733,1,4,0:0:0:0:
256,192,15873,1,8,0:0:0:0:
256,192,15943,1,0,0:0:0:0:
256,192,16012,1,8,0:0:0:0:
256,192,16152,1,0,0:0:0:0:
256,192,16222,1,0,0:0:0:0:
256,192,16292,1,8,0:0:0:0:
256,192,16361,1,8,0:0:0:0:
256,192,16431,1,8,0:0:0:0:
256,192,16501,1,0,0:0:0:0:
256,192,16571,1,8,0:0:0:0:
250,197,16710,1,8,0:0:0:0:
258,197,16850,1,0,0:0:0:0:
250,197,16919,1,0,0:0:0:0:
256,192,16989,1,0,0:0:0:0:
269,186,17059,1,0,0:0:0:0:
256,192,17129,1,8,0:0:0:0:
256,192,17268,1,0,0:0:0:0:
256,192,17408,1,8,0:0:0:0:
256,192,17478,1,8,0:0:0:0:
256,192,17547,1,8,0:0:0:0:
256,192,17617,1,8,0:0:0:0:
256,192,17687,1,0,0:0:0:0:
253,191,17757,1,0,0:0:0:0:
256,192,17826,1,8,0:0:0:0:
256,192,17966,1,12,0:0:0:0:
256,192,18105,1,0,0:0:0:0:
256,192,18245,1,8,0:0:0:0:
256,192,18315,1,0,0:0:0:0:
256,192,18385,1,8,0:0:0:0:
256,192,18454,1,0,0:0:0:0:
256,192,18524,1,8,0:0:0:0:
256,192,18594,1,8,0:0:0:0:
256,192,18664,1,0,0:0:0:0:
256,192,18733,1,0,0:0:0:0:
256,192,18803,1,8,0:0:0:0:
256,192,18943,1,8,0:0:0:0:
256,192,19082,1,0,0:0:0:0:
256,192,19152,1,0,0:0:0:0:
256,192,19222,1,0,0:0:0:0:
256,192,19292,1,0,0:0:0:0:
256,192,19361,1,8,0:0:0:0:
256,192,19501,1,0,0:0:0:0:
256,192,19640,1,8,0:0:0:0:
256,192,19710,1,8,0:0:0:0:
256,192,19780,1,0,0:0:0:0:
256,192,19850,1,0,0:0:0:0:
256,192,19919,1,8,0:0:0:0:
256,192,19975,1,8,0:0:0:0:
256,192,20031,1,8,0:0:0:0:
256,192,20087,1,8,0:0:0:0:
256,192,20199,1,4,0:0:0:0:
256,192,20338,1,8,0:0:0:0:
256,192,20408,1,0,0:0:0:0:
256,192,20478,1,8,0:0:0:0:
256,192,20547,1,0,0:0:0:0:
256,192,20617,1,8,0:0:0:0:
256,192,20687,1,8,0:0:0:0:
256,192,20757,1,0,0:0:0:0:
256,192,20826,1,8,0:0:0:0:
256,192,20896,1,0,0:0:0:0:
256,192,20966,1,0,0:0:0:0:
256,192,21036,1,8,0:0:0:0:
256,192,21175,1,8,0:0:0:0:
256,192,21454,1,8,0:0:0:0:
256,192,21733,1,0,0:0:0:0:
256,192,22012,1,0,0:0:0:0:
256,192,22292,1,12,0:0:0:0:
256,192,22571,1,8,0:0:0:0:
256,192,22640,1,0,0:0:0:0:
256,192,22710,1,12,0:0:0:0:
256,192,22850,1,0,0:0:0:0:
256,192,22989,1,12,0:0:0:0:
256,192,23129,1,0,0:0:0:0:
256,192,23268,1,8,0:0:0:0:
256,192,23338,1,0,0:0:0:0:
256,192,23408,1,0,0:0:0:0:
256,192,23478,1,0,0:0:0:0:
256,192,23547,1,12,0:0:0:0:
256,192,23687,1,0,0:0:0:0:
256,192,23826,1,8,0:0:0:0:
256,192,23966,1,0,0:0:0:0:
256,192,24245,1,8,0:0:0:0:
256,192,24524,1,4,0:0:0:0:
256,192,24803,1,8,0:0:0:0:
256,192,24873,1,0,0:0:0:0:
256,192,24943,1,8,0:0:0:0:
256,192,25012,1,0,0:0:0:0:
256,192,25082,1,8,0:0:0:0:
256,192,25152,1,8,0:0:0:0:
256,192,25222,1,0,0:0:0:0:
256,192,25292,1,0,0:0:0:0:
256,192,25361,1,8,0:0:0:0:
256,192,25431,1,0,0:0:0:0:
256,192,25501,1,8,0:0:0:0:
256,192,25571,1,8,0:0:0:0:
256,192,25640,1,0,0:0:0:0:
256,192,25710,1,0,0:0:0:0:
256,192,25780,1,8,0:0:0:0:
256,192,26059,1,0,0:0:0:0:
256,192,26478,1,4,0:0:0:0:
256,192,26757,1,12,0:0:0:0:
256,192,30803,5,0,0:0:0:0:
256,192,31222,1,12,0:0:0:0:
256,192,31501,1,0,0:0:0:0:
256,192,31640,1,8,0:0:0:0:
256,192,31710,1,8,0:0:0:0:
256,192,31780,1,0,0:0:0:0:
256,192,31850,1,0,0:0:0:0:
256,192,31919,1,8,0:0:0:0:
256,192,31989,1,0,0:0:0:0:
256,192,32059,1,0,0:0:0:0:
256,192,32199,1,8,0:0:0:0:
256,192,32338,1,0,0:0:0:0:
256,192,32408,1,0,0:0:0:0:
256,192,32478,1,8,0:0:0:0:
256,192,32547,1,8,0:0:0:0:
256,192,32617,1,0,0:0:0:0:
256,192,32757,1,8,0:0:0:0:
256,192,32826,1,0,0:0:0:0:
256,192,32896,1,0,0:0:0:0:
256,192,33036,1,8,0:0:0:0:
256,192,33105,1,8,0:0:0:0:
256,192,33175,1,0,0:0:0:0:
256,192,33245,1,0,0:0:0:0:
256,192,33315,1,8,0:0:0:0:
256,192,33454,1,4,0:0:0:0:
256,192,33733,1,0,0:0:0:0:
256,192,33873,1,8,0:0:0:0:
256,192,33943,1,8,0:0:0:0:
256,192,34012,1,0,0:0:0:0:
256,192,34152,1,8,0:0:0:0:
256,192,34222,1,0,0:0:0:0:
256,192,34292,1,0,0:0:0:0:
256,192,34361,1,0,0:0:0:0:
256,192,34431,1,8,0:0:0:0:
256,192,34501,1,8,0:0:0:0:
256,192,34571,1,0,0:0:0:0:
256,192,34710,1,8,0:0:0:0:
256,192,34780,1,8,0:0:0:0:
256,192,34850,1,0,0:0:0:0:
256,192,34919,1,0,0:0:0:0:
256,192,34989,1,8,0:0:0:0:
256,192,35059,1,0,0:0:0:0:
256,192,35129,1,0,0:0:0:0:
256,192,35199,1,0,0:0:0:0:
256,192,35268,1,8,0:0:0:0:
256,192,35408,1,8,0:0:0:0:
256,192,35687,1,4,0:0:0:0:
256,192,35966,1,0,0:0:0:0:
256,192,36105,1,8,0:0:0:0:
256,192,36175,1,8,0:0:0:0:
256,192,36245,1,0,0:0:0:0:
256,192,36315,1,0,0:0:0:0:
256,192,36385,1,8,0:0:0:0:
256,192,36454,1,0,0:0:0:0:
256,192,36524,1,0,0:0:0:0:
256,192,36594,1,0,0:0:0:0:
256,192,36664,1,8,0:0:0:0:
256,192,36733,1,8,0:0:0:0:
256,192,36803,1,8,0:0:0:0:
256,192,36873,1,0,0:0:0:0:
256,192,36943,1,8,0:0:0:0:
256,192,37012,1,0,0:0:0:0:
256,192,37222,1,8,0:0:0:0:
256,192,37292,1,0,0:0:0:0:
256,192,37361,1,8,0:0:0:0:
256,192,37431,1,8,0:0:0:0:
256,192,37501,1,0,0:0:0:0:
256,192,37571,1,0,0:0:0:0:
256,192,37640,1,8,0:0:0:0:
256,192,37710,1,0,0:0:0:0:
256,192,37780,1,8,0:0:0:0:
256,192,37850,1,8,0:0:0:0:
256,192,37919,1,0,0:0:0:0:
256,192,37989,1,0,0:0:0:0:
256,192,38059,1,8,0:0:0:0:
256,192,38338,1,8,0:0:0:0:
256,192,38408,1,8,0:0:0:0:
256,192,38478,1,8,0:0:0:0:
256,192,38547,1,8,0:0:0:0:
256,192,38617,1,8,0:0:0:0:
256,192,38757,1,8,0:0:0:0:
256,192,38896,1,8,0:0:0:0:
256,192,39036,1,0,0:0:0:0:
256,192,39175,1,8,0:0:0:0:
256,192,39245,1,8,0:0:0:0:
256,192,39315,1,8,0:0:0:0:
256,192,39385,1,8,0:0:0:0:
256,192,39454,1,8,0:0:0:0:
256,192,39594,1,0,0:0:0:0:
256,192,39733,1,8,0:0:0:0:
256,192,39873,1,0,0:0:0:0:
256,192,40012,1,8,0:0:0:0:
256,192,40152,1,12,0:0:0:0:
256,192,40431,1,0,0:0:0:0:
256,192,40571,1,8,0:0:0:0:
256,192,40640,1,0,0:0:0:0:
256,192,40710,1,0,0:0:0:0:
256,192,40780,1,0,0:0:0:0:
256,192,40850,1,8,0:0:0:0:
256,192,40919,1,8,0:0:0:0:
256,192,40989,1,0,0:0:0:0:
256,192,41129,1,8,0:0:0:0:
256,192,41268,1,0,0:0:0:0:
256,192,41338,1,0,0:0:0:0:
256,192,41408,1,8,0:0:0:0:
258,197,41478,1,0,0:0:0:0:
256,192,41547,1,0,0:0:0:0:
256,192,41687,1,8,0:0:0:0:
256,192,41757,1,8,0:0:0:0:
256,192,41826,1,0,0:0:0:0:
256,192,41966,1,8,0:0:0:0:
256,192,42036,1,0,0:0:0:0:
256,192,42105,1,0,0:0:0:0:
256,192,42175,1,0,0:0:0:0:
256,192,42245,1,8,0:0:0:0:
256,192,42385,1,4,0:0:0:0:
256,192,42664,1,0,0:0:0:0:
256,192,42803,1,8,0:0:0:0:
256,192,42873,1,8,0:0:0:0:
256,192,42943,1,0,0:0:0:0:
256,192,43012,1,0,0:0:0:0:
256,192,43082,1,8,0:0:0:0:
256,192,43152,1,8,0:0:0:0:
256,192,43222,1,0,0:0:0:0:
256,192,43361,1,8,0:0:0:0:
256,192,43431,1,0,0:0:0:0:
256,192,43501,1,0,0:0:0:0:
256,192,43640,1,8,0:0:0:0:
256,192,43710,1,8,0:0:0:0:
256,192,43780,1,0,0:0:0:0:
256,192,43850,1,0,0:0:0:0:
256,192,43919,1,8,0:0:0:0:
256,192,43989,1,0,0:0:0:0:
256,192,44059,1,0,0:0:0:0:
256,192,44129,1,0,0:0:0:0:
256,192,44199,1,8,0:0:0:0:
256,192,44338,1,8,0:0:0:0:
256,192,44617,1,4,0:0:0:0:
256,192,45873,1,0,0:0:0:0:
256,192,46989,1,8,0:0:0:0:
256,192,48105,1,0,0:0:0:0:
256,192,49082,1,4,0:0:0:0:
256,192,49361,1,0,0:0:0:0:
256,192,49501,1,8,0:0:0:0:
256,192,49640,1,0,0:0:0:0:
256,192,49710,1,0,0:0:0:0:
256,192,49780,1,0,0:0:0:0:
256,192,49919,1,0,0:0:0:0:
256,192,50059,1,8,0:0:0:0:
256,192,50199,1,4,0:0:0:0:
256,192,50478,1,0,0:0:0:0:
256,192,50617,1,8,0:0:0:0:
240,194,50687,1,0,0:0:0:0:
256,192,50757,1,0,0:0:0:0:
256,192,50896,1,0,0:0:0:0:
256,192,51036,1,8,0:0:0:0:
256,192,51105,1,0,0:0:0:0:
256,192,51175,1,8,0:0:0:0:
256,192,51245,1,8,0:0:0:0:
256,192,51315,1,8,0:0:0:0:
256,192,51385,1,8,0:0:0:0:
256,192,51454,1,0,0:0:0:0:
256,192,51733,1,8,0:0:0:0:
256,192,52012,1,0,0:0:0:0:
256,192,52152,1,8,0:0:0:0:
256,192,52431,1,0,0:0:0:0:
256,192,52571,1,8,0:0:0:0:
256,192,52850,1,8,0:0:0:0:
256,192,52989,1,0,0:0:0:0:
256,192,53129,1,8,0:0:0:0:
256,192,53268,1,8,0:0:0:0:
256,192,53547,1,4,0:0:0:0:
256,192,53826,1,8,0:0:0:0:
256,160,53896,1,0,0:0:0:0:
256,192,53966,1,12,0:0:0:0:
256,192,54105,1,0,0:0:0:0:
256,192,54245,1,12,0:0:0:0:
256,192,54385,1,0,0:0:0:0:
256,192,54524,1,8,0:0:0:0:
256,192,54594,1,0,0:0:0:0:
256,192,54664,1,0,0:0:0:0:
256,192,54733,1,0,0:0:0:0:
256,192,54803,1,12,0:0:0:0:
256,192,54943,1,0,0:0:0:0:
256,192,55082,1,8,0:0:0:0:
256,192,55222,1,0,0:0:0:0:
256,192,55501,1,8,0:0:0:0:
256,192,55780,1,4,0:0:0:0:
256,192,56199,1,0,0:0:0:0:
256,192,56268,1,0,0:0:0:0:
256,192,56338,1,8,0:0:0:0:
256,192,56408,1,8,0:0:0:0:
256,192,56478,1,0,0:0:0:0:
256,192,56547,1,0,0:0:0:0:
256,192,56617,1,8,0:0:0:0:
256,192,56687,1,0,0:0:0:0:
256,192,56757,1,8,0:0:0:0:
256,192,56826,1,8,0:0:0:0:
256,192,56896,1,8,0:0:0:0:
256,192,56966,1,0,0:0:0:0:
256,192,57036,1,8,0:0:0:0:
256,192,57315,1,0,0:0:0:0:
256,192,58012,1,4,0:0:0:0:
256,192,58292,1,0,0:0:0:0:
256,192,58431,1,8,0:0:0:0:
256,192,58501,1,8,0:0:0:0:
256,192,58571,1,0,0:0:0:0:
256,192,58640,1,0,0:0:0:0:
256,192,58710,1,0,0:0:0:0:
256,192,58780,1,0,0:0:0:0:
256,192,58850,1,8,0:0:0:0:
256,192,58989,1,0,0:0:0:0:
256,192,59129,1,12,0:0:0:0:
256,192,59408,1,0,0:0:0:0:
256,192,59547,1,8,0:0:0:0:
252,197,59617,1,8,0:0:0:0:
256,192,59687,1,8,0:0:0:0:
256,192,59757,1,0,0:0:0:0:
256,192,59826,1,8,0:0:0:0:
256,192,59896,1,8,0:0:0:0:
256,192,59966,1,0,0:0:0:0:
256,192,60105,1,8,0:0:0:0:
256,192,60245,1,4,0:0:0:0:
256,192,60524,1,0,0:0:0:0:
256,192,60664,1,8,0:0:0:0:
256,192,60733,1,0,0:0:0:0:
256,192,60803,1,0,0:0:0:0:
256,192,60873,1,0,0:0:0:0:
256,192,60943,1,8,0:0:0:0:
256,192,61012,1,8,0:0:0:0:
256,192,61082,1,8,0:0:0:0:
256,192,61152,1,0,0:0:0:0:
256,192,61222,1,8,0:0:0:0:
256,192,61292,1,0,0:0:0:0:
256,192,61361,1,8,0:0:0:0:
256,192,61640,1,8,0:0:0:0:
256,192,61919,1,0,0:0:0:0:
256,192,62199,1,0,0:0:0:0:
256,192,62478,1,12,0:0:0:0:
256,192,62757,1,0,0:0:0:0:
256,192,62896,1,8,0:0:0:0:
256,192,63036,1,0,0:0:0:0:
256,192,63105,1,0,0:0:0:0:
256,192,63175,1,8,0:0:0:0:
256,192,63245,1,0,0:0:0:0:
256,192,63315,1,8,0:0:0:0:
256,192,63454,1,0,0:0:0:0:
256,192,63524,1,0,0:0:0:0:
256,192,63594,1,8,0:0:0:0:
256,192,63664,1,8,0:0:0:0:
256,192,63733,1,0,0:0:0:0:
256,192,63803,1,0,0:0:0:0:
256,192,63873,1,8,0:0:0:0:
256,192,64012,1,8,0:0:0:0:
256,192,64082,1,0,1:0:0:0:
256,192,64152,1,8,0:0:0:0:
256,192,64222,1,8,0:0:0:0:
256,192,64292,1,0,0:0:0:0:
256,192,64361,1,0,0:0:0:0:
256,192,64431,1,8,0:0:0:0:
256,192,64571,1,0,0:0:0:0:
256,192,64710,1,8,0:0:0:0:
256,192,64780,1,8,0:0:0:0:
256,192,64850,1,8,0:0:0:0:
260,197,64919,1,0,0:0:0:0:
256,192,64989,1,8,0:0:0:0:
256,192,65059,1,8,0:0:0:0:
256,192,65129,1,0,0:0:0:0:
256,192,65199,1,0,0:0:0:0:
256,192,65268,1,8,0:0:0:0:
256,192,65408,1,0,0:0:0:0:
256,192,65547,1,8,0:0:0:0:
256,192,65617,1,0,0:0:0:0:
256,192,65687,1,0,0:0:0:0:
256,192,65757,1,0,0:0:0:0:
256,192,65826,1,8,0:0:0:0:
256,192,65966,1,0,0:0:0:0:
256,192,66105,1,8,0:0:0:0:
256,192,66175,1,0,0:0:0:0:
256,192,66245,1,8,0:0:0:0:
256,192,66385,1,0,0:0:0:0:
256,192,66664,1,8,0:0:0:0:
256,192,66943,1,4,0:0:0:0:
256,192,67222,1,0,0:0:0:0:
256,192,67361,1,8,0:0:0:0:
256,192,67431,1,0,0:0:0:0:
256,192,67501,1,0,0:0:0:0:
256,192,67571,1,0,0:0:0:0:
256,192,67640,1,0,0:0:0:0:
256,192,67710,1,0,0:0:0:0:
256,192,67780,1,8,0:0:0:0:
256,192,67919,1,0,0:0:0:0:
256,192,68059,1,12,0:0:0:0:
256,192,68338,1,0,0:0:0:0:
256,192,68478,1,8,0:0:0:0:
256,192,68547,1,8,0:0:0:0:
256,192,68617,1,0,0:0:0:0:
256,192,68687,1,0,0:0:0:0:
256,192,68757,1,8,0:0:0:0:
256,192,68826,1,0,0:0:0:0:
256,192,68896,1,8,0:0:0:0:
256,192,69036,1,0,0:0:0:0:
256,192,69175,1,12,0:0:0:0:
256,192,69454,1,0,0:0:0:0:
256,192,69594,1,8,0:0:0:0:
256,192,69664,1,8,0:0:0:0:
256,192,69733,1,0,0:0:0:0:
256,192,69803,1,0,0:0:0:0:
256,192,69873,1,8,0:0:0:0:
256,192,69943,1,0,0:0:0:0:
256,192,70012,1,8,0:0:0:0:
256,192,70082,1,0,0:0:0:0:
256,192,70152,1,8,0:0:0:0:
256,192,70222,1,8,0:0:0:0:
256,192,70292,1,0,0:0:0:0:
256,192,70571,1,8,0:0:0:0:
256,192,70850,1,8,0:0:0:0:
256,192,71129,1,0,0:0:0:0:
256,192,71408,1,12,0:0:0:0:
256,192,71687,1,0,0:0:0:0:
256,192,71826,1,8,0:0:0:0:
256,192,71966,1,0,0:0:0:0:
256,192,72036,1,0,0:0:0:0:
256,192,72105,1,8,0:0:0:0:
256,192,72175,1,0,0:0:0:0:
256,192,72245,1,8,0:0:0:0:
256,192,72385,1,0,0:0:0:0:
250,192,72454,1,0,0:0:0:0:
256,192,72524,1,8,0:0:0:0:
256,192,72594,1,0,0:0:0:0:
256,192,72664,1,8,0:0:0:0:
256,192,72733,1,8,0:0:0:0:
256,192,72803,1,0,0:0:0:0:
256,192,72943,1,8,0:0:0:0:
256,192,73012,1,0,1:0:0:0:
256,192,73082,1,8,0:0:0:0:
256,192,73152,1,8,0:0:0:0:
256,192,73222,1,0,0:0:0:0:
256,192,73292,1,0,0:0:0:0:
256,192,73361,1,8,0:0:0:0:
256,192,73501,1,0,0:0:0:0:
256,192,73640,1,8,1:0:0:0:
256,192,73710,1,0,0:0:0:0:
256,192,73780,1,8,0:0:0:0:
254,186,73850,1,8,0:0:0:0:
256,192,73919,1,8,0:0:0:0:
256,192,73989,1,0,0:0:0:0:
256,192,74059,1,8,0:0:0:0:
256,192,74199,1,0,0:0:0:0:
256,192,74268,1,0,1:0:0:0:
256,192,74338,1,8,0:0:0:0:
256,192,74478,1,0,0:0:0:0:
256,192,74547,1,0,0:0:0:0:
256,192,74617,1,8,0:0:0:0:
256,192,74687,1,8,0:0:0:0:
256,192,74757,1,8,0:0:0:0:
256,192,74896,1,0,0:0:0:0:
256,192,75036,1,8,0:0:0:0:
256,192,75105,1,0,0:0:0:0:
256,192,75175,1,8,0:0:0:0:
256,192,75315,1,0,0:0:0:0:
256,192,75594,1,0,0:0:0:0:
256,192,75873,1,12,0:0:0:0:
256,192,76152,1,0,0:0:0:0:
256,192,76292,1,8,0:0:0:0:
256,192,76431,1,0,0:0:0:0:
256,192,76501,1,0,0:0:0:0:
256,192,76571,1,8,0:0:0:0:
256,192,76640,1,0,0:0:0:0:
256,192,76710,1,8,0:0:0:0:
256,192,76780,1,8,0:0:0:0:
256,192,76850,1,0,0:0:0:0:
256,192,76989,1,12,0:0:0:0:
256,192,77268,1,0,0:0:0:0:
256,192,77408,1,8,0:0:0:0:
256,192,77547,1,0,0:0:0:0:
256,192,77617,1,0,0:0:0:0:
256,192,77687,1,8,0:0:0:0:
256,192,77757,1,0,0:0:0:0:
256,192,77826,1,8,0:0:0:0:
256,192,77896,1,0,0:0:0:0:
256,192,77966,1,8,0:0:0:0:
256,192,78105,1,4,0:0:0:0:
256,192,78385,1,0,0:0:0:0:
256,192,78524,1,8,0:0:0:0:
256,192,78664,1,0,0:0:0:0:
256,192,78733,1,0,0:0:0:0:
256,192,78803,1,8,0:0:0:0:
256,192,78873,1,8,0:0:0:0:
256,192,78943,1,0,0:0:0:0:
256,192,79012,1,0,0:0:0:0:
256,192,79082,1,8,0:0:0:0:
256,192,79222,1,4,0:0:0:0:
256,192,79501,1,0,0:0:0:0:
256,192,79640,1,8,0:0:0:0:
256,192,79710,1,8,0:0:0:0:
256,192,79780,1,0,0:0:0:0:
256,192,79850,1,0,0:0:0:0:
256,192,79919,1,8,0:0:0:0:
256,192,79989,1,0,0:0:0:0:
256,192,80059,1,0,0:0:0:0:
256,192,80129,1,0,0:0:0:0:
256,192,80199,1,8,0:0:0:0:
256,192,80478,1,4,0:0:0:0:
256,192,80670,1,12,0:0:0:0:
256,192,80856,1,4,0:0:0:0:
256,192,81062,1,12,0:0:0:0:
256,192,81234,1,12,0:0:0:0:
256,192,81411,1,4,0:0:0:0:
256,192,81597,1,4,0:0:0:0:
256,192,81776,1,12,0:0:0:0:
256,192,81965,1,12,0:0:0:0:
256,192,82144,1,4,0:0:0:0:
256,192,82323,1,12,0:0:0:0:
256,192,82496,1,4,0:0:0:0:
256,192,82710,1,12,0:0:0:0:
256,192,84942,5,12,0:0:0:0:
256,192,85082,12,0,87035,0:0:0:0:
256,192,89128,5,0,0:0:0:0:
256,192,89407,1,4,0:0:0:0:
256,192,89547,1,0,0:0:0:0:
256,192,89686,1,8,0:0:0:0:
256,192,89756,1,0,0:0:0:0:
256,192,89826,1,8,0:0:0:0:
256,192,89896,1,0,0:0:0:0:
256,192,89965,1,8,0:0:0:0:
256,192,90035,1,8,0:0:0:0:
256,192,90105,1,0,0:0:0:0:
256,192,90175,1,0,0:0:0:0:
256,192,90244,1,8,0:0:0:0:
256,192,90384,1,8,0:0:0:0:
256,192,90523,1,0,0:0:0:0:
256,192,90593,1,0,0:0:0:0:
256,192,90663,1,0,0:0:0:0:
256,192,90733,1,0,0:0:0:0:
256,192,90803,1,8,0:0:0:0:
256,192,90942,1,0,0:0:0:0:
256,192,91082,1,8,0:0:0:0:
257,184,91151,1,8,0:0:0:0:
257,184,91221,1,0,0:0:0:0:
256,192,91291,1,0,0:0:0:0:
256,192,91361,1,8,0:0:0:0:
256,192,91430,1,8,0:1:0:0:
256,192,91500,1,8,0:0:0:0:
256,192,91570,1,8,0:0:0:0:
256,192,91640,1,4,0:0:0:0:
256,192,91779,1,8,0:0:0:0:
256,192,91849,1,0,0:0:0:0:
256,192,91919,1,8,0:0:0:0:
256,192,92058,1,0,0:0:0:0:
256,192,92128,1,0,0:0:0:0:
256,192,92198,1,8,0:0:0:0:
256,192,92268,1,8,0:0:0:0:
256,192,92337,1,8,0:0:0:0:
256,192,92407,1,0,0:0:0:0:
256,192,92477,1,8,0:0:0:0:
250,197,92616,1,8,0:0:0:0:
258,197,92756,1,0,0:0:0:0:
250,197,92826,1,0,0:0:0:0:
256,192,92896,1,0,0:0:0:0:
269,186,92965,1,0,0:0:0:0:
256,192,93035,1,8,0:0:0:0:
256,192,93175,1,0,0:0:0:0:
256,192,93314,1,8,0:0:0:0:
256,192,93384,1,8,0:0:0:0:
256,192,93454,1,8,0:0:0:0:
256,192,93523,1,8,0:0:0:0:
256,192,93593,1,0,0:0:0:0:
253,191,93663,1,0,0:0:0:0:
256,192,93733,1,8,0:0:0:0:
256,192,93872,1,12,0:0:0:0:
256,192,94012,1,0,0:0:0:0:
256,192,94151,1,8,0:0:0:0:
256,192,94221,1,0,0:0:0:0:
256,192,94291,1,8,0:0:0:0:
256,192,94361,1,0,0:0:0:0:
256,192,94430,1,8,0:0:0:0:
256,192,94500,1,8,0:0:0:0:
256,192,94570,1,0,0:0:0:0:
256,192,94640,1,0,0:0:0:0:
256,192,94709,1,8,0:0:0:0:
256,192,94849,1,8,0:0:0:0:
256,192,94989,1,0,0:0:0:0:
256,192,95058,1,0,0:0:0:0:
256,192,95128,1,0,0:0:0:0:
256,192,95198,1,0,0:0:0:0:
256,192,95268,1,8,0:0:0:0:
256,192,95407,1,0,0:0:0:0:
256,192,95547,1,8,0:0:0:0:
256,192,95616,1,8,0:0:0:0:
256,192,95686,1,0,0:0:0:0:
256,192,95756,1,0,0:0:0:0:
256,192,95826,1,8,0:0:0:0:
256,192,95882,1,8,0:0:0:0:
256,192,95937,1,8,0:0:0:0:
256,192,95993,1,8,0:0:0:0:
256,192,96105,1,4,0:0:0:0:
256,192,96244,1,8,0:0:0:0:
256,192,96314,1,0,0:0:0:0:
256,192,96384,1,8,0:0:0:0:
256,192,96454,1,0,0:0:0:0:
256,192,96523,1,8,0:0:0:0:
256,192,96593,1,8,0:0:0:0:
256,192,96663,1,0,0:0:0:0:
256,192,96733,1,8,0:0:0:0:
256,192,96803,1,0,0:0:0:0:
256,192,96872,1,0,0:0:0:0:
256,192,96942,1,8,0:0:0:0:
256,192,97082,1,8,0:0:0:0:
256,192,97361,1,8,0:0:0:0:
256,192,97570,1,0,0:0:0:0:
256,192,97779,1,12,0:0:0:0:
256,192,98198,1,4,0:0:0:0:
256,192,98477,1,0,0:0:0:0:
256,192,98547,1,0,0:0:0:0:
256,192,98616,1,8,0:0:0:0:
256,192,98686,1,0,0:0:0:0:
256,192,98756,1,0,0:0:0:0:
256,192,98826,1,0,0:0:0:0:
256,192,98896,1,8,0:0:0:0:
256,192,98965,1,8,0:0:0:0:
256,192,99035,1,0,0:0:0:0:
256,192,99105,1,0,0:0:0:0:
256,192,99175,1,8,0:0:0:0:
256,160,99244,1,0,0:0:0:0:
256,160,99314,1,0,0:0:0:0:
256,160,99384,1,0,0:0:0:0:
256,192,99454,1,8,0:0:0:0:
256,192,99523,1,8,0:0:0:0:
256,192,99593,1,8,0:0:0:0:
256,160,99663,1,0,0:0:0:0:
256,192,99733,1,8,0:0:0:0:
256,192,99803,1,0,0:0:0:0:
256,192,99872,1,8,0:0:0:0:
256,192,99942,1,8,0:0:0:0:
256,192,100012,1,8,0:0:0:0:
256,192,100082,1,8,0:0:0:0:
256,192,100151,1,0,0:0:0:0:
256,192,100221,1,0,0:0:0:0:
256,192,100291,1,8,0:0:0:0:
256,192,100361,1,0,0:0:0:0:
256,192,100430,1,0,0:0:0:0:
256,192,100500,1,0,0:0:0:0:
256,192,100570,1,8,0:0:0:0:
256,192,100640,1,8,0:0:0:0:
256,192,100709,1,8,0:0:0:0:
256,192,100779,1,0,0:0:0:0:
256,192,100849,1,8,0:0:0:0:
256,192,100919,1,0,0:0:0:0:
256,192,100989,1,8,0:0:0:0:
256,192,101058,1,8,0:0:0:0:
256,192,101128,1,8,0:0:0:0:
256,192,101198,1,8,0:0:0:0:
256,192,101268,1,0,0:0:0:0:
256,192,101337,1,0,0:0:0:0:
256,192,101407,1,8,0:0:0:0:
256,192,101477,1,0,0:0:0:0:
256,192,101547,1,0,0:0:0:0:
256,192,101616,1,0,0:0:0:0:
256,192,101686,1,8,0:0:0:0:
256,192,101756,1,8,0:0:0:0:
256,192,101826,1,0,0:0:0:0:
256,192,101896,1,0,0:0:0:0:
256,192,101965,1,8,0:0:0:0:
256,192,102035,1,0,0:0:0:0:
256,192,102105,1,0,0:0:0:0:
256,192,102175,1,0,0:0:0:0:
256,192,102244,1,8,0:0:0:0:
256,192,102314,1,8,0:0:0:0:
256,192,102384,1,8,0:0:0:0:
256,192,102454,1,0,0:0:0:0:
256,192,102523,1,8,0:0:0:0:
256,192,102593,1,8,0:0:0:0:
256,192,102663,1,4,0:0:0:0:
256,160,103082,1,0,0:0:0:0:
256,160,103151,1,8,0:0:0:0:
256,160,103221,1,0,0:0:0:0:
256,160,103291,1,8,0:0:0:0:
256,160,103361,1,0,0:0:0:0:
256,192,103430,1,8,0:0:0:0:
256,192,103500,1,0,0:0:0:0:
256,160,103570,1,8,0:0:0:0:
256,160,103640,1,0,0:0:0:0:
256,160,103709,1,8,0:0:0:0:
256,160,103779,1,0,0:0:0:0:
256,160,103849,1,8,0:0:0:0:
256,160,103919,1,0,0:0:0:0:
256,160,103989,1,8,0:0:0:0:
253,170,104058,1,0,0:0:0:0:
256,192,104128,1,8,0:0:0:0:
256,192,104198,1,0,0:0:0:0:
256,192,104268,1,8,0:0:0:0:
256,192,104337,1,0,0:0:0:0:
256,192,104407,1,0,0:0:0:0:
256,192,104477,1,8,0:0:0:0:
256,192,104547,1,8,0:0:0:0:
256,192,104616,1,8,0:0:0:0:
256,192,104686,1,8,0:0:0:0:
256,192,104756,1,8,0:0:0:0:
256,192,104826,1,8,0:0:0:0:
256,192,104896,1,4,0:0:0:0:
256,192,105175,1,0,0:0:0:0:
256,192,105244,1,0,0:0:0:0:
256,192,105314,1,8,0:0:0:0:
256,192,105454,1,0,0:0:0:0:
256,192,105523,1,0,0:0:0:0:
256,192,105593,1,8,0:0:0:0:
256,192,105733,1,0,0:0:0:0:
256,192,105803,1,0,0:0:0:0:
256,192,105872,1,8,0:0:0:0:
256,192,105942,1,8,0:0:0:0:
256,192,106012,1,8,0:0:0:0:
256,192,106082,1,8,0:0:0:0:
256,192,107128,1,12,0:0:0:0:
256,192,107547,1,12,0:0:0:0:
256,192,107826,1,8,0:0:0:0:
256,192,107896,1,0,0:0:0:0:
256,192,107965,1,8,0:0:0:0:
256,192,108035,1,0,0:0:0:0:
256,192,108105,1,8,0:0:0:0:
256,192,108175,1,0,0:0:0:0:
256,192,108244,1,12,0:0:0:0:
256,192,108663,1,12,0:0:0:0:
256,192,108942,1,8,0:0:0:0:
256,192,109012,1,0,0:0:0:0:
256,192,109082,1,8,0:0:0:0:
256,192,109151,1,0,0:0:0:0:
256,192,109221,1,8,0:0:0:0:
256,192,109291,1,0,0:0:0:0:
256,192,109361,1,12,0:0:0:0:
256,192,109779,1,12,0:0:0:0:
256,192,110058,1,8,0:0:0:0:
256,192,110128,1,0,0:0:0:0:
256,192,110198,1,8,0:0:0:0:
256,192,110268,1,0,0:0:0:0:
256,192,110337,1,8,0:0:0:0:
256,192,110407,1,0,0:0:0:0:
256,192,110477,1,8,0:0:0:0:
256,192,110547,1,0,0:0:0:0:
256,192,110616,1,8,0:0:0:0:
256,192,110756,1,0,0:0:0:0:
256,192,110896,1,0,0:0:0:0:
256,192,111035,1,8,0:0:0:0:
256,192,111175,1,0,0:0:0:0:
256,192,111314,1,8,0:0:0:0:
256,192,111593,1,0,0:0:0:0:
256,192,111663,1,0,0:0:0:0:
256,192,111733,1,0,0:0:0:0:
256,192,111803,1,0,0:0:0:0:
256,192,111872,1,0,0:0:0:0:
256,192,111942,1,0,0:0:0:0:
256,192,112012,1,8,0:0:0:0:
256,192,112291,1,8,0:0:0:0:
256,192,112709,1,8,0:0:0:0:
256,128,112779,1,8,0:0:0:0:
256,192,112849,1,8,0:0:0:0:
256,192,112919,1,8,0:0:0:0:
256,192,112989,1,8,0:0:0:0:
256,192,113058,1,8,0:0:0:0:
256,192,113128,1,0,0:0:0:0:
256,192,113407,1,8,0:0:0:0:
256,192,113826,1,8,0:0:0:0:
256,128,113896,1,8,0:0:0:0:
256,128,113965,1,8,0:0:0:0:
256,192,114035,1,8,0:0:0:0:
256,192,114105,1,8,0:0:0:0:
259,187,114175,1,8,0:0:0:0:
256,192,114244,1,0,0:0:0:0:
0,182,114523,2,0,L|313:181,1,280.350009731999
256,192,115082,1,8,0:0:0:0:
256,192,115221,1,0,0:0:0:0:
256,192,115291,1,0,0:0:0:0:
256,192,115361,1,0,0:0:0:0:
256,192,115430,1,0,0:0:0:0:
256,192,115500,1,8,0:0:0:0:
256,192,115640,1,0,0:0:0:0:
256,192,115779,1,8,0:0:0:0:
256,192,116058,1,12,0:0:0:0:
256,192,117314,1,0,0:0:0:0:
256,192,118430,1,8,0:0:0:0:
256,192,119547,1,0,0:0:0:0:
256,192,120663,1,0,0:0:0:0:
256,192,120803,1,0,0:0:0:0:
256,192,120942,1,8,0:0:0:0:
256,192,121221,1,8,0:0:0:0:
256,192,121500,1,8,0:0:0:0:
256,192,121779,1,0,0:0:0:0:
256,192,121919,1,0,0:0:0:0:
256,192,122058,1,8,0:0:0:0:
256,192,122337,1,8,0:0:0:0:
256,192,122616,1,8,0:0:0:0:
256,192,122896,1,0,0:0:0:0:
256,192,123035,1,0,0:0:0:0:
256,192,123175,1,8,0:0:0:0:
256,192,123454,1,8,0:0:0:0:
256,192,123733,1,8,0:0:0:0:
256,192,124012,1,0,0:0:0:0:
256,192,124151,1,0,0:0:0:0:
256,192,124291,1,8,0:0:0:0:
256,192,124570,1,8,0:0:0:0:
256,192,124849,1,0,0:0:0:0:
256,192,124989,1,12,0:0:0:0:
256,192,125268,1,8,0:0:0:0:
256,192,125337,1,0,0:0:0:0:
256,192,125407,1,8,0:0:0:0:
256,192,125477,1,8,0:0:0:0:
256,192,125547,1,8,0:0:0:0:
256,192,125616,1,0,0:0:0:0:
256,192,125686,1,8,0:0:0:0:
256,192,125756,1,8,0:0:0:0:
256,192,125826,1,0,0:0:0:0:
256,192,125896,1,0,0:0:0:0:
256,192,125965,1,8,0:0:0:0:
256,192,126105,1,4,0:0:0:0:
256,192,126384,1,0,0:0:0:0:
256,192,126454,1,0,0:0:0:0:
256,192,126523,1,8,0:0:0:0:
256,192,126593,1,8,0:0:0:0:
256,192,126663,1,8,0:0:0:0:
256,192,126733,1,0,0:0:0:0:
252,188,126803,1,8,0:0:0:0:
252,188,126872,1,0,0:0:0:0:
252,188,126942,1,0,0:0:0:0:
252,188,127012,1,0,0:0:0:0:
252,188,127082,1,8,0:0:0:0:
252,188,127221,1,4,0:0:0:0:
256,192,127500,1,8,0:0:0:0:
256,192,127570,1,0,0:0:0:0:
256,192,127640,1,8,0:0:0:0:
256,192,127709,1,0,0:0:0:0:
256,192,127779,1,0,0:0:0:0:
256,192,127849,1,0,0:0:0:0:
256,192,127919,1,8,0:0:0:0:
256,192,127989,1,8,0:0:0:0:
256,192,128058,1,8,0:0:0:0:
256,192,128128,1,0,0:0:0:0:
256,192,128198,1,8,0:0:0:0:
256,192,128337,1,4,0:0:0:0:
256,192,128616,1,0,0:0:0:0:
256,192,128686,1,0,0:0:0:0:
256,192,128756,1,8,0:0:0:0:
256,192,128826,1,0,0:0:0:0:
256,192,128896,1,8,0:0:0:0:
256,192,128965,1,0,0:0:0:0:
256,192,129035,1,8,0:0:0:0:
256,192,129105,1,8,0:0:0:0:
256,192,129175,1,0,0:0:0:0:
256,192,129244,1,0,0:0:0:0:
256,192,129314,1,8,0:0:0:0:
256,192,131826,5,4,0:0:0:0:
256,192,132000,1,4,0:0:0:0:
256,192,132175,1,12,0:0:0:0:
256,192,132349,1,4,0:0:0:0:
256,192,132523,1,12,0:0:0:0:
256,192,132698,1,12,0:0:0:0:
256,192,132872,1,4,0:0:0:0:
256,192,133047,1,4,0:0:0:0:
256,192,133221,1,12,0:0:0:0:
256,192,133919,1,4,0:0:0:0:
256,192,134198,1,0,0:0:0:0:
256,192,134337,1,8,0:0:0:0:
256,192,134407,1,8,0:0:0:0:
256,192,134477,1,0,0:0:0:0:
256,192,134547,1,0,0:0:0:0:
256,192,134616,1,0,0:0:0:0:
256,192,134686,1,0,0:0:0:0:
256,192,134756,1,8,0:0:0:0:
256,192,134896,1,0,0:0:0:0:
256,192,135035,1,12,0:0:0:0:
256,192,135314,1,0,0:0:0:0:
256,192,135454,1,8,0:0:0:0:
252,197,135523,1,8,0:0:0:0:
256,192,135593,1,8,0:0:0:0:
256,192,135663,1,0,0:0:0:0:
256,192,135733,1,8,0:0:0:0:
256,192,135803,1,8,0:0:0:0:
256,192,135872,1,0,0:0:0:0:
256,192,136012,1,8,0:0:0:0:
256,192,136151,1,4,0:0:0:0:
256,192,136430,1,0,0:0:0:0:
256,192,136570,1,8,0:0:0:0:
256,192,136640,1,0,0:0:0:0:
256,192,136709,1,0,0:0:0:0:
256,192,136779,1,0,0:0:0:0:
256,192,136849,1,8,0:0:0:0:
256,192,136919,1,8,0:0:0:0:
256,192,136989,1,8,0:0:0:0:
256,192,137058,1,0,0:0:0:0:
256,192,137128,1,8,0:0:0:0:
256,192,137198,1,0,0:0:0:0:
256,192,137268,1,8,0:0:0:0:
256,192,137547,1,8,0:0:0:0:
256,192,137826,1,0,0:0:0:0:
256,192,138105,1,0,0:0:0:0:
256,192,138384,1,12,0:0:0:0:
256,192,138663,1,0,0:0:0:0:
256,192,138803,1,8,0:0:0:0:
256,192,138942,1,0,0:0:0:0:
256,192,139012,1,8,0:0:0:0:
256,192,139082,1,8,0:0:0:0:
256,192,139151,1,0,0:0:0:0:
256,192,139221,1,8,0:0:0:0:
256,192,139361,1,0,0:0:0:0:
256,192,139430,1,0,0:0:0:0:
256,192,139500,1,8,0:0:0:0:
256,192,139570,1,8,0:0:0:0:
256,192,139640,1,0,0:0:0:0:
256,192,139709,1,0,0:0:0:0:
256,192,139779,1,8,0:0:0:0:
256,192,139919,1,8,0:0:0:0:
256,192,139989,1,0,1:0:0:0:
256,192,140058,1,8,0:0:0:0:
256,192,140128,1,8,0:0:0:0:
256,192,140198,1,0,0:0:0:0:
256,192,140268,1,0,0:0:0:0:
256,192,140337,1,8,0:0:0:0:
256,192,140477,1,0,0:0:0:0:
256,192,140616,1,8,0:0:0:0:
256,192,140686,1,8,0:0:0:0:
256,192,140756,1,8,0:0:0:0:
260,197,140826,1,0,0:0:0:0:
256,192,140896,1,8,0:0:0:0:
256,192,140965,1,8,0:0:0:0:
256,192,141035,1,0,0:0:0:0:
256,192,141105,1,0,0:0:0:0:
256,192,141175,1,8,0:0:0:0:
256,192,141314,1,0,0:0:0:0:
256,192,141454,1,8,0:0:0:0:
256,192,141523,1,0,0:0:0:0:
256,192,141593,1,0,0:0:0:0:
256,192,141663,1,0,0:0:0:0:
256,192,141733,1,8,0:0:0:0:
256,192,141872,1,0,0:0:0:0:
256,192,142012,1,8,0:0:0:0:
256,192,142082,1,0,0:0:0:0:
256,192,142151,1,8,0:0:0:0:
256,192,142291,1,0,0:0:0:0:
256,192,142570,1,8,0:0:0:0:
256,192,142849,1,4,0:0:0:0:
256,192,143128,1,0,0:0:0:0:
256,192,143268,1,8,0:0:0:0:
256,192,143337,1,0,0:0:0:0:
256,192,143407,1,0,0:0:0:0:
256,192,143477,1,0,0:0:0:0:
256,192,143547,1,0,0:0:0:0:
256,192,143616,1,0,0:0:0:0:
256,192,143686,1,8,0:0:0:0:
256,192,143826,1,0,0:0:0:0:
256,192,143965,1,12,0:0:0:0:
256,192,144244,1,0,0:0:0:0:
256,192,144384,1,8,0:0:0:0:
256,192,144454,1,8,0:0:0:0:
256,192,144523,1,8,0:0:0:0:
256,192,144593,1,0,0:0:0:0:
256,192,144663,1,8,0:0:0:0:
256,192,144733,1,0,0:0:0:0:
256,192,144803,1,8,0:0:0:0:
256,192,144942,1,0,0:0:0:0:
256,192,145082,1,12,0:0:0:0:
256,192,145361,1,0,0:0:0:0:
256,192,145500,1,8,0:0:0:0:
256,192,145570,1,8,0:0:0:0:
256,192,145640,1,0,0:0:0:0:
256,192,145709,1,0,0:0:0:0:
256,192,145779,1,8,0:0:0:0:
256,192,145849,1,0,0:0:0:0:
256,192,145919,1,8,0:0:0:0:
256,192,145989,1,0,0:0:0:0:
256,192,146058,1,8,0:0:0:0:
256,192,146128,1,8,0:0:0:0:
256,192,146198,1,0,0:0:0:0:
256,192,146477,1,8,0:0:0:0:
256,192,146756,1,8,0:0:0:0:
256,192,147035,1,0,0:0:0:0:
256,192,147314,1,12,0:0:0:0:
256,192,147593,1,0,0:0:0:0:
256,192,147733,1,8,0:0:0:0:
256,192,147872,1,0,0:0:0:0:
256,192,147942,1,0,0:0:0:0:
256,192,148012,1,8,0:0:0:0:
256,192,148082,1,0,0:0:0:0:
256,192,148151,1,8,0:0:0:0:
256,192,148291,1,0,0:0:0:0:
250,192,148361,1,0,0:0:0:0:
256,192,148430,1,8,0:0:0:0:
256,192,148500,1,0,0:0:0:0:
256,192,148570,1,8,0:0:0:0:
256,192,148640,1,8,0:0:0:0:
256,192,148709,1,0,0:0:0:0:
256,192,148849,1,8,0:0:0:0:
256,192,148919,1,0,1:0:0:0:
256,192,148989,1,8,0:0:0:0:
256,192,149058,1,8,0:0:0:0:
256,192,149128,1,0,0:0:0:0:
256,192,149198,1,0,0:0:0:0:
256,192,149268,1,8,0:0:0:0:
256,192,149407,1,0,0:0:0:0:
256,192,149547,1,8,0:0:0:0:
256,192,149616,1,0,0:0:0:0:
256,192,149686,1,8,0:0:0:0:
254,186,149756,1,8,0:0:0:0:
256,192,149826,1,8,0:0:0:0:
252,185,149896,1,0,0:0:0:0:
256,192,149965,1,8,0:0:0:0:
256,192,150105,1,0,0:0:0:0:
256,192,150175,1,0,1:0:0:0:
256,192,150244,1,8,0:0:0:0:
256,192,150384,1,0,0:0:0:0:
256,192,150454,1,0,0:0:0:0:
256,192,150523,1,8,0:0:0:0:
256,192,150593,1,8,0:0:0:0:
256,192,150663,1,8,0:0:0:0:
256,192,150803,1,0,0:0:0:0:
256,192,150942,1,8,0:0:0:0:
256,192,151012,1,0,0:0:0:0:
256,192,151082,1,8,0:0:0:0:
256,192,151221,1,0,0:0:0:0:
256,192,151500,1,0,0:0:0:0:
256,192,151779,1,12,0:0:0:0:
256,192,152058,1,0,0:0:0:0:
256,192,152198,1,8,0:0:0:0:
256,192,152337,1,0,0:0:0:0:
256,192,152407,1,0,0:0:0:0:
256,192,152477,1,8,0:0:0:0:
256,192,152547,1,0,0:0:0:0:
256,192,152616,1,8,0:0:0:0:
256,192,152686,1,8,0:0:0:0:
256,192,152756,1,0,0:0:0:0:
256,192,152896,1,12,0:0:0:0:
256,192,153175,1,0,0:0:0:0:
256,192,153314,1,8,0:0:0:0:
256,192,153454,1,0,0:0:0:0:
256,192,153523,1,0,0:0:0:0:
256,192,153593,1,8,0:0:0:0:
256,192,153663,1,0,0:0:0:0:
256,192,153733,1,8,0:0:0:0:
256,192,153803,1,0,0:0:0:0:
256,192,153872,1,8,0:0:0:0:
256,192,154012,1,4,0:0:0:0:
256,192,154291,1,0,0:0:0:0:
256,192,154430,1,8,0:0:0:0:
256,192,154570,1,0,0:0:0:0:
256,192,154640,1,0,0:0:0:0:
256,192,154709,1,8,0:0:0:0:
256,192,154779,1,8,0:0:0:0:
256,192,154849,1,0,0:0:0:0:
256,192,154919,1,0,0:0:0:0:
256,192,154989,1,8,0:0:0:0:
256,192,155128,1,4,0:0:0:0:
256,192,155407,1,0,0:0:0:0:
256,192,155547,1,8,0:0:0:0:
256,192,155616,1,8,0:0:0:0:
256,192,155686,1,0,0:0:0:0:
256,192,155756,1,0,0:0:0:0:
256,192,155826,1,8,0:0:0:0:
256,192,155896,1,0,0:0:0:0:
256,192,155965,1,0,0:0:0:0:
256,192,156035,1,0,0:0:0:0:
256,192,156105,1,8,0:0:0:0:
256,192,156523,1,4,0:0:0:0:
256,192,156942,1,4,0:0:0:0:
256,192,157361,1,4,0:0:0:0:
256,192,157779,1,4,0:0:0:0:
256,192,158198,1,4,0:0:0:0:
256,192,158337,1,8,0:0:0:0:
256,192,158407,1,8,0:0:0:0:
256,192,158477,1,8,0:0:0:0:
256,192,158547,1,8,0:0:0:0:
256,192,158616,1,4,0:0:0:0:
256,192,160709,5,0,0:0:0:0:
256,192,161128,1,8,0:0:0:0:
256,192,161407,1,8,0:0:0:0:
256,192,161686,1,8,0:0:0:0:
256,192,161965,1,8,0:0:0:0:
256,192,162244,1,8,0:0:0:0:
256,192,162523,1,8,0:0:0:0:
256,192,162663,1,0,0:0:0:0:
256,192,162803,1,8,0:0:0:0:
256,192,162942,1,0,0:0:0:0:
256,192,163082,1,8,0:0:0:0:
256,192,163361,1,8,0:0:0:0:
256,192,163640,1,8,0:0:0:0:
256,192,163919,1,8,0:0:0:0:
256,192,164198,1,8,0:0:0:0:
256,192,164477,1,8,0:0:0:0:
256,192,164756,1,8,0:0:0:0:
256,192,165035,1,8,0:0:0:0:
256,192,165175,1,0,0:0:0:0:
256,192,165454,1,8,0:0:0:0:
256,192,165593,1,0,0:0:0:0:
256,192,165733,1,8,0:0:0:0:
256,192,165872,1,8,0:0:0:0:
256,192,166012,1,8,0:0:0:0:
256,192,166151,1,0,0:0:0:0:
256,192,166291,1,0,0:0:0:0:
256,192,166430,1,8,0:0:0:0:
256,192,166709,1,0,0:0:0:0:
256,192,166849,1,8,0:0:0:0:
256,192,167128,1,0,0:0:0:0:
256,192,169082,1,0,0:0:0:0:
256,192,169151,1,0,0:0:0:0:
256,192,169221,1,8,0:0:0:0:
256,192,169640,1,4,0:0:0:0:
256,192,170058,1,4,0:0:0:0:
256,192,170198,1,0,0:0:0:0:
256,192,170268,1,0,0:0:0:0:
448,64,170337,1,8,0:0:0:0:
256,192,170896,1,8,0:0:0:0:
256,192,170965,1,0,0:0:0:0:
256,192,171035,1,0,0:0:0:0:
256,192,171105,1,8,0:0:0:0:
256,192,171175,1,8,0:0:0:0:
256,192,171244,1,0,0:0:0:0:
256,192,171314,1,8,0:0:0:0:
256,192,171384,1,0,0:0:0:0:
256,192,171454,1,8,0:0:0:0:
256,192,171523,1,8,0:0:0:0:
256,192,171593,1,8,0:0:0:0:
256,192,171663,1,0,0:0:0:0:
256,192,171733,1,8,0:0:0:0:
256,192,171872,1,0,0:0:0:0:
256,192,171942,1,0,0:0:0:0:
256,192,172012,1,8,0:0:0:0:
256,192,172151,1,0,0:0:0:0:
256,192,172430,1,0,0:0:0:0:
256,192,172709,1,8,0:0:0:0:
256,192,172779,1,0,0:0:0:0:
256,192,172849,1,8,0:0:0:0:
256,192,172919,1,0,0:0:0:0:
256,192,172989,1,8,0:0:0:0:
256,192,173965,1,0,0:0:0:0:
256,192,175082,1,0,0:0:0:0:
256,192,175361,1,4,0:0:0:0:
256,192,175500,1,0,0:0:0:0:
256,192,175640,1,8,0:0:0:0:
256,192,175709,1,0,0:0:0:0:
256,192,175779,1,8,0:0:0:0:
256,192,175849,1,0,0:0:0:0:
256,192,175919,1,8,0:0:0:0:
256,192,175988,1,8,0:0:0:0:
256,192,176058,1,0,0:0:0:0:
256,192,176128,1,0,0:0:0:0:
256,192,176198,1,8,0:0:0:0:
256,192,176337,1,8,0:0:0:0:
256,192,176477,1,0,0:0:0:0:
256,192,176547,1,0,0:0:0:0:
256,192,176616,1,0,0:0:0:0:
256,192,176686,1,0,0:0:0:0:
256,192,176756,1,8,0:0:0:0:
256,192,176895,1,0,0:0:0:0:
256,192,177035,1,8,0:0:0:0:
257,184,177105,1,8,0:0:0:0:
257,184,177174,1,0,0:0:0:0:
256,192,177244,1,0,0:0:0:0:
256,192,177314,1,8,0:0:0:0:
256,192,177370,1,8,0:1:0:0:
256,192,177426,1,8,0:0:0:0:
256,192,177481,1,8,0:0:0:0:
256,192,177593,1,4,0:0:0:0:
256,192,177733,1,8,0:0:0:0:
256,192,177802,1,0,0:0:0:0:
256,192,177872,1,8,0:0:0:0:
256,192,178012,1,0,0:0:0:0:
256,192,178081,1,0,0:0:0:0:
256,192,178151,1,8,0:0:0:0:
256,192,178221,1,8,0:0:0:0:
256,192,178291,1,8,0:0:0:0:
256,192,178361,1,0,0:0:0:0:
256,192,178430,1,8,0:0:0:0:
250,197,178570,1,8,0:0:0:0:
258,197,178709,1,0,0:0:0:0:
250,197,178779,1,0,0:0:0:0:
256,192,178849,1,0,0:0:0:0:
269,186,178919,1,0,0:0:0:0:
256,192,178988,1,8,0:0:0:0:
256,192,179128,1,0,0:0:0:0:
256,192,179267,1,8,0:0:0:0:
256,192,179337,1,8,0:0:0:0:
256,192,179407,1,8,0:0:0:0:
256,192,179477,1,8,0:0:0:0:
256,192,179547,1,0,0:0:0:0:
253,191,179616,1,0,0:0:0:0:
256,192,179686,1,8,0:0:0:0:
256,192,179826,1,12,0:0:0:0:
256,192,179965,1,0,0:0:0:0:
256,192,180105,1,8,0:0:0:0:
256,192,180174,1,0,0:0:0:0:
256,192,180244,1,8,0:0:0:0:
256,192,180314,1,0,0:0:0:0:
256,192,180384,1,8,0:0:0:0:
256,192,180454,1,8,0:0:0:0:
256,192,180523,1,0,0:0:0:0:
256,192,180593,1,0,0:0:0:0:
256,192,180663,1,8,0:0:0:0:
256,192,180802,1,8,0:0:0:0:
256,192,180942,1,0,0:0:0:0:
256,192,181012,1,0,0:0:0:0:
256,192,181081,1,0,0:0:0:0:
256,192,181151,1,0,0:0:0:0:
256,192,181221,1,8,0:0:0:0:
256,192,181361,1,0,0:0:0:0:
256,192,181500,1,8,0:0:0:0:
256,192,181570,1,8,0:0:0:0:
256,192,181640,1,0,0:0:0:0:
256,192,181709,1,0,0:0:0:0:
256,192,181779,1,8,0:0:0:0:
256,192,181835,1,8,0:0:0:0:
256,192,181891,1,8,0:0:0:0:
256,192,181947,1,8,0:0:0:0:
256,192,182058,1,4,0:0:0:0:
256,192,182198,1,8,0:0:0:0:
256,192,182267,1,0,0:0:0:0:
256,192,182337,1,8,0:0:0:0:
256,192,182407,1,0,0:0:0:0:
256,192,182477,1,8,0:0:0:0:
256,192,182547,1,8,0:0:0:0:
256,192,182616,1,0,0:0:0:0:
256,192,182686,1,8,0:0:0:0:
256,192,182756,1,0,0:0:0:0:
256,192,182826,1,0,0:0:0:0:
256,192,182895,1,8,0:0:0:0:
256,192,182965,1,8,0:0:0:0:
256,192,183035,1,8,0:0:0:0:
256,192,183105,1,0,0:0:0:0:
256,192,183174,1,8,0:0:0:0:
256,192,183244,1,0,0:0:0:0:
256,192,183314,1,8,0:0:0:0:
256,192,183384,1,8,0:0:0:0:
256,192,183454,1,0,0:0:0:0:
256,192,183523,1,0,0:0:0:0:
256,192,183593,1,8,0:0:0:0:
256,192,183663,1,0,0:0:0:0:
256,192,183733,1,8,0:0:0:0:
256,192,183802,1,0,0:0:0:0:
256,192,183872,1,0,0:0:0:0:
256,192,183942,1,0,0:0:0:0:
256,192,184012,1,8,0:0:0:0:
256,192,184151,1,4,0:0:0:0:
256,192,184570,1,8,0:0:0:0:
256,192,185128,1,8,0:0:0:0:
256,192,185407,1,8,0:0:0:0:
256,192,185547,1,8,0:0:0:0:
256,192,185616,1,0,0:0:0:0:
256,192,185686,1,0,0:0:0:0:
256,192,185756,1,0,0:0:0:0:
256,192,185826,1,8,0:0:0:0:
256,192,185965,1,0,0:0:0:0:
256,192,186105,1,8,0:0:0:0:
256,192,186384,1,4,0:0:0:0:
288,192,186663,1,0,0:0:0:0:
288,192,186802,1,12,0:0:0:0:
288,192,186942,1,0,0:0:0:0:
288,192,187012,1,0,0:0:0:0:
288,192,187081,1,12,0:0:0:0:
288,192,187221,1,0,0:0:0:0:
288,192,187360,1,8,0:0:0:0:
288,192,187430,1,8,0:0:0:0:
288,192,187500,1,0,0:0:0:0:
288,192,187570,1,0,0:0:0:0:
288,192,187640,1,12,0:0:0:0:
288,192,187779,1,0,0:0:0:0:
288,192,187919,1,8,0:0:0:0:
288,192,188058,1,0,0:0:0:0:
288,192,188337,1,8,0:0:0:0:
288,192,188616,1,4,0:0:0:0:
288,192,188895,1,0,0:0:0:0:
288,192,189035,1,8,0:0:0:0:
288,192,189105,1,0,0:0:0:0:
288,192,189174,1,8,0:0:0:0:
288,192,189244,1,0,0:0:0:0:
288,192,189314,1,8,0:0:0:0:
288,192,189384,1,8,0:0:0:0:
288,192,189454,1,0,0:0:0:0:
288,192,189593,1,8,0:0:0:0:
256,192,189663,1,0,0:0:0:0:
288,192,189733,1,0,0:0:0:0:
288,192,189802,1,0,0:0:0:0:
288,192,189872,1,8,0:0:0:0:
288,192,190012,1,0,0:0:0:0:
288,192,190291,1,8,0:0:0:0:
288,192,190570,1,0,0:0:0:0:
256,192,190849,1,4,0:0:0:0:
256,192,191058,1,4,0:0:0:0:
256,192,191267,1,4,0:0:0:0:
256,192,191477,1,4,0:0:0:0:
256,192,191686,1,4,0:0:0:0:
256,192,191895,1,4,0:0:0:0:
256,192,192802,1,4,0:0:0:0:
