osu file format v14

[General]
AudioFilename: audio.mp3
AudioLeadIn: 0
PreviewTime: 173132
Countdown: 0
SampleSet: Normal
StackLeniency: 0.7
Mode: 1
LetterboxInBreaks: 0
EpilepsyWarning: 1
WidescreenStoryboard: 1

[Editor]
Bookmarks: 13492,22283,25771,31213,44608,49073,58003,66934,84934,89399,98190,107120,116050,120655,124841,131817,133910,158608,169073,175073
DistanceSpacing: 3.1
BeatDivisor: 3
GridSize: 32
TimelineZoom: 2.7

[Metadata]
Title:Tenohira de odoru
TitleUnicode:掌で踊る
Artist:sokoninaru
ArtistUnicode:そこに鳴る
Creator:krytwal
Version:Futsuu
Source:
Tags:metal jmetal j-metal rock j-rock jrock progressive heavy heavy-rock heavyrock japanese male vocals 鈴木重厚 Juko Suzuki 藤原美咲 Misaki Fujiwara koga records ゼロ zero Capu spencer1404
BeatmapID:3453177
BeatmapSetID:1676940

[Difficulty]
HPDrainRate:7
CircleSize:5
OverallDifficulty:4
ApproachRate:5
SliderMultiplier:1.4
SliderTickRate:1

[Events]
//Background and Video events
0,0,"bg.jpg",0,145
//Break Periods
2,306,3371
2,26957,29603
2,44817,47882
2,87236,87929
2,116259,119464
2,129515,130626
//Storyboard Layer 0 (Background)
//Storyboard Layer 1 (Fail)
//Storyboard Layer 2 (Pass)
//Storyboard Layer 3 (Foreground)
//Storyboard Layer 4 (Overlay)
//Storyboard Sound Samples

[TimingPoints]
106,279.06976744186,4,1,0,75,1,0
106,-100,4,1,0,75,0,0
135,-100,4,1,0,30,0,0
4426,-100,4,1,0,75,0,0
9031,-100,4,1,0,85,0,0
13501,-100,4,1,0,100,0,1
21175,-100,4,1,0,84,0,0
22292,-100,4,1,0,100,0,1
25780,-100,4,1,0,100,0,0
26054,-100,4,1,0,60,0,0
26752,-100,4,1,0,80,0,0
26891,-100,4,1,0,30,0,0
30798,-100,4,1,0,70,0,0
31217,-100,4,1,0,85,0,0
44752,-100,4,1,0,30,0,0
49042,-100,4,1,0,85,0,0
51449,-100,4,1,0,40,0,0
53124,-100,4,1,0,85,0,0
57101,-100,4,1,0,30,0,0
58012,-100,4,1,0,100,0,1
61361,-100,4,1,0,84,0,0
62478,-100,4,1,0,90,0,1
65966,-100,4,1,0,90,0,0
66101,-100,4,1,0,60,0,0
66943,-100,4,1,0,100,0,1
70292,-100,4,1,0,84,0,0
71408,-100,4,1,0,90,0,1
74896,-100,4,1,0,90,0,0
75031,-100,4,1,0,60,0,0
75873,-100,4,1,0,100,0,1
80670,279.06976744186,4,1,0,100,1,9
81062,279.06976744186,4,1,0,100,1,9
81234,279.06976744186,4,1,0,100,1,9
81411,279.06976744186,4,1,0,100,1,9
81597,279.06976744186,4,1,0,100,1,1
81776,279.06976744186,4,1,0,100,1,9
81965,279.06976744186,4,1,0,100,1,9
82144,279.06976744186,4,1,0,100,1,9
82323,279.06976744186,4,1,0,100,1,9
82496,279.06976744186,4,1,0,100,1,9
82710,279.06976744186,4,1,0,100,1,0
82710,-100,4,1,0,100,0,0
82810,-100,4,1,0,60,0,0
84938,-100,4,1,0,70,0,0
86054,-100,4,1,0,60,0,0
89124,-100,4,1,0,70,0,0
89407,-100,4,1,0,100,0,1
97082,-100,4,1,0,100,0,0
97217,-100,4,1,0,60,0,0
97775,-100,4,1,0,80,0,0
106147,-100,4,1,0,30,0,0
107124,-100,4,1,0,80,0,0
116194,-100,4,1,0,40,0,0
117310,-100,4,1,0,40,0,0
118426,-100,4,1,0,40,0,0
119542,-100,4,1,0,40,0,0
120659,-100,4,1,0,70,0,0
124984,-100,4,1,0,85,0,0
129449,-100,4,1,0,30,0,0
131821,-100,4,1,0,90,0,0
133919,-100,4,1,0,100,0,1
137268,-100,4,1,0,84,0,0
138384,-100,4,1,0,90,0,1
141872,-100,4,1,0,90,0,0
142007,-100,4,1,0,60,0,0
142849,-100,4,1,0,100,0,1
146198,-100,4,1,0,84,0,0
147314,-100,4,1,0,100,0,1
150803,-100,4,1,0,100,0,0
150938,-100,4,1,0,80,0,0
151779,-100,4,1,0,100,0,1
156105,-100,4,1,0,100,0,0
156380,-100,4,1,0,80,0,0
158682,-100,4,1,0,30,0,0
160705,-100,4,1,0,75,0,0
167542,-100,4,1,0,30,0,0
169077,-100,4,1,0,80,0,0
173124,-100,4,1,0,30,0,0
173961,-100,4,1,0,75,0,0
175077,-100,4,1,0,84,0,0
175361,279.06976744186,4,1,0,75,1,0
175361,-100,4,1,0,100,0,1
184151,-100,4,1,0,80,0,0
185403,-100,4,1,0,80,0,0
190849,-100,4,1,0,80,0,1
191891,-100,4,1,0,80,0,1
191895,-100,4,1,0,80,0,0
192105,-100,4,1,0,30,0,0
192802,-100,4,1,0,80,0,1
192942,-100,4,1,0,80,0,0

[HitObjects]
256,192,106,5,0,0:0:0:0:
0,0,4571,5,4,0:0:0:0:
0,0,4989,1,4,0:0:0:0:
256,192,5408,1,8,0:0:0:0:
256,192,5966,1,8,0:0:0:0:
256,192,6524,1,8,0:0:0:0:
256,192,6664,1,8,0:0:0:0:
0,0,6803,1,4,0:0:0:0:
0,0,7222,1,4,0:0:0:0:
256,192,7640,1,8,0:0:0:0:
0,0,7919,1,0,0:0:0:0:
0,0,8199,1,8,0:0:0:0:
256,192,8478,1,8,0:0:0:0:
256,192,8757,1,0,0:0:0:0:
256,192,9036,1,8,0:0:0:0:
256,192,9175,1,8,0:0:0:0:
256,192,9454,1,0,0:0:0:0:
256,192,9594,1,0,0:0:0:0:
256,192,9873,1,8,0:0:0:0:
256,192,10152,1,8,0:0:0:0:
256,192,10292,1,0,0:0:0:0:
256,192,10431,1,8,0:0:0:0:
262,189,10571,1,8,0:0:0:0:
256,192,10710,1,0,0:0:0:0:
256,192,11268,1,8,0:0:0:0:
262,189,11547,1,0,0:0:0:0:
256,192,11687,1,8,0:0:0:0:
262,189,11966,1,0,0:0:0:0:
256,192,12105,1,8,0:0:0:0:
256,192,12385,1,0,0:0:0:0:
256,192,12524,1,0,0:0:0:0:
256,192,12664,1,8,0:0:0:0:
256,192,12803,1,0,0:0:0:0:
256,192,13222,1,0,0:0:0:0:
0,0,13501,1,4,0:0:0:0:
256,192,14059,1,8,0:0:0:0:
256,192,14338,1,0,0:0:0:0:
256,192,14478,1,8,0:0:0:0:
256,192,14896,1,0,0:0:0:0:
256,192,15036,1,8,0:0:0:0:
2,4,15176,1,8,0:0:0:0:
256,192,15315,1,0,0:0:0:0:
256,192,15454,1,8,0:0:0:0:
256,192,15733,1,4,0:0:0:0:
256,192,16292,1,8,0:0:0:0:
264,193,16571,1,8,0:0:0:0:
256,192,16710,1,0,0:0:0:0:
256,192,17129,1,8,0:0:0:0:
256,192,17268,1,0,0:0:0:0:
256,192,17408,1,8,0:0:0:0:
256,192,17547,1,8,0:0:0:0:
256,192,17687,1,0,0:0:0:0:
256,192,17966,1,12,0:0:0:0:
256,192,18524,1,0,0:0:0:0:
268,189,18803,1,8,0:0:0:0:
256,192,18943,1,0,0:0:0:0:
256,192,19361,1,0,0:0:0:0:
256,192,19501,1,8,0:0:0:0:
256,192,19640,1,0,0:0:0:0:
256,192,19780,1,0,0:0:0:0:
256,192,19919,1,8,0:0:0:0:
256,192,20199,1,4,0:0:0:0:
256,192,20478,1,8,0:0:0:0:
256,192,20757,1,0,0:0:0:0:
256,192,20896,1,0,0:0:0:0:
256,192,21036,1,8,0:0:0:0:
256,192,21175,1,8,0:0:0:0:
256,192,21454,1,8,0:0:0:0:
256,192,21733,1,0,0:0:0:0:
256,192,22012,1,0,0:0:0:0:
256,192,22292,1,12,0:0:0:0:
256,192,22710,1,0,0:0:0:0:
256,192,22989,1,8,0:0:0:0:
256,192,23268,1,0,0:0:0:0:
256,192,23408,1,0,0:0:0:0:
256,192,23547,1,8,0:0:0:0:
256,192,23687,1,0,0:0:0:0:
256,192,23966,1,0,0:0:0:0:
256,192,24245,1,8,0:0:0:0:
256,192,24524,1,4,0:0:0:0:
256,192,24803,1,0,0:0:0:0:
256,192,24943,1,8,0:0:0:0:
256,192,25222,1,0,0:0:0:0:
256,192,25361,1,0,0:0:0:0:
256,192,25501,1,8,0:0:0:0:
256,192,25640,1,8,0:0:0:0:
256,192,25780,1,0,0:0:0:0:
256,192,26478,1,4,0:0:0:0:
256,192,26757,1,12,0:0:0:0:
256,192,30803,5,0,0:0:0:0:
256,192,31222,1,12,0:0:0:0:
256,192,31640,1,8,0:0:0:0:
256,192,31919,1,8,0:0:0:0:
0,0,32059,1,0,0:0:0:0:
0,0,32199,1,8,0:0:0:0:
256,192,32478,1,0,0:0:0:0:
256,192,32757,1,8,0:0:0:0:
256,192,33036,1,0,0:0:0:0:
256,192,33175,1,8,0:0:0:0:
256,192,33315,1,8,0:0:0:0:
256,192,33454,1,4,0:0:0:0:
256,192,33873,1,8,0:0:0:0:
256,192,34152,1,0,0:0:0:0:
256,192,34431,1,8,0:0:0:0:
256,192,34710,1,8,0:0:0:0:
256,192,34850,1,0,0:0:0:0:
256,192,34989,1,8,0:0:0:0:
256,192,35268,1,0,0:0:0:0:
256,192,35408,1,8,0:0:0:0:
256,192,35687,1,4,0:0:0:0:
257,196,36105,1,8,0:0:0:0:
257,196,36385,1,0,0:0:0:0:
257,196,36664,1,8,0:0:0:0:
257,196,37222,1,8,0:0:0:0:
278,203,37501,1,0,0:0:0:0:
257,196,37780,1,8,0:0:0:0:
257,196,38059,1,0,0:0:0:0:
256,192,38617,1,8,0:0:0:0:
257,196,39036,1,0,0:0:0:0:
256,192,39454,1,8,0:0:0:0:
256,192,39733,1,8,0:0:0:0:
256,192,39873,1,0,0:0:0:0:
256,192,40012,1,8,0:0:0:0:
256,192,40152,1,12,0:0:0:0:
256,192,40571,1,8,0:0:0:0:
0,0,40850,1,8,0:0:0:0:
0,0,40989,1,0,0:0:0:0:
256,192,41129,1,8,0:0:0:0:
0,0,41408,1,0,0:0:0:0:
0,0,41687,1,8,0:0:0:0:
260,211,41966,1,0,0:0:0:0:
260,211,42105,1,8,0:0:0:0:
272,200,42245,1,8,0:0:0:0:
260,211,42385,1,4,0:0:0:0:
256,192,42803,1,8,0:0:0:0:
256,192,43082,1,0,0:0:0:0:
256,192,43361,1,8,0:0:0:0:
256,192,43501,1,0,0:0:0:0:
256,192,43640,1,8,0:0:0:0:
256,192,43919,1,8,0:0:0:0:
256,192,44198,1,0,0:0:0:0:
256,192,44338,1,8,0:0:0:0:
256,192,44617,1,4,0:0:0:0:
256,192,49082,5,4,0:0:0:0:
256,192,49501,1,8,0:0:0:0:
256,192,49780,1,0,0:0:0:0:
256,192,49919,1,0,0:0:0:0:
256,192,50059,1,8,0:0:0:0:
256,192,50199,1,4,0:0:0:0:
256,192,50617,1,8,0:0:0:0:
256,192,50896,1,0,0:0:0:0:
256,192,51036,1,0,0:0:0:0:
256,192,51175,1,8,0:0:0:0:
256,192,51315,1,8,0:0:0:0:
256,192,51454,1,0,0:0:0:0:
256,192,53129,1,8,0:0:0:0:
256,192,53268,1,8,0:0:0:0:
256,192,53547,1,4,0:0:0:0:
256,192,53966,1,0,0:0:0:0:
256,192,54105,1,0,0:0:0:0:
256,192,54245,1,8,0:0:0:0:
256,192,54524,1,0,0:0:0:0:
256,192,54803,1,8,0:0:0:0:
256,192,54943,1,0,0:0:0:0:
256,192,55222,1,0,0:0:0:0:
256,192,55501,1,8,0:0:0:0:
256,192,55780,1,4,0:0:0:0:
256,192,57036,1,0,0:0:0:0:
256,192,58012,1,4,0:0:0:0:
256,192,58292,1,0,0:0:0:0:
256,192,58431,1,8,0:0:0:0:
256,192,58710,1,0,0:0:0:0:
256,192,58850,1,8,0:0:0:0:
256,192,59129,1,12,0:0:0:0:
256,192,59408,1,8,0:0:0:0:
256,192,59547,1,0,0:0:0:0:
256,192,59826,1,8,0:0:0:0:
256,192,60105,1,8,0:0:0:0:
256,192,60245,1,4,0:0:0:0:
256,192,60943,1,0,0:0:0:0:
256,192,61082,1,8,0:0:0:0:
256,192,61222,1,8,0:0:0:0:
256,192,61361,1,0,0:0:0:0:
256,192,61640,1,8,0:0:0:0:
256,192,61919,1,0,0:0:0:0:
256,192,62199,1,0,0:0:0:0:
256,192,62478,1,12,0:0:0:0:
251,197,63036,1,8,0:0:0:0:
256,192,63315,1,0,0:0:0:0:
256,192,63454,1,8,0:0:0:0:
256,192,63733,1,0,0:0:0:0:
251,197,63873,1,0,0:0:0:0:
256,192,64012,1,8,0:0:0:0:
256,192,64152,1,0,0:0:0:0:
256,192,64431,1,0,0:0:0:0:
256,192,64710,1,0,0:0:0:0:
256,192,64989,1,8,0:0:0:0:
256,192,65129,1,0,0:0:0:0:
256,192,65408,1,8,0:0:0:0:
256,192,65547,1,8,0:0:0:0:
256,192,65687,1,8,0:0:0:0:
256,192,65966,1,0,0:0:0:0:
256,192,66245,1,8,0:0:0:0:
256,192,66385,1,0,0:0:0:0:
256,192,66664,1,8,0:0:0:0:
256,192,66943,1,4,0:0:0:0:
256,192,67222,1,0,0:0:0:0:
256,192,67361,1,8,0:0:0:0:
256,192,67640,1,0,0:0:0:0:
256,192,67780,1,8,0:0:0:0:
256,192,68059,1,12,0:0:0:0:
256,192,68338,1,0,0:0:0:0:
256,192,68477,1,8,0:0:0:0:
256,192,68756,1,8,0:0:0:0:
256,192,69035,1,0,0:0:0:0:
256,192,69175,1,12,0:0:0:0:
256,192,69874,1,8,0:0:0:0:
256,192,70013,1,8,0:0:0:0:
256,192,70153,1,8,0:0:0:0:
256,192,70292,1,0,0:0:0:0:
256,192,70571,1,8,0:0:0:0:
2,4,70850,1,8,0:0:0:0:
256,192,71130,1,0,0:0:0:0:
256,192,71409,1,12,0:0:0:0:
256,192,71966,1,0,0:0:0:0:
256,192,72106,1,0,0:0:0:0:
256,192,72245,1,0,0:0:0:0:
256,192,72385,1,8,0:0:0:0:
256,192,72664,1,8,0:0:0:0:
256,192,72803,1,0,0:0:0:0:
256,192,72943,1,8,0:0:0:0:
256,192,73083,1,0,0:0:0:0:
256,192,73361,1,0,0:0:0:0:
256,192,73781,1,0,0:0:0:0:
265,190,73919,1,0,0:0:0:0:
256,192,74060,1,8,0:0:0:0:
256,192,74199,1,8,0:0:0:0:
256,192,74339,1,0,0:0:0:0:
256,192,74618,1,8,0:0:0:0:
256,192,74897,1,8,0:0:0:0:
265,190,75036,1,0,0:0:0:0:
265,190,75175,1,8,0:0:0:0:
256,192,75316,1,0,0:0:0:0:
260,190,75594,1,0,0:0:0:0:
256,192,75873,1,12,0:0:0:0:
256,192,76292,1,8,0:0:0:0:
256,192,76571,1,8,0:0:0:0:
256,192,76710,1,0,0:0:0:0:
256,192,76989,1,12,0:0:0:0:
256,160,77408,1,8,0:0:0:0:
256,192,77687,1,0,0:0:0:0:
256,192,77826,1,8,0:0:0:0:
256,192,78105,1,4,0:0:0:0:
256,192,78524,1,0,0:0:0:0:
256,192,78803,1,8,0:0:0:0:
256,192,78943,1,8,0:0:0:0:
256,192,79082,1,8,0:0:0:0:
256,192,79222,1,4,0:0:0:0:
256,160,79919,1,0,0:0:0:0:
256,160,80199,1,8,0:0:0:0:
256,192,80478,1,0,0:0:0:0:
288,192,80856,1,8,0:0:0:0:
256,192,81062,1,0,0:0:0:0:
256,192,81411,1,0,0:0:0:0:
256,192,81597,1,8,0:0:0:0:
256,192,81965,1,0,0:0:0:0:
256,192,82144,1,8,0:0:0:0:
256,192,82323,1,0,0:0:0:0:
256,192,82496,1,0,0:0:0:0:
256,192,82710,1,12,0:0:0:0:
256,192,84943,1,12,0:0:0:0:
256,192,85082,12,0,87036,0:0:0:0:
256,192,89129,5,0,0:0:0:0:
256,192,89408,1,12,0:0:0:0:
256,192,89966,1,8,0:0:0:0:
256,192,90245,1,0,0:0:0:0:
256,192,90385,1,8,0:0:0:0:
256,192,90803,1,0,0:0:0:0:
256,192,90943,1,8,0:0:0:0:
256,192,91082,1,0,0:0:0:0:
256,192,91222,1,0,0:0:0:0:
256,192,91361,1,8,0:0:0:0:
256,192,91640,1,4,0:0:0:0:
256,192,92199,1,8,0:0:0:0:
264,193,92478,1,8,0:0:0:0:
256,192,92617,1,0,0:0:0:0:
256,192,93036,1,0,0:0:0:0:
256,192,93175,1,0,0:0:0:0:
256,192,93315,1,8,0:0:0:0:
256,192,93454,1,8,0:0:0:0:
256,192,93594,1,0,0:0:0:0:
256,192,93873,1,12,0:0:0:0:
256,192,94431,1,0,0:0:0:0:
268,189,94710,1,8,0:0:0:0:
256,192,94850,1,0,0:0:0:0:
256,192,95268,1,0,0:0:0:0:
256,192,95408,1,8,0:0:0:0:
256,192,95547,1,0,0:0:0:0:
256,192,95687,1,0,0:0:0:0:
256,192,95826,1,8,0:0:0:0:
256,192,96106,1,4,0:0:0:0:
256,192,96385,1,8,0:0:0:0:
256,192,96664,1,0,0:0:0:0:
256,192,96803,1,8,0:0:0:0:
256,192,96943,1,0,0:0:0:0:
256,192,97082,1,8,0:0:0:0:
256,192,97361,1,8,0:0:0:0:
256,192,97571,1,0,0:0:0:0:
256,192,97780,1,12,0:0:0:0:
256,192,98199,1,4,0:0:0:0:
256,192,98617,1,8,0:0:0:0:
256,192,99175,1,8,0:0:0:0:
256,192,99454,1,0,0:0:0:0:
256,192,99733,1,8,0:0:0:0:
256,192,99873,1,0,0:0:0:0:
256,192,100292,1,8,0:0:0:0:
256,192,100571,1,0,0:0:0:0:
256,192,100850,1,8,0:0:0:0:
256,192,100989,1,0,0:0:0:0:
256,192,101268,1,0,0:0:0:0:
256,192,101408,1,8,0:0:0:0:
256,192,101966,1,8,0:0:0:0:
256,192,102245,1,8,0:0:0:0:
256,192,102385,1,8,0:0:0:0:
256,192,102524,1,8,0:0:0:0:
256,192,102664,1,4,0:0:0:0:
253,198,103082,1,8,0:0:0:0:
253,198,103361,1,8,0:0:0:0:
253,198,103501,1,0,0:0:0:0:
253,198,103640,1,8,0:0:0:0:
253,198,103919,1,8,0:0:0:0:
253,198,104199,1,8,0:0:0:0:
295,196,104478,1,8,0:0:0:0:
295,196,104617,1,8,0:0:0:0:
295,196,104757,1,8,0:0:0:0:
295,196,104896,1,4,0:0:0:0:
256,195,105315,1,8,0:0:0:0:
256,195,105594,1,8,0:0:0:0:
256,195,105873,1,0,0:0:0:0:
256,195,106012,1,8,0:0:0:0:
256,192,107129,1,4,0:0:0:0:
256,192,107547,1,4,0:0:0:0:
256,192,108245,1,4,0:0:0:0:
256,192,108664,1,4,0:0:0:0:
256,192,109361,1,4,0:0:0:0:
256,192,109780,1,4,0:0:0:0:
256,192,110617,1,8,0:0:0:0:
256,192,110757,1,0,0:0:0:0:
256,192,111036,1,8,0:0:0:0:
256,192,111315,1,8,0:0:0:0:
256,192,111594,1,0,0:0:0:0:
256,192,111873,1,0,0:0:0:0:
256,192,112012,1,8,0:0:0:0:
256,192,112292,1,8,0:0:0:0:
256,192,112710,1,0,0:0:0:0:
256,192,112989,1,8,0:0:0:0:
256,192,113129,1,0,0:0:0:0:
256,192,113408,1,8,0:0:0:0:
256,192,113826,1,0,0:0:0:0:
256,192,114245,1,0,0:0:0:0:
256,192,114524,1,8,0:0:0:0:
256,192,115082,1,8,0:0:0:0:
256,192,115222,1,0,0:0:0:0:
256,192,115501,1,8,0:0:0:0:
256,192,115780,1,8,0:0:0:0:
256,192,116059,1,12,0:0:0:0:
256,192,120664,5,0,0:0:0:0:
256,192,120803,1,0,0:0:0:0:
256,192,120943,1,8,0:0:0:0:
256,192,121501,1,8,0:0:0:0:
256,192,121780,1,0,0:0:0:0:
256,192,121919,1,0,0:0:0:0:
256,192,122059,1,8,0:0:0:0:
256,192,122617,1,8,0:0:0:0:
256,192,122896,1,0,0:0:0:0:
256,192,123036,1,0,0:0:0:0:
256,192,123175,1,8,0:0:0:0:
256,192,123733,1,8,0:0:0:0:
256,192,124012,1,0,0:0:0:0:
256,192,124152,1,0,0:0:0:0:
256,192,124292,1,8,0:0:0:0:
256,192,124850,1,0,0:0:0:0:
256,192,124989,1,12,0:0:0:0:
256,192,125408,1,0,0:0:0:0:
256,192,125687,1,0,0:0:0:0:
256,192,125966,1,8,0:0:0:0:
256,192,126105,1,4,0:0:0:0:
256,192,126524,1,8,0:0:0:0:
256,192,126803,1,0,0:0:0:0:
256,192,127082,1,8,0:0:0:0:
256,192,127222,1,4,0:0:0:0:
256,192,127640,1,0,0:0:0:0:
256,192,127919,1,0,0:0:0:0:
256,192,128199,1,8,0:0:0:0:
256,192,128338,1,4,0:0:0:0:
256,192,128757,1,8,0:0:0:0:
256,192,129036,1,0,0:0:0:0:
256,192,129315,1,8,0:0:0:0:
256,192,131826,5,4,0:0:0:0:
256,192,132175,1,12,0:0:0:0:
256,192,132524,1,12,0:0:0:0:
256,192,132873,1,4,0:0:0:0:
256,192,133222,1,12,0:0:0:0:
256,192,133919,1,4,0:0:0:0:
256,192,134199,1,0,0:0:0:0:
256,192,134338,1,8,0:0:0:0:
256,192,134617,1,0,0:0:0:0:
256,192,134757,1,8,0:0:0:0:
256,192,135036,1,12,0:0:0:0:
256,192,135315,1,8,0:0:0:0:
256,192,135454,1,0,0:0:0:0:
256,192,135733,1,8,0:0:0:0:
256,192,136012,1,8,0:0:0:0:
256,192,136152,1,4,0:0:0:0:
256,192,136850,1,0,0:0:0:0:
256,192,136989,1,8,0:0:0:0:
256,192,137129,1,8,0:0:0:0:
256,192,137268,1,0,0:0:0:0:
256,192,137547,1,8,0:0:0:0:
256,192,137826,1,0,0:0:0:0:
256,192,138106,1,0,0:0:0:0:
256,192,138385,1,12,0:0:0:0:
251,197,138943,1,8,0:0:0:0:
256,192,139082,1,0,0:0:0:0:
256,192,139222,1,0,0:0:0:0:
256,192,139361,1,8,0:0:0:0:
256,192,139640,1,0,0:0:0:0:
251,197,139780,1,0,0:0:0:0:
256,192,139919,1,8,0:0:0:0:
256,192,140059,1,0,0:0:0:0:
256,192,140338,1,0,0:0:0:0:
256,192,140617,1,0,0:0:0:0:
256,192,140896,1,8,0:0:0:0:
256,192,141036,1,0,0:0:0:0:
256,192,141315,1,8,0:0:0:0:
256,192,141454,1,8,0:0:0:0:
256,192,141594,1,8,0:0:0:0:
256,192,141873,1,0,0:0:0:0:
256,192,142152,1,8,0:0:0:0:
256,192,142292,1,0,0:0:0:0:
256,192,142571,1,8,0:0:0:0:
256,192,142850,1,4,0:0:0:0:
256,192,143129,1,0,0:0:0:0:
256,192,143268,1,8,0:0:0:0:
256,192,143547,1,0,0:0:0:0:
256,192,143687,1,8,0:0:0:0:
256,192,143966,1,12,0:0:0:0:
256,192,144245,1,8,0:0:0:0:
256,192,144384,1,0,0:0:0:0:
256,192,144663,1,8,0:0:0:0:
256,192,144942,1,0,0:0:0:0:
256,192,145082,1,12,0:0:0:0:
256,192,145779,1,8,0:0:0:0:
256,192,145919,1,8,0:0:0:0:
256,192,146058,1,8,0:0:0:0:
256,192,146198,1,0,0:0:0:0:
256,192,146478,1,8,0:0:0:0:
256,192,146757,1,0,0:0:0:0:
256,192,147035,1,0,0:0:0:0:
256,192,147314,1,12,0:0:0:0:
256,192,147873,1,0,0:0:0:0:
256,192,148013,1,0,0:0:0:0:
256,192,148152,1,0,0:0:0:0:
256,192,148292,1,8,0:0:0:0:
256,192,148571,1,8,0:0:0:0:
256,192,148710,1,0,0:0:0:0:
256,192,148850,1,8,0:0:0:0:
256,192,148990,1,0,0:0:0:0:
256,192,149268,1,0,0:0:0:0:
256,192,149686,1,0,0:0:0:0:
265,190,149826,1,0,0:0:0:0:
256,192,149965,1,8,0:0:0:0:
256,192,150106,1,8,0:0:0:0:
256,192,150244,1,0,0:0:0:0:
256,192,150523,1,8,0:0:0:0:
256,192,150804,1,8,0:0:0:0:
265,190,150943,1,0,0:0:0:0:
265,190,151082,1,8,0:0:0:0:
256,192,151221,1,0,0:0:0:0:
260,190,151501,1,0,0:0:0:0:
256,192,151780,1,12,0:0:0:0:
256,192,152199,1,8,0:0:0:0:
256,192,152478,1,8,0:0:0:0:
256,192,152617,1,0,0:0:0:0:
256,192,152896,1,12,0:0:0:0:
256,160,153315,1,8,0:0:0:0:
256,192,153594,1,0,0:0:0:0:
256,192,153733,1,8,0:0:0:0:
256,192,154012,1,4,0:0:0:0:
256,192,154431,1,0,0:0:0:0:
256,192,154710,1,8,0:0:0:0:
256,192,154850,1,8,0:0:0:0:
256,192,154989,1,8,0:0:0:0:
256,192,155129,1,4,0:0:0:0:
256,160,156105,1,8,0:0:0:0:
224,192,156524,1,0,0:0:0:0:
256,192,156943,1,0,0:0:0:0:
256,192,157361,1,0,0:0:0:0:
256,192,157780,1,0,0:0:0:0:
256,192,158199,1,0,0:0:0:0:
256,192,158478,1,8,0:0:0:0:
256,192,158617,1,4,0:0:0:0:
256,192,160710,1,0,0:0:0:0:
256,192,162664,1,0,0:0:0:0:
256,192,162943,1,0,0:0:0:0:
256,192,165175,1,0,0:0:0:0:
256,192,166012,1,0,0:0:0:0:
256,192,166292,1,0,0:0:0:0:
256,192,169082,1,0,0:0:0:0:
256,192,169222,1,8,0:0:0:0:
256,192,169640,1,4,0:0:0:0:
256,192,170059,1,4,0:0:0:0:
256,192,170338,1,8,0:0:0:0:
256,192,170896,1,8,0:0:0:0:
256,192,171175,1,8,0:0:0:0:
256,192,171454,1,8,0:0:0:0:
256,192,171594,1,0,0:0:0:0:
256,192,171733,1,8,0:0:0:0:
256,192,172012,1,0,0:0:0:0:
256,192,172152,1,8,0:0:0:0:
256,192,172431,1,8,0:0:0:0:
256,192,172710,1,0,0:0:0:0:
256,192,172850,1,0,0:0:0:0:
256,192,172989,1,0,0:0:0:0:
256,192,173966,1,0,0:0:0:0:
256,192,175082,1,0,0:0:0:0:
256,192,175361,1,12,0:0:0:0:
256,192,175918,1,0,0:0:0:0:
256,192,176198,1,0,0:0:0:0:
256,192,176337,1,8,0:0:0:0:
256,192,176755,1,8,0:0:0:0:
256,192,176895,1,8,0:0:0:0:
256,192,177034,1,0,0:0:0:0:
256,192,177174,1,0,0:0:0:0:
256,192,177313,1,8,0:0:0:0:
256,192,177592,1,4,0:0:0:0:
256,192,178151,1,8,0:0:0:0:
256,192,178430,1,8,0:0:0:0:
256,192,178569,1,0,0:0:0:0:
256,192,178988,1,0,0:0:0:0:
256,192,179127,1,0,0:0:0:0:
256,192,179267,1,8,0:0:0:0:
256,192,179406,1,8,0:0:0:0:
256,192,179546,1,0,0:0:0:0:
256,192,179825,1,12,0:0:0:0:
256,192,180383,1,0,0:0:0:0:
256,192,180663,1,0,0:0:0:0:
256,192,180802,1,8,0:0:0:0:
256,192,181220,1,0,0:0:0:0:
256,192,181360,1,8,0:0:0:0:
256,192,181499,1,0,0:0:0:0:
256,192,181639,1,0,0:0:0:0:
256,192,181778,1,8,0:0:0:0:
256,192,182058,1,4,0:0:0:0:
256,192,182337,1,8,0:0:0:0:
256,192,182616,1,0,0:0:0:0:
256,192,182756,1,8,0:0:0:0:
256,192,183035,1,8,0:0:0:0:
256,192,183174,1,8,0:0:0:0:
256,192,183453,1,0,0:0:0:0:
256,192,183593,1,8,0:0:0:0:
256,192,183872,1,0,0:0:0:0:
256,192,184011,1,8,0:0:0:0:
256,192,184151,1,4,0:0:0:0:
256,192,185407,1,8,0:0:0:0:
252,195,185546,1,0,0:0:0:0:
256,192,185825,1,8,0:0:0:0:
256,192,186104,1,8,0:0:0:0:
256,192,186384,1,4,0:0:0:0:
256,192,186663,1,0,0:0:0:0:
256,192,186802,1,8,0:0:0:0:
256,192,186942,1,0,0:0:0:0:
256,192,187081,1,8,0:0:0:0:
256,192,187360,1,0,0:0:0:0:
256,192,187639,1,8,0:0:0:0:
256,192,187779,1,0,0:0:0:0:
256,192,188058,1,0,0:0:0:0:
256,192,188337,1,8,0:0:0:0:
256,192,188616,1,4,0:0:0:0:
244,172,188895,1,0,0:0:0:0:
244,172,189035,1,8,0:0:0:0:
256,192,189314,1,8,0:0:0:0:
256,192,189593,1,0,0:0:0:0:
256,192,189872,1,8,0:0:0:0:
256,192,190011,1,0,0:0:0:0:
256,192,190291,1,0,0:0:0:0:
256,192,190570,1,8,0:0:0:0:
256,192,190849,1,4,0:0:0:0:
256,192,191058,1,4,0:0:0:0:
256,192,191267,1,4,0:0:0:0:
256,192,191477,1,4,0:0:0:0:
256,192,191686,1,4,0:0:0:0:
256,192,191895,1,4,0:0:0:0:
256,192,192802,1,4,0:0:0:0:
