osu file format v14

[General]
AudioFilename: audio.mp3
AudioLeadIn: 0
PreviewTime: 57651
Countdown: 0
SampleSet: Soft
StackLeniency: 0.2
Mode: 0
LetterboxInBreaks: 0
WidescreenStoryboard: 1

[Editor]
Bookmarks: 143464
DistanceSpacing: 2.2
BeatDivisor: 4
GridSize: 4
TimelineZoom: 2.2

[Metadata]
Title:Tenohira de odoru
TitleUnicode:掌で踊る
Artist:sokoninaru
ArtistUnicode:そこに鳴る
Creator:Snepif
Version:Advanced
Source:
Tags:silleth itashas13 ゼロ zero koga records j-pop j-rock japanese metal alternative indie rock math-rock tenohiradeodoru
BeatmapID:2270947
BeatmapSetID:773686

[Difficulty]
HPDrainRate:3.5
CircleSize:2.9
OverallDifficulty:5.5
ApproachRate:6.9
SliderMultiplier:1
SliderTickRate:1

[Events]
//Background and Video events
0,0,"bg.jpg",0,0
//Break Periods
2,297,3633
2,117505,119741
2,163134,164392
//Storyboard Layer 0 (Background)
//Storyboard Layer 1 (Fail)
//Storyboard Layer 2 (Pass)
//Storyboard Layer 3 (Foreground)
//Storyboard Layer 4 (Overlay)
//Storyboard Sound Samples

[TimingPoints]
97,279.06976744186,4,1,1,80,1,0
4562,-142.857142857143,4,1,1,80,0,0
4631,-142.857142857143,4,1,1,40,0,0
5259,-142.857142857143,4,2,1,80,0,0
6794,-142.857142857143,4,1,1,80,0,0
7771,-142.857142857143,4,1,1,30,0,0
7910,-142.857142857143,4,1,1,80,0,0
8050,-142.857142857143,4,1,1,30,0,0
8190,-142.857142857143,4,1,1,80,0,0
8329,-142.857142857143,4,1,1,30,0,0
8469,-142.857142857143,4,1,1,80,0,0
8608,-142.857142857143,4,1,1,30,0,0
8748,-142.857142857143,4,1,1,80,0,0
8887,-142.857142857143,4,1,1,30,0,0
9027,-142.857142857143,4,1,1,90,0,0
9306,-142.857142857143,4,1,1,75,0,0
10841,-142.857142857143,4,2,1,80,0,0
10980,-142.857142857143,4,1,1,80,0,0
11120,-142.857142857143,4,2,1,80,0,0
11259,-142.857142857143,4,1,1,80,0,0
13213,-142.857142857143,4,1,1,80,0,0
13492,-100,4,1,1,80,0,1
17817,-100,4,2,0,80,0,1
17957,-100,4,1,1,80,0,1
21236,-100,4,1,1,30,0,1
21445,-100,4,1,1,80,0,1
21515,-100,4,1,1,30,0,1
21724,-100,4,1,1,80,0,1
21794,-100,4,1,1,30,0,1
22003,-100,4,1,1,80,0,1
22073,-100,4,1,1,30,0,1
22283,-100,4,1,1,80,0,0
24655,-100,4,2,3,65,0,0
25771,-100,4,2,0,80,0,0
26050,-100,4,2,0,40,0,0
26469,-142.857142857143,4,1,1,80,0,0
26887,-142.857142857143,4,2,0,40,0,0
27724,-142.857142857143,4,2,0,40,0,0
30794,-125,4,2,0,80,0,0
31213,-100,4,1,1,80,0,0
35678,-100,4,1,1,65,0,0
38050,-100,4,3,0,80,0,0
38120,-100,4,2,1,80,0,0
39585,-100,4,1,1,80,0,0
40143,-100,4,1,1,80,0,0
44608,-166.666666666667,4,1,1,80,0,0
45027,-100,4,2,0,50,0,0
46143,-200,4,2,0,50,0,0
49073,-100,4,1,1,80,0,0
51585,-100,4,2,0,40,0,0
53120,-100,4,1,1,80,0,0
56190,-100,4,2,0,80,0,0
57027,-100,4,2,1,80,0,0
57585,-166.666666666667,4,2,0,60,0,0
58003,-100,4,1,1,80,0,0
61422,-100,4,1,1,30,0,1
61631,-100,4,1,1,80,0,1
61701,-100,4,1,1,30,0,1
61910,-100,4,1,1,80,0,1
61980,-100,4,1,1,30,0,1
62190,-100,4,1,1,80,0,1
62259,-100,4,1,1,30,0,1
62469,-100,4,1,1,80,0,0
66934,-100,4,1,1,80,0,1
70352,-100,4,1,1,30,0,1
70562,-100,4,1,1,80,0,1
70631,-100,4,1,1,30,0,1
70841,-100,4,1,1,80,0,1
70910,-100,4,1,1,30,0,1
71120,-100,4,1,1,80,0,1
71190,-100,4,1,1,30,0,1
71399,-100,4,1,1,80,0,1
75445,-100,4,1,1,30,0,1
75585,-100,4,1,1,80,0,1
75724,-100,4,1,1,30,0,1
75864,-100,4,1,1,80,0,1
76562,-100,4,1,2,80,0,1
77120,-100,4,1,1,80,0,1
78794,-100,4,1,2,80,0,1
79352,-100,4,1,1,80,0,1
80469,-100,4,1,1,90,0,1
82701,-100,4,1,1,80,0,0
83259,-100,4,1,1,40,0,0
84934,-100,4,2,0,80,0,0
85003,-100,4,2,1,40,0,0
87026,-250,4,1,1,20,0,0
87166,-100,4,1,1,5,0,0
89120,-100,4,1,1,80,0,0
89399,-100,4,1,1,80,0,1
93724,-100,4,2,0,80,0,1
93864,-100,4,1,1,80,0,1
97213,-100,4,1,1,80,0,0
98608,-100,4,1,1,65,0,0
99445,-100,4,1,1,65,0,0
102655,-100,4,1,1,80,0,0
106143,-100,4,2,2,60,0,0
106422,-100,4,2,0,60,0,0
107119,-100,4,1,1,80,0,0
107817,-100,4,2,1,80,0,0
108236,-100,4,1,1,80,0,0
108933,-100,4,2,1,80,0,0
109352,-100,4,1,1,80,0,0
110050,-100,4,2,1,80,0,0
110608,-100,4,1,1,80,0,0
112283,-100,4,2,0,80,0,0
112701,-100,4,1,1,80,0,0
113399,-100,4,2,0,80,0,0
113817,-100,4,1,1,80,0,0
114514,-100,4,2,0,80,0,0
114515,-100,4,2,0,80,0,0
114934,-100,4,1,1,80,0,0
116049,-200,4,1,1,80,0,0
116119,-100,4,2,0,45,0,0
120655,-100,4,1,1,80,0,0
120933,-100,4,2,1,80,0,0
121771,-100,4,1,1,80,0,0
122050,-100,4,2,1,80,0,0
122887,-100,4,1,1,80,0,0
123166,-100,4,2,1,80,0,0
124003,-100,4,1,1,80,0,0
124282,-100,4,2,1,80,0,0
124980,-100,4,1,1,50,0,0
126096,-100,4,1,1,65,0,0
127212,-100,4,1,1,80,0,0
128329,-100,4,1,1,90,0,0
129585,-100,4,2,0,30,0,0
131817,-100,4,1,1,90,0,0
133910,-100,4,1,1,80,0,1
137259,-100,4,1,1,80,0,0
137329,-100,4,1,1,30,0,0
137538,-100,4,1,1,80,0,0
137608,-100,4,1,1,30,0,0
137817,-100,4,1,1,80,0,0
137887,-100,4,1,1,30,0,0
138096,-100,4,1,1,80,0,0
138166,-100,4,1,1,30,0,0
138375,-100,4,1,1,80,0,0
142422,-100,4,1,1,30,0,0
142561,-100,4,1,1,80,0,0
142701,-100,4,1,1,30,0,0
142841,-100,4,1,1,80,0,1
146259,-100,4,1,1,30,0,1
146468,-100,4,1,1,80,0,1
146538,-100,4,1,1,30,0,1
146747,-100,4,1,1,80,0,1
146817,-100,4,1,1,30,0,1
147026,-100,4,1,1,80,0,1
147096,-100,4,1,1,30,0,1
147305,-100,4,1,1,80,0,1
148561,-100,4,1,1,80,0,1
152468,-100,4,1,2,80,0,1
152887,-100,4,1,1,80,0,1
154701,-100,4,1,2,80,0,1
155119,-100,4,1,1,80,0,1
156376,-100,4,1,1,80,0,0
156585,-100,4,1,1,30,0,0
156933,-100,4,1,1,80,0,0
157003,-100,4,1,1,30,0,0
157352,-100,4,1,1,80,0,0
157422,-100,4,1,1,30,0,0
157771,-100,4,1,1,80,0,0
157840,-100,4,1,1,30,0,0
158189,-100,4,1,1,80,0,0
158259,-100,4,1,1,30,0,0
158329,-100,4,1,1,80,0,0
158887,-142.857142857143,4,1,1,50,0,0
160282,-76.9230769230769,4,2,0,80,0,0
160701,-100,4,2,1,80,0,0
160841,-100,4,2,1,40,0,0
162654,-100,4,1,1,80,0,0
163212,-100,4,2,0,50,0,0
165166,-100,4,1,1,80,0,0
165305,-100,4,2,0,60,0,0
166003,-100,4,1,1,80,0,0
166422,-100,4,2,0,80,0,0
167398,-166.666666666667,4,2,2,50,0,0
167537,-100,4,2,2,30,0,0
169072,-100,4,1,1,80,0,0
169630,-100,4,1,1,80,0,0
170329,-100,4,2,0,80,0,0
170887,-100,4,2,3,65,0,0
172002,-100,4,1,1,80,0,0
172699,-100,4,1,1,90,0,0
173120,-100,4,2,0,30,0,0
173955,-166.666666666667,4,1,1,80,0,0
174024,-100,4,1,1,10,0,0
175071,-100,4,1,1,80,0,0
175352,-100,4,1,1,80,0,1
179678,-100,4,2,0,80,0,1
179817,-100,4,1,1,80,0,1
184143,-100,4,1,1,80,0,0
184562,-100,4,2,0,80,0,0
185399,-100,4,1,1,80,0,0
192094,-100,4,2,0,60,0,0
192794,-62.5,4,1,1,80,0,0
192934,-100,4,1,1,30,0,0

[Colours]
Combo1 : 138,138,244
Combo2 : 250,78,78
Combo3 : 206,128,240
Combo4 : 254,201,129

[HitObjects]
256,192,97,5,8,0:0:0:0:
420,312,4562,6,0,P|376:300|308:292,1,104.999996795654,2|0,0:0|0:0,0:0:0:0:
176,288,5259,6,0,L|168:336,2,34.9999989318848,8|8|8,0:0|0:0|0:0,0:0:0:0:
104,236,5678,2,0,L|109:201,1,34.9999989318848,8|8,0:0|0:0,0:0:0:0:
192,172,5957,2,0,L|197:137,1,34.9999989318848,8|8,0:0|0:0,0:0:0:0:
128,84,6236,2,0,L|133:49,1,34.9999989318848,8|8,0:0|0:0,0:0:0:0:
212,8,6515,2,0,L|217:42,1,34.9999989318848,8|8,0:0|0:0,0:0:0:0:
272,112,6794,6,0,L|380:104,2,104.999996795654,2|0|2,0:0|0:0|0:0,0:0:0:0:
100,148,7910,1,2,0:0:0:0:
124,308,8190,1,2,0:0:0:0:
284,292,8469,1,2,0:0:0:0:
272,132,8748,1,2,0:0:0:0:
432,116,9027,6,8,L|408:80,2,34.9999989318848,8|8|2,0:0|0:0|0:0,0:0:0:0:
468,188,9445,2,0,L|464:260,1,69.9999978637696,2|2,0:0|0:0,0:0:0:0:
432,332,9864,2,0,L|360:320,1,69.9999978637696,2|8,0:0|0:0,0:0:0:0:
204,300,10422,1,2,0:0:0:0:
44,276,10701,2,0,L|37:241,1,34.9999989318848,2|8,0:0|0:0,0:0:0:0:
104,196,10980,2,0,L|107:161,1,34.9999989318848,2|10,0:0|0:0,0:0:0:0:
188,152,11259,6,0,L|236:164,2,34.9999989318848,8|2|2,0:0|0:0|0:0,0:0:0:0:
213,82,11678,2,0,L|261:94,2,34.9999989318848,8|2|2,0:0|0:0|0:0,0:0:0:0:
136,84,12096,1,8,0:0:0:0:
56,224,12376,2,0,L|48:268,1,34.9999989318848,2|2,0:0|0:0,0:0:0:0:
126,267,12655,2,0,L|118:311,1,34.9999989318848,10|2,0:0|0:0,0:0:0:0:
294,290,13213,1,2,0:0:0:0:
288,126,13492,6,0,P|333:117|386:149,1,100,6|8,0:0|0:0,0:0:0:0:
449,188,13910,1,8,0:0:0:0:
484,265,14050,2,0,P|439:274|386:242,1,100,2|2,0:0|0:0,0:0:0:0:
313,217,14469,2,0,L|304:323,1,100,2|2,0:0|0:0,0:0:0:0:
225,346,14887,2,0,L|169:338,1,50,8|2,0:0|0:0,0:0:0:0:
94,313,15166,2,0,P|90:263|103:215,1,100,2|8,0:0|0:0,0:0:0:0:
107,128,15585,1,8,0:0:0:0:
179,172,15724,6,0,L|286:162,1,100,6|8,0:0|0:0,0:0:0:0:
362,147,16143,1,8,0:0:0:0:
446,135,16283,2,0,P|462:163|474:235,1,100,2|2,0:0|0:0,0:0:0:0:
462,312,16701,2,0,L|355:295,1,100,2|2,0:0|0:0,0:0:0:0:
278,292,17120,2,0,L|287:241,1,50,8|2,0:0|0:0,0:0:0:0:
301,158,17399,2,0,P|257:130|201:126,1,100,2|8,0:0|0:0,0:0:0:0:
127,141,17817,1,2,0:0:0:0:
59,193,17957,6,0,L|73:303,1,100,6|8,0:0|0:0,0:0:0:0:
140,343,18376,1,8,0:0:0:0:
222,362,18515,2,0,P|269:350|303:313,1,100,2|2,0:0|0:0,0:0:0:0:
308,228,18934,6,0,L|291:114,1,100,2|2,0:0|0:0,0:0:0:0:
312,46,19352,2,0,L|375:57,1,50,8|2,0:0|0:0,0:0:0:0:
444,72,19631,2,0,L|424:188,1,100,2|8,0:0|0:0,0:0:0:0:
410,254,20050,1,8,0:0:0:0:
390,337,20190,6,0,L|326:349,2,50,6|0|8,0:0|0:0|0:0,0:0:0:0:
238,259,20748,2,0,L|178:271,2,50,8|8|8,0:0|0:0|0:0,0:0:0:0:
304,207,21166,5,2,0:0:0:0:
249,57,21445,1,2,0:0:0:0:
143,177,21724,1,2,0:0:0:0:
298,217,22003,1,2,0:0:0:0:
199,344,22283,6,0,L|307:360,1,100,6|2,0:0|0:0,0:0:0:0:
382,362,22701,2,0,P|394:322|394:294,1,50,8|2,0:0|0:0,0:0:0:0:
352,239,22980,2,0,P|348:211|352:187,1,50,8|2,0:0|0:0,0:0:0:0:
382,110,23259,2,0,P|362:86|288:56,1,100,2|8,0:0|0:0,0:0:0:0:
218,58,23678,2,0,L|206:170,2,100,2|2|2,0:0|0:0|0:0,0:0:0:0:
95,160,24515,1,6,0:0:0:0:
256,192,24655,12,2,25771,0:0:0:0:
164,231,26469,5,8,0:0:0:0:
247,336,26748,2,0,P|326:320|359:232,1,174.999994659424,6|0,0:0|0:0,0:0:0:0:
251,144,27724,6,0,L|239:100,1,34.9999989318848,0|0,0:0|0:0,0:0:0:0:
161,98,28003,2,0,P|137:122|97:134,1,69.9999978637696,2|0,0:0|0:0,0:0:0:0:
33,174,28422,2,0,L|25:250,1,69.9999978637696,0|0,0:0|0:0,0:0:0:0:
41,322,28841,1,0,0:0:0:0:
183,247,29120,2,0,P|223:223|259:215,1,69.9999978637696,2|0,0:0|0:0,0:0:0:0:
325,216,29538,2,0,L|349:104,1,104.999996795654,2|2,0:0|0:0,0:0:0:0:
362,113,30794,2,0,P|324:84|292:76,1,80,2|0,0:0|0:0,0:0:0:0:
209,63,31213,6,0,L|193:167,1,100,4|0,0:0|0:0,0:0:0:0:
186,246,31631,2,0,L|287:258,1,100,8|8,0:0|0:0,0:0:0:0:
401,147,32190,1,8,0:0:0:0:
303,20,32469,2,0,L|202:32,1,100,8|8,0:0|0:0,0:0:0:0:
156,184,33027,2,0,P|156:232|164:252,1,50,8|2,0:0|0:0,0:0:0:0:
141,312,33306,1,8,0:0:0:0:
61,312,33445,6,0,P|42:281|44:210,1,100,6|2,0:0|0:0,0:0:0:0:
54,139,33864,1,8,0:0:0:0:
212,115,34143,2,0,L|315:132,1,100,8|8,0:0|0:0,0:0:0:0:
406,259,34701,2,0,B|344:180|421:174|416:102|370:65,1,200,2|8,0:0|0:0,0:0:0:0:
302,49,35399,1,2,0:0:0:0:
144,76,35678,5,6,0:0:0:0:
256,192,35817,12,2,38050,0:0:0:0:
400,168,39166,6,0,L|388:268,1,100,8|8,0:0|0:0,0:0:0:0:
228,328,39724,2,0,L|176:340,2,50,8|2|8,0:0|0:0|0:0,0:0:0:0:
228,244,40143,6,0,P|244:192|244:132,1,100,6|2,0:0|0:0,0:0:0:0:
292,76,40562,1,8,0:0:0:0:
450,96,40841,2,0,P|452:141|436:204,1,100,8|8,0:0|0:0,0:0:0:0:
333,313,41399,2,0,L|216:302,1,100,8|8,0:0|0:0,0:0:0:0:
152,169,41957,2,0,L|268:181,1,100,8|8,0:0|0:0,0:0:0:0:
330,195,42376,6,0,P|338:235|274:331,1,150,6|8,0:0|0:0,0:0:0:0:
127,347,43073,2,0,L|113:237,1,100,8|8,0:0|0:0,0:0:0:0:
233,141,43631,2,0,L|282:150,2,50,2|2|2,0:0|0:0|0:0,0:0:0:0:
232,55,44050,2,0,L|343:34,1,100,2|2,0:0|0:0,0:0:0:0:
465,101,44608,6,0,B|531:234|362:218|423:352,1,269.999991760254,6|0,0:0|0:0,0:0:0:0:
270,363,46143,1,0,0:0:0:0:
171,250,46422,2,0,L|179:190,1,50,2|0,0:0|0:0,0:0:0:0:
206,53,46980,6,0,P|226:33|250:17,1,50
326,29,47399,2,0,L|329:79,1,50,2|0,0:0|0:0,0:0:0:0:
335,160,47817,1,0,0:0:0:0:
324,319,48096,2,0,P|288:311|256:291,2,75,2|2|0,0:0|0:0|0:0,0:0:0:0:
409,325,49073,6,0,B|403:282|403:282|405:275|405:275|397:213,1,100,6|2,0:0|0:0,0:0:0:0:
314,210,49492,2,0,P|318:170|339:111,1,100,8|2,0:0|0:0,0:0:0:0:
350,26,49910,2,0,L|289:31,1,50,2|8,0:0|0:0,0:0:0:0:
227,70,50190,2,0,L|215:178,1,100,6|2,0:0|0:0,0:0:0:0:
193,251,50608,2,0,P|146:263|87:263,1,100,8|2,0:0|0:0,0:0:0:0:
34,200,51027,2,0,L|18:140,1,50,2|8,0:0|0:0,0:0:0:0:
69,81,51306,1,8,0:0:0:0:
150,102,51445,1,2,0:0:0:0:
256,276,53120,5,8,0:0:0:0:
256,276,53259,1,8,0:0:0:0:
254,116,53538,6,0,P|297:95|358:96,1,100,6|2,0:0|0:0,0:0:0:0:
432,109,53957,2,0,L|420:181,1,50,12|2,0:0|0:0,0:0:0:0:
376,224,54236,2,0,P|388:264|392:288,1,50,12|2,0:0|0:0,0:0:0:0:
356,352,54515,2,0,L|300:344,1,50,12|2,0:0|0:0,0:0:0:0:
220,336,54794,1,12,0:0:0:0:
136,332,54934,2,0,L|124:224,2,100,2|6|6,0:0|0:0|0:0,0:0:0:0:
256,212,55771,5,6,0:0:0:0:
256,192,55841,12,10,57027,0:0:0:0:
168,60,57585,6,0,B|164:88|164:88|172:104|172:104|168:120,1,59.9999981689454,2|0,0:0|0:0,0:0:0:0:
164,200,58003,6,0,P|238:223|272:224,1,100,6|2,0:0|0:0,0:0:0:0:
344,232,58422,2,0,L|336:126,1,100,8|2,0:0|0:0,0:0:0:0:
334,47,58841,2,0,L|270:63,1,50,8|2,0:0|0:0,0:0:0:0:
236,129,59120,2,0,P|160:105|136:77,1,100,6|2,0:0|0:0,0:0:0:0:
62,96,59538,2,0,P|70:152|62:204,1,100,8|2,0:0|0:0,0:0:0:0:
56,279,59957,1,2,0:0:0:0:
208,325,60236,2,0,P|256:323|308:277,1,100,6|2,0:0|0:0,0:0:0:0:
382,291,60655,2,0,L|398:183,1,100,2|8,0:0|0:0,0:0:0:0:
407,108,61073,2,0,L|347:112,1,50,8|8,0:0|0:0,0:0:0:0:
272,119,61352,5,2,0:0:0:0:
104,143,61631,1,2,0:0:0:0:
263,201,61910,1,2,0:0:0:0:
96,228,62190,1,2,0:0:0:0:
256,284,62469,6,0,B|357:296,1,100,6|2,0:0|0:0,0:0:0:0:
439,300,62887,2,0,P|461:251|464:190,1,100,8|2,0:0|0:0,0:0:0:0:
392,161,63306,1,2,0:0:0:0:
308,177,63445,2,0,P|292:142|292:109,1,50,8|0,0:0|0:0,0:0:0:0:
246,57,63724,2,0,L|143:41,1,100,2|8,0:0|0:0,0:0:0:0:
62,50,64143,2,0,P|33:95|36:151,2,100
114,117,64841,6,0,L|126:166,1,50,6|8,0:0|0:0,0:0:0:0:
209,180,65120,2,0,L|318:192,1,100,2|2,0:0|0:0,0:0:0:0:
383,229,65538,1,8,0:0:0:0:
361,311,65678,2,0,L|305:299,1,50,2|8,0:0|0:0,0:0:0:0:
237,341,65957,2,0,L|125:317,1,100,8|2,0:0|0:0,0:0:0:0:
58,292,66376,1,2,0:0:0:0:
96,136,66655,1,2,0:0:0:0:
252,180,66934,6,0,L|240:76,1,100,6|2,0:0|0:0,0:0:0:0:
172,32,67352,2,0,P|136:20|72:28,1,100,8|2,0:0|0:0,0:0:0:0:
28,100,67771,2,0,L|16:160,1,50,8|2,0:0|0:0,0:0:0:0:
40,232,68050,2,0,P|76:244|140:236,1,100,6|2,0:0|0:0,0:0:0:0:
213,200,68469,2,0,P|261:192|309:205,1,100,8|2,0:0|0:0,0:0:0:0:
391,227,68887,2,0,L|392:289,1,50,2|2,0:0|0:0,0:0:0:0:
343,347,69166,2,0,P|287:350|239:334,1,100,6|2,0:0|0:0,0:0:0:0:
169,298,69585,1,2,0:0:0:0:
74,156,69864,2,0,L|16:171,2,50,8|8|8,0:0|0:0|0:0,0:0:0:0:
157,139,70283,5,2,0:0:0:0:
323,104,70562,1,2,0:0:0:0:
196,217,70841,1,2,0:0:0:0:
362,181,71120,1,2,0:0:0:0:
231,290,71399,6,0,L|330:307,1,100,6|2,0:0|0:0,0:0:0:0:
412,325,71817,2,0,P|435:273|440:220,1,100,8|2,0:0|0:0,0:0:0:0:
416,148,72236,1,2,0:0:0:0:
366,78,72376,2,0,L|300:92,1,50,8|0,0:0|0:0,0:0:0:0:
233,107,72655,2,0,L|220:164,2,50,2|2|8,0:0|0:0|0:0,0:0:0:0:
149,92,73073,2,0,L|118:203,1,100,0|2,0:0|0:0,0:0:0:0:
188,242,73492,1,8,0:0:0:0:
282,113,73771,6,0,L|340:118,1,50,6|0,0:0|0:0,0:0:0:0:
410,134,74050,2,0,P|411:161|403:195,1,50,8|2,0:0|0:0,0:0:0:0:
390,262,74329,2,0,L|285:281,1,100,2|8,0:0|0:0,0:0:0:0:
206,279,74748,1,2,0:0:0:0:
140,225,74887,2,0,P|131:184|138:120,1,100,2|8,0:0|0:0,0:0:0:0:
171,49,75306,1,2,0:0:0:0:
333,41,75585,1,2,0:0:0:0:
492,35,75864,6,0,L|479:139,1,100,6|2,0:0|0:0,0:0:0:0:
446,212,76283,2,0,P|406:182|357:171,1,100,8|8,0:0|0:0,0:0:0:0:
273,164,76701,1,8,0:0:0:0:
273,164,76841,1,8,0:0:0:0:
188,170,76980,2,0,P|139:172|86:145,1,100,8|2,0:0|0:0,0:0:0:0:
120,70,77399,2,0,P|169:68|222:95,2,100,8|8|2,0:0|0:0|0:0,0:0:0:0:
40,98,78096,6,0,L|24:205,1,100,6|2,0:0|0:0,0:0:0:0:
40,280,78515,2,0,P|65:303|143:298,1,100,8|8,0:0|0:0,0:0:0:0:
209,280,78934,1,8,0:0:0:0:
209,280,79073,1,8,0:0:0:0:
289,250,79213,2,0,P|337:247|377:276,1,100,8|2,0:0|0:0,0:0:0:0:
439,333,79631,1,2,0:0:0:0:
478,167,79910,2,0,L|469:55,1,100,2|2,0:0|0:0,0:0:0:0:
300,52,80469,6,0,B|306:88|306:88|302:125,2,66.6666666666667,8|2|2,0:0|0:0|0:0,0:0:0:0:
204,112,81027,2,0,B|198:148|198:148|202:185,2,66.6666666666667,8|2|2,0:0|0:0|0:0,0:0:0:0:
94,140,81585,2,0,B|100:104|100:104|96:67,2,66.6666666666667,8|2|2,0:0|0:0|0:0,0:0:0:0:
114,244,82143,2,0,B|120:280|120:280|116:317,2,66.6666666666667,8|2|2,0:0|0:0|0:0,0:0:0:0:
217,216,82701,6,0,B|292:183|327:277|419:229,2,200,6|0|0,0:0|0:0|0:0,0:0:0:0:
217,216,84376,1,0,0:0:0:0:
428,65,84934,1,2,0:0:0:0:
256,192,85073,12,0,87027,0:0:0:0:
291,153,89120,5,2,0:0:0:0:
224,296,89399,6,0,P|179:305|126:273,1,100,6|0,0:0|0:0,0:0:0:0:
72,221,89817,1,8,0:0:0:0:
41,141,89957,2,0,L|64:41,1,100,2|0,0:0|0:0,0:0:0:0:
147,29,90376,2,0,L|256:43,1,100,2|2,0:0|0:0,0:0:0:0:
330,51,90794,2,0,L|321:113,1,50,8|2,0:0|0:0,0:0:0:0:
307,184,91073,2,0,P|362:211|409:208,1,100,2|8,0:0|0:0,0:0:0:0:
472,165,91492,1,8,0:0:0:0:
491,247,91631,6,0,L|469:353,1,100,6|8,0:0|0:0,0:0:0:0:
387,365,92050,1,8,0:0:0:0:
303,347,92190,2,0,P|287:319|275:247,1,100,2|0,0:0|0:0,0:0:0:0:
275,168,92608,2,0,L|168:185,1,100,2|2,0:0|0:0,0:0:0:0:
92,201,93027,2,0,L|83:252,1,50,8|2,0:0|0:0,0:0:0:0:
118,327,93306,2,0,P|162:355|218:359,1,100,2|8,0:0|0:0,0:0:0:0:
290,339,93724,1,2,0:0:0:0:
362,294,93864,6,0,L|348:184,1,100,6|8,0:0|0:0,0:0:0:0:
345,109,94283,1,8,0:0:0:0:
286,48,94422,2,0,P|239:60|205:97,1,100,2|8,0:0|0:0,0:0:0:0:
199,181,94841,6,0,L|216:295,1,100,2|2,0:0|0:0,0:0:0:0:
188,360,95259,2,0,L|125:349,1,50,8|2,0:0|0:0,0:0:0:0:
60,317,95538,2,0,L|80:201,1,100,2|8,0:0|0:0,0:0:0:0:
99,136,95957,1,8,0:0:0:0:
120,53,96097,6,0,L|184:41,1,50,6|2,0:0|0:0,0:0:0:0:
236,96,96376,2,0,L|300:84,1,50,8|8,0:0|0:0,0:0:0:0:
343,149,96655,2,0,L|412:139,2,50,8|8|8,0:0|0:0|0:0,0:0:0:0:
262,176,97073,5,2,0:0:0:0:
104,206,97352,2,0,B|98:227|98:227|112:300,1,75,2|2,0:0|0:0,0:0:0:0:
208,345,97771,1,8,0:0:0:0:
279,115,98190,5,6,0:0:0:0:
256,192,98329,12,2,101678,0:0:0:0:
373,137,102236,6,0,P|366:174|360:189,2,50,8|8|8,0:0|0:0|0:0,0:0:0:0:
349,60,102655,2,0,L|245:54,1,100,6|2,0:0|0:0,0:0:0:0:
166,72,103073,2,8,L|159:142,1,50,8|8,0:0|0:0,0:0:0:0:
89,167,103352,2,8,L|87:235,1,50,8|8,0:0|0:0,0:0:0:0:
164,253,103631,2,8,L|157:323,1,50,8|8,0:0|0:0,0:0:0:0:
237,335,103910,2,8,L|241:285,1,50,8|8,0:0|0:0,0:0:0:0:
314,240,104189,2,8,L|319:176,1,50,8|8,0:0|0:0,0:0:0:0:
236,165,104468,2,0,P|234:123|265:67,1,100,8|8,0:0|0:0,0:0:0:0:
328,21,104887,6,0,L|438:32,1,100,6|2,0:0|0:0,0:0:0:0:
480,97,105306,1,8,0:0:0:0:
411,241,105585,1,8,0:0:0:0:
263,175,105864,2,0,L|256:228,1,50,8|2,0:0|0:0,0:0:0:0:
247,309,106143,1,2,0:0:0:0:
104,104,107120,6,0,B|163:53|163:53|245:74,1,150,6|2,0:0|0:0,0:0:0:0:
294,346,108236,2,0,B|220:320|220:320|200:251,1,150,6|2,0:0|0:0,0:0:0:0:
396,92,109352,2,0,B|446:143|446:143|431:220,1,150,6|2,0:0|0:0,0:0:0:0:
106,285,110608,6,0,L|94:218,2,50,12|2|2,0:0|0:0|0:0,0:0:0:0:
175,334,111027,2,0,B|219:333|219:333|233:346|233:346|279:344,1,100,8|0,0:0|0:0,0:0:0:0:
395,230,111585,6,0,P|412:200|360:188,1,100,2|2,0:0|0:0,0:0:0:0:
304,243,112003,1,2,0:0:0:0:
189,130,112283,2,0,B|179:169|179:169|188:184|188:184|179:237,1,100,2|0,0:0|0:0,0:0:0:0:
122,280,112701,6,0,P|92:297|80:245,1,100,2|2,0:0|0:0,0:0:0:0:
93,170,113120,1,2,0:0:0:0:
252,174,113399,2,0,B|267:132|267:132|264:115|264:115|280:61,1,100,2|0,0:0|0:0,0:0:0:0:
328,12,113817,6,0,P|372:21|361:65,1,100,2|2,0:0|0:0,0:0:0:0:
363,150,114235,1,2,0:0:0:0:
271,293,114515,2,0,B|341:282|341:282|360:289|360:289|426:275,1,150,2|0,0:0|0:0,0:0:0:0:
464,205,115073,6,0,L|456:147,1,50,8|2,0:0|0:0,0:0:0:0:
385,109,115352,1,2,0:0:0:0:
336,179,115492,2,0,L|230:163,1,100,8|8,0:0|0:0,0:0:0:0:
113,247,116050,2,0,B|65:159|184:118|108:33,1,225,6|0,0:0|0:0,0:0:0:0:
368,269,120655,5,2,0:0:0:0:
368,269,120934,2,0,L|380:151,2,100,8|8|8,0:0|0:0|0:0,0:0:0:0:
251,159,121771,1,2,0:0:0:0:
251,159,122050,2,0,L|239:41,2,100,8|8|8,0:0|0:0|0:0,0:0:0:0:
122,254,122887,1,2,0:0:0:0:
122,254,123166,2,0,L|110:372,2,100,8|8|8,0:0|0:0|0:0,0:0:0:0:
135,94,124003,5,2,0:0:0:0:
135,94,124283,1,8,0:0:0:0:
294,107,124562,2,0,L|402:117,1,100,8|0,0:0|0:0,0:0:0:0:
477,128,124980,2,0,P|479:166|454:230,1,100,6|2,0:0|0:0,0:0:0:0:
375,243,125399,2,0,L|388:346,2,100,2|2|2,0:0|0:0|0:0,0:0:0:0:
290,241,126096,6,0,P|244:213|229:151,1,100,6|2,0:0|0:0,0:0:0:0:
212,87,126515,2,0,L|107:82,2,100,2|2|2,0:0|0:0|0:0,0:0:0:0:
286,127,127213,2,0,L|391:122,1,100,6|2,0:0|0:0,0:0:0:0:
468,104,127631,2,0,P|470:149|450:210,2,100,2|2|8,0:0|0:0|0:0,0:0:0:0:
406,44,128329,2,0,P|366:27|298:25,1,100,6|2,0:0|0:0,0:0:0:0:
227,44,128748,1,2,0:0:0:0:
85,118,129027,2,0,L|100:228,1,100,2|8,0:0|0:0,0:0:0:0:
195,76,131817,6,0,L|126:71,2,62.5,14|14|14,0:0|0:0|0:0,0:0:0:0:
266,156,132341,6,0,B|300:153|300:153|336:141,2,62.5,14|14|14,0:0|0:0|0:0,0:0:0:0:
159,164,132864,6,0,B|124:166|124:166|89:179,2,62.5,14|14|12,0:0|0:0|0:0,0:0:0:0:
307,257,133910,6,0,L|295:153,1,100,6|2,0:0|0:0,0:0:0:0:
242,89,134328,2,0,P|284:72|342:85,1,100,8|2,0:0|0:0,0:0:0:0:
416,117,134747,2,0,L|428:177,1,50,8|8,0:0|0:0,0:0:0:0:
481,230,135026,2,0,P|442:249|381:234,1,100,6|2,0:0|0:0,0:0:0:0:
302,236,135445,2,0,L|273:338,1,100,8|2,0:0|0:0,0:0:0:0:
195,363,135863,2,0,L|143:355,1,50,2|2,0:0|0:0,0:0:0:0:
61,338,136142,2,0,L|48:232,1,100,6|2,0:0|0:0,0:0:0:0:
38,154,136561,1,2,0:0:0:0:
185,69,136840,2,0,L|243:84,2,50,8|8|8,0:0|0:0|0:0,0:0:0:0:
101,51,137259,5,2,0:0:0:0:
18,187,137538,1,2,0:0:0:0:
167,201,137817,1,2,0:0:0:0:
315,221,138096,1,2,0:0:0:0:
262,69,138375,6,0,L|245:173,1,100,6|2,0:0|0:0,0:0:0:0:
233,246,138793,2,0,P|260:287|319:306,1,100,8|2,0:0|0:0,0:0:0:0:
385,312,139212,1,0,0:0:0:0:
433,247,139352,2,0,P|450:218|461:191,1,50,8|0,0:0|0:0,0:0:0:0:
377,172,139631,2,0,L|384:113,2,50,2|2|8,0:0|0:0|0:0,0:0:0:0:
292,165,140049,2,0,L|280:56,1,100,2|0,0:0|0:0,0:0:0:0:
202,31,140468,1,8,0:0:0:0:
68,119,140747,6,0,L|63:189,1,50,6|8,0:0|0:0,0:0:0:0:
75,253,141026,2,0,L|146:241,1,50,2|8,0:0|0:0,0:0:0:0:
150,163,141305,2,0,P|202:159|256:186,1,100,2|2,0:0|0:0,0:0:0:0:
320,216,141724,1,8,0:0:0:0:
390,263,141864,2,0,L|371:371,1,100,2|8,0:0|0:0,0:0:0:0:
288,347,142283,1,2,0:0:0:0:
155,257,142562,1,2,0:0:0:0:
254,132,142841,6,0,L|232:26,1,100,6|2,0:0|0:0,0:0:0:0:
146,34,143259,2,0,P|96:32|77:37,1,50,8|2,0:0|0:0,0:0:0:0:
42,98,143538,2,0,L|33:202,1,100,2|8,0:0|0:0,0:0:0:0:
37,282,143957,2,0,P|74:306|137:308,1,100,6|2,0:0|0:0,0:0:0:0:
206,275,144376,2,0,P|255:277|297:303,1,100,8|2,0:0|0:0,0:0:0:0:
368,349,144794,1,2,0:0:0:0:
472,228,145073,2,0,L|485:116,1,100,6|2,0:0|0:0,0:0:0:0:
433,59,145492,1,2,0:0:0:0:
308,159,145771,2,0,L|319:220,2,50,8|8|8,0:0|0:0|0:0,0:0:0:0:
287,76,146190,5,2,0:0:0:0:
130,41,146469,1,2,0:0:0:0:
153,189,146748,1,2,0:0:0:0:
175,337,147027,1,2,0:0:0:0:
306,245,147306,6,0,L|201:258,1,100,6|2,0:0|0:0,0:0:0:0:
126,229,147724,2,0,P|124:171|146:117,1,100,8|2,0:0|0:0,0:0:0:0:
207,83,148143,1,2,0:0:0:0:
290,66,148283,2,0,L|401:77,2,100,8|2|8,0:0|0:0|0:0,0:0:0:0:
264,148,148980,2,0,L|279:253,1,100,2|2,0:0|0:0,0:0:0:0:
292,331,149399,1,8,0:0:0:0:
143,248,149678,2,0,L|97:199,1,50,6|8,0:0|0:0,0:0:0:0:
91,128,149957,2,0,P|98:92|118:62,1,50,2|8,0:0|0:0,0:0:0:0:
189,75,150236,2,0,P|187:96|176:131,2,50,2|8|2,0:0|0:0|0:0,0:0:0:0:
344,38,150794,6,0,L|459:57,1,100,2|2,0:0|0:0,0:0:0:0:
492,123,151213,2,0,B|497:147|497:147|474:226,1,100,2|2,0:0|0:0,0:0:0:0:
382,349,151771,2,0,L|264:330,1,100,6|2,0:0|0:0,0:0:0:0:
198,317,152190,2,0,P|180:256|188:199,1,100,8|0,0:0|0:0,0:0:0:0:
220,148,152608,1,8,0:0:0:0:
220,148,152748,1,8,0:0:0:0:
265,76,152887,6,0,P|241:48|174:29,1,100,6|2,0:0|0:0,0:0:0:0:
99,48,153306,2,0,P|77:83|76:157,1,100,8|2,0:0|0:0,0:0:0:0:
110,215,153724,2,0,L|101:268,1,50,2|2,0:0|0:0,0:0:0:0:
93,349,154003,2,0,L|203:358,1,100,6|2,0:0|0:0,0:0:0:0:
254,298,154422,2,0,P|305:290|353:289,1,100,8|8,0:0|0:0,0:0:0:0:
434,316,154841,1,8,0:0:0:0:
434,316,154980,1,8,0:0:0:0:
492,253,155120,6,0,L|507:147,1,100,6|2,0:0|0:0,0:0:0:0:
501,69,155538,2,0,P|478:44|402:37,1,100,2|2,0:0|0:0,0:0:0:0:
247,61,156096,1,2,0:0:0:0:
196,280,156515,5,2,0:0:0:0:
123,65,156934,1,2,0:0:0:0:
357,114,157352,1,2,0:0:0:0:
186,283,157771,1,2,0:0:0:0:
127,49,158190,2,0,L|236:62,1,100,2|0,0:0|0:0,0:0:0:0:
310,69,158608,6,0,B|338:103|338:103|306:272,2,200,6|0|0,0:0|0:0|0:0,0:0:0:0:
300,68,160283,1,0,0:0:0:0:
71,47,160701,1,2,0:0:0:0:
256,192,160841,12,2,162934,0:0:0:0:
256,192,165306,12,2,167399,0:0:0:0:
441,102,169213,6,0,B|373:87|373:87|356:96|356:96|291:80,2,150,8|6|6,0:0|0:0|0:0,0:0:0:0:
453,271,170329,2,0,P|427:294|312:288,1,150,2|0,0:0|0:0,0:0:0:0:
255,234,170887,2,0,B|207:209|207:209|150:217,1,100,6|6,0:0|0:0,0:0:0:0:
90,72,171445,2,0,B|138:97|138:97|195:89,1,100,6|6,0:0|0:0,0:0:0:0:
340,57,172003,1,12,0:0:0:0:
340,57,172143,2,0,L|322:165,1,100,14|14,0:0|0:0,0:0:0:0:
298,313,172701,2,0,L|231:302,2,50,8|8|8,0:0|0:0|0:0,0:0:0:0:
302,322,173957,6,0,P|355:323|383:169,1,239.999992675781,8|2,0:0|0:0,0:0:0:0:
225,147,175352,6,0,L|229:250,1,100,6|8,0:0|0:0,0:0:0:0:
181,317,175771,1,8,0:0:0:0:
96,324,175910,2,0,P|48:310|20:259,1,100,2|8,0:0|0:0,0:0:0:0:
33,185,176329,2,0,L|47:81,1,100,2|2,0:0|0:0,0:0:0:0:
108,27,176748,2,0,P|158:23|217:36,1,100,8|2,0:0|0:0,0:0:0:0:
360,74,177306,1,8,0:0:0:0:
232,170,177585,6,0,L|241:287,1,100,6|8,0:0|0:0,0:0:0:0:
288,339,178003,1,8,0:0:0:0:
372,348,178143,2,0,P|398:334|440:262,1,100,2|8,0:0|0:0,0:0:0:0:
457,194,178562,2,0,L|351:173,1,100,2|2,0:0|0:0,0:0:0:0:
274,165,178980,2,0,L|266:58,2,100,8|2|8,0:0|0:0|0:0,0:0:0:0:
277,250,179678,1,2,0:0:0:0:
224,316,179817,6,0,P|157:301|131:258,1,100,6|8,0:0|0:0,0:0:0:0:
118,196,180236,1,8,0:0:0:0:
107,111,180376,2,0,P|174:126|200:169,1,100,2|8,0:0|0:0,0:0:0:0:
251,208,180794,2,0,L|356:198,1,100,2|2,0:0|0:0,0:0:0:0:
435,191,181213,2,0,L|445:80,2,100,8|2|8,0:0|0:0|0:0,0:0:0:0:
427,275,181910,1,8,0:0:0:0:
370,338,182050,6,0,P|306:330|275:293,1,100,6|8,0:0|0:0,0:0:0:0:
170,186,182608,1,2,0:0:0:0:
170,186,182748,2,0,P|189:130|228:99,1,100,8|2,0:0|0:0,0:0:0:0:
300,80,183166,2,0,L|408:91,1,100,8|2,0:0|0:0,0:0:0:0:
462,147,183585,2,0,L|441:252,1,100,8|2,0:0|0:0,0:0:0:0:
431,329,184003,1,8,0:0:0:0:
360,281,184143,1,6,0:0:0:0:
109,167,185399,5,2,0:0:0:0:
98,251,185538,2,0,L|105:304,1,50,2|0,0:0|0:0,0:0:0:0:
172,351,185817,2,0,L|281:340,1,100,8|8,0:0|0:0,0:0:0:0:
428,305,186376,2,0,P|439:264|435:193,1,100,6|2,0:0|0:0,0:0:0:0:
392,135,186794,2,0,L|275:122,2,100,8|8|2,0:0|0:0|0:0,0:0:0:0:
246,223,187631,1,8,0:0:0:0:
246,223,187771,2,0,P|188:215|137:210,2,100,2|8|8,0:0|0:0|0:0,0:0:0:0:
405,239,188608,6,0,B|411:178|411:178|421:131,1,100,6|2,0:0|0:0,0:0:0:0:
453,62,189027,1,8,0:0:0:0:
285,31,189306,1,8,0:0:0:0:
261,199,189585,1,8,0:0:0:0:
92,177,189864,1,8,0:0:0:0:
92,177,190003,2,0,L|105:71,2,100,2|8|8,0:0|0:0|0:0,0:0:0:0:
136,331,190841,6,0,B|166:334|166:334|231:319,2,75,6|6|6,0:0|0:0|0:0,0:0:0:0:
190,223,191469,2,0,B|220:220|220:220|285:235,2,75,6|6|6,0:0|0:0|0:0,0:0:0:0:
70,234,192096,2,0,B|56:201|56:201|63:124,1,100,2|0,0:0|0:0,0:0:0:0:
283,98,192794,5,10,0:0:0:0:
