osu file format v14

[General]
AudioFilename: audio.mp3
AudioLeadIn: 0
PreviewTime: 54195
Countdown: 0
SampleSet: Soft
StackLeniency: 0.7
Mode: 0
LetterboxInBreaks: 0
WidescreenStoryboard: 1

[Editor]
Bookmarks: 10128,71062,114395,131997,159997
DistanceSpacing: 1.7
BeatDivisor: 4
GridSize: 32
TimelineZoom: 2.7

[Metadata]
Title:Lament moment
TitleUnicode:Lament moment
Artist:sokoninaru
ArtistUnicode:そこに鳴る
Creator:HabiHolic
Version:Insane
Source:
Tags:超越 KOGA RECORDS j-pop j-rock japanese metal alternative indie rock math-rock Pretty Rhythm PaRaDogi
BeatmapID:2688823
BeatmapSetID:1288090

[Difficulty]
HPDrainRate:5
CircleSize:4
OverallDifficulty:7
ApproachRate:9
SliderMultiplier:1.5
SliderTickRate:1

[Events]
//Background and Video events
0,0,"fbc3372d-8285-4977-b23e-8a3f2073ade4.png",0,0
//Break Periods
2,1128,4462
2,11928,13262
//Storyboard Layer 0 (Background)
//Storyboard Layer 1 (Fail)
//Storyboard Layer 2 (Pass)
//Storyboard Layer 3 (Foreground)
//Storyboard Layer 4 (Overlay)
//Storyboard Sound Samples

[TimingPoints]
1062,266.666666666667,4,2,1,80,1,0
6395,-100,4,2,1,50,0,0
6928,-100,4,2,1,80,0,0
10662,-333.333333333333,4,2,1,80,0,0
11328,-222.222222222221,4,2,1,80,0,0
13862,-100,4,2,1,80,0,0
20262,-76.9230769230769,4,2,1,80,0,0
20528,-100,4,2,1,80,0,0
21328,-76.9230769230769,4,2,1,80,0,0
21595,-100,4,2,1,80,0,0
22395,-76.9230769230769,4,2,1,80,0,0
22662,-100,4,2,1,80,0,0
23462,-76.9230769230769,4,2,1,80,0,0
23728,-100,4,2,1,80,0,0
24528,-100,4,2,1,80,0,0
27728,-200,4,2,1,80,0,0
28262,-100,4,2,1,80,0,0
28795,-133.333333333333,4,2,1,60,0,0
37328,-100,4,2,1,70,0,0
54262,-100,4,2,1,80,0,0
71328,-200,4,2,1,80,0,0
72528,-200,4,2,1,30,0,0
73062,-200,4,2,1,80,0,0
73595,400,4,2,1,60,1,0
73595,-133.333333333333,4,2,1,60,0,0
79795,-133.333333333333,4,2,2,60,0,0
86395,-133.333333333333,4,2,2,70,0,0
95195,-133.333333333333,4,2,1,80,0,0
96395,-133.333333333333,4,2,1,50,0,0
96795,-100,4,2,1,60,0,0
97195,-76.9230769230769,4,2,1,70,0,0
97595,-76.9230769230769,4,2,1,80,0,0
99195,-100,4,2,1,80,0,0
124597,266.666666666667,4,2,1,80,1,0
124797,266.666666666667,4,2,1,80,1,0
124797,-133.333333333333,4,2,1,80,0,0
129063,-100,4,2,1,80,0,0
141863,-200,4,2,1,80,0,0
142397,-100,4,2,1,80,0,0
142930,-200,4,2,1,80,0,0
143463,-100,4,2,1,80,0,0
143997,-200,4,2,1,80,0,0
144530,-100,4,2,1,80,0,0
145063,-200,4,2,1,80,0,0
145597,-100,4,2,1,80,0,0
146663,-100,4,2,1,50,0,0
150263,-100,4,2,1,80,0,0
160930,-133.333333333333,4,2,1,80,0,0
168397,-100,4,2,1,80,0,0
178263,-133.333333333333,4,2,1,80,0,0
182263,-79.9999999999999,4,2,1,80,0,0

[Colours]
Combo1 : 128,128,255
Combo2 : 255,128,128
Combo3 : 188,125,225
Combo4 : 255,0,128

[HitObjects]
256,192,928,5,12,0:0:0:0:
45,58,5062,5,0,1:0:0:0:
45,58,5128,1,0,1:0:0:0:
45,58,5195,2,0,B|125:43|110:96|189:78,1,150,12|0,0:0|1:0,0:0:0:0:
287,31,5595,2,0,L|296:72,3,37.5,0|0|0|0,1:0|1:0|1:0|1:0,0:0:0:0:
342,95,5862,2,0,L|333:136,3,37.5,0|0|0|0,1:0|1:0|1:0|1:0,0:0:0:0:
290,161,6128,2,0,L|299:202,3,37.5,0|0|0|0,1:0|1:0|1:0|1:0,0:0:0:0:
305,240,6395,6,0,P|375:224|425:276,1,150,8|8,0:0|0:0,0:0:0:0:
336,343,6795,2,0,L|179:319,1,150,8|0,0:0|1:0,0:0:0:0:
68,251,7195,2,0,L|106:243,3,37.5,4|4|4|4,3:0|3:0|3:0|3:0,0:0:0:0:
138,231,7462,6,0,P|118:201|114:164,1,75,10|0,0:0|0:0,0:0:0:0:
209,168,7728,1,0,1:0:0:0:
209,168,7795,1,0,1:0:0:0:
209,168,7861,1,8,0:0:0:0:
282,102,7995,2,0,P|302:132|306:169,2,75,8|4|8,3:0|3:0|0:0,0:0:0:0:
192,68,8395,1,0,1:0:0:0:
344,27,8528,5,2,0:0:0:0:
344,27,9595,6,0,L|423:44,7,75,8|8|8|8|8|8|8|8,0:0|0:0|0:0|0:0|0:0|0:0|0:0|0:0,0:0:0:0:
484,116,10662,6,0,L|510:112,3,22.4999993133545,0|0|2|0,0:0|0:0|0:0|0:0,0:0:0:0:
371,193,11328,6,0,L|266:165,1,101.249996910095,2|0,2:1|1:0,0:0:0:0:
20,59,13862,6,0,L|34:142,1,75,2|0,0:2|0:0,0:0:0:0:
69,149,14062,1,0,0:0:0:0:
69,149,14128,2,0,L|83:232,1,75,2|0,1:2|0:0,0:0:0:0:
144,68,14395,6,0,L|158:151,1,75,2|0,0:0|0:0,0:0:0:0:
193,158,14595,1,0,0:0:0:0:
193,158,14661,2,0,L|207:241,1,75,0|0,1:2|0:0,0:0:0:0:
269,85,14928,6,0,L|283:168,1,75,2|0,0:0|0:0,0:0:0:0:
318,175,15128,1,0,0:0:0:0:
318,175,15194,2,0,L|332:258,1,75,2|0,1:2|0:0,0:0:0:0:
395,97,15462,6,0,L|409:180,1,75,2|0,0:0|0:0,0:0:0:0:
444,187,15662,1,0,0:0:0:0:
444,187,15728,2,0,L|458:270,1,75,2|0,1:2|0:0,0:0:0:0:
390,338,15995,5,2,0:0:0:0:
390,338,16128,1,0,1:0:0:0:
305,269,16262,2,0,L|264:279,3,37.5,8|8|8|8,3:0|3:0|3:0|3:0,0:0:0:0:
232,299,16528,2,0,L|195:290,3,37.5,4|4|4|4,3:0|3:0|3:0|3:0,0:0:0:0:
157,318,16795,1,4,3:0:0:0:
65,259,16928,6,0,B|37:220|37:220|63:122,1,150,12|12,0:0|0:0,0:0:0:0:
136,39,17328,1,0,0:0:0:0:
136,39,17395,1,0,0:0:0:0:
136,39,17462,1,8,3:0:0:0:
183,174,17595,1,0,2:0:0:0:
278,62,17728,1,0,1:0:0:0:
110,124,17862,1,12,0:0:0:0:
256,303,18128,6,0,L|298:296,3,37.5,0|0|0|0,1:0|1:0|1:0|1:0,0:0:0:0:
336,318,18395,2,0,L|378:311,3,37.5,0|0|0|0,1:0|1:0|1:0|0:0,0:0:0:0:
413,330,18662,6,0,L|431:254,1,75,8|8,3:0|3:0,0:0:0:0:
476,138,18928,2,0,L|483:183,3,37.5,8|8|8|8,0:0|0:0|0:0|0:0,0:0:0:0:
19,40,20262,6,0,L|37:143,1,97.4999955368044,14|0,0:0|0:0,0:0:0:0:
122,200,20528,6,0,P|163:201|194:181,5,75,8|8|8|8|8|8,3:0|3:0|3:0|3:0|3:0|3:0,0:0:0:0:
12,295,21328,6,0,L|108:316,1,97.4999955368044,14|0,0:0|0:0,0:0:0:0:
198,354,21595,6,0,B|238:351|238:351|263:324,5,75,8|8|8|8|8|8,3:0|3:0|3:0|3:0|3:0|3:0,0:0:0:0:
180,140,22395,6,0,L|201:241,1,97.4999955368044,14|0,0:0|0:0,0:0:0:0:
285,294,22662,6,0,P|318:279|355:282,5,75,8|8|8|0|8|8,3:0|3:0|3:0|0:0|3:0|3:0,0:0:0:0:
190,344,23462,6,0,L|94:325,1,97.4999955368044,14|0,0:0|0:0,0:0:0:0:
17,244,23728,6,0,P|9:207|17:169,3,75,0|0|8|8,1:0|1:0|3:0|3:0,0:0:0:0:
110,206,24262,2,0,L|146:198,3,37.5,8|8|8|8,0:0|0:0|0:0|0:0,0:0:0:0:
180,189,24528,6,0,P|163:153|162:117,1,75,0|0,1:0|1:0,0:0:0:0:
260,72,24795,2,0,P|287:97|302:131,1,75,8|0,0:0|0:0,0:0:0:0:
377,197,25062,2,0,L|454:183,1,75,0|0,1:0|1:0,0:0:0:0:
312,276,25328,2,0,L|237:262,1,75,8|0,0:0|0:0,0:0:0:0:
160,194,25595,6,0,B|171:157|171:157|161:121,1,75,2|2,1:2|1:2,0:0:0:0:
69,52,25862,2,0,B|58:89|58:89|68:125,1,75,10|2,0:0|0:0,0:0:0:0:
160,194,26128,2,0,L|240:181,1,75,2|0,1:2|1:0,0:0:0:0:
293,262,26395,2,0,L|367:245,1,75,8|0,0:0|0:0,0:0:0:0:
480,169,26662,6,0,L|436:160,7,37.5,10|0|10|0|10|0|0|0,0:2|0:0|0:2|0:0|0:0|0:0|0:0|0:0,0:0:0:0:
406,123,27195,2,0,L|362:132,7,37.5,10|0|10|0|10|0|10|0,0:2|0:0|0:2|0:0|0:2|0:0|0:2|0:0,0:0:0:0:
332,164,27728,6,0,L|191:132,1,131.25,2|0,0:0|0:0,0:0:0:0:
176,123,28262,5,0,1:0:0:0:
87,86,28395,1,0,1:0:0:0:
87,86,28461,1,0,1:0:0:0:
86,85,28528,2,0,P|79:122|89:158,1,75,8|0,0:0|0:0,0:0:0:0:
161,231,28795,6,0,L|275:211,1,112.500004291535,4|2,0:0|1:2,0:0:0:0:
361,193,29195,1,0,0:0:0:0:
459,185,29328,2,0,P|455:158|443:132,1,56.2500021457673,2|0,1:2|0:0,0:0:0:0:
350,24,29595,2,0,P|354:51|366:77,1,56.2500021457673,2|0,1:2|0:0,0:0:0:0:
287,137,29862,6,0,L|171:115,1,112.500004291535,2|2,1:2|1:2,0:0:0:0:
83,194,30262,2,0,L|193:214,1,112.500004291535,0|0,0:0|0:0,0:0:0:0:
273,274,30662,1,2,1:2:0:0:
273,274,30728,1,0,1:0:0:0:
273,274,30795,1,0,1:0:0:0:
273,274,30862,1,0,1:0:0:0:
273,274,30928,6,0,L|390:259,1,112.500004291535,2|2,1:2|1:2,0:0:0:0:
468,190,31328,1,0,0:0:0:0:
396,120,31462,2,0,L|408:63,1,56.2500021457673,2|8,1:2|0:0,0:0:0:0:
322,5,31728,2,0,L|311:61,1,56.2500021457673,2|8,1:2|0:0,0:0:0:0:
286,158,31995,5,2,1:2:0:0:
286,158,32128,1,2,0:0:0:0:
197,104,32262,1,2,1:2:0:0:
197,216,32395,2,0,L|138:202,1,56.2500021457673,2|8,0:0|0:0,0:0:0:0:
49,176,32662,1,8,0:0:0:0:
37,272,32795,2,0,L|47:304,3,28.1250010728836,8|8|8|8,0:0|0:0|0:0|0:0,0:0:0:0:
54,326,33062,6,0,P|79:314|107:315,1,56.2500021457673,2|2,1:2|0:0,0:0:0:0:
202,314,33328,2,0,L|185:261,1,56.2500021457673,2|2,1:2|0:0,0:0:0:0:
261,196,33595,2,0,L|278:249,1,56.2500021457673,2|2,1:2|0:0,0:0:0:0:
316,338,33862,2,0,P|341:325|369:326,1,56.2500021457673,2|2,1:2|0:0,0:0:0:0:
457,269,34128,5,2,1:2:0:0:
457,269,34262,2,0,L|471:205,1,56.2500021457673,0|2,0:0|1:2,0:0:0:0:
414,125,34528,1,0,0:0:0:0:
335,188,34662,2,0,L|278:174,1,56.2500021457673,2|0,1:2|0:0,0:0:0:0:
166,100,34929,2,0,L|229:88,1,56.2500021457673,2|0,1:2|0:0,0:0:0:0:
297,23,35195,5,0,1:0:0:0:
297,23,35328,1,8,3:0:0:0:
373,89,35462,2,0,L|362:150,1,56.2500021457673,8|4,3:0|3:0,0:0:0:0:
263,159,35728,2,0,L|274:220,1,56.2500021457673,8|0,3:0|1:0,0:0:0:0:
368,252,35995,2,0,L|357:313,1,56.2500021457673,0|8,1:0|0:0,0:0:0:0:
263,354,36262,5,2,0:0:0:0:
263,354,37328,6,0,L|183:335,1,75,2|0,1:2|1:0,0:0:0:0:
41,285,37595,2,0,L|113:267,1,75,10|0,0:0|0:0,0:0:0:0:
210,204,37862,2,0,B|217:165|217:165|208:126,1,75,2|2,1:2|1:2,0:0:0:0:
113,69,38128,2,0,B|106:108|106:108|115:147,1,75,10|0,0:0|0:0,0:0:0:0:
189,297,38395,5,2,1:2:0:0:
269,357,38528,2,0,L|343:343,1,75,2|8,1:2|0:0,0:0:0:0:
508,265,38795,2,0,B|454:249|454:249|418:257|418:257|362:238,1,150,2|2,0:0|1:2,0:0:0:0:
310,151,39195,1,8,0:0:0:0:
310,151,39328,1,0,0:0:0:0:
409,48,39462,6,0,B|418:88|418:88|411:123,1,75,2|2,1:2|1:2,0:0:0:0:
310,151,39728,2,0,L|237:134,1,75,10|2,0:0|0:0,0:0:0:0:
109,56,39995,2,0,L|188:43,1,75,2|0,1:2|1:0,0:0:0:0:
87,155,40262,2,0,L|8:142,1,75,10|2,0:0|0:0,0:0:0:0:
144,238,40528,5,2,1:2:0:0:
225,167,40662,1,2,1:2:0:0:
244,273,40795,1,10,0:0:0:0:
120,223,40928,2,0,L|147:376,1,150,2|2,0:0|1:2,0:0:0:0:
244,273,41328,1,8,0:0:0:0:
324,216,41462,1,0,0:0:0:0:
333,314,41595,6,0,L|413:302,1,75,4|0,0:0|1:0,0:0:0:0:
505,215,41862,2,0,L|422:199,1,75,10|0,0:0|0:0,0:0:0:0:
360,129,42128,2,0,B|367:91|367:91|359:55,1,75,2|2,1:2|1:2,0:0:0:0:
255,6,42395,2,0,B|248:44|248:44|256:80,1,75,10|2,0:0|0:0,0:0:0:0:
267,181,42662,5,2,1:2:0:0:
150,144,42795,1,2,1:2:0:0:
172,267,42928,1,8,0:0:0:0:
266,181,43062,2,0,P|336:162|388:211,1,150,2|2,0:0|1:2,0:0:0:0:
435,302,43462,1,8,0:0:0:0:
435,302,43596,1,0,0:0:0:0:
348,349,43728,6,0,L|269:335,1,75,10|0,0:0|1:0,0:0:0:0:
79,266,43995,2,0,L|162:253,1,75,10|0,0:0|1:0,0:0:0:0:
352,181,44262,2,0,L|273:167,1,75,10|0,0:0|1:0,0:0:0:0:
83,98,44529,2,0,L|166:85,1,75,10|0,0:0|1:0,0:0:0:0:
311,25,44795,6,0,L|319:65,7,37.5,4|4|4|0|4|4|4|4,3:0|3:0|3:0|0:0|3:0|3:0|3:0|3:0,0:0:0:0:
367,84,45328,2,0,L|359:124,7,37.5,8|8|8|8|4|4|4|4,3:0|3:0|3:0|3:0|3:0|3:0|3:0|3:0,0:0:0:0:
350,155,45862,6,0,P|278:140|221:185,2,150,12|8|8,0:0|3:0|3:0,0:0:0:0:
462,256,46662,1,8,3:0:0:0:
304,342,46928,6,0,L|146:321,1,150,12|8,0:0|3:0,0:0:0:0:
155,322,47462,2,0,P|162:281|169:249,1,75,0|8,1:0|0:0,0:0:0:0:
85,149,47728,2,0,P|78:190|71:222,1,75,0|8,1:0|0:0,0:0:0:0:
245,182,47995,6,0,B|329:170|302:220|395:201,2,150,12|8|0,0:0|3:0|0:0,0:0:0:0:
67,56,48795,1,8,3:0:0:0:
14,272,49062,6,0,P|83:249|140:293,1,150,12|8,3:0|3:0,0:0:0:0:
140,293,49595,2,0,P|133:255|126:217,1,75,0|8,1:0|0:0,0:0:0:0:
218,144,49862,2,0,P|225:182|232:220,1,75,0|8,1:0|0:0,0:0:0:0:
288,296,50128,6,0,B|368:287|345:338|430:324,1,150,8|8,3:0|3:0,0:0:0:0:
495,165,50528,2,0,P|431:142|409:206,1,150,8|8,3:0|3:0,0:0:0:0:
494,256,50928,1,8,3:0:0:0:
281,224,51195,6,0,B|221:242|221:242|205:262|205:262|144:282,1,150,8|8,3:0|3:0,0:0:0:0:
15,135,51595,2,0,B|75:153|75:153|91:173|91:173|152:193,1,150,8|8,3:0|3:0,0:0:0:0:
154,95,51995,1,8,3:0:0:0:
154,95,52262,6,0,L|144:46,5,37.5,8|8|8|0|8|8,0:0|0:0|0:0|0:0|0:0|0:0,0:0:0:0:
255,112,52662,2,0,L|248:149,5,37.5,8|8|8|0|8|8,0:0|0:0|0:0|0:0|0:0|0:0,0:0:0:0:
350,82,53062,2,0,L|342:45,3,37.5,8|8|8|0,0:0|0:0|0:0|0:0,0:0:0:0:
337,15,53328,6,0,L|450:37,2,112.5,12|12|12,0:0|0:0|0:0,0:0:0:0:
30,82,54262,6,0,B|2:125|2:125|23:228,1,150,4|0,0:0|1:0,0:0:0:0:
98,292,54662,2,0,P|133:276|170:278,1,75,8|0,0:0|0:0,0:0:0:0:
340,209,54928,2,0,P|270:229|215:182,1,150,2|10,1:2|0:0,0:0:0:0:
294,125,55328,1,0,0:0:0:0:
446,154,55462,6,0,L|413:308,1,150,0|8,0:0|0:0,0:0:0:0:
324,357,55862,1,0,0:0:0:0:
226,257,55995,2,0,L|304:245,2,75,2|0|8,1:2|1:0|0:0,0:0:0:0:
171,176,56395,6,0,B|112:198|112:198|95:218|95:218|36:237,1,150,4|0,0:0|1:0,0:0:0:0:
30,143,56795,1,8,0:0:0:0:
30,143,56928,1,0,0:0:0:0:
175,281,57062,2,0,L|159:361,2,75,10|8|10,0:0|0:0|0:0,0:0:0:0:
254,207,57462,6,0,B|333:195|318:249|397:229,1,150,4|8,0:0|0:0,0:0:0:0:
397,229,57795,1,8,0:0:0:0:
397,229,57862,1,8,0:0:0:0:
478,157,57995,1,8,0:0:0:0:
478,157,58062,1,8,0:0:0:0:
478,157,58128,2,0,L|489:106,4,37.5,0|0|0|0|0,1:0|1:0|1:0|0:0|1:0,0:0:0:0:
407,32,58528,6,0,B|348:47|348:47|330:67|330:67|270:82,1,150,4|2,0:0|0:0,0:0:0:0:
105,33,58928,2,0,L|185:48,1,75,10|0,0:0|1:0,0:0:0:0:
313,187,59195,2,0,L|233:172,1,75,10|0,0:0|0:0,0:0:0:0:
77,255,59462,2,0,L|157:270,1,75,10|0,0:0|1:0,0:0:0:0:
249,354,59728,5,10,0:0:0:0:
326,212,59862,2,0,B|335:249|335:249|324:285,1,75,0|10,1:0|0:0,0:0:0:0:
249,354,60128,2,0,L|92:335,1,150,0|8,1:0|3:0,0:0:0:0:
23,261,60528,1,8,0:0:0:0:
116,88,60662,6,0,B|138:135|138:135|121:238,1,150,4|2,0:0|1:2,0:0:0:0:
201,296,61062,2,0,L|276:285,1,75,8|8,0:0|0:0,0:0:0:0:
449,213,61328,2,0,L|368:198,1,75,8|8,0:0|0:0,0:0:0:0:
197,112,61595,2,0,L|276:96,1,75,8|8,0:0|0:0,0:0:0:0:
384,33,61862,5,2,0:0:0:0:
383,32,62795,6,0,P|411:100|387:169,1,150,4|0,0:0|0:0,0:0:0:0:
302,220,63195,2,0,L|223:200,1,75,10|0,0:0|0:0,0:0:0:0:
102,121,63462,2,0,B|160:108|160:108|191:115|191:115|247:99,1,150,2|8,1:2|0:0,0:0:0:0:
195,22,63862,1,0,0:0:0:0:
6,64,63995,6,0,L|38:217,1,150,2|8,1:2|0:0,0:0:0:0:
63,302,64395,1,0,0:0:0:0:
141,233,64528,2,0,L|215:249,2,75,2|0|8,1:2|1:0|0:0,0:0:0:0:
175,358,64928,6,0,L|326:337,1,150,4|2,0:0|1:2,0:0:0:0:
476,280,65328,2,0,P|438:279|404:263,1,75,10|0,0:0|0:0,0:0:0:0:
287,162,65595,2,0,P|324:162|358:178,1,75,2|0,1:2|1:0,0:0:0:0:
298,262,65862,1,10,0:0:0:0:
163,218,65995,6,0,L|131:56,1,150,2|0,0:0|1:0,0:0:0:0:
133,70,66328,1,0,0:0:0:0:
133,70,66395,1,10,0:0:0:0:
232,112,66528,1,0,1:0:0:0:
51,138,66662,5,10,0:0:0:0:
223,18,66795,1,10,0:0:0:0:
223,18,67062,6,0,B|282:31|282:31|300:53|300:53|359:67,1,150,4|0,0:0|1:0,0:0:0:0:
474,47,67462,1,8,3:0:0:0:
469,65,67528,1,0,0:0:0:0:
465,83,67595,1,4,3:0:0:0:
460,101,67662,1,0,0:0:0:0:
456,119,67728,5,10,0:0:0:0:
332,192,67862,1,10,0:0:0:0:
332,192,68128,6,0,B|254:171|266:232|186:211,1,150,4|8,0:0|3:0,0:0:0:0:
88,189,68528,1,8,3:0:0:0:
92,207,68594,1,4,3:0:0:0:
96,225,68661,1,4,3:0:0:0:
101,243,68728,1,4,3:0:0:0:
105,261,68794,5,10,0:0:0:0:
256,347,68928,1,10,0:0:0:0:
255,346,69195,6,0,P|328:344|370:285,1,150,4|8,0:0|0:0,0:0:0:0:
271,146,69595,2,0,L|288:224,1,75,10|0,0:0|1:0,0:0:0:0:
370,110,69862,2,0,L|353:32,1,75,10|0,0:0|1:0,0:0:0:0:
173,119,70128,2,0,L|190:197,1,75,10|0,0:0|1:0,0:0:0:0:
213,282,70395,5,10,0:0:0:0:
213,282,70528,1,10,0:0:0:0:
373,229,70795,6,0,B|412:222|412:222|442:241,1,75,10|0,0:0|0:0,0:0:0:0:
423,341,71062,2,0,B|384:348|384:348|354:329,1,75,10|0,0:0|0:0,0:0:0:0:
280,264,71328,5,12,0:0:0:0:
256,192,71395,12,4,72528,0:0:0:0:
51,75,72795,5,4,0:0:0:0:
51,75,73062,1,8,0:0:0:0:
79,269,73195,1,8,0:0:0:0:
79,269,73595,5,4,1:2:0:0:
170,217,73945,1,0,0:0:0:0:
171,320,74245,1,2,0:0:0:0:
171,320,74595,6,0,L|116:332,2,56.2500021457673,0|2|0,0:0|0:0|0:0,0:0:0:0:
249,258,75195,6,0,B|284:266|284:266|296:278|296:278|333:289,2,84.3750032186509,0|0|2,0:0|0:0|0:0,0:0:0:0:
78,217,76195,5,0,0:0:0:0:
78,217,76395,2,0,L|85:179,3,28.1250010728836,4|0|4|0,0:0|0:0|0:0|0:0,0:0:0:0:
88,161,76795,6,0,P|127:173|164:155,2,84.3750032186509,0|0|2,0:0|0:0|0:0,0:0:0:0:
117,33,77795,5,0,0:0:0:0:
200,71,77995,1,0,0:0:0:0:
285,106,78195,1,4,0:0:0:0:
285,106,78295,1,4,0:0:0:0:
285,106,78395,6,0,L|371:92,2,84.3750032186509,0|0|2,0:0|0:0|0:0,0:0:0:0:
96,163,79395,6,0,L|109:222,1,56.2500021457673,0|0,0:0|0:0,0:0:0:0:
132,307,79795,1,8,0:0:0:0:
132,307,79895,1,8,0:0:0:0:
132,307,79995,2,0,P|173:310|206:285,2,84.3750032186509,2|0|2,0:0|0:0|0:0,0:0:0:0:
255,158,80995,5,0,0:0:0:0:
347,184,81195,1,0,0:0:0:0:
439,213,81395,1,0,0:0:0:0:
439,213,81495,1,0,0:0:0:0:
439,213,81595,6,0,L|456:120,2,84.3750032186509,0|2|2,0:0|0:0|0:0,0:0:0:0:
312,329,82595,5,0,0:0:0:0:
223,301,82795,1,0,0:0:0:0:
131,269,82995,1,8,0:0:0:0:
131,269,83095,1,8,0:0:0:0:
131,269,83195,6,0,L|39:283,2,84.3750032186509,0|2|2,0:0|0:0|0:0,0:0:0:0:
257,39,84195,5,0,0:0:0:0:
314,118,84395,1,0,0:0:0:0:
372,198,84595,1,8,0:0:0:0:
372,198,84695,1,8,0:0:0:0:
372,198,84795,6,0,L|429:188,1,56.2500021457673,10|2,0:0|0:0,0:0:0:0:
292,259,85195,2,0,L|236:246,1,56.2500021457673,8|2,0:0|0:0,0:0:0:0:
149,217,85595,1,10,0:0:0:0:
149,217,85795,2,0,L|144:190,3,18.7500007152558,8|8|8|10,0:0|0:0|0:0|0:0,0:0:0:0:
91,307,86195,1,2,0:0:0:0:
184,346,86395,6,0,L|217:341,1,28.1250010728836,0|0,1:0|1:0,0:0:0:0:
309,352,86695,2,0,L|342:347,1,28.1250010728836,2|0,1:2|1:0,0:0:0:0:
436,359,86995,1,2,1:2:0:0:
486,276,87195,6,0,L|498:217,1,56.2500021457673,8|0,0:0|1:0,0:0:0:0:
403,63,87595,2,0,L|415:126,1,56.2500021457673,8|0,0:0|1:0,0:0:0:0:
419,135,87895,1,0,1:0:0:0:
423,148,87995,6,0,L|416:182,1,28.1250010728836,0|0,1:0|1:0,0:0:0:0:
329,319,88395,1,8,0:0:0:0:
329,319,88595,1,2,1:2:0:0:
252,254,88795,6,0,L|192:268,1,56.2500021457673,10|0,0:0|1:0,0:0:0:0:
171,272,89095,1,0,1:0:0:0:
171,272,89195,2,0,L|144:266,2,28.1250010728836,0|0|0,0:0|1:0|1:0,0:0:0:0:
123,355,89595,5,0,1:0:0:0:
29,312,89795,1,0,1:2:0:0:
29,312,89895,1,2,1:2:0:0:
29,312,89995,2,0,L|20:272,2,28.1250010728836,8|0|2,0:0|1:0|1:2,0:0:0:0:
94,197,90395,1,0,1:0:0:0:
94,197,90495,1,0,1:0:0:0:
94,197,90595,1,0,1:0:0:0:
188,264,90795,2,0,L|256:252,1,56.2500021457673,0|0,1:0|1:0,0:0:0:0:
281,260,91095,1,0,1:0:0:0:
281,260,91195,6,0,L|346:247,1,56.2500021457673,10|0,0:0|1:0,0:0:0:0:
432,295,91595,1,10,0:0:0:0:
491,215,91795,1,0,1:0:0:0:
491,215,91895,1,0,1:0:0:0:
491,215,91995,1,10,0:0:0:0:
426,134,92195,6,0,L|432:106,2,28.1250010728836,0|0|0,1:0|1:0|1:0,0:0:0:0:
330,184,92595,1,0,1:0:0:0:
330,184,92695,1,0,1:0:0:0:
330,184,92795,6,0,L|217:157,2,112.500004291535,4|0|8,0:0|1:0|0:0,0:0:0:0:
506,61,93995,1,0,1:0:0:0:
457,312,94395,6,0,L|339:288,1,112.500004291535,8|0,0:0|1:0,0:0:0:0:
346,289,95195,1,8,0:0:0:0:
254,322,95395,1,8,3:0:0:0:
221,226,95595,1,4,3:0:0:0:
316,187,95795,1,0,1:0:0:0:
254,322,95995,5,12,0:0:0:0:
254,322,96395,6,0,L|198:313,1,56.2500021457673,8|8,3:0|3:0,0:0:0:0:
24,223,96795,6,0,L|109:207,1,75,8|8,3:0|3:0,0:0:0:0:
266,129,97195,6,0,L|170:110,1,97.4999955368044,8|8,3:0|3:0,0:0:0:0:
33,48,97595,5,8,0:0:0:0:
57,154,97795,1,8,0:0:0:0:
81,261,97995,1,8,0:0:0:0:
81,261,99195,6,0,L|65:345,2,75,4|4|4,1:2|1:2|1:2,0:0:0:0:
153,192,99795,1,4,1:2:0:0:
153,192,99995,2,0,L|138:118,2,75,4|4|4,1:2|1:2|1:2,0:0:0:0:
234,268,100595,1,4,1:2:0:0:
311,198,100795,6,0,L|386:219,1,75,4|4,1:2|1:2,0:0:0:0:
470,163,101195,2,0,B|479:122|479:122|470:91,1,75,4|4,1:2|1:2,0:0:0:0:
374,22,101595,2,0,B|365:63|365:63|374:94,1,75,4|4,1:2|1:2,0:0:0:0:
296,164,101995,2,0,L|213:145,1,75,4|4,1:2|1:2,0:0:0:0:
146,71,102395,5,4,1:2:0:0:
146,71,102595,1,4,1:2:0:0:
54,147,102795,1,4,1:2:0:0:
54,147,102995,1,4,1:2:0:0:
132,233,103195,2,0,P|167:224|203:232,1,75,4|4,1:2|1:2,0:0:0:0:
310,283,103595,2,0,L|327:204,1,75,4|4,1:2|1:2,0:0:0:0:
227,50,103995,6,0,L|243:128,2,75,4|4|4,1:2|1:2|1:2,0:0:0:0:
138,106,104595,1,4,1:2:0:0:
327,75,104795,2,0,L|365:68,3,37.5,12|8|8|8,0:0|0:0|3:0|3:0,0:0:0:0:
398,87,105195,2,0,L|436:80,3,37.5,8|8|4|4,0:0|3:0|3:0|3:0,0:0:0:0:
480,95,105595,6,0,B|472:134|472:134|483:171,1,75,4|4,1:2|1:2,0:0:0:0:
414,247,105995,2,0,L|337:232,1,75,4|4,1:2|1:2,0:0:0:0:
282,159,106395,2,0,L|208:173,1,75,4|4,1:2|1:2,0:0:0:0:
153,257,106795,2,0,L|79:242,1,75,4|4,1:2|1:2,0:0:0:0:
17,160,107195,5,4,1:2:0:0:
17,160,107395,1,4,1:2:0:0:
103,96,107595,1,0,0:0:0:0:
103,96,107795,1,4,1:2:0:0:
182,166,107995,2,0,L|257:155,1,75,4|4,1:2|1:2,0:0:0:0:
281,248,108395,2,0,L|354:233,1,75,4|4,1:2|1:2,0:0:0:0:
490,143,108795,6,0,L|409:130,1,75,4|4,1:2|1:2,0:0:0:0:
301,59,109195,2,0,B|311:98|311:98|302:132,1,75,4|4,1:2|1:2,0:0:0:0:
223,200,109595,2,0,L|145:184,1,75,4|4,1:2|1:2,0:0:0:0:
32,269,109995,2,0,L|105:284,1,75,4|4,1:2|1:2,0:0:0:0:
195,340,110395,5,12,0:0:0:0:
195,340,110595,1,12,0:0:0:0:
286,267,110795,1,12,0:0:0:0:
286,267,110995,1,12,0:0:0:0:
363,344,111195,1,12,0:0:0:0:
449,272,111395,5,0,1:0:0:0:
454,244,111495,1,0,1:0:0:0:
459,216,111595,1,8,0:0:0:0:
465,189,111695,1,8,3:0:0:0:
470,161,111795,1,4,3:0:0:0:
408,70,111995,6,0,L|363:78,7,37.5,8|0|8|0|8|0|8|0,0:0|1:0|0:0|1:0|0:0|1:0|0:0|1:0,0:0:0:0:
303,136,112795,2,0,L|266:129,7,37.5,8|0|8|0|8|0|8|0,0:0|1:0|0:0|1:0|0:0|1:0|0:0|1:0,0:0:0:0:
211,59,113595,6,0,L|166:67,7,37.5,8|0|8|0|8|0|8|0,0:0|1:0|0:0|1:0|0:0|1:0|0:0|1:0,0:0:0:0:
103,127,114395,2,0,L|66:120,7,37.5,8|0|8|0|8|0|8|0,0:0|1:0|0:0|1:0|0:0|1:0|0:0|1:0,0:0:0:0:
6,196,115195,6,0,L|14:235,7,37.5,8|0|8|0|8|0|8|0,0:0|1:0|0:0|1:0|0:0|1:0|0:0|1:0,0:0:0:0:
101,269,115995,2,0,L|93:308,7,37.5,8|0|8|0|8|0|8|0,0:0|1:0|0:0|1:0|0:0|1:0|0:0|1:0,0:0:0:0:
191,206,116795,6,0,L|199:245,7,37.5,8|0|8|0|8|0|8|0,0:0|1:0|0:0|1:0|0:0|1:0|0:0|1:0,0:0:0:0:
291,276,117595,2,0,L|283:315,7,37.5,8|0|8|0|8|0|4|4,0:0|1:0|0:0|1:0|0:0|1:0|3:0|3:0,0:0:0:0:
316,141,118395,5,4,3:0:0:0:
340,154,118495,1,0,0:0:0:0:
367,157,118595,1,4,3:0:0:0:
394,148,118695,1,0,0:0:0:0:
415,129,118795,2,0,L|422:170,3,37.5,4|0|4|0,3:0|0:0|3:0|0:0,0:0:0:0:
504,208,119195,2,0,L|497:249,3,37.5,4|0|4|0,3:0|0:0|3:0|0:0,0:0:0:0:
406,278,119595,2,0,L|413:319,3,37.5,4|0|4|0,3:0|0:0|3:0|0:0,0:0:0:0:
322,357,119995,6,0,L|280:349,3,37.5,4|0|4|0,3:0|0:0|3:0|0:0,0:0:0:0:
228,282,120395,2,0,L|191:289,3,37.5,4|0|4|0,3:0|0:0|3:0|0:0,0:0:0:0:
122,353,120795,2,0,L|85:345,3,37.5,4|0|4|0,3:0|0:0|3:0|0:0,0:0:0:0:
49,262,121195,6,0,L|12:269,3,37.5,4|0|4|0,3:0|0:0|3:0|0:0,0:0:0:0:
108,173,121595,5,8,0:0:0:0:
135,178,121695,1,8,0:0:0:0:
163,183,121795,1,8,0:0:0:0:
190,189,121895,1,8,0:0:0:0:
218,194,121995,2,0,L|261:185,3,37.5,8|8|8|8,0:0|0:0|0:0|0:0,0:0:0:0:
306,117,122395,2,0,L|342:125,3,37.5,8|8|8|8,0:0|0:0|0:0|0:0,0:0:0:0:
401,192,122795,2,0,L|437:183,3,37.5,8|8|8|8,0:0|0:0|0:0|0:0,0:0:0:0:
63,322,124597,6,0,L|53:281,2,37.5,0|0|0,1:0|1:0|1:0,0:0:0:0:
48,253,124797,6,0,B|102:273|102:273|154:254,3,112.500004291535,12|0|0|0,0:0|1:0|1:0|1:0,0:0:0:0:
325,212,125863,2,0,P|344:263|326:316,2,112.500004291535,0|0|0,1:0|1:0|1:0,0:0:0:0:
254,117,126663,1,8,3:0:0:0:
254,117,126797,1,0,1:0:0:0:
171,178,126930,6,0,L|54:155,1,112.500004291535,0|0,1:0|1:0,0:0:0:0:
60,156,127463,2,0,L|45:97,1,56.2500021457673,0|8,1:0|0:0,0:0:0:0:
34,244,127730,2,0,L|49:299,1,56.2500021457673,0|0,1:0|0:0,0:0:0:0:
130,356,127997,6,0,P|179:334|230:354,1,112.500004291535,4|4,0:0|0:0,0:0:0:0:
230,354,128530,2,0,L|242:293,1,56.2500021457673,0|0,1:0|0:0,0:0:0:0:
259,208,128797,1,0,1:0:0:0:
259,208,128930,1,0,1:0:0:0:
73,35,129063,6,0,L|87:118,1,75,2|0,0:0|0:0,0:0:0:0:
122,125,129263,1,0,0:0:0:0:
122,125,129329,2,0,L|136:208,1,75,2|0,1:2|0:0,0:0:0:0:
197,44,129596,6,0,L|211:127,1,75,2|0,0:0|0:0,0:0:0:0:
246,134,129796,1,0,0:0:0:0:
246,134,129863,2,0,L|260:217,1,75,2|0,1:2|0:0,0:0:0:0:
322,61,130129,6,0,L|336:144,1,75,2|0,0:0|0:0,0:0:0:0:
371,151,130329,1,0,0:0:0:0:
371,151,130397,2,0,L|385:234,1,75,2|0,1:2|0:0,0:0:0:0:
448,73,130663,6,0,L|462:156,1,75,2|0,0:0|0:0,0:0:0:0:
497,163,130863,1,0,0:0:0:0:
497,163,130929,2,0,L|511:246,1,75,2|0,1:2|0:0,0:0:0:0:
428,329,131197,5,0,1:0:0:0:
340,250,131330,1,0,1:0:0:0:
333,261,131397,1,0,1:0:0:0:
327,272,131463,2,0,L|252:253,1,75,8|0,0:0|1:0,0:0:0:0:
152,218,131730,1,0,1:0:0:0:
219,66,131863,1,0,1:0:0:0:
219,66,131930,1,0,1:0:0:0:
219,66,131997,2,0,L|236:142,1,75,8|0,0:0|1:2,0:0:0:0:
331,193,132263,6,0,L|374:183,4,37.5,8|8|8|0|8,0:0|0:0|0:0|0:0|0:0,0:0:0:0:
238,247,132663,1,8,0:0:0:0:
345,363,132797,1,8,0:0:0:0:
349,344,132863,1,8,0:0:0:0:
353,326,132930,1,0,1:0:0:0:
357,308,132996,1,0,1:0:0:0:
362,289,133063,1,8,0:0:0:0:
239,213,133197,6,0,B|176:225|176:225|158:245|158:245|99:257,1,150,4|8,0:0|0:0,0:0:0:0:
3,138,133597,2,0,L|77:154,1,75,0|0,1:0|1:0,0:0:0:0:
169,109,133863,2,0,P|183:74|182:33,1,75,8|0,0:0|1:0,0:0:0:0:
87,55,134130,1,0,1:0:0:0:
120,205,134263,6,0,L|270:176,1,150,0|8,1:0|0:0,0:0:0:0:
364,197,134663,2,0,B|367:159|367:159|355:124,1,75,0|0,1:0|1:0,0:0:0:0:
233,16,134930,2,0,B|230:54|230:54|241:88,1,75,8|0,0:0|1:0,0:0:0:0:
328,40,135197,1,8,0:0:0:0:
246,189,135330,6,0,L|97:160,1,150,4|8,0:0|0:0,0:0:0:0:
18,226,135730,2,0,P|28:262|22:299,1,75,0|0,1:0|1:0,0:0:0:0:
98,160,135997,2,0,P|88:123|95:87,1,75,8|0,0:0|1:0,0:0:0:0:
179,19,136263,1,0,1:0:0:0:
349,113,136397,6,0,B|317:118|294:140|294:140|206:121,1,150,0|8,1:0|0:0,0:0:0:0:
107,148,136797,2,0,L|121:226,1,75,0|0,0:0|0:0,0:0:0:0:
197,360,137063,1,8,0:0:0:0:
200,341,137129,1,0,1:0:0:0:
203,323,137196,1,8,3:0:0:0:
206,304,137262,1,0,0:0:0:0:
210,286,137329,1,12,0:0:0:0:
230,160,137463,6,0,B|311:147|294:197|377:183,1,150,12|8,0:0|0:0,0:0:0:0:
465,129,137863,2,0,P|474:94|464:58,1,75,0|8,1:0|0:0,0:0:0:0:
373,183,138130,2,0,P|364:218|375:254,1,75,0|8,1:0|0:0,0:0:0:0:
454,326,138397,1,0,1:0:0:0:
350,355,138530,6,0,L|274:337,1,75,8|0,0:0|1:0,0:0:0:0:
141,262,138797,1,8,0:0:0:0:
141,262,138930,2,0,L|220:247,1,75,0|8,1:0|0:0,0:0:0:0:
352,170,139197,2,0,L|267:153,2,75,0|8|0,1:0|0:0|1:0,0:0:0:0:
452,105,139597,6,0,B|430:186|484:166|460:250,1,150,8|8,0:0|0:0,0:0:0:0:
388,325,139997,2,0,L|304:308,1,75,0|8,1:0|0:0,0:0:0:0:
136,227,140263,2,0,L|212:213,1,75,0|8,1:0|0:0,0:0:0:0:
380,108,140530,2,0,L|296:91,1,75,0|8,1:0|0:0,0:0:0:0:
170,27,140797,6,0,L|178:65,3,37.5,8|8|8|0,3:0|3:0|3:0|0:0,0:0:0:0:
225,90,141063,2,0,L|217:126,3,37.5,4|12|12|0,3:0|3:0|3:0|0:0,0:0:0:0:
209,169,141330,5,8,0:0:0:0:
413,125,141463,1,8,0:0:0:0:
413,125,141863,6,0,P|431:177|414:229,1,112.5,2|0,0:0|0:0,0:0:0:0:
327,249,142397,6,0,L|245:227,3,75,12|12|12|0,0:0|0:0|0:0|0:0,0:0:0:0:
111,144,142930,6,0,B|171:152|171:152|209:113,1,112.5,2|0,0:0|0:0,0:0:0:0:
237,33,143463,6,0,P|270:48|289:80,3,75,12|12|12|12,0:0|0:0|0:0|0:0,0:0:0:0:
207,114,143997,6,0,L|226:230,1,112.5,2|0,0:0|0:0,0:0:0:0:
143,280,144530,6,0,L|63:261,3,75,12|12|12|12,0:0|0:0|0:0|0:0,0:0:0:0:
214,348,145063,6,0,L|329:328,1,112.5,2|0,0:0|0:0,0:0:0:0:
395,269,145597,6,0,P|411:302|412:339,3,75,12|12|12|0,0:0|0:0|0:0|0:0,0:0:0:0:
316,336,146130,5,0,0:0:0:0:
232,285,146263,1,0,0:0:0:0:
232,285,146330,1,0,0:0:0:0:
232,285,146397,2,0,L|213:210,1,75,12|0,0:0|0:0,0:0:0:0:
200,92,146663,6,0,L|239:101,7,37.5,8|8|8|0|8|8|0|8,0:0|0:0|0:0|0:0|0:0|0:0|0:0|0:0,0:0:0:0:
304,174,147197,6,0,L|340:165,7,37.5,8|8|8|0|8|0|0|0,0:0|0:0|0:0|0:0|0:0|0:0|0:0|0:0,0:0:0:0:
412,101,147730,6,0,L|451:110,7,37.5,8|8|8|8|8|8|8|8,0:0|0:0|0:0|0:0|0:0|0:0|0:0|0:0,0:0:0:0:
506,195,148263,6,0,L|499:235,7,37.5,8|8|8|8|8|8|8|8,0:0|0:0|0:0|0:0|0:0|0:0|0:0|0:0,0:0:0:0:
402,247,148797,6,0,L|412:291,6,37.5,8|8|8|0|8|8|0,0:0|0:0|0:0|0:0|0:0|0:0|0:0,0:0:0:0:
383,32,150263,6,0,P|411:100|387:169,1,150,4|0,0:0|0:0,0:0:0:0:
302,220,150663,2,0,L|223:200,1,75,10|0,0:0|0:0,0:0:0:0:
102,121,150930,2,0,B|160:108|160:108|191:115|191:115|247:99,1,150,2|8,1:2|0:2,0:0:0:0:
195,22,151330,1,0,1:0:0:0:
6,64,151463,6,0,L|38:217,1,150,2|8,1:2|0:0,0:0:0:0:
63,302,151863,1,0,0:0:0:0:
141,233,151996,2,0,L|215:249,2,75,2|0|8,1:2|1:0|0:0,0:0:0:0:
175,358,152396,6,0,L|326:337,1,150,4|0,0:0|1:0,0:0:0:0:
476,280,152796,2,0,P|438:279|404:263,1,75,10|0,0:0|0:0,0:0:0:0:
287,162,153063,2,0,P|324:162|358:178,1,75,2|0,1:2|1:0,0:0:0:0:
298,262,153330,1,10,0:0:0:0:
163,218,153463,6,0,L|131:56,1,150,4|2,0:0|1:2,0:0:0:0:
133,70,153796,1,0,0:0:0:0:
133,70,153863,1,8,0:0:0:0:
232,112,153996,1,0,1:0:0:0:
51,138,154130,5,10,0:0:0:0:
223,18,154263,1,10,0:0:0:0:
223,18,154530,6,0,B|282:31|282:31|300:53|300:53|359:67,1,150,4|0,0:0|1:0,0:0:0:0:
474,47,154930,1,8,3:0:0:0:
469,65,154996,1,0,1:0:0:0:
465,83,155063,1,4,3:0:0:0:
460,101,155130,1,0,1:0:0:0:
456,119,155196,5,10,0:0:0:0:
332,192,155330,1,10,0:0:0:0:
332,192,155596,6,0,B|254:171|266:232|186:211,1,150,4|0,0:0|1:0,0:0:0:0:
88,189,155996,1,8,3:0:0:0:
92,207,156062,1,4,3:0:0:0:
96,225,156129,1,4,3:0:0:0:
101,243,156196,1,4,3:0:0:0:
105,261,156262,5,8,0:0:0:0:
256,347,156396,1,8,0:0:0:0:
255,346,156663,6,0,P|328:344|370:285,1,150,4|8,0:0|0:0,0:0:0:0:
271,146,157063,2,0,L|288:224,1,75,8|0,0:0|1:0,0:0:0:0:
370,110,157330,2,0,L|353:32,1,75,8|0,0:0|1:0,0:0:0:0:
173,119,157596,2,0,L|190:197,1,75,8|0,0:0|1:0,0:0:0:0:
213,282,157863,5,8,0:0:0:0:
213,282,157996,1,8,0:0:0:0:
373,229,158263,6,0,B|412:222|412:222|442:241,1,75,8|0,0:0|0:0,0:0:0:0:
423,341,158530,2,0,B|384:348|384:348|354:329,1,75,8|0,0:0|0:0,0:0:0:0:
280,264,158796,5,4,1:2:0:0:
256,192,158863,12,0,159996,0:0:0:0:
54,81,160263,5,4,0:0:0:0:
54,81,160530,1,12,0:0:0:0:
82,267,160663,1,12,0:0:0:0:
82,267,160930,6,0,L|199:289,1,112.500004291535,4|0,0:0|0:0,0:0:0:0:
280,235,161330,2,0,L|293:176,1,56.2500021457673,2|0,0:0|0:0,0:0:0:0:
213,109,161597,2,0,L|200:163,1,56.2500021457673,2|0,0:0|0:0,0:0:0:0:
226,341,161997,6,0,B|287:330|276:366|338:353,1,112.500004291535,2|2,1:2|1:2,0:0:0:0:
416,304,162397,2,0,L|430:246,1,56.2500021457673,2|0,1:2|0:0,0:0:0:0:
350,205,162663,2,0,L|364:147,1,56.2500021457673,2|0,0:2|0:0,0:0:0:0:
216,19,163063,6,0,B|196:54|196:54|218:131,1,112.500004291535,2|0,0:0|0:0,0:0:0:0:
150,197,163463,2,0,L|90:183,1,56.2500021457673,2|0,0:0|0:0,0:0:0:0:
81,273,163730,2,0,L|21:259,1,56.2500021457673,2|0,0:0|0:0,0:0:0:0:
230,345,164130,6,0,L|343:331,3,112.500004291535,2|2|2|2,1:2|1:2|0:0|0:0,0:0:0:0:
487,195,165197,6,0,P|433:202|387:172,1,112.500004291535,4|2,1:2|0:0,0:0:0:0:
352,84,165597,1,2,0:0:0:0:
352,84,165731,1,0,0:0:0:0:
283,168,165863,1,2,0:0:0:0:
451,116,165997,1,2,0:0:0:0:
248,46,166131,1,2,0:0:0:0:
377,193,166263,6,0,L|356:304,1,112.500004291535,2|2,1:2|1:2,0:0:0:0:
268,348,166663,2,0,L|205:331,1,56.2500021457673,2|0,0:0|0:0,0:0:0:0:
114,271,166930,1,2,0:0:0:0:
231,209,167063,1,2,0:0:0:0:
95,274,167197,1,2,0:0:0:0:
56,119,167330,6,0,B|102:130|102:130|116:144|116:144|164:158,1,112.500004291535,2|0,1:2|0:0,0:0:0:0:
243,112,167730,1,2,0:0:0:0:
243,112,167863,1,0,0:0:0:0:
159,56,167997,1,2,0:0:0:0:
207,207,168130,1,2,0:0:0:0:
154,37,168263,1,2,0:0:0:0:
339,98,168397,6,0,L|314:249,3,150,8|8|8|8,0:0|0:0|0:0|0:0,0:0:0:0:
21,106,169463,6,0,B|80:123|80:123|97:143|97:143|157:160,1,150,12|0,0:0|1:0,0:0:0:0:
333,90,169863,2,0,L|250:107,1,75,8|0,0:0|0:0,0:0:0:0:
176,51,170130,1,0,1:0:0:0:
303,195,170263,2,0,L|376:179,1,75,0|8,1:0|0:0,0:0:0:0:
230,284,170530,6,0,L|82:255,1,150,4|0,0:0|0:0,0:0:0:0:
0,163,170930,2,0,L|84:147,1,75,8|0,0:0|0:0,0:0:0:0:
231,83,171197,1,0,1:0:0:0:
231,83,171330,2,0,L|155:70,1,75,0|8,1:0|0:0,0:0:0:0:
204,210,171597,6,0,L|355:189,1,150,4|0,0:0|0:0,0:0:0:0:
450,146,171997,2,0,B|460:184|460:184|451:221,1,75,8|0,0:0|0:0,0:0:0:0:
357,345,172263,2,0,B|348:310|348:310|358:272,1,75,0|0,1:0|1:0,0:0:0:0:
444,313,172530,1,8,0:0:0:0:
263,354,172663,6,0,L|115:329,2,150,12|12|8,0:0|0:0|3:0,0:0:0:0:
355,301,173330,1,4,3:0:0:0:
266,178,173463,2,0,P|259:214|267:250,1,75,4|8,3:0|0:0,0:0:0:0:
502,182,173730,6,0,B|423:177|446:232|361:216,1,150,4|0,0:0|1:0,0:0:0:0:
266,179,174130,2,0,L|282:106,1,75,8|0,0:0|1:0,0:0:0:0:
165,24,174397,2,0,L|178:100,1,75,8|0,0:0|1:0,0:0:0:0:
123,187,174663,1,8,0:0:0:0:
123,187,174797,1,0,1:0:0:0:
196,266,174930,6,0,B|271:255|256:304|345:285,1,150,8|8,0:0|0:0,0:0:0:0:
431,222,175330,1,0,1:0:0:0:
324,113,175463,2,0,L|342:190,2,75,8|0|8,0:0|1:0|0:0,0:0:0:0:
255,40,175863,6,0,B|193:54|193:54|174:72|174:72|106:90,1,150,4|0,0:0|1:0,0:0:0:0:
10,62,176263,2,0,L|29:140,1,75,8|0,0:0|1:0,0:0:0:0:
103,260,176530,2,0,L|119:184,2,75,8|0|8,0:0|1:0|0:0,0:0:0:0:
173,339,176930,6,0,B|253:324|234:368|320:350,1,150,8|8,0:0|0:0,0:0:0:0:
492,185,177463,2,0,B|412:170|431:214|345:196,1,150,8|8,0:0|0:0,0:0:0:0:
149,54,177997,5,12,0:0:0:0:
149,54,178263,2,0,L|88:41,4,56.2500021457673,0|2|0|2|2,0:0|0:0|0:0|0:0|0:0,0:0:0:0:
359,125,179063,5,12,0:0:0:0:
359,125,179330,2,0,L|420:112,4,56.2500021457673,0|2|0|2|2,0:0|0:0|0:0|0:0|0:0,0:0:0:0:
171,188,180130,5,12,0:0:0:0:
171,188,180396,2,0,L|110:175,4,56.2500021457673,0|2|0|2|2,0:0|0:0|0:0|0:0|0:0,0:0:0:0:
404,340,181197,6,0,L|412:308,4,28.1250010728836,0|0|0|0|0,1:0|1:0|1:0|0:0|1:0,0:0:0:0:
371,288,181530,6,0,L|363:256,4,28.1250010728836,0|8|8|8|8,1:0|3:0|3:0|3:0|3:0,0:0:0:0:
396,230,181863,6,0,L|404:198,3,28.1250010728836,4|4|4|4,3:0|3:0|3:0|3:0,0:0:0:0:
367,159,182130,5,8,0:0:0:0:
475,39,182263,6,0,B|369:24|405:90|295:61,1,187.5,12|8,0:0|0:0,0:0:0:0:
189,24,182663,2,0,L|208:120,3,93.75,8|8|8|8,0:0|0:0|0:0|0:0,0:0:0:0:
16,250,183330,6,0,B|90:269|90:269|108:292|108:292|192:315,1,187.5,12|8,0:0|0:0,0:0:0:0:
284,275,183730,2,0,P|302:233|297:187,3,93.75,8|8|8|8,0:0|0:0|0:0|0:0,0:0:0:0:
128,29,184397,6,0,L|165:222,1,187.5,12|8,0:0|0:0,0:0:0:0:
253,273,184797,2,0,P|300:277|339:252,3,93.75,8|8|8|0,0:0|0:0|0:0|0:0,0:0:0:0:
59,125,185463,6,0,B|19:176|19:176|53:307,1,187.5,12|8,0:0|0:0,0:0:0:0:
140,345,185863,2,0,L|232:327,1,93.75,8|8,0:0|0:0,0:0:0:0:
256,233,186130,2,0,L|350:248,1,93.75,8|8,0:0|0:0,0:0:0:0:
384,343,186397,2,0,L|481:321,1,93.75,8|8,0:0|0:0,0:0:0:0:
476,44,187463,5,0,0:0:0:0:
476,44,187530,1,0,0:0:0:0:
476,44,187597,2,0,B|373:36|406:104|293:81,1,187.5,12|0,0:0|0:0,0:0:0:0:
192,43,187997,6,0,L|216:144,12,93.75,8|8|8|0|8|8|8|8|8|0|8|8|8,0:0|0:0|0:0|0:0|0:0|0:0|0:0|0:0|0:0|0:0|0:0|0:0|0:0,0:0:0:0:
100,107,189730,5,2,0:0:0:0:
