osu file format v14

[General]
AudioFilename: audio.mp3
AudioLeadIn: 0
PreviewTime: 54218
Countdown: 0
SampleSet: Soft
StackLeniency: 0.4
Mode: 0
LetterboxInBreaks: 0
WidescreenStoryboard: 1

[Editor]
Bookmarks: 417,691,13841,26992,40143,54937,68088,84526,97677,110827,125622,138773,151923,173293,186444,202882,216033,229184,242334,255485,258840
DistanceSpacing: 1.5
BeatDivisor: 6
GridSize: 32
TimelineZoom: 2.9

[Metadata]
Title:Hanayuki
TitleUnicode:花雪
Artist:smileY inc.
ArtistUnicode:smileY inc.
Creator:Creamy Candy
Version:lit120's Expert
Source:ハナヤマタ
Tags:syndicate_ - Nilou asuka_- lit120 -hakurei- supav riene kuro fuyusaki nakazawa ed ending hanayamata anime japanese j-pop jpop pop 大坪由佳 Ootsubo Otsubo Yuka ゆうゆ yuuyu スマイリー ハナ・N・フォンテーンスタンド Hana N. Fountainstand yosakoi 西御門 多美 Nishimikado Tami oxypetalum
BeatmapID:4106983
BeatmapSetID:1073360

[Difficulty]
HPDrainRate:5
CircleSize:4.3
OverallDifficulty:8
ApproachRate:9
SliderMultiplier:1.85
SliderTickRate:1

[Events]
//Background and Video events
0,0,"Hana N. Fountainstand.jpg",0,0
//Break Periods
//Storyboard Layer 0 (Background)
//Storyboard Layer 1 (Fail)
//Storyboard Layer 2 (Pass)
//Storyboard Layer 3 (Foreground)
//Storyboard Layer 4 (Overlay)
//Storyboard Sound Samples

[TimingPoints]
417,410.958904109589,4,2,1,50,1,0
417,-200,4,2,1,50,0,0
691,410.958904109589,4,2,1,50,1,0
691,-133.333333333333,4,2,1,50,0,0
999,-133.333333333333,4,2,2,50,0,0
1307,-133.333333333333,4,2,3,50,0,0
1718,-133.333333333333,4,2,4,50,0,0
1923,-133.333333333333,4,2,5,50,0,0
2334,-133.333333333333,4,2,6,50,0,0
2643,-133.333333333333,4,2,7,50,0,0
2951,-133.333333333333,4,2,8,50,0,0
3155,-133.333333333333,4,2,9,50,0,0
3362,-133.333333333333,4,2,10,50,0,0
3773,-133.333333333333,4,2,11,50,0,0
3875,-133.333333333333,4,2,12,50,0,0
3978,-133.333333333333,4,2,13,50,0,0
4184,-133.333333333333,4,2,10,50,0,0
4389,-133.333333333333,4,2,8,50,0,0
4594,-133.333333333333,4,2,14,50,0,0
4800,-133.333333333333,4,2,15,50,0,0
5006,-133.333333333333,4,2,10,50,0,0
5210,-133.333333333333,4,2,8,50,0,0
5417,-133.333333333333,4,2,16,50,0,0
5519,-133.333333333333,4,2,16,5,0,0
5622,-133.333333333333,4,2,17,50,0,0
6033,-133.333333333333,4,2,4,50,0,0
6238,-133.333333333333,4,2,18,50,0,0
6649,-133.333333333333,4,2,19,50,0,0
6752,-133.333333333333,4,2,20,50,0,0
6855,-133.333333333333,4,2,19,50,0,0
6958,-133.333333333333,4,2,21,50,0,0
7060,-133.333333333333,4,2,22,50,0,0
7266,-133.333333333333,4,2,23,50,0,0
7677,-133.333333333333,4,2,24,50,0,0
7882,-133.333333333333,4,2,25,50,0,0
8293,-133.333333333333,4,2,26,50,0,0
8499,-133.333333333333,4,2,27,50,0,0
8704,-133.333333333333,4,2,28,50,0,0
8910,-133.333333333333,4,2,29,50,0,0
9321,-133.333333333333,4,2,30,50,0,0
9731,-133.333333333333,4,2,31,50,0,0
9937,-133.333333333333,4,2,2,50,0,0
10143,-133.333333333333,4,2,32,50,0,0
10348,-133.333333333333,4,2,33,50,0,0
10554,-71.4285714285714,4,2,34,50,0,0
10964,-133.333333333333,4,2,35,50,0,0
11066,-133.333333333333,4,2,35,5,0,0
11170,-133.333333333333,4,2,36,50,0,0
11376,-133.333333333333,4,2,37,50,0,0
11580,-133.333333333333,4,2,35,40,0,0
11786,-133.333333333333,4,2,35,50,0,0
11992,-133.333333333333,4,2,33,50,0,0
12197,-133.333333333333,4,2,38,70,0,0
12710,-133.333333333333,4,2,38,5,0,0
12814,-133.333333333333,4,2,38,70,0,0
13019,-133.333333333333,4,2,2,70,0,0
13121,-133.333333333333,4,2,2,5,0,0
13225,-83.3333333333333,4,2,1,70,0,0
13841,-100,4,2,39,50,0,0
14046,-100,4,2,40,50,0,0
14252,-100,4,2,41,50,0,0
14457,-100,4,2,40,50,0,0
14663,-100,4,2,41,50,0,0
14869,-100,4,2,42,50,0,0
15074,-100,4,2,3,50,0,0
15280,-100,4,2,43,50,0,0
15485,-100,4,2,44,50,0,0
16717,-100,4,2,41,50,0,0
16923,-100,4,2,45,50,0,0
17129,-100,4,2,40,50,0,0
18156,-100,4,2,44,50,0,0
18362,-100,4,2,40,50,0,0
18567,-100,4,2,46,50,0,0
18772,-100,4,2,41,50,0,0
20211,-100,4,2,47,50,0,0
20417,-100,4,2,48,50,0,0
20827,-100,4,2,49,50,0,0
21033,-100,4,2,42,50,0,0
21238,-100,4,2,3,50,0,0
21444,-100,4,2,50,50,0,0
21649,-100,4,2,3,50,0,0
21855,-100,4,2,42,50,0,0
22060,-100,4,2,3,50,0,0
22266,-100,4,2,47,50,0,0
22471,-100,4,2,51,50,0,0
22677,-100,4,2,52,50,0,0
22882,-100,4,2,44,50,0,0
23499,-100,4,2,41,50,0,0
23704,-100,4,2,40,50,0,0
24321,-100,4,2,45,50,0,0
24526,-100,4,2,44,50,0,0
24834,-100,4,2,44,5,0,0
24937,-100,4,2,53,60,0,0
25039,-100,4,2,53,5,0,0
25143,-100,4,2,54,60,0,0
25451,-100,4,2,54,5,0,0
25554,-100,4,2,55,60,0,0
25656,-100,4,2,55,5,0,0
25759,-100,4,2,56,60,0,0
25861,-100,4,2,56,5,0,0
25964,-100,4,2,35,60,0,0
26170,-100,4,2,57,60,0,0
26375,-100,4,2,58,60,0,0
26581,-100,4,2,59,60,0,0
26684,-100,4,2,57,60,0,0
26992,-100,4,2,60,60,0,0
27197,-100,4,2,61,60,0,0
27403,-100,4,2,57,60,0,0
27608,-100,4,2,61,60,0,0
27814,-100,4,2,57,60,0,0
27916,-100,4,2,57,5,0,0
28019,-100,4,2,30,60,0,0
28225,-100,4,2,4,60,0,0
28430,-100,4,2,62,60,0,0
28636,-100,4,2,63,60,0,0
28738,-100,4,2,63,5,0,0
28841,-100,4,2,57,60,0,0
29252,-100,4,2,64,60,0,0
29458,-100,4,2,4,60,0,0
29560,-100,4,2,4,5,0,0
29663,-100,4,2,65,60,0,0
29869,-100,4,2,57,60,0,0
30074,-100,4,2,66,60,0,0
30280,-100,4,2,67,60,0,0
30485,-100,4,2,61,60,0,0
30690,-100,4,2,68,60,0,0
30896,-100,4,2,61,60,0,0
31101,-100,4,2,69,60,0,0
31307,-100,4,2,58,60,0,0
31512,-100,4,2,61,60,0,0
31718,-100,4,2,70,60,0,0
31923,-100,4,2,2,60,0,0
32025,-100,4,2,2,5,0,0
32129,-100,4,2,71,60,0,0
32334,-100,4,2,57,60,0,0
32436,-100,4,2,57,5,0,0
32540,-100,4,2,57,60,0,0
32847,-100,4,2,57,5,0,0
32951,-100,4,2,57,60,0,0
33362,-100,4,2,35,60,0,0
33567,-100,4,2,72,60,0,0
33669,-100,4,2,72,5,0,0
33773,-100,4,2,2,60,0,0
33978,-100,4,2,73,60,0,0
34080,-100,4,2,73,5,0,0
34184,-100,4,2,30,60,0,0
34389,-100,4,2,4,60,0,0
34595,-100,4,2,74,60,0,0
34800,-100,4,2,4,60,0,0
34902,-100,4,2,4,5,0,0
35006,-100,4,2,30,60,0,0
35211,-100,4,2,75,60,0,0
35313,-100,4,2,35,60,0,0
35622,-100,4,2,76,60,0,0
35724,-100,4,2,77,60,0,0
36033,-100,4,2,58,60,0,0
36546,-100,4,2,58,5,0,0
36649,-100,4,2,57,60,0,0
36855,-71.4285714285714,4,2,78,60,0,0
37060,-71.4285714285714,4,2,61,60,0,0
37471,-100,4,2,61,60,0,0
37573,-100,4,2,61,5,0,0
37677,-100,4,2,61,60,0,0
37882,-100,4,2,58,60,0,0
38088,-100,4,2,61,60,0,0
38293,-71.4285714285714,4,2,79,60,0,0
38601,-71.4285714285714,4,2,79,5,0,0
38704,-71.4285714285714,4,2,80,60,0,0
38910,-71.4285714285714,4,2,74,60,0,0
39321,-100,4,2,74,60,0,0
39423,-100,4,2,74,5,0,0
39526,-100,4,2,81,60,0,0
39732,-100,4,2,82,60,0,0
39834,-100,4,2,82,5,0,0
39937,-100,4,2,82,60,0,0
40143,-71.4285714285714,4,2,83,60,0,0
40348,-71.4285714285714,4,2,84,60,0,0
40451,-71.4285714285714,4,2,85,60,0,0
40656,-71.4285714285714,4,2,85,5,0,0
40759,-71.4285714285714,4,2,86,60,0,0
40861,-71.4285714285714,4,2,86,5,0,0
40964,-71.4285714285714,4,2,87,60,0,0
41170,-71.4285714285714,4,2,88,60,0,0
41272,-71.4285714285714,4,2,89,60,0,0
41375,-71.4285714285714,4,2,1,60,0,0
41478,-71.4285714285714,4,2,84,60,0,0
41581,-100,4,2,84,60,0,0
41786,-71.4285714285714,4,2,90,60,0,0
41991,-71.4285714285714,4,2,90,5,0,0
42095,-71.4285714285714,4,2,91,60,0,0
42300,-71.4285714285714,4,2,91,5,0,0
42403,-71.4285714285714,4,2,92,60,0,0
42608,-71.4285714285714,4,2,93,60,0,0
42711,-71.4285714285714,4,2,2,60,0,0
43019,-71.4285714285714,4,2,1,60,0,0
43088,-71.4285714285714,4,2,2,60,0,0
43225,-71.4285714285714,4,2,82,60,0,0
43430,-71.4285714285714,4,2,83,60,0,0
43635,-71.4285714285714,4,2,84,60,0,0
43738,-71.4285714285714,4,2,85,60,0,0
43943,-71.4285714285714,4,2,85,5,0,0
44047,-71.4285714285714,4,2,86,60,0,0
44149,-71.4285714285714,4,2,86,5,0,0
44252,-71.4285714285714,4,2,87,60,0,0
44458,-71.4285714285714,4,2,84,60,0,0
44560,-71.4285714285714,4,2,84,5,0,0
44663,-71.4285714285714,4,2,1,60,0,0
44732,-71.4285714285714,4,2,2,60,0,0
44869,-100,4,2,94,60,0,0
45074,-71.4285714285714,4,2,95,60,0,0
45382,-71.4285714285714,4,2,96,60,0,0
45485,-71.4285714285714,4,2,97,60,0,0
45896,-100,4,2,98,60,0,0
46306,-100,4,2,99,60,0,0
46512,-71.4285714285714,4,2,100,60,0,0
46718,-71.4285714285714,4,2,101,60,0,0
46820,-71.4285714285714,4,2,101,5,0,0
46923,-71.4285714285714,4,2,102,60,0,0
47129,-71.4285714285714,4,2,103,60,0,0
47334,-71.4285714285714,4,2,104,60,0,0
47540,-71.4285714285714,4,2,105,60,0,0
47745,-100,4,2,106,60,0,0
47950,-100,4,2,107,60,0,0
48156,-100,4,2,98,60,0,0
48464,-100,4,2,98,5,0,0
48567,-100,4,2,108,60,0,0
48773,-100,4,2,109,60,0,0
48978,-100,4,2,110,60,0,0
49184,-100,4,2,111,60,0,0
49389,-100,4,2,2,60,0,0
49491,-100,4,2,2,5,0,0
49595,-100,4,2,112,60,0,0
49697,-100,4,2,112,5,0,0
49800,-100,4,2,113,60,0,0
50006,-100,4,2,114,60,0,0
50108,-100,4,2,114,5,0,0
50211,-100,4,2,115,60,0,0
50417,-100,4,2,116,60,0,0
50519,-100,4,2,116,5,0,0
50622,-100,4,2,117,60,0,0
50827,-100,4,2,116,60,0,0
50929,-100,4,2,116,5,0,0
51033,-100,4,2,118,60,0,0
51135,-100,4,2,118,5,0,0
51444,-71.4285714285714,4,2,119,60,0,0
51752,-71.4285714285714,4,2,119,5,0,0
51855,-71.4285714285714,4,2,119,50,0,0
52060,-71.4285714285714,4,2,120,50,0,0
52266,-71.4285714285714,4,2,121,50,0,0
52471,-71.4285714285714,4,2,121,60,0,0
52677,-71.4285714285714,4,2,122,60,0,0
53293,-71.4285714285714,4,2,123,70,0,0
53498,-71.4285714285714,4,2,123,5,0,0
53601,-71.4285714285714,4,2,123,70,0,0
53806,-71.4285714285714,4,2,123,5,0,0
53910,-71.4285714285714,4,2,123,70,0,0
54012,-71.4285714285714,4,2,123,5,0,0
54115,-71.4285714285714,4,2,123,70,0,0
54217,-71.4285714285714,4,2,123,5,0,0
54321,-71.4285714285714,4,2,58,55,0,0
54423,-71.4285714285714,4,2,1,55,0,0
54526,-71.4285714285714,4,2,124,55,0,0
54629,-71.4285714285714,4,2,33,55,0,0
54732,-100,4,2,33,55,0,0
54834,-100,4,2,33,5,0,0
54937,-62.5,4,2,125,80,0,1
55245,-62.5,4,2,126,80,0,1
55348,-83.3333333333333,4,2,127,80,0,1
55450,-83.3333333333333,4,2,127,5,0,1
55554,-83.3333333333333,4,2,128,80,0,1
55656,-83.3333333333333,4,2,128,5,0,1
55759,-83.3333333333333,4,2,129,80,0,1
55964,-83.3333333333333,4,2,130,80,0,1
56170,-83.3333333333333,4,2,131,80,0,1
56272,-83.3333333333333,4,2,131,5,0,1
56375,-83.3333333333333,4,2,132,80,0,1
56477,-83.3333333333333,4,2,132,5,0,1
56581,-83.3333333333333,4,2,133,80,0,1
56889,-83.3333333333333,4,2,134,80,0,1
56992,-83.3333333333333,4,2,135,80,0,1
57197,-83.3333333333333,4,2,136,80,0,1
57403,-83.3333333333333,4,2,137,80,0,1
57608,-83.3333333333333,4,2,134,80,0,1
57814,-83.3333333333333,4,2,138,80,0,1
57916,-83.3333333333333,4,2,138,5,0,1
58019,-83.3333333333333,4,2,136,80,0,1
58225,-62.5,4,2,139,80,0,1
58533,-62.5,4,2,140,80,0,1
58636,-83.3333333333333,4,2,141,80,0,1
58738,-83.3333333333333,4,2,141,5,0,1
58841,-83.3333333333333,4,2,142,80,0,1
58943,-83.3333333333333,4,2,142,5,0,1
59047,-83.3333333333333,4,2,139,80,0,1
59355,-83.3333333333333,4,2,140,80,0,1
59458,-83.3333333333333,4,2,141,80,0,1
59663,-83.3333333333333,4,2,142,80,0,1
59869,-83.3333333333333,4,2,143,80,0,1
60074,-83.3333333333333,4,2,120,80,0,1
60177,-83.3333333333333,4,2,144,80,0,1
60280,-83.3333333333333,4,2,145,80,0,1
60485,-83.3333333333333,4,2,146,80,0,1
60690,-62.5,4,2,147,80,0,1
60998,-62.5,4,2,144,80,0,1
61101,-62.5,4,2,148,80,0,1
61307,-62.5,4,2,149,80,0,1
61410,-62.5,4,2,1,80,0,1
61512,-62.5,4,2,150,80,0,1
61820,-62.5,4,2,126,80,0,1
61923,-83.3333333333333,4,2,127,80,0,1
62025,-83.3333333333333,4,2,127,5,0,1
62129,-83.3333333333333,4,2,128,80,0,1
62231,-83.3333333333333,4,2,128,5,0,1
62334,-83.3333333333333,4,2,129,80,0,1
62539,-83.3333333333333,4,2,130,80,0,1
62745,-83.3333333333333,4,2,131,80,0,1
62847,-83.3333333333333,4,2,131,5,0,1
62951,-83.3333333333333,4,2,132,80,0,1
63053,-83.3333333333333,4,2,132,5,0,1
63156,-83.3333333333333,4,2,151,80,0,1
63464,-83.3333333333333,4,2,152,80,0,1
63567,-83.3333333333333,4,2,134,80,0,1
63669,-83.3333333333333,4,2,134,5,0,1
63773,-83.3333333333333,4,2,153,80,0,1
63978,-83.3333333333333,4,2,136,80,0,1
64184,-83.3333333333333,4,2,154,80,0,1
64286,-83.3333333333333,4,2,154,5,0,1
64389,-83.3333333333333,4,2,155,80,0,1
64491,-83.3333333333333,4,2,155,5,0,1
64595,-83.3333333333333,4,2,156,80,0,1
64800,-62.5,4,2,157,80,0,1
65108,-62.5,4,2,158,80,0,1
65211,-83.3333333333333,4,2,159,80,0,1
65313,-83.3333333333333,4,2,159,5,0,1
65417,-83.3333333333333,4,2,160,80,0,1
65519,-83.3333333333333,4,2,160,5,0,1
65622,-62.5,4,2,161,80,0,1
65930,-62.5,4,2,158,80,0,1
66033,-83.3333333333333,4,2,159,80,0,1
66135,-83.3333333333333,4,2,159,5,0,1
66238,-83.3333333333333,4,2,162,80,0,1
66340,-83.3333333333333,4,2,162,5,0,1
66444,-83.3333333333333,4,2,163,80,0,1
66649,-83.3333333333333,4,2,164,80,0,1
66752,-83.3333333333333,4,2,165,80,0,1
66855,-83.3333333333333,4,2,166,80,0,1
66958,-83.3333333333333,4,2,167,80,0,1
67060,-83.3333333333333,4,2,168,80,0,1
67163,-83.3333333333333,4,2,169,80,0,1
67266,-83.3333333333333,4,2,170,80,0,1
67369,-83.3333333333333,4,2,171,80,0,1
67471,-83.3333333333333,4,2,172,80,0,1
67677,-83.3333333333333,4,2,173,80,0,1
67882,-83.3333333333333,4,2,174,80,0,1
68088,-62.5,4,2,175,80,0,1
68396,-62.5,4,2,176,80,0,1
68499,-83.3333333333333,4,2,177,80,0,1
68601,-83.3333333333333,4,2,177,5,0,1
68704,-83.3333333333333,4,2,178,80,0,1
68806,-83.3333333333333,4,2,178,5,0,1
68910,-83.3333333333333,4,2,179,80,0,1
69115,-83.3333333333333,4,2,130,80,0,1
69321,-83.3333333333333,4,2,180,80,0,1
69423,-83.3333333333333,4,2,180,5,0,1
69526,-83.3333333333333,4,2,181,80,0,1
69628,-83.3333333333333,4,2,181,5,0,1
69732,-83.3333333333333,4,2,182,80,0,1
70040,-83.3333333333333,4,2,134,80,0,1
70143,-83.3333333333333,4,2,135,80,0,1
70348,-83.3333333333333,4,2,136,80,0,1
70554,-83.3333333333333,4,2,137,80,0,1
70759,-83.3333333333333,4,2,134,80,0,1
70964,-83.3333333333333,4,2,138,80,0,1
71066,-83.3333333333333,4,2,138,5,0,1
71170,-83.3333333333333,4,2,136,80,0,1
71375,-62.5,4,2,139,80,0,1
71683,-62.5,4,2,140,80,0,1
71786,-83.3333333333333,4,2,141,80,0,1
71888,-83.3333333333333,4,2,141,5,0,1
71992,-83.3333333333333,4,2,142,80,0,1
72094,-83.3333333333333,4,2,142,5,0,1
72197,-83.3333333333333,4,2,183,80,0,1
72506,-83.3333333333333,4,2,140,80,0,1
72608,-83.3333333333333,4,2,141,80,0,1
72814,-83.3333333333333,4,2,142,80,0,1
73019,-83.3333333333333,4,2,184,80,0,1
73225,-83.3333333333333,4,2,120,80,0,1
73327,-83.3333333333333,4,2,144,80,0,1
73430,-83.3333333333333,4,2,185,80,0,1
73636,-83.3333333333333,4,2,186,80,0,1
73841,-62.5,4,2,187,80,0,1
74149,-62.5,4,2,144,80,0,1
74252,-62.5,4,2,188,80,0,1
74458,-62.5,4,2,149,80,0,1
74560,-62.5,4,2,1,80,0,1
74663,-62.5,4,2,189,80,0,1
74971,-62.5,4,2,130,80,0,1
75074,-62.5,4,2,190,80,0,1
75280,-83.3333333333333,4,2,191,80,0,1
75485,-83.3333333333333,4,2,192,80,0,1
75691,-83.3333333333333,4,2,193,80,0,1
75793,-83.3333333333333,4,2,130,80,0,1
75896,-83.3333333333333,4,2,194,80,0,1
75998,-83.3333333333333,4,2,194,5,0,1
76101,-83.3333333333333,4,2,195,80,0,1
76307,-83.3333333333333,4,2,196,80,0,1
76615,-83.3333333333333,4,2,134,80,0,1
76718,-83.3333333333333,4,2,197,80,0,1
76923,-83.3333333333333,4,2,136,80,0,1
77129,-83.3333333333333,4,2,198,80,0,1
77334,-83.3333333333333,4,2,134,80,0,1
77540,-83.3333333333333,4,2,199,80,0,1
77642,-83.3333333333333,4,2,199,5,0,1
77745,-83.3333333333333,4,2,200,80,0,1
77951,-62.5,4,2,201,80,0,1
78259,-62.5,4,2,202,80,0,1
78362,-83.3333333333333,4,2,203,80,0,1
78464,-83.3333333333333,4,2,203,5,0,1
78567,-83.3333333333333,4,2,204,80,0,1
78669,-83.3333333333333,4,2,204,5,0,1
78773,-62.5,4,2,205,80,0,1
79081,-62.5,4,2,202,80,0,1
79184,-83.3333333333333,4,2,203,80,0,1
79286,-83.3333333333333,4,2,203,5,0,1
79389,-83.3333333333333,4,2,204,80,0,1
79491,-83.3333333333333,4,2,204,5,0,1
79595,-83.3333333333333,4,2,206,80,0,1
79697,-83.3333333333333,4,2,206,5,0,1
79800,-83.3333333333333,4,2,33,80,0,1
80519,-83.3333333333333,4,2,33,5,0,1
80622,-83.3333333333333,4,2,33,80,0,1
80929,-83.3333333333333,4,2,33,5,0,1
81033,-83.3333333333333,4,2,33,80,0,1
81238,-133.333333333333,4,2,207,70,0,0
81444,-133.333333333333,4,2,208,70,0,0
81648,-133.333333333333,4,2,209,70,0,0
81855,-133.333333333333,4,2,33,70,0,0
82060,-133.333333333333,4,2,210,70,0,0
82472,-133.333333333333,4,2,211,70,0,0
82676,-133.333333333333,4,2,33,70,0,0
82882,-133.333333333333,4,2,212,70,0,0
83293,-133.333333333333,4,2,213,70,0,0
83909,-133.333333333333,4,2,214,70,0,0
84526,-133.333333333333,4,2,215,50,0,0
84732,-133.333333333333,4,2,216,50,0,0
84937,-133.333333333333,4,2,215,50,0,0
85143,-133.333333333333,4,2,216,50,0,0
85347,-133.333333333333,4,2,215,50,0,0
85554,-133.333333333333,4,2,217,50,0,0
85964,-133.333333333333,4,2,218,50,0,0
86067,-133.333333333333,4,2,89,50,0,0
86170,-133.333333333333,4,2,219,50,0,0
86786,-133.333333333333,4,2,220,50,0,0
87197,-133.333333333333,4,2,24,50,0,0
87403,-133.333333333333,4,2,215,50,0,0
87608,-133.333333333333,4,2,221,50,0,0
87711,-133.333333333333,4,2,89,50,0,0
87814,-133.333333333333,4,2,89,50,0,0
88225,-133.333333333333,4,2,216,50,0,0
88842,-133.333333333333,4,2,24,50,0,0
89047,-133.333333333333,4,2,216,50,0,0
89252,-133.333333333333,4,2,222,50,0,0
89662,-133.333333333333,4,2,89,50,0,0
90691,-133.333333333333,4,2,215,50,0,0
90896,-133.333333333333,4,2,28,50,0,0
91101,-133.333333333333,4,2,223,60,0,0
91511,-133.333333333333,4,2,224,60,0,0
91718,-133.333333333333,4,2,225,60,0,0
91923,-133.333333333333,4,2,1,60,0,0
92129,-133.333333333333,4,2,226,60,0,0
92334,-133.333333333333,4,2,1,60,0,0
92540,-133.333333333333,4,2,225,60,0,0
92745,-133.333333333333,4,2,1,60,0,0
92951,-133.333333333333,4,2,227,60,0,0
93156,-133.333333333333,4,2,228,60,0,0
93362,-133.333333333333,4,2,229,60,0,0
93567,-133.333333333333,4,2,230,60,0,0
94184,-133.333333333333,4,2,231,60,0,0
94389,-133.333333333333,4,2,232,60,0,0
94595,-133.333333333333,4,2,233,60,0,0
94800,-133.333333333333,4,2,232,60,0,0
95211,-133.333333333333,4,2,234,60,0,0
95417,-133.333333333333,4,2,235,60,0,0
95622,-133.333333333333,4,2,236,60,0,0
95827,-133.333333333333,4,2,237,60,0,0
96237,-133.333333333333,4,2,238,60,0,0
96444,-133.333333333333,4,2,37,60,0,0
96649,-133.333333333333,4,2,239,60,0,0
96855,-133.333333333333,4,2,240,60,0,0
97060,-133.333333333333,4,2,241,60,0,0
97163,-133.333333333333,4,2,1,60,0,0
97266,-133.333333333333,4,2,242,60,0,0
97369,-133.333333333333,4,2,33,60,0,0
97677,-100,4,2,243,60,0,0
97882,-100,4,2,234,60,0,0
98088,-100,4,2,240,60,0,0
98293,-100,4,2,234,60,0,0
98499,-100,4,2,240,60,0,0
98601,-100,4,2,240,5,0,0
98704,-100,4,2,30,60,0,0
98909,-100,4,2,1,60,0,0
99115,-100,4,2,62,60,0,0
99321,-100,4,2,244,60,0,0
99731,-100,4,2,1,60,0,0
99937,-100,4,2,245,60,0,0
100143,-100,4,2,65,60,0,0
100450,-100,4,2,65,5,0,0
100554,-100,4,2,240,60,0,0
100656,-100,4,2,240,5,0,0
100759,-100,4,2,66,60,0,0
100964,-100,4,2,67,60,0,0
101170,-100,4,2,234,60,0,0
101375,-100,4,2,68,60,0,0
101581,-100,4,2,234,60,0,0
101786,-100,4,2,246,60,0,0
101992,-100,4,2,241,60,0,0
102197,-100,4,2,234,60,0,0
102403,-100,4,2,247,60,0,0
102608,-100,4,2,2,60,0,0
102814,-100,4,2,71,60,0,0
103019,-100,4,2,1,60,0,0
103430,-100,4,2,248,60,0,0
103738,-100,4,2,248,5,0,0
103841,-100,4,2,240,60,0,0
104047,-100,4,2,35,60,0,0
104149,-100,4,2,1,60,0,0
104252,-71.4285714285714,4,2,249,60,0,0
104560,-71.4285714285714,4,2,249,5,0,0
104663,-71.4285714285714,4,2,73,60,0,0
104869,-100,4,2,30,60,0,0
105280,-100,4,2,74,60,0,0
105485,-100,4,2,1,60,0,0
105691,-100,4,2,30,60,0,0
105896,-100,4,2,75,60,0,0
106101,-100,4,2,239,60,0,0
106307,-100,4,2,76,60,0,0
106512,-100,4,2,77,60,0,0
106718,-100,4,2,2,60,0,0
107129,-100,4,2,58,60,0,0
107334,-100,4,2,240,60,0,0
107540,-100,4,2,250,60,0,0
107745,-100,4,2,66,60,0,0
107950,-100,4,2,234,60,0,0
108567,-100,4,2,58,60,0,0
108773,-100,4,2,234,60,0,0
108978,-71.4285714285714,4,2,251,60,0,0
109286,-71.4285714285714,4,2,251,5,0,0
109389,-71.4285714285714,4,2,80,60,0,0
109595,-71.4285714285714,4,2,74,60,0,0
110006,-100,4,2,74,60,0,0
110108,-100,4,2,74,5,0,0
110211,-100,4,2,81,60,0,0
110417,-100,4,2,82,60,0,0
110519,-100,4,2,82,5,0,0
110622,-100,4,2,82,60,0,0
110827,-71.4285714285714,4,2,83,60,0,0
111032,-71.4285714285714,4,2,84,60,0,0
111136,-71.4285714285714,4,2,85,60,0,0
111341,-71.4285714285714,4,2,85,5,0,0
111444,-71.4285714285714,4,2,86,60,0,0
111546,-71.4285714285714,4,2,86,5,0,0
111649,-71.4285714285714,4,2,87,60,0,0
111855,-71.4285714285714,4,2,88,60,0,0
111957,-71.4285714285714,4,2,89,60,0,0
112060,-71.4285714285714,4,2,1,60,0,0
112129,-71.4285714285714,4,2,84,60,0,0
112163,-71.4285714285714,4,2,84,60,0,0
112266,-100,4,2,84,60,0,0
112471,-71.4285714285714,4,2,90,60,0,0
112676,-71.4285714285714,4,2,90,5,0,0
112780,-71.4285714285714,4,2,252,60,0,0
112883,-71.4285714285714,4,2,82,60,0,0
112985,-71.4285714285714,4,2,82,5,0,0
113088,-71.4285714285714,4,2,92,60,0,0
113293,-71.4285714285714,4,2,93,60,0,0
113396,-71.4285714285714,4,2,2,60,0,0
113704,-71.4285714285714,4,2,1,60,0,0
113773,-71.4285714285714,4,2,2,60,0,0
113910,-71.4285714285714,4,2,82,60,0,0
114115,-71.4285714285714,4,2,83,60,0,0
114320,-71.4285714285714,4,2,84,60,0,0
114423,-71.4285714285714,4,2,85,60,0,0
114628,-71.4285714285714,4,2,85,5,0,0
114732,-71.4285714285714,4,2,86,60,0,0
114834,-71.4285714285714,4,2,86,5,0,0
114937,-71.4285714285714,4,2,87,60,0,0
115143,-71.4285714285714,4,2,84,60,0,0
115245,-71.4285714285714,4,2,84,5,0,0
115348,-71.4285714285714,4,2,1,60,0,0
115417,-71.4285714285714,4,2,2,60,0,0
115554,-100,4,2,94,60,0,0
115759,-71.4285714285714,4,2,95,60,0,0
116067,-71.4285714285714,4,2,96,60,0,0
116170,-71.4285714285714,4,2,97,60,0,0
116581,-100,4,2,98,60,0,0
116991,-100,4,2,99,60,0,0
117197,-71.4285714285714,4,2,100,60,0,0
117403,-71.4285714285714,4,2,101,60,0,0
117505,-71.4285714285714,4,2,101,5,0,0
117608,-71.4285714285714,4,2,102,60,0,0
117814,-71.4285714285714,4,2,103,60,0,0
118019,-71.4285714285714,4,2,104,60,0,0
118225,-71.4285714285714,4,2,105,60,0,0
118430,-100,4,2,106,60,0,0
118635,-100,4,2,107,60,0,0
118841,-100,4,2,98,60,0,0
119149,-100,4,2,98,5,0,0
119252,-100,4,2,108,60,0,0
119458,-100,4,2,109,60,0,0
119663,-100,4,2,110,60,0,0
119869,-100,4,2,111,60,0,0
120074,-100,4,2,2,60,0,0
120176,-100,4,2,2,5,0,0
120280,-100,4,2,112,60,0,0
120382,-100,4,2,112,5,0,0
120485,-100,4,2,236,60,0,0
120690,-100,4,2,114,60,0,0
120792,-100,4,2,114,5,0,0
120896,-100,4,2,115,60,0,0
121203,-100,4,2,115,5,0,0
121307,-100,4,2,117,60,0,0
121512,-100,4,2,116,60,0,0
121614,-100,4,2,116,5,0,0
121718,-100,4,2,118,60,0,0
121820,-100,4,2,118,5,0,0
122129,-71.4285714285714,4,2,119,60,0,0
122437,-71.4285714285714,4,2,119,5,0,0
122540,-71.4285714285714,4,2,119,50,0,0
122745,-71.4285714285714,4,2,120,50,0,0
122951,-71.4285714285714,4,2,121,50,0,0
123156,-71.4285714285714,4,2,121,60,0,0
123362,-71.4285714285714,4,2,122,60,0,0
123978,-71.4285714285714,4,2,123,70,0,0
124183,-71.4285714285714,4,2,123,5,0,0
124286,-71.4285714285714,4,2,123,70,0,0
124491,-71.4285714285714,4,2,123,5,0,0
124595,-71.4285714285714,4,2,123,70,0,0
124697,-71.4285714285714,4,2,123,5,0,0
124800,-71.4285714285714,4,2,123,70,0,0
124902,-71.4285714285714,4,2,123,5,0,0
125006,-71.4285714285714,4,2,58,55,0,0
125108,-71.4285714285714,4,2,1,55,0,0
125211,-71.4285714285714,4,2,124,55,0,0
125314,-71.4285714285714,4,2,33,55,0,0
125417,-100,4,2,33,55,0,0
125519,-100,4,2,33,5,0,0
125622,-62.5,4,2,253,80,0,1
125828,-62.5,4,2,96,80,0,1
125930,-62.5,4,2,126,80,0,1
126033,-83.3333333333333,4,2,127,80,0,1
126135,-83.3333333333333,4,2,127,5,0,1
126238,-83.3333333333333,4,2,128,80,0,1
126340,-83.3333333333333,4,2,128,5,0,1
126444,-83.3333333333333,4,2,254,80,0,1
126649,-83.3333333333333,4,2,59,80,0,1
126752,-83.3333333333333,4,2,255,80,0,1
126855,-83.3333333333333,4,2,131,80,0,1
126957,-83.3333333333333,4,2,131,5,0,1
127060,-83.3333333333333,4,2,132,80,0,1
127162,-83.3333333333333,4,2,132,5,0,1
127266,-83.3333333333333,4,2,256,80,0,1
127472,-83.3333333333333,4,2,257,80,0,1
127574,-83.3333333333333,4,2,258,80,0,1
127677,-83.3333333333333,4,2,135,80,0,1
127882,-83.3333333333333,4,2,259,80,0,1
128088,-83.3333333333333,4,2,137,80,0,1
128293,-83.3333333333333,4,2,260,80,0,1
128395,-83.3333333333333,4,2,261,80,0,1
128499,-83.3333333333333,4,2,262,80,0,1
128601,-83.3333333333333,4,2,262,5,0,1
128704,-83.3333333333333,4,2,263,80,0,1
128910,-62.5,4,2,139,80,0,1
129218,-62.5,4,2,140,80,0,1
129321,-83.3333333333333,4,2,264,80,0,1
129423,-83.3333333333333,4,2,264,5,0,1
129526,-83.3333333333333,4,2,142,80,0,1
129628,-83.3333333333333,4,2,142,5,0,1
129732,-83.3333333333333,4,2,139,80,0,1
130040,-83.3333333333333,4,2,140,80,0,1
130143,-83.3333333333333,4,2,141,80,0,1
130348,-83.3333333333333,4,2,142,80,0,1
130554,-83.3333333333333,4,2,143,80,0,1
130759,-83.3333333333333,4,2,120,80,0,1
130862,-83.3333333333333,4,2,144,80,0,1
130964,-83.3333333333333,4,2,145,80,0,1
131170,-83.3333333333333,4,2,146,80,0,1
131375,-62.5,4,2,147,80,0,1
131683,-62.5,4,2,144,80,0,1
131786,-62.5,4,2,265,80,0,1
131992,-62.5,4,2,266,80,0,1
132095,-62.5,4,2,267,80,0,1
132197,-62.5,4,2,150,80,0,1
132505,-62.5,4,2,126,80,0,1
132608,-83.3333333333333,4,2,127,80,0,1
132710,-83.3333333333333,4,2,127,5,0,1
132814,-83.3333333333333,4,2,128,80,0,1
132916,-83.3333333333333,4,2,128,5,0,1
133019,-83.3333333333333,4,2,268,80,0,1
133224,-83.3333333333333,4,2,96,80,0,1
133327,-83.3333333333333,4,2,269,80,0,1
133430,-83.3333333333333,4,2,131,80,0,1
133532,-83.3333333333333,4,2,131,5,0,1
133636,-83.3333333333333,4,2,132,80,0,1
133738,-83.3333333333333,4,2,132,5,0,1
133841,-83.3333333333333,4,2,151,80,0,1
134149,-83.3333333333333,4,2,152,80,0,1
134252,-83.3333333333333,4,2,134,80,0,1
134354,-83.3333333333333,4,2,134,5,0,1
134458,-83.3333333333333,4,2,153,80,0,1
134663,-83.3333333333333,4,2,136,80,0,1
134869,-83.3333333333333,4,2,154,80,0,1
134971,-83.3333333333333,4,2,154,5,0,1
135074,-83.3333333333333,4,2,155,80,0,1
135176,-83.3333333333333,4,2,155,5,0,1
135280,-83.3333333333333,4,2,156,80,0,1
135485,-62.5,4,2,157,80,0,1
135793,-62.5,4,2,158,80,0,1
135896,-83.3333333333333,4,2,159,80,0,1
135998,-83.3333333333333,4,2,159,5,0,1
136101,-83.3333333333333,4,2,160,80,0,1
136203,-83.3333333333333,4,2,160,5,0,1
136307,-62.5,4,2,161,80,0,1
136615,-62.5,4,2,158,80,0,1
136718,-83.3333333333333,4,2,159,80,0,1
136820,-83.3333333333333,4,2,159,5,0,1
136923,-83.3333333333333,4,2,162,80,0,1
137025,-83.3333333333333,4,2,162,5,0,1
137129,-83.3333333333333,4,2,163,80,0,1
137334,-83.3333333333333,4,2,164,80,0,1
137437,-83.3333333333333,4,2,165,80,0,1
137540,-83.3333333333333,4,2,270,80,0,1
137643,-83.3333333333333,4,2,167,80,0,1
137745,-83.3333333333333,4,2,271,80,0,1
137848,-83.3333333333333,4,2,169,80,0,1
137951,-83.3333333333333,4,2,272,80,0,1
138054,-83.3333333333333,4,2,171,80,0,1
138156,-83.3333333333333,4,2,172,80,0,1
138362,-83.3333333333333,4,2,173,80,0,1
138567,-83.3333333333333,4,2,174,80,0,1
138773,-62.5,4,2,175,80,0,1
139081,-62.5,4,2,176,80,0,1
139184,-83.3333333333333,4,2,177,80,0,1
139286,-83.3333333333333,4,2,177,5,0,1
139389,-83.3333333333333,4,2,178,80,0,1
139491,-83.3333333333333,4,2,178,5,0,1
139595,-83.3333333333333,4,2,179,80,0,1
139800,-83.3333333333333,4,2,273,80,0,1
139903,-83.3333333333333,4,2,130,80,0,1
140006,-83.3333333333333,4,2,180,80,0,1
140108,-83.3333333333333,4,2,180,5,0,1
140211,-83.3333333333333,4,2,181,80,0,1
140313,-83.3333333333333,4,2,181,5,0,1
140417,-83.3333333333333,4,2,182,80,0,1
140725,-83.3333333333333,4,2,134,80,0,1
140827,-83.3333333333333,4,2,135,80,0,1
141032,-83.3333333333333,4,2,136,80,0,1
141238,-83.3333333333333,4,2,137,80,0,1
141444,-83.3333333333333,4,2,134,80,0,1
141649,-83.3333333333333,4,2,138,80,0,1
141751,-83.3333333333333,4,2,138,5,0,1
141855,-83.3333333333333,4,2,136,80,0,1
142060,-62.5,4,2,139,80,0,1
142368,-62.5,4,2,140,80,0,1
142471,-83.3333333333333,4,2,141,80,0,1
142573,-83.3333333333333,4,2,141,5,0,1
142677,-83.3333333333333,4,2,142,80,0,1
142779,-83.3333333333333,4,2,142,5,0,1
142882,-83.3333333333333,4,2,183,80,0,1
143191,-83.3333333333333,4,2,140,80,0,1
143293,-83.3333333333333,4,2,141,80,0,1
143499,-83.3333333333333,4,2,142,80,0,1
143704,-83.3333333333333,4,2,184,80,0,1
143910,-83.3333333333333,4,2,120,80,0,1
144012,-83.3333333333333,4,2,144,80,0,1
144115,-83.3333333333333,4,2,185,80,0,1
144321,-83.3333333333333,4,2,186,80,0,1
144526,-62.5,4,2,187,80,0,1
144834,-62.5,4,2,144,80,0,1
144937,-62.5,4,2,188,80,0,1
145143,-62.5,4,2,149,80,0,1
145245,-62.5,4,2,1,80,0,1
145348,-62.5,4,2,189,80,0,1
145656,-62.5,4,2,130,80,0,1
145759,-62.5,4,2,190,80,0,1
145964,-83.3333333333333,4,2,191,80,0,1
146169,-83.3333333333333,4,2,192,80,0,1
146375,-83.3333333333333,4,2,193,80,0,1
146478,-83.3333333333333,4,2,130,80,0,1
146581,-83.3333333333333,4,2,194,80,0,1
146683,-83.3333333333333,4,2,194,5,0,1
146786,-83.3333333333333,4,2,195,80,0,1
146992,-83.3333333333333,4,2,196,80,0,1
147300,-83.3333333333333,4,2,134,80,0,1
147403,-83.3333333333333,4,2,197,80,0,1
147608,-83.3333333333333,4,2,136,80,0,1
147814,-83.3333333333333,4,2,198,80,0,1
148019,-83.3333333333333,4,2,134,80,0,1
148225,-83.3333333333333,4,2,199,80,0,1
148327,-83.3333333333333,4,2,199,5,0,1
148430,-83.3333333333333,4,2,200,80,0,1
148636,-62.5,4,2,201,80,0,1
148944,-62.5,4,2,202,80,0,1
149047,-83.3333333333333,4,2,203,80,0,1
149149,-83.3333333333333,4,2,203,5,0,1
149252,-83.3333333333333,4,2,204,80,0,1
149354,-83.3333333333333,4,2,204,5,0,1
149458,-62.5,4,2,205,80,0,1
149766,-62.5,4,2,202,80,0,1
149869,-83.3333333333333,4,2,203,80,0,1
149971,-83.3333333333333,4,2,203,5,0,1
150074,-83.3333333333333,4,2,204,80,0,1
150176,-83.3333333333333,4,2,204,5,0,1
150280,-83.3333333333333,4,2,206,80,0,1
150382,-83.3333333333333,4,2,206,5,0,1
150485,-83.3333333333333,4,2,274,80,0,1
151203,-83.3333333333333,4,2,274,5,0,1
151307,-83.3333333333333,4,2,274,80,0,1
151614,-83.3333333333333,4,2,274,5,0,1
151718,-83.3333333333333,4,2,275,80,0,1
151923,-83.3333333333333,4,2,276,70,0,0
152025,-83.3333333333333,4,2,276,5,0,0
152129,-83.3333333333333,4,2,276,70,0,0
152232,-83.3333333333333,4,2,1,70,0,0
152334,-83.3333333333333,4,2,120,70,0,0
152436,-83.3333333333333,4,2,120,5,0,0
152540,-83.3333333333333,4,2,277,70,0,0
152848,-83.3333333333333,4,2,277,5,0,0
152951,-83.3333333333333,4,2,278,70,0,0
153053,-83.3333333333333,4,2,279,70,0,0
153156,-83.3333333333333,4,2,278,70,0,0
153258,-83.3333333333333,4,2,280,70,0,0
153362,-62.5,4,2,281,70,0,0
153568,-62.5,4,2,282,70,0,0
153670,-62.5,4,2,282,5,0,0
153773,-62.5,4,2,2,70,0,0
153978,-83.3333333333333,4,2,283,70,0,0
154183,-83.3333333333333,4,2,284,70,0,0
154389,-83.3333333333333,4,2,33,70,0,0
154800,-83.3333333333333,4,2,285,70,0,0
154869,-83.3333333333333,4,2,286,70,0,0
154937,-83.3333333333333,4,2,287,70,0,0
155006,-83.3333333333333,4,2,288,70,0,0
155074,-83.3333333333333,4,2,289,70,0,0
155108,-83.3333333333333,4,2,1,70,0,0
155143,-83.3333333333333,4,2,290,70,0,0
155211,-83.3333333333333,4,2,291,70,0,0
155313,-83.3333333333333,4,2,292,70,0,0
155417,-83.3333333333333,4,2,293,70,0,0
155519,-83.3333333333333,4,2,294,70,0,0
155622,-83.3333333333333,4,2,293,70,0,0
155724,-83.3333333333333,4,2,293,5,0,0
155827,-83.3333333333333,4,2,295,70,0,0
155931,-83.3333333333333,4,2,296,70,0,0
156033,-83.3333333333333,4,2,297,70,0,0
156135,-83.3333333333333,4,2,297,5,0,0
156238,-83.3333333333333,4,2,298,70,0,0
156340,-83.3333333333333,4,2,298,5,0,0
156444,-83.3333333333333,4,2,299,70,0,0
156546,-83.3333333333333,4,2,299,5,0,0
156649,-62.5,4,2,300,70,0,0
156855,-62.5,4,2,301,70,0,0
156957,-62.5,4,2,301,5,0,0
157060,-83.3333333333333,4,2,302,70,0,0
157162,-83.3333333333333,4,2,169,70,0,0
157266,-83.3333333333333,4,2,303,70,0,0
157369,-83.3333333333333,4,2,304,70,0,0
157471,-83.3333333333333,4,2,305,70,0,0
157574,-83.3333333333333,4,2,306,70,0,0
157676,-83.3333333333333,4,2,307,70,0,0
157780,-83.3333333333333,4,2,308,70,0,0
157882,-83.3333333333333,4,2,309,70,0,0
157985,-83.3333333333333,4,2,310,70,0,0
158088,-83.3333333333333,4,2,311,70,0,0
158156,-83.3333333333333,4,2,312,70,0,0
158190,-83.3333333333333,4,2,312,70,0,0
158293,-83.3333333333333,4,2,313,70,0,0
158396,-83.3333333333333,4,2,314,70,0,0
158499,-62.5,4,2,315,70,0,0
158705,-62.5,4,2,316,70,0,0
158910,-83.3333333333333,4,2,316,70,0,0
159321,-83.3333333333333,4,2,317,70,0,0
159526,-83.3333333333333,4,2,316,70,0,0
159834,-83.3333333333333,4,2,316,5,0,0
159937,-83.3333333333333,4,2,316,70,0,0
160143,-83.3333333333333,4,2,318,70,0,0
160348,-83.3333333333333,4,2,319,70,0,0
160554,-83.3333333333333,4,2,320,70,0,0
160759,-83.3333333333333,4,2,319,70,0,0
160964,-83.3333333333333,4,2,320,70,0,0
161066,-83.3333333333333,4,2,320,5,0,0
161170,-83.3333333333333,4,2,321,70,0,0
161272,-83.3333333333333,4,2,321,5,0,0
161375,-83.3333333333333,4,2,321,70,0,0
161477,-83.3333333333333,4,2,321,5,0,0
161581,-83.3333333333333,4,2,319,70,0,0
161786,-62.5,4,2,322,70,0,0
161992,-62.5,4,2,323,70,0,0
162197,-83.3333333333333,4,2,324,70,0,0
162402,-83.3333333333333,4,2,323,70,0,0
162608,-83.3333333333333,4,2,324,70,0,0
162814,-83.3333333333333,4,2,323,70,0,0
163121,-83.3333333333333,4,2,323,5,0,0
163225,-83.3333333333333,4,2,323,70,0,0
163327,-83.3333333333333,4,2,323,5,0,0
163430,-83.3333333333333,4,2,325,70,0,0
163738,-83.3333333333333,4,2,1,70,0,0
163841,-83.3333333333333,4,2,326,70,0,0
163943,-83.3333333333333,4,2,326,5,0,0
164047,-83.3333333333333,4,2,1,70,0,0
164252,-83.3333333333333,4,2,327,70,0,0
164457,-83.3333333333333,4,2,327,5,0,0
164526,-83.3333333333333,4,2,328,70,0,0
164560,-83.3333333333333,4,2,328,70,0,0
164663,-83.3333333333333,4,2,2,70,0,0
164765,-83.3333333333333,4,2,2,5,0,0
164800,-83.3333333333333,4,2,260,70,0,0
164869,-83.3333333333333,4,2,278,70,0,0
164971,-83.3333333333333,4,2,279,70,0,0
165074,-62.5,4,2,329,70,0,0
165279,-62.5,4,2,329,5,0,0
165382,-83.3333333333333,4,2,330,70,0,0
165587,-83.3333333333333,4,2,330,5,0,0
165691,-83.3333333333333,4,2,331,70,0,0
165793,-83.3333333333333,4,2,331,5,0,0
165896,-55.5555555555556,4,2,332,70,0,0
166101,-55.5555555555556,4,2,332,5,0,0
166204,-71.4285714285714,4,2,333,70,0,0
166409,-71.4285714285714,4,2,333,5,0,0
166512,-71.4285714285714,4,2,334,70,0,0
166614,-71.4285714285714,4,2,334,5,0,0
166718,-50,4,2,335,70,0,0
166923,-50,4,2,335,5,0,0
167026,-62.5,4,2,336,70,0,0
167231,-62.5,4,2,336,5,0,0
167334,-62.5,4,2,337,70,0,0
167436,-62.5,4,2,337,5,0,0
167540,-83.3333333333333,4,2,338,70,0,0
167642,-83.3333333333333,4,2,338,5,0,0
167745,-83.3333333333333,4,2,338,70,0,0
167951,-83.3333333333333,4,2,339,70,0,0
168054,-83.3333333333333,4,2,278,70,0,0
168156,-83.3333333333333,4,2,340,70,0,0
168259,-83.3333333333333,4,2,278,70,0,0
168362,-62.5,4,2,341,70,0,0
168978,-62.5,4,2,1,70,0,0
169184,-55.5555555555556,4,2,342,70,0,0
169800,-55.5555555555556,4,2,1,70,0,0
170006,-50,4,2,343,70,0,0
170622,-50,4,2,1,70,0,0
170827,-45.4545454545455,4,2,344,70,0,0
171648,-45.4545454545455,4,2,345,70,0,0
171701,-45.4545454545455,4,2,346,70,0,0
171718,-45.4545454545455,4,2,347,70,0,0
171786,-45.4545454545455,4,2,348,70,0,0
172883,-45.4545454545455,4,2,349,50,0,0
173293,-133.333333333333,4,2,29,50,0,0
173601,-133.333333333333,4,2,89,50,0,0
173704,-133.333333333333,4,2,350,50,0,0
173909,-133.333333333333,4,2,351,50,0,0
174115,-133.333333333333,4,2,352,50,0,0
174217,-133.333333333333,4,2,352,5,0,0
174321,-133.333333333333,4,2,353,50,0,0
174731,-133.333333333333,4,2,20,50,0,0
174834,-133.333333333333,4,2,354,50,0,0
174937,-133.333333333333,4,2,355,50,0,0
175348,-133.333333333333,4,2,356,50,0,0
175759,-133.333333333333,4,2,357,50,0,0
176170,-133.333333333333,4,2,358,50,0,0
176581,-133.333333333333,4,2,359,50,0,0
176786,-133.333333333333,4,2,360,50,0,0
177403,-133.333333333333,4,2,361,50,0,0
177505,-133.333333333333,4,2,361,5,0,0
177608,-133.333333333333,4,2,362,50,0,0
178018,-133.333333333333,4,2,363,50,0,0
178122,-133.333333333333,4,2,364,50,0,0
178225,-133.333333333333,4,2,365,50,0,0
178533,-133.333333333333,4,2,365,5,0,0
178636,-133.333333333333,4,2,366,50,0,0
178944,-133.333333333333,4,2,367,50,0,0
178996,-133.333333333333,4,2,368,50,0,0
179047,-133.333333333333,4,2,369,50,0,0
179355,-133.333333333333,4,2,369,5,0,0
179458,-133.333333333333,4,2,370,50,0,0
179560,-133.333333333333,4,2,304,50,0,0
179663,-133.333333333333,4,2,371,50,0,0
179766,-133.333333333333,4,2,372,50,0,0
179869,-133.333333333333,4,2,373,50,0,0
180177,-133.333333333333,4,2,21,50,0,0
180280,-133.333333333333,4,2,374,50,0,0
180485,-133.333333333333,4,2,375,50,0,0
180691,-133.333333333333,4,2,21,50,0,0
180793,-133.333333333333,4,2,21,5,0,0
180896,-133.333333333333,4,2,376,50,0,0
181306,-133.333333333333,4,2,377,50,0,0
181410,-133.333333333333,4,2,378,50,0,0
181512,-133.333333333333,4,2,379,50,0,0
181923,-133.333333333333,4,2,380,50,0,0
182128,-133.333333333333,4,2,350,50,0,0
182334,-133.333333333333,4,2,381,50,0,0
182643,-133.333333333333,4,2,382,50,0,0
182950,-133.333333333333,4,2,351,50,0,0
183156,-133.333333333333,4,2,383,50,0,0
183566,-133.333333333333,4,2,350,50,0,0
183773,-133.333333333333,4,2,384,50,0,0
183875,-133.333333333333,4,2,363,50,0,0
183978,-133.333333333333,4,2,385,50,0,0
184286,-133.333333333333,4,2,386,50,0,0
184595,-133.333333333333,4,2,387,50,0,0
184800,-133.333333333333,4,2,19,50,0,0
185006,-133.333333333333,4,2,388,50,0,0
185108,-133.333333333333,4,2,389,50,0,0
185211,-133.333333333333,4,2,390,50,0,0
185314,-133.333333333333,4,2,391,50,0,0
185417,-133.333333333333,4,2,378,50,0,0
185519,-133.333333333333,4,2,377,50,0,0
185622,-133.333333333333,4,2,364,50,0,0
185725,-133.333333333333,4,2,392,50,0,0
185827,-133.333333333333,4,2,393,50,0,0
185930,-133.333333333333,4,2,394,50,0,0
186033,-133.333333333333,4,2,395,50,0,0
186136,-133.333333333333,4,2,396,50,0,0
186238,-133.333333333333,4,2,267,50,0,0
186444,-133.333333333333,4,2,397,50,0,0
186752,-133.333333333333,4,2,398,50,0,0
186855,-133.333333333333,4,2,399,50,0,0
187060,-133.333333333333,4,2,400,50,0,0
187266,-133.333333333333,4,2,401,50,0,0
187368,-133.333333333333,4,2,401,5,0,0
187471,-133.333333333333,4,2,402,50,0,0
187881,-133.333333333333,4,2,403,50,0,0
187985,-133.333333333333,4,2,404,50,0,0
188088,-133.333333333333,4,2,405,50,0,0
188499,-133.333333333333,4,2,406,50,0,0
188910,-133.333333333333,4,2,407,50,0,0
189115,-133.333333333333,4,2,408,50,0,0
189321,-133.333333333333,4,2,27,50,0,0
189526,-133.333333333333,4,2,409,50,0,0
189732,-133.333333333333,4,2,410,50,0,0
189937,-133.333333333333,4,2,411,50,0,0
190040,-133.333333333333,4,2,89,50,0,0
190143,-133.333333333333,4,2,350,50,0,0
190554,-133.333333333333,4,2,412,50,0,0
190656,-133.333333333333,4,2,412,5,0,0
190759,-133.333333333333,4,2,413,50,0,0
191169,-133.333333333333,4,2,414,50,0,0
191273,-133.333333333333,4,2,19,50,0,0
191375,-133.333333333333,4,2,415,50,0,0
191786,-133.333333333333,4,2,416,50,0,0
192095,-133.333333333333,4,2,417,50,0,0
192146,-133.333333333333,4,2,418,50,0,0
192197,-133.333333333333,4,2,350,50,0,0
192608,-133.333333333333,4,2,419,50,0,0
192711,-133.333333333333,4,2,399,50,0,0
192814,-133.333333333333,4,2,420,50,0,0
192917,-133.333333333333,4,2,394,50,0,0
193019,-133.333333333333,4,2,421,50,0,0
193327,-133.333333333333,4,2,398,50,0,0
193430,-133.333333333333,4,2,399,50,0,0
193635,-133.333333333333,4,2,422,50,0,0
193841,-133.333333333333,4,2,423,50,0,0
193943,-133.333333333333,4,2,423,5,0,0
194047,-133.333333333333,4,2,407,50,0,0
194252,-133.333333333333,4,2,408,50,0,0
194458,-133.333333333333,4,2,352,50,0,0
194663,-133.333333333333,4,2,424,50,0,0
195049,-133.333333333333,4,2,425,50,0,0
195074,-133.333333333333,4,2,426,50,0,0
195460,-133.333333333333,4,2,427,50,0,0
195485,-133.333333333333,4,2,428,50,0,0
195896,-133.333333333333,4,2,352,50,0,0
196101,-133.333333333333,4,2,411,50,0,0
196307,-222.222222222222,4,2,429,50,0,0
196512,-222.222222222222,4,2,423,50,0,0
196718,-222.222222222222,4,2,430,50,0,0
196923,-222.222222222222,4,2,431,50,0,0
197129,-222.222222222222,4,2,432,50,0,0
197334,-222.222222222222,4,2,273,50,0,0
197540,-222.222222222222,4,2,433,50,0,0
197745,-222.222222222222,4,2,434,50,0,0
197951,-222.222222222222,4,2,435,50,0,0
198362,-666.666666666667,4,2,436,50,0,0
198978,-666.666666666667,4,2,19,50,0,0
199184,-100,4,2,120,50,0,0
199389,-100,4,2,437,50,0,0
199595,-100,4,2,438,60,0,0
199646,-100,4,2,439,30,0,0
199697,-100,4,2,439,30,0,0
199800,-100,4,2,440,30,0,0
199903,-100,4,2,439,30,0,0
200006,-100,4,2,441,30,0,0
200108,-100,4,2,442,30,0,0
200211,-100,4,2,443,40,0,0
200314,-100,4,2,442,40,0,0
200417,-100,4,2,444,45,0,0
200519,-100,4,2,445,45,0,0
200622,-100,4,2,446,50,0,0
200725,-100,4,2,445,50,0,0
200827,-100,4,2,447,55,0,0
200930,-100,4,2,448,55,0,0
201033,-100,4,2,449,60,0,0
201136,-100,4,2,448,60,0,0
201238,-71.4285714285714,4,2,450,80,0,0
201443,-71.4285714285714,4,2,450,5,0,0
201547,-71.4285714285714,4,2,450,80,0,0
201752,-71.4285714285714,4,2,450,5,0,0
201855,-71.4285714285714,4,2,451,80,0,0
201957,-71.4285714285714,4,2,451,5,0,0
202060,-71.4285714285714,4,2,451,80,0,0
202162,-71.4285714285714,4,2,451,5,0,0
202266,-312.5,4,2,452,60,0,0
202472,-312.5,4,2,453,60,0,0
202677,-312.5,4,2,454,60,0,0
202779,-312.5,4,2,454,5,0,0
202882,-62.5,4,2,455,80,0,0
202984,-62.5,4,2,455,5,0,0
203191,-62.5,4,2,456,60,0,0
203294,-62.5,4,2,457,60,0,0
203499,-62.5,4,2,458,80,0,0
203705,-62.5,4,2,459,80,0,0
203807,-62.5,4,2,459,5,0,0
203910,-62.5,4,2,1,80,0,0
204115,-62.5,4,2,437,80,0,0
204218,-62.5,4,2,274,80,0,0
204321,-83.3333333333333,4,2,274,80,0,0
204423,-83.3333333333333,4,2,274,5,0,0
204526,-83.3333333333333,4,2,334,80,0,0
204628,-83.3333333333333,4,2,334,5,0,0
204706,-83.3333333333333,4,2,460,80,0,0
204732,-40,4,2,461,80,0,0
204937,-40,4,2,461,5,0,0
205015,-40,4,2,460,80,0,0
205040,-45.4545454545455,4,2,462,80,0,0
205245,-45.4545454545455,4,2,462,5,0,0
205323,-45.4545454545455,4,2,463,80,0,0
205348,-52.6315789473684,4,2,464,80,0,0
205656,-52.6315789473684,4,2,464,5,0,0
205759,-166.666666666667,4,2,465,80,0,0
206067,-166.666666666667,4,2,465,5,0,0
206170,-62.5,4,2,466,55,0,1
206478,-62.5,4,2,140,80,0,1
206581,-83.3333333333333,4,2,141,80,0,1
206683,-83.3333333333333,4,2,141,5,0,1
206786,-83.3333333333333,4,2,142,80,0,1
206888,-83.3333333333333,4,2,142,5,0,1
206992,-83.3333333333333,4,2,139,80,0,1
207300,-83.3333333333333,4,2,140,80,0,1
207403,-83.3333333333333,4,2,141,80,0,1
207608,-83.3333333333333,4,2,142,80,0,1
207814,-83.3333333333333,4,2,143,80,0,1
208019,-83.3333333333333,4,2,120,80,0,1
208122,-83.3333333333333,4,2,144,80,0,1
208225,-83.3333333333333,4,2,145,80,0,1
208430,-83.3333333333333,4,2,146,80,0,1
208636,-83.3333333333333,4,2,147,80,0,1
208738,-83.3333333333333,4,2,147,5,0,1
208841,-83.3333333333333,4,2,147,80,0,1
208944,-83.3333333333333,4,2,144,80,0,1
209047,-83.3333333333333,4,2,148,80,0,1
209252,-83.3333333333333,4,2,149,80,0,1
209355,-83.3333333333333,4,2,1,80,0,1
209458,-62.5,4,2,150,80,0,1
209766,-62.5,4,2,126,80,0,1
209869,-83.3333333333333,4,2,127,80,0,1
209971,-83.3333333333333,4,2,127,5,0,1
210074,-83.3333333333333,4,2,128,80,0,1
210176,-83.3333333333333,4,2,128,5,0,1
210280,-83.3333333333333,4,2,129,80,0,1
210588,-83.3333333333333,4,2,130,80,0,1
210691,-83.3333333333333,4,2,131,80,0,1
210793,-83.3333333333333,4,2,131,5,0,1
210896,-83.3333333333333,4,2,132,80,0,1
210998,-83.3333333333333,4,2,132,5,0,1
211101,-83.3333333333333,4,2,151,80,0,1
211410,-83.3333333333333,4,2,152,80,0,1
211512,-83.3333333333333,4,2,134,80,0,1
211614,-83.3333333333333,4,2,134,5,0,1
211718,-83.3333333333333,4,2,153,80,0,1
211923,-83.3333333333333,4,2,136,80,0,1
212129,-83.3333333333333,4,2,154,80,0,1
212231,-83.3333333333333,4,2,154,5,0,1
212334,-83.3333333333333,4,2,155,80,0,1
212436,-83.3333333333333,4,2,155,5,0,1
212540,-83.3333333333333,4,2,156,80,0,1
212745,-62.5,4,2,157,80,0,1
213053,-62.5,4,2,158,80,0,1
213156,-83.3333333333333,4,2,159,80,0,1
213258,-83.3333333333333,4,2,159,5,0,1
213362,-83.3333333333333,4,2,160,80,0,1
213464,-83.3333333333333,4,2,160,5,0,1
213567,-62.5,4,2,161,80,0,1
213875,-62.5,4,2,158,80,0,1
213978,-83.3333333333333,4,2,159,80,0,1
214080,-83.3333333333333,4,2,159,5,0,1
214184,-83.3333333333333,4,2,162,80,0,1
214286,-83.3333333333333,4,2,162,5,0,1
214389,-83.3333333333333,4,2,163,55,0,1
214595,-83.3333333333333,4,2,164,80,0,1
214697,-83.3333333333333,4,2,165,80,0,1
214800,-83.3333333333333,4,2,270,80,0,1
214903,-83.3333333333333,4,2,167,80,0,1
215006,-83.3333333333333,4,2,271,80,0,1
215108,-83.3333333333333,4,2,169,80,0,1
215211,-83.3333333333333,4,2,272,80,0,1
215314,-83.3333333333333,4,2,171,80,0,1
215417,-83.3333333333333,4,2,172,80,0,1
215622,-83.3333333333333,4,2,173,80,0,1
215827,-83.3333333333333,4,2,174,80,0,1
216033,-62.5,4,2,467,55,0,1
216341,-62.5,4,2,176,80,0,1
216444,-83.3333333333333,4,2,177,80,0,1
216546,-83.3333333333333,4,2,177,5,0,1
216649,-83.3333333333333,4,2,178,80,0,1
216751,-83.3333333333333,4,2,178,5,0,1
216855,-83.3333333333333,4,2,179,80,0,1
217060,-83.3333333333333,4,2,130,80,0,1
217266,-83.3333333333333,4,2,180,80,0,1
217368,-83.3333333333333,4,2,180,5,0,1
217471,-83.3333333333333,4,2,181,80,0,1
217573,-83.3333333333333,4,2,181,5,0,1
217677,-83.3333333333333,4,2,182,80,0,1
217985,-83.3333333333333,4,2,134,80,0,1
218088,-83.3333333333333,4,2,135,80,0,1
218293,-83.3333333333333,4,2,136,80,0,1
218499,-83.3333333333333,4,2,137,80,0,1
218704,-83.3333333333333,4,2,134,80,0,1
218910,-83.3333333333333,4,2,138,80,0,1
219012,-83.3333333333333,4,2,138,5,0,1
219115,-83.3333333333333,4,2,136,80,0,1
219321,-62.5,4,2,139,80,0,1
219629,-62.5,4,2,140,80,0,1
219732,-83.3333333333333,4,2,141,80,0,1
219834,-83.3333333333333,4,2,141,5,0,1
219937,-83.3333333333333,4,2,142,80,0,1
220039,-83.3333333333333,4,2,142,5,0,1
220143,-83.3333333333333,4,2,183,80,0,1
220451,-83.3333333333333,4,2,140,80,0,1
220554,-83.3333333333333,4,2,141,80,0,1
220759,-83.3333333333333,4,2,142,80,0,1
220964,-83.3333333333333,4,2,184,80,0,1
221170,-83.3333333333333,4,2,120,80,0,1
221273,-83.3333333333333,4,2,144,80,0,1
221375,-83.3333333333333,4,2,185,80,0,1
221581,-83.3333333333333,4,2,186,80,0,1
221786,-62.5,4,2,187,80,0,1
222094,-62.5,4,2,144,80,0,1
222197,-62.5,4,2,188,80,0,1
222403,-62.5,4,2,149,80,0,1
222506,-62.5,4,2,1,80,0,1
222608,-62.5,4,2,189,80,0,1
222916,-62.5,4,2,130,80,0,1
223019,-62.5,4,2,190,80,0,1
223225,-83.3333333333333,4,2,191,80,0,1
223430,-83.3333333333333,4,2,192,80,0,1
223636,-83.3333333333333,4,2,193,80,0,1
223738,-83.3333333333333,4,2,130,80,0,1
223841,-83.3333333333333,4,2,194,80,0,1
223943,-83.3333333333333,4,2,194,5,0,1
224047,-83.3333333333333,4,2,195,80,0,1
224252,-83.3333333333333,4,2,196,80,0,1
224560,-83.3333333333333,4,2,134,80,0,1
224663,-83.3333333333333,4,2,197,80,0,1
224868,-83.3333333333333,4,2,136,80,0,1
225074,-83.3333333333333,4,2,198,80,0,1
225280,-83.3333333333333,4,2,134,80,0,1
225485,-83.3333333333333,4,2,199,80,0,1
225587,-83.3333333333333,4,2,199,5,0,1
225690,-83.3333333333333,4,2,200,80,0,1
225896,-62.5,4,2,201,80,0,1
226204,-62.5,4,2,202,80,0,1
226307,-83.3333333333333,4,2,203,80,0,1
226409,-83.3333333333333,4,2,203,5,0,1
226512,-83.3333333333333,4,2,204,80,0,1
226614,-83.3333333333333,4,2,204,5,0,1
226718,-62.5,4,2,205,80,0,1
227026,-62.5,4,2,202,80,0,1
227129,-83.3333333333333,4,2,203,80,0,1
227231,-83.3333333333333,4,2,203,5,0,1
227334,-83.3333333333333,4,2,204,80,0,1
227436,-83.3333333333333,4,2,204,5,0,1
227540,-83.3333333333333,4,2,468,80,0,1
227642,-83.3333333333333,4,2,468,5,0,1
227745,-83.3333333333333,4,2,1,80,0,1
227951,-83.3333333333333,4,2,469,80,0,1
228156,-83.3333333333333,4,2,172,80,0,1
228464,-83.3333333333333,4,2,172,5,0,1
228567,-83.3333333333333,4,2,470,80,0,1
228773,-83.3333333333333,4,2,471,80,0,1
228875,-83.3333333333333,4,2,471,5,0,1
228978,-83.3333333333333,4,2,472,80,0,1
229184,-62.5,4,2,473,70,0,0
229390,-62.5,4,2,474,70,0,0
229458,-62.5,4,2,475,70,0,0
229492,-62.5,4,2,475,5,0,0
229527,-62.5,4,2,476,70,0,0
229595,-83.3333333333333,4,2,477,70,0,0
229663,-83.3333333333333,4,2,478,70,0,0
229697,-83.3333333333333,4,2,478,5,0,0
229732,-83.3333333333333,4,2,479,70,0,0
229800,-83.3333333333333,4,2,480,70,0,0
229869,-83.3333333333333,4,2,347,70,0,0
229937,-83.3333333333333,4,2,481,70,0,0
230006,-83.3333333333333,4,2,482,70,0,0
230108,-83.3333333333333,4,2,483,70,0,0
230211,-83.3333333333333,4,2,484,70,0,0
230314,-83.3333333333333,4,2,485,70,0,0
230417,-83.3333333333333,4,2,486,70,0,0
230519,-83.3333333333333,4,2,487,70,0,0
230622,-83.3333333333333,4,2,488,70,0,0
230725,-83.3333333333333,4,2,489,70,0,0
230827,-83.3333333333333,4,2,490,70,0,0
230929,-83.3333333333333,4,2,490,5,0,0
231033,-83.3333333333333,4,2,491,70,0,0
231102,-83.3333333333333,4,2,492,70,0,0
231170,-83.3333333333333,4,2,493,70,0,0
231238,-83.3333333333333,4,2,494,70,0,0
231307,-83.3333333333333,4,2,495,70,0,0
231340,-83.3333333333333,4,2,495,5,0,0
231376,-83.3333333333333,4,2,346,70,0,0
231444,-83.3333333333333,4,2,496,70,0,0
231513,-83.3333333333333,4,2,497,70,0,0
231581,-83.3333333333333,4,2,498,70,0,0
231649,-83.3333333333333,4,2,499,70,0,0
231751,-83.3333333333333,4,2,500,70,0,0
231855,-83.3333333333333,4,2,501,70,0,0
231958,-83.3333333333333,4,2,502,70,0,0
232060,-83.3333333333333,4,2,503,70,0,0
232162,-83.3333333333333,4,2,306,70,0,0
232266,-83.3333333333333,4,2,504,70,0,0
232369,-83.3333333333333,4,2,257,70,0,0
232471,-83.3333333333333,4,2,505,70,0,0
232677,-83.3333333333333,4,2,506,70,0,0
232746,-83.3333333333333,4,2,507,70,0,0
232779,-83.3333333333333,4,2,507,5,0,0
232814,-83.3333333333333,4,2,508,70,0,0
232882,-83.3333333333333,4,2,509,70,0,0
232951,-83.3333333333333,4,2,290,70,0,0
232984,-83.3333333333333,4,2,290,5,0,0
233020,-83.3333333333333,4,2,346,70,0,0
233088,-83.3333333333333,4,2,510,70,0,0
233293,-83.3333333333333,4,2,511,70,0,0
233395,-83.3333333333333,4,2,511,5,0,0
233499,-83.3333333333333,4,2,512,70,0,0
233568,-83.3333333333333,4,2,290,70,0,0
233636,-83.3333333333333,4,2,346,70,0,0
233704,-83.3333333333333,4,2,513,70,0,0
233773,-83.3333333333333,4,2,514,70,0,0
233806,-83.3333333333333,4,2,514,5,0,0
233842,-83.3333333333333,4,2,498,70,0,0
233910,-83.3333333333333,4,2,515,70,0,0
234115,-83.3333333333333,4,2,516,70,0,0
234217,-83.3333333333333,4,2,516,5,0,0
234321,-83.3333333333333,4,2,517,70,0,0
234390,-83.3333333333333,4,2,290,70,0,0
234423,-83.3333333333333,4,2,290,70,0,0
234458,-83.3333333333333,4,2,518,70,0,0
234526,-83.3333333333333,4,2,519,70,0,0
234595,-83.3333333333333,4,2,514,70,0,0
234663,-83.3333333333333,4,2,520,70,0,0
234731,-83.3333333333333,4,2,521,70,0,0
234937,-83.3333333333333,4,2,522,70,0,0
235039,-83.3333333333333,4,2,522,5,0,0
235143,-83.3333333333333,4,2,523,70,0,0
235348,-83.3333333333333,4,2,524,70,0,0
235450,-83.3333333333333,4,2,524,5,0,0
235554,-83.3333333333333,4,2,525,70,0,0
235759,-62.5,4,2,526,70,0,0
235965,-62.5,4,2,527,70,0,0
236033,-62.5,4,2,528,70,0,0
236067,-62.5,4,2,528,5,0,0
236102,-62.5,4,2,529,70,0,0
236170,-83.3333333333333,4,2,530,70,0,0
236239,-83.3333333333333,4,2,531,70,0,0
236272,-83.3333333333333,4,2,531,5,0,0
236307,-83.3333333333333,4,2,532,70,0,0
236375,-83.3333333333333,4,2,533,70,0,0
236444,-83.3333333333333,4,2,347,70,0,0
236513,-83.3333333333333,4,2,481,70,0,0
236581,-83.3333333333333,4,2,482,70,0,0
236683,-83.3333333333333,4,2,483,70,0,0
236786,-83.3333333333333,4,2,484,70,0,0
236890,-83.3333333333333,4,2,534,70,0,0
236992,-83.3333333333333,4,2,535,70,0,0
237094,-83.3333333333333,4,2,536,70,0,0
237197,-83.3333333333333,4,2,488,70,0,0
237300,-83.3333333333333,4,2,489,70,0,0
237403,-83.3333333333333,4,2,490,70,0,0
237505,-83.3333333333333,4,2,490,5,0,0
237608,-83.3333333333333,4,2,491,70,0,0
237677,-83.3333333333333,4,2,537,70,0,0
237746,-83.3333333333333,4,2,508,70,0,0
237814,-83.3333333333333,4,2,538,70,0,0
237883,-83.3333333333333,4,2,495,70,0,0
237916,-83.3333333333333,4,2,495,5,0,0
237951,-83.3333333333333,4,2,346,70,0,0
238019,-83.3333333333333,4,2,539,70,0,0
238225,-83.3333333333333,4,2,540,70,0,0
238327,-83.3333333333333,4,2,540,5,0,0
238430,-83.3333333333333,4,2,541,70,0,0
238499,-83.3333333333333,4,2,495,70,0,0
238568,-83.3333333333333,4,2,346,70,0,0
238636,-83.3333333333333,4,2,542,70,0,0
238705,-83.3333333333333,4,2,497,70,0,0
238738,-83.3333333333333,4,2,497,5,0,0
238773,-83.3333333333333,4,2,498,70,0,0
238841,-83.3333333333333,4,2,543,70,0,0
239047,-83.3333333333333,4,2,544,70,0,0
239253,-83.3333333333333,4,2,545,70,0,0
239355,-83.3333333333333,4,2,545,5,0,0
239458,-83.3333333333333,4,2,546,70,0,0
239560,-83.3333333333333,4,2,546,5,0,0
239663,-83.3333333333333,4,2,547,70,0,0
239869,-83.3333333333333,4,2,548,70,0,0
239937,-83.3333333333333,4,2,549,70,0,0
239971,-83.3333333333333,4,2,549,5,0,0
240006,-83.3333333333333,4,2,550,70,0,0
240074,-83.3333333333333,4,2,551,70,0,0
240143,-83.3333333333333,4,2,346,70,0,0
240211,-83.3333333333333,4,2,347,70,0,0
240280,-83.3333333333333,4,2,552,70,0,0
240348,-83.3333333333333,4,2,498,70,0,0
240382,-83.3333333333333,4,2,498,5,0,0
240417,-83.3333333333333,4,2,553,70,0,0
240485,-83.3333333333333,4,2,554,70,0,0
240690,-83.3333333333333,4,2,555,70,0,0
240792,-83.3333333333333,4,2,555,5,0,0
240896,-83.3333333333333,4,2,556,70,0,0
241101,-83.3333333333333,4,2,557,70,0,0
241203,-83.3333333333333,4,2,557,5,0,0
241307,-83.3333333333333,4,2,558,70,0,0
241410,-83.3333333333333,4,2,1,70,0,0
241512,-83.3333333333333,4,2,559,70,0,0
241614,-83.3333333333333,4,2,559,5,0,0
241718,-83.3333333333333,4,2,560,70,0,0
241923,-83.3333333333333,4,2,561,70,0,0
242129,-83.3333333333333,4,2,562,70,0,0
242334,-133.333333333333,4,2,563,70,0,0
242643,-133.333333333333,4,2,564,50,0,0
242951,-133.333333333333,4,2,565,50,0,0
243362,-133.333333333333,4,2,566,50,0,0
243773,-133.333333333333,4,2,89,50,0,0
243979,-133.333333333333,4,2,567,50,0,0
244287,-133.333333333333,4,2,568,50,0,0
244389,-133.333333333333,4,2,89,50,0,0
244595,-133.333333333333,4,2,569,50,0,0
245006,-133.333333333333,4,2,570,50,0,0
245211,-133.333333333333,4,2,89,50,0,0
245416,-133.333333333333,4,2,571,50,0,0
245622,-133.333333333333,4,2,572,50,0,0
245828,-133.333333333333,4,2,136,50,0,0
246032,-133.333333333333,4,2,573,50,0,0
246238,-133.333333333333,4,2,574,50,0,0
246648,-133.333333333333,4,2,575,50,0,0
246855,-133.333333333333,4,2,576,50,0,0
247060,-133.333333333333,4,2,577,50,0,0
247266,-133.333333333333,4,2,578,50,0,0
247677,-133.333333333333,4,2,579,50,0,0
248088,-133.333333333333,4,2,580,50,0,0
248499,-133.333333333333,4,2,581,50,0,0
248910,-133.333333333333,4,2,582,50,0,0
249218,-133.333333333333,4,2,583,50,0,0
249526,-133.333333333333,4,2,584,50,0,0
249937,-133.333333333333,4,2,190,50,0,0
250142,-133.333333333333,4,2,585,50,0,0
250554,-133.333333333333,4,2,586,50,0,0
250862,-133.333333333333,4,2,587,50,0,0
250964,-133.333333333333,4,2,89,50,0,0
251170,-133.333333333333,4,2,565,50,0,0
251581,-133.333333333333,4,2,588,50,0,0
251786,-133.333333333333,4,2,589,50,0,0
251992,-133.333333333333,4,2,590,50,0,0
252146,-133.333333333333,4,2,89,50,0,0
252172,-133.333333333333,4,2,591,50,0,0
252197,-133.333333333333,4,2,592,50,0,0
252402,-133.333333333333,4,2,577,50,0,0
252608,-133.333333333333,4,2,593,50,0,0
252814,-133.333333333333,4,2,594,50,0,0
252968,-133.333333333333,4,2,89,50,0,0
252994,-133.333333333333,4,2,591,50,0,0
253019,-133.333333333333,4,2,595,50,0,0
253224,-133.333333333333,4,2,596,50,0,0
253430,-133.333333333333,4,2,597,50,0,0
253636,-133.333333333333,4,2,598,50,0,0
253790,-133.333333333333,4,2,89,50,0,0
253816,-133.333333333333,4,2,591,50,0,0
253841,-133.333333333333,4,2,599,50,0,0
254252,-400,4,2,600,50,0,0
254868,-400,4,2,601,50,0,0
255460,-400,4,2,602,50,0,0
255485,500,4,2,603,40,1,0
255485,-200,4,2,603,40,0,0
255735,-200,4,2,604,40,0,0
255985,571.428571428571,4,2,605,40,1,0
255985,-200,4,2,605,40,0,0
256270,-200,4,2,606,40,0,0
256413,-200,4,2,607,40,0,0
256449,-200,4,2,608,40,0,0
256485,-200,4,2,14,40,0,0
256520,-200,4,2,609,40,0,0
256556,612.244897959184,4,2,610,40,1,0
256556,-200,4,2,610,40,0,0
256989,-200,4,2,611,40,0,0
257168,631.578947368421,4,2,611,40,1,0
257277,-100,4,2,33,40,0,0
257483,-100,4,2,33,40,0,0
257507,631.578947368421,4,2,33,40,1,0
257720,-100,4,2,612,40,0,0
257760,-100,4,2,613,40,0,0
257799,666.666666666667,4,2,616,40,1,0
257799,-200,4,2,616,40,0,0
257965,-200,4,2,100,40,0,0
258757,-200,4,2,617,30,0,0
258799,-200,4,2,618,30,0,0
258840,-200,4,2,619,30,0,0

[Colours]
Combo1 : 66,68,127
Combo2 : 234,217,226
Combo3 : 153,79,115
Combo4 : 205,128,181
Combo5 : 229,120,95

[HitObjects]
76,79,417,6,0,L|71:64,3,15.4166666666667,0|0|0|0,3:3|3:3|3:3|3:3,0:0:0:0:
63,103,691,6,0,B|178:68|140:169|256:135,1,208.125000000001,2|2,2:2|2:2,0:0:0:0:
256,135,1718,1,2,2:2:0:0:
364,36,1923,2,0,L|373:115,1,69.3750000000002,2|0,2:2|0:0,0:0:0:0:
359,137,2232,1,0,0:0:0:0:
359,137,2334,6,0,P|396:120|351:208,1,277.500000000001,2|2,2:2|2:2,0:0:0:0:
77,303,3773,1,2,2:2:0:0:
80,320,3875,1,2,2:2:0:0:
83,338,3978,6,0,B|118:382|174:373|174:373|195:320|159:275,1,208.125000000001,2|2,2:2|2:2,0:0:0:0:
73,85,4800,2,0,B|72:131|72:131|93:172|93:172|93:218,1,138.75,2|2,2:2|2:2,0:0:0:0:
169,95,5417,2,0,B|169:60,1,34.6875000000001,2|0,2:2|0:0,0:0:0:0:
183,104,5622,2,0,B|298:69|260:170|376:136,1,208.125000000001,2|2,2:2|2:2,0:0:0:0:
376,136,6649,5,2,3:2:0:0:
427,145,6752,1,2,2:2:0:0:
460,175,6855,1,2,2:2:0:0:
475,209,6958,1,2,2:2:0:0:
477,239,7060,1,2,3:2:0:0:
470,262,7163,1,0,0:0:0:0:
462,277,7266,6,0,B|393:274|393:274|333:239|333:239|264:237,1,208.125000000001,6|2,3:2|2:2,0:0:0:0:
264,237,8293,1,2,2:2:0:0:
204,284,8499,1,2,2:2:0:0:
157,224,8704,1,2,2:2:0:0:
166,51,8910,6,0,B|215:106|217:176|217:176|250:114|319:88,1,277.500000000001,6|2,3:2|2:2,0:0:0:0:
394,71,9937,1,0,3:3:0:0:
290,242,10143,1,2,1:2:0:0:
119,139,10348,1,2,2:2:0:0:
101,138,10451,1,0,1:1:0:0:
84,137,10554,6,0,B|54:128|40:97|40:97|3:152|36:235,1,194.25,6|0,3:2|0:0,0:0:0:0:
68,286,10964,6,0,B|68:321,1,34.6875000000001,10|0,2:2|0:0,0:0:0:0:
94,279,11170,2,0,B|170:302|145:235|222:257,1,138.75,6|0,2:2|3:3,0:0:0:0:
291,305,11786,1,2,3:2:0:0:
230,174,11992,1,2,3:2:0:0:
387,79,12197,5,2,1:2:0:0:
326,209,12403,1,0,1:1:0:0:
324,191,12506,1,0,1:1:0:0:
323,174,12608,2,0,L|318:123,1,34.6875000000001,0|0,1:1|0:0,0:0:0:0:
249,8,12814,1,0,1:1:0:0:
247,25,12917,1,0,1:1:0:0:
246,43,13019,2,0,L|243:78,1,34.6875000000001,0|0,3:3|0:0,0:0:0:0:
226,227,13225,6,0,B|103:264|143:156|19:192,1,222,4|0,1:2|1:1,0:0:0:0:
8,230,13738,1,0,1:1:0:0:
8,230,13841,6,0,L|21:331,1,92.5,14|2,3:2|2:2,0:0:0:0:
120,170,14252,2,0,L|108:78,1,92.5,2|2,3:2|2:2,0:0:0:0:
226,227,14663,1,2,3:2:0:0:
367,130,14869,2,0,P|324:148|279:151,1,92.5,2|0,2:2|3:3,0:0:0:0:
440,280,15280,1,2,2:2:0:0:
443,302,15382,1,0,0:0:0:0:
446,324,15485,6,0,B|343:355|377:265|274:295,1,185,0|0,3:3|3:3,0:0:0:0:
146,380,16101,2,0,P|193:382|238:372,1,92.5,0|0,0:0|3:3,0:0:0:0:
226,227,16512,2,0,P|179:225|134:235,1,92.5,2|2,2:2|3:2,0:0:0:0:
99,312,16923,1,2,2:2:0:0:
71,138,17129,6,0,B|32:108|32:108|51:243,1,185,0|2,3:3|3:2,0:0:0:0:
99,312,17745,1,2,2:2:0:0:
224,223,17951,1,2,3:2:0:0:
237,376,18156,1,2,2:2:0:0:
187,304,18362,1,2,3:2:0:0:
300,123,18567,6,0,L|312:215,1,92.5,2|0,2:2|3:3,0:0:0:0:
174,151,18978,1,0,2:2:0:0:
238,13,19184,1,0,3:3:0:0:
376,77,19389,1,0,2:2:0:0:
399,75,19492,1,0,2:2:0:0:
422,73,19595,2,0,P|467:65|508:43,1,92.5,0|0,3:3|2:2,0:0:0:0:
392,198,20006,2,0,P|351:176|306:169,1,92.5,2|2,3:2|2:2,0:0:0:0:
284,177,20314,1,0,0:0:0:0:
261,186,20417,6,0,P|174:187|132:109,1,185,2|2,3:2|3:2,0:0:0:0:
228,23,21033,2,0,L|217:115,1,92.5,2|0,2:2|3:3,0:0:0:0:
86,201,21444,2,0,L|97:292,1,92.5,2|0,2:2|3:3,0:0:0:0:
124,330,21752,1,0,0:0:0:0:
124,330,21855,6,0,P|171:298|221:286,1,92.5,2|0,2:2|3:3,0:0:0:0:
284,335,22266,1,2,2:2:0:0:
312,150,22471,1,2,3:2:0:0:
472,155,22677,2,0,P|435:183|392:197,1,92.5,2|0,2:2|3:3,0:0:0:0:
312,150,23088,1,0,0:0:0:0:
284,335,23293,1,2,3:2:0:0:
137,218,23499,1,2,2:2:0:0:
243,234,23704,5,2,3:2:0:0:
306,104,23910,1,2,2:2:0:0:
309,127,24012,1,0,0:0:0:0:
312,150,24115,1,0,3:3:0:0:
163,114,24321,2,0,L|174:22,1,92.5,2|0,2:2|3:3,0:0:0:0:
59,143,24732,2,0,L|64:189,1,46.25,2|0,3:2|0:0,0:0:0:0:
137,218,24937,2,0,L|131:264,1,46.25,2|0,3:2|0:0,0:0:0:0:
73,306,25143,6,0,B|149:282|124:349|202:326,1,138.75,6|0,3:2|0:0,0:0:0:0:
236,214,25554,2,0,P|231:236|234:259,1,46.25,2|0,2:2|0:0,0:0:0:0:
315,346,25759,2,0,P|297:330|276:321,1,46.25,2|0,2:2|0:0,0:0:0:0:
162,345,25964,1,2,1:2:0:0:
184,338,26067,1,0,1:1:0:0:
202,325,26170,1,2,3:2:0:0:
144,150,26375,1,2,3:2:0:0:
142,172,26478,1,0,1:1:0:0:
140,195,26581,1,2,3:2:0:0:
137,218,26684,1,0,1:1:0:0:
135,241,26786,1,0,3:3:0:0:
48,49,26992,5,6,3:2:0:0:
183,16,27197,1,2,1:2:0:0:
205,12,27300,1,0,1:1:0:0:
228,12,27403,1,2,3:2:0:0:
251,15,27506,1,0,3:3:0:0:
273,21,27608,1,2,1:2:0:0:
361,260,27814,2,0,L|366:214,1,46.25,2|0,3:2|0:0,0:0:0:0:
390,33,28019,2,0,L|384:78,1,46.25,2|0,1:2|1:1,0:0:0:0:
375,147,28225,1,0,3:3:0:0:
248,246,28430,1,2,1:2:0:0:
250,268,28533,1,0,1:1:0:0:
254,292,28636,6,0,L|259:337,1,46.25,6|0,3:2|0:0,0:0:0:0:
463,327,28841,1,0,1:1:0:0:
457,305,28944,1,0,1:1:0:0:
444,285,29047,1,0,3:3:0:0:
427,270,29149,1,0,1:1:0:0:
406,260,29252,1,2,1:2:0:0:
383,257,29355,1,0,1:0:0:0:
361,260,29458,2,0,L|355:305,1,46.25,0|0,3:3|0:0,0:0:0:0:
242,201,29663,2,0,L|247:246,1,46.25,2|0,1:2|1:1,0:0:0:0:
380,101,29869,2,0,L|375:147,1,46.25,2|0,3:2|1:3,0:0:0:0:
222,41,30074,1,2,1:2:0:0:
224,63,30177,1,0,1:1:0:0:
227,86,30280,5,6,3:2:0:0:
136,156,30485,1,2,1:2:0:0:
113,159,30588,1,0,1:1:0:0:
90,156,30690,1,2,3:2:0:0:
68,147,30793,1,0,3:0:0:0:
50,133,30896,1,2,1:2:0:0:
36,115,30999,1,0,1:1:0:0:
27,94,31101,1,2,3:2:0:0:
117,7,31307,2,0,L|123:53,1,46.25,2|0,1:2|1:1,0:0:0:0:
136,156,31512,1,2,3:2:0:0:
59,307,31718,5,2,1:2:0:0:
48,286,31821,1,0,0:0:0:0:
44,263,31923,2,0,P|46:240|54:219,1,46.25,4|0,3:3|0:0,0:0:0:0:
228,298,32129,1,2,1:2:0:0:
204,297,32232,1,0,1:1:0:0:
183,289,32334,2,0,P|164:275|148:258,1,46.25,0|0,3:3|0:0,0:0:0:0:
304,147,32540,1,0,1:1:0:0:
291,167,32643,1,0,1:1:0:0:
273,181,32745,2,0,P|251:190|229:195,1,46.25,0|0,3:3|0:0,0:0:0:0:
210,5,32951,1,0,1:1:0:0:
221,26,33054,1,0,1:1:0:0:
224,49,33156,2,0,P|221:71|214:93,1,46.25,2|0,3:2|3:3,0:0:0:0:
43,13,33362,1,2,1:2:0:0:
66,13,33464,1,0,1:1:0:0:
88,22,33567,6,0,P|107:35|123:53,1,46.25,6|0,3:2|0:0,0:0:0:0:
54,219,33773,1,0,1:1:0:0:
51,196,33875,1,0,1:1:0:0:
48,173,33978,2,0,L|42:127,1,46.25,2|0,3:2|0:0,0:0:0:0:
214,93,34184,2,0,P|183:133|112:154,1,92.5,2|0,1:2|3:3,0:0:0:0:
80,315,34595,1,2,1:2:0:0:
92,295,34697,1,0,1:1:0:0:
108,278,34800,2,0,P|126:265|148:258,1,46.25,0|0,3:3|0:0,0:0:0:0:
338,320,35006,5,2,1:2:0:0:
315,320,35108,1,0,1:1:0:0:
293,314,35211,2,0,P|272:304|254:289,1,46.25,6|0,3:2|1:1,0:0:0:0:
362,174,35417,2,0,L|367:219,1,46.25,2|0,1:2|1:1,0:0:0:0:
214,94,35622,2,0,L|208:139,1,46.25,2|0,3:2|1:1,0:0:0:0:
358,25,35827,1,2,1:2:0:0:
360,47,35930,1,0,1:0:0:0:
363,70,36033,1,0,3:3:0:0:
273,200,36238,1,0,1:1:0:0:
275,177,36341,1,0,1:1:0:0:
279,154,36444,2,0,L|284:108,1,46.25,2|0,3:2|0:0,0:0:0:0:
438,204,36649,2,0,L|432:158,1,46.25,2|0,1:2|1:1,0:0:0:0:
255,289,36855,6,0,B|147:321|183:227|74:259,1,194.25,6|0,3:2|1:1,0:0:0:0:
40,384,37266,5,0,3:3:0:0:
61,376,37369,1,0,1:1:0:0:
81,364,37471,2,0,P|99:348|111:329,1,46.25,2|0,1:2|0:0,0:0:0:0:
122,58,37677,1,2,1:2:0:0:
195,197,37882,1,6,2:2:0:0:
38,190,38088,1,10,2:2:0:0:
257,95,38293,6,0,B|364:62|328:156|437:124,1,194.25,6|0,3:2|0:0,0:0:0:0:
401,55,38704,5,2,1:2:0:0:
273,200,38910,1,0,3:3:0:0:
463,239,39115,1,2,3:2:0:0:
357,275,39321,2,0,L|351:229,1,46.25,0|0,3:3|0:0,0:0:0:0:
284,109,39526,1,2,1:2:0:0:
281,132,39629,1,0,1:1:0:0:
278,154,39732,2,0,L|273:200,1,46.25,0|0,3:3|0:0,0:0:0:0:
367,375,39937,2,0,L|330:347,1,46.25,2|0,3:2|1:1,0:0:0:0:
130,339,40143,6,0,P|193:330|228:278,1,129.5,14|2,3:2|2:2,0:0:0:0:
161,134,40451,2,0,L|152:263,1,129.5,14|0,3:2|0:0,0:0:0:0:
51,342,40759,2,0,P|57:311|74:284,1,64.75,14|0,3:2|0:0,0:0:0:0:
229,279,40964,6,0,B|293:281|293:281|349:314|349:314|413:316,1,194.25,2|2,1:2|2:2,0:0:0:0:
458,184,41375,5,0,1:1:0:0:
437,192,41478,1,0,1:1:0:0:
416,203,41581,2,0,P|398:218|386:238,1,46.25,2|0,1:2|1:1,0:0:0:0:
246,78,41786,6,0,P|306:102|315:174,1,129.5,6|0,3:2|0:0,0:0:0:0:
226,201,42095,2,0,B|154:222|178:160|106:181,1,129.5,2|0,3:2|0:0,0:0:0:0:
60,296,42403,2,0,P|87:279|108:255,1,64.75,2|0,3:2|3:3,0:0:0:0:
28,78,42608,5,2,1:2:0:0:
48,87,42711,1,0,1:1:0:0:
71,91,42814,1,0,1:1:0:0:
94,88,42917,1,0,1:1:0:0:
137,54,43019,5,0,1:1:0:0:
157,45,43122,1,0,1:0:0:0:
180,41,43225,1,2,1:2:0:0:
203,44,43327,1,0,1:1:0:0:
246,78,43430,6,0,P|315:81|376:23,1,129.5,14|2,3:2|2:2,0:0:0:0:
489,172,43738,2,0,P|436:136|372:141,1,129.5,14|0,3:2|0:0,0:0:0:0:
240,228,44047,2,0,P|270:216|296:197,1,64.75,14|0,3:2|0:0,0:0:0:0:
157,45,44252,6,0,B|119:16|119:16|127:162,1,194.25,2|0,1:2|0:0,0:0:0:0:
151,252,44663,5,0,1:1:0:0:
148,275,44766,1,0,1:0:0:0:
145,297,44869,2,0,L|140:343,1,46.25,2|0,1:2|1:1,0:0:0:0:
36,157,45074,6,0,B|140:113|114:211|219:167,1,194.25,6|2,3:2|2:2,0:0:0:0:
282,115,45485,5,2,3:2:0:0:
418,42,45691,1,0,0:0:0:0:
421,65,45793,1,0,0:0:0:0:
424,87,45896,2,0,P|425:192|422:292,1,185,2|2,3:2|3:2,0:0:0:0:
222,358,46512,6,0,B|256:319|257:270|257:270|280:313|329:332,1,194.25,6|0,3:2|0:0,0:0:0:0:
406,348,46923,5,2,3:2:0:0:
306,194,47129,1,2,1:2:0:0:
258,270,47334,1,2,3:2:0:0:
425,179,47540,1,2,3:2:0:0:
275,23,47745,2,0,L|265:115,1,92.5,2|2,3:2|1:2,0:0:0:0:
91,214,48156,6,0,B|147:176|147:176|217:191,1,138.75,6|0,3:2|0:0,0:0:0:0:
258,270,48567,1,2,3:2:0:0:
353,84,48773,1,2,1:2:0:0:
425,179,48978,1,2,3:2:0:0:
176,111,49184,1,2,1:2:0:0:
178,88,49286,1,0,1:1:0:0:
181,65,49389,2,0,L|186:19,1,46.25,0|0,3:3|0:0,0:0:0:0:
306,194,49595,2,0,L|301:148,1,46.25,6|0,1:2|0:0,0:0:0:0:
151,341,49800,1,2,3:2:0:0:
153,318,49903,1,0,3:3:0:0:
156,295,50006,6,0,L|161:249,1,46.25,6|0,1:2|0:0,0:0:0:0:
176,111,50211,1,2,3:2:0:0:
330,331,50417,6,0,L|322:285,1,46.25,2|0,1:2|0:0,0:0:0:0:
301,148,50622,1,2,3:2:0:0:
506,320,50827,6,0,L|487:277,1,46.25,2|0,1:2|0:0,0:0:0:0:
431,151,51033,2,0,L|449:193,1,46.25,2|0,3:2|0:0,0:0:0:0:
450,193,51444,6,0,B|342:225|378:131|269:163,1,194.25,6|0,3:2|0:0,0:0:0:0:
181,165,51855,5,0,3:3:0:0:
312,85,52060,1,2,3:2:0:0:
315,239,52266,1,2,3:2:0:0:
202,50,52471,5,0,3:3:0:0:
158,229,52677,1,2,3:2:0:0:
336,273,52882,1,2,3:2:0:0:
380,94,53088,1,2,3:2:0:0:
129,127,53293,6,0,P|74:126|0:64,1,129.5,10|0,3:2|0:0,0:0:0:0:
202,50,53601,2,0,P|229:98|212:193,1,129.5,10|0,3:2|0:0,0:0:0:0:
81,256,53910,2,0,P|108:239|139:231,1,64.75,10|0,3:2|0:0,0:0:0:0:
285,310,54115,2,0,P|256:295|234:273,1,64.75,2|0,1:2|0:0,0:0:0:0:
350,80,54321,5,2,1:2:0:0:
353,114,54423,1,0,1:1:0:0:
357,148,54526,1,2,3:2:0:0:
361,183,54629,1,0,1:1:0:0:
365,218,54732,2,0,L|370:264,1,46.25,2|0,1:2|0:0,0:0:0:0:
99,370,54937,6,0,B|174:290|174:290|285:310,1,222,14|2,3:2|1:2,0:0:0:0:
420,355,55348,6,0,P|393:361|366:360,1,55.5,2|0,3:2|0:0,0:0:0:0:
256,169,55554,2,0,P|274:189|287:214,1,55.5,2|0,1:2|0:0,0:0:0:0:
200,355,55759,2,0,P|137:331|70:342,1,111,10|0,3:2|1:1,0:0:0:0:
70,348,56067,1,2,1:2:0:0:
55,371,56170,2,0,L|0:365,1,55.5,2|0,3:2|0:0,0:0:0:0:
166,253,56375,2,0,L|221:247,1,55.5,2|0,1:2|0:0,0:0:0:0:
16,140,56581,6,0,B|108:112|77:192|170:165,1,166.5,2|2,3:2|1:2,0:0:0:0:
231,42,56992,2,0,P|178:55|142:97,1,111,2|2,3:2|1:2,0:0:0:0:
221,247,57403,1,2,3:2:0:0:
74,246,57608,2,0,L|129:247,1,55.5,0|2,1:1|2:2,0:0:0:0:
293,373,57814,2,0,L|266:324,1,55.5,2|0,3:2|0:0,0:0:0:0:
295,121,58019,1,2,1:2:0:0:
280,144,58122,1,0,1:1:0:0:
266,168,58225,6,0,B|386:210|351:101|473:144,1,222,14|2,3:2|1:2,0:0:0:0:
476,232,58636,6,0,P|448:227|423:215,1,55.5,2|0,3:2|0:0,0:0:0:0:
373,1,58841,2,0,P|382:26|385:54,1,55.5,2|0,1:2|0:0,0:0:0:0:
225,205,59047,2,0,P|130:196|110:188,1,111,2|0,3:2|0:0,0:0:0:0:
102,167,59355,1,2,1:2:0:0:
87,143,59458,1,2,3:2:0:0:
72,292,59663,5,2,1:2:0:0:
234,112,59869,1,6,3:2:0:0:
209,353,60074,1,2,2:2:0:0:
209,353,60177,1,2,1:2:0:0:
209,353,60280,1,6,3:2:0:0:
87,143,60485,1,2,1:2:0:0:
310,242,60690,2,0,B|393:252|433:196|433:196|438:229|450:244|471:264|496:265,1,222,6|2,3:2|1:2,0:0:0:0:
509,191,61101,5,2,3:2:0:0:
511,161,61204,1,0,0:0:0:0:
499,117,61307,1,2,1:2:0:0:
463,69,61410,1,2,1:3:0:0:
394,42,61512,6,0,B|266:27|325:125|197:111,1,222,14|10,3:2|1:2,0:0:0:0:
172,26,61923,6,0,P|199:23|226:28,1,55.5,10|0,3:2|0:0,0:0:0:0:
222,197,62129,2,0,P|194:200|167:195,1,55.5,2|0,1:2|0:0,0:0:0:0:
30,106,62334,2,0,L|141:109,1,111,10|0,3:2|1:1,0:0:0:0:
169,110,62643,1,2,1:2:0:0:
197,111,62745,2,0,L|252:112,1,55.5,2|0,3:2|0:0,0:0:0:0:
335,263,62951,2,0,L|280:265,1,55.5,2|0,1:2|0:0,0:0:0:0:
51,360,63156,6,0,P|101:340|127:291,1,111,10|0,3:2|0:0,0:0:0:0:
124,263,63464,1,10,1:2:0:0:
118,235,63567,2,0,L|119:179,1,55.5,2|0,2:2|0:0,0:0:0:0:
200,0,63773,2,0,L|197:111,1,111,2|2,1:2|3:2,0:0:0:0:
127,292,64184,2,0,L|180:280,1,55.5,2|0,1:2|0:0,0:0:0:0:
314,120,64389,2,0,L|296:172,1,55.5,2|0,3:2|0:0,0:0:0:0:
368,366,64595,1,2,1:2:0:0:
349,345,64697,1,0,1:1:0:0:
330,324,64800,6,0,B|401:276|467:332|467:332|506:315|496:267,1,222,6|2,3:2|1:2,0:0:0:0:
438,169,65211,6,0,P|430:206|431:223,1,55.5,2|0,3:2|0:0,0:0:0:0:
331,68,65417,2,0,P|338:41|337:13,1,55.5,2|0,1:2|0:0,0:0:0:0:
125,195,65622,6,0,B|245:237|210:128|334:172,1,222,6|2,3:2|1:2,0:0:0:0:
336,275,66033,6,0,P|305:271|270:253,1,55.5,2|0,3:2|0:0,0:0:0:0:
331,68,66238,2,0,P|362:72|397:90,1,55.5,2|0,1:2|0:0,0:0:0:0:
334,172,66444,5,6,3:2:0:0:
171,18,66649,1,2,1:2:0:0:
110,47,66752,1,2,1:2:0:0:
85,103,66855,1,2,1:2:0:0:
94,157,66958,1,2,3:2:0:0:
125,195,67060,1,2,1:2:0:0:
154,228,67163,1,2,1:2:0:0:
166,264,67266,1,2,3:2:0:0:
164,297,67369,1,2,3:2:0:0:
155,323,67471,1,2,1:2:0:0:
141,340,67574,1,0,3:3:0:0:
129,350,67677,2,0,P|121:357|61:371,1,55.5,2|0,3:2|3:3,0:0:0:0:
15,270,67882,1,2,1:2:0:0:
43,272,67985,1,0,1:1:0:0:
71,275,68088,6,0,B|144:278|144:278|208:315|208:315|282:317,1,222,14|2,3:2|1:2,0:0:0:0:
311,243,68499,6,0,B|256:241,1,55.5,2|0,3:2|0:0,0:0:0:0:
143,150,68704,2,0,B|198:151,1,55.5,2|0,1:2|0:0,0:0:0:0:
398,99,68910,2,0,P|358:136|305:147,1,111,10|0,3:2|1:1,0:0:0:0:
285,127,69218,1,2,1:2:0:0:
273,101,69321,2,0,B|274:45,1,55.5,2|0,3:2|0:0,0:0:0:0:
143,150,69526,2,0,B|144:205,1,55.5,2|0,1:2|0:0,0:0:0:0:
256,319,69732,6,0,B|278:280|256:241|256:241|210:240|187:280,1,166.5,2|2,3:2|1:2,0:0:0:0:
85,346,70143,2,0,B|120:370|120:370|188:359,1,111,2|2,3:2|1:2,0:0:0:0:
343,273,70554,1,2,3:2:0:0:
145,205,70759,2,0,P|118:213|97:230,1,55.5,0|2,1:1|2:2,0:0:0:0:
302,67,70964,2,0,P|307:40|303:12,1,55.5,2|0,3:2|0:0,0:0:0:0:
343,273,71170,1,2,1:2:0:0:
363,291,71273,1,0,1:1:0:0:
389,301,71375,6,0,B|468:325|511:282|511:282|458:283|432:229,1,222,14|2,3:2|1:2,0:0:0:0:
502,146,71786,6,0,L|508:202,1,55.5,2|0,3:2|0:0,0:0:0:0:
381,83,71992,2,0,L|375:138,1,55.5,2|0,1:2|0:0,0:0:0:0:
248,239,72197,2,0,P|199:212|145:205,1,111,10|0,3:2|0:0,0:0:0:0:
118,212,72506,1,2,1:2:0:0:
96,230,72608,1,2,3:2:0:0:
150,86,72814,5,2,1:2:0:0:
344,238,73019,1,2,3:2:0:0:
97,230,73225,1,2,2:2:0:0:
97,230,73327,1,2,1:2:0:0:
97,230,73430,1,6,3:2:0:0:
302,91,73636,1,2,1:2:0:0:
216,324,73841,2,0,B|133:350|86:304|86:304|73:355|23:368,1,222,6|2,3:2|1:2,0:0:0:0:
8,288,74252,5,2,3:2:0:0:
6,258,74355,1,0,0:0:0:0:
9,213,74458,1,2,1:2:0:0:
27,157,74560,1,2,1:3:0:0:
67,94,74663,6,0,B|139:59|212:85|212:85|211:51|172:18,1,222,14|2,3:2|1:2,0:0:0:0:
87,3,75074,5,2,3:2:0:0:
184,155,75280,2,0,B|242:165|242:165|297:133,1,111,2|10,1:2|3:2,0:0:0:0:
381,17,75691,1,2,2:2:0:0:
383,44,75793,1,10,1:2:0:0:
386,72,75896,2,0,L|391:127,1,55.5,2|0,3:2|0:0,0:0:0:0:
497,179,76101,2,0,L|491:234,1,55.5,10|0,1:2|1:1,0:0:0:0:
283,325,76307,6,0,P|319:253|399:245,1,166.5,10|2,3:2|1:2,0:0:0:0:
473,317,76718,2,0,B|436:335|436:335|367:323,1,111,2|2,3:2|1:2,0:0:0:0:
202,209,77129,1,2,3:2:0:0:
262,81,77334,2,0,P|262:111|255:134,1,55.5,0|2,1:1|1:2,0:0:0:0:
283,325,77540,2,0,P|256:310|239:292,1,55.5,10|0,3:2|0:0,0:0:0:0:
61,221,77745,1,2,1:2:0:0:
84,206,77848,1,0,1:1:0:0:
111,199,77951,6,0,B|160:251|171:343|81:364|51:303,1,222,6|2,3:2|1:2,0:0:0:0:
0,184,78362,6,0,L|5:128,1,55.5,2|0,3:2|0:0,0:0:0:0:
110,10,78567,2,0,L|104:65,1,55.5,2|0,1:2|0:0,0:0:0:0:
255,135,78773,6,0,B|380:163|332:59|458:86,1,222,6|2,3:2|1:2,0:0:0:0:
474,174,79184,6,0,P|446:174|420:166,1,55.5,2|0,3:2|0:0,0:0:0:0:
273,5,79389,2,0,P|287:29|294:56,1,55.5,2|0,1:2|0:0,0:0:0:0:
228,263,79595,6,0,P|241:239|261:220,1,55.5,6|0,3:2|0:0,0:0:0:0:
376,289,79800,1,0,1:1:0:0:
377,317,79903,1,0,1:1:0:0:
378,344,80006,5,0,3:3:0:0:
340,328,80108,1,0,3:0:0:0:
299,323,80211,1,0,1:1:0:0:
258,331,80314,1,0,1:1:0:0:
222,352,80417,2,0,L|166:346,1,55.5,0|0,3:3|0:0,0:0:0:0:
19,206,80622,1,0,1:1:0:0:
59,214,80725,1,0,1:1:0:0:
96,234,80827,2,0,L|151:228,1,55.5,0|0,3:3|0:0,0:0:0:0:
299,88,81033,1,0,1:1:0:0:
259,96,81136,1,0,1:1:0:0:
222,116,81238,6,0,L|77:102,1,138.75,6|2,3:2|2:2,0:0:0:0:
151,229,81855,1,2,1:2:0:0:
151,229,81958,1,0,1:1:0:0:
151,229,82060,2,0,L|277:217,2,104.0625,6|0|2,3:2|3:3|3:2,0:0:0:0:
76,351,82882,5,2,3:2:0:0:
76,350,83293,2,0,P|170:310|271:329,1,208.125000000001,2|2,2:2|2:2,0:0:0:0:
271,329,84526,6,0,B|224:175|359:226|313:71,1,277.500000000001,2|2,2:2|2:2,0:0:0:0:
228,126,85554,1,2,2:2:0:0:
228,126,85964,1,2,2:2:0:0:
357,275,86170,6,0,P|287:245|198:252,1,138.75,2|0,2:2|0:0,0:0:0:0:
110,327,86786,1,2,2:2:0:0:
110,327,86992,2,0,P|154:313|184:280,1,69.3750000000002,0|2,0:0|2:2,0:0:0:0:
96,185,87403,2,0,P|130:216|173:225,1,69.3750000000002,2|2,2:2|2:2,0:0:0:0:
211,101,87814,5,2,2:2:0:0:
327,257,88225,1,2,2:2:0:0:
405,79,88636,1,2,2:2:0:0:
315,146,89047,1,2,2:2:0:0:
315,146,89252,6,0,P|361:183|477:164,1,138.75,2|2,2:2|2:2,0:0:0:0:
471,293,89869,1,2,2:2:0:0:
413,353,90074,1,2,2:2:0:0:
413,353,90177,1,2,2:2:0:0:
413,353,90280,2,0,P|366:334|342:333,1,69.3750000000002,2|0,2:2|0:0,0:0:0:0:
265,218,90691,2,0,P|296:234|331:239,1,69.3750000000002,2|2,2:2|2:2,0:0:0:0:
444,125,91101,6,0,B|367:101|392:169|315:146,1,138.75,2|2,3:2|3:2,0:0:0:0:
208,44,91718,2,0,P|243:49|274:65,1,69.3750000000002,2|0,2:2|3:3,0:0:0:0:
173,187,92129,2,0,P|195:160|224:141,1,69.3750000000002,2|0,2:2|3:3,0:0:0:0:
281,285,92540,6,0,P|268:253|266:219,1,69.3750000000002,2|0,2:2|3:3,0:0:0:0:
419,241,92951,1,2,2:2:0:0:
324,363,93156,1,2,3:2:0:0:
204,328,93362,1,2,2:2:0:0:
204,328,93567,2,0,P|152:318|54:333,1,138.75,0|2,3:3|3:2,0:0:0:0:
5,374,94184,1,2,2:2:0:0:
58,251,94389,5,2,3:2:0:0:
58,251,94595,2,0,L|54:216,2,34.6875000000001,2|0|0,2:2|0:0|3:3,0:0:0:0:
67,328,95006,1,2,2:2:0:0:
135,209,95211,1,2,3:2:0:0:
204,328,95417,1,2,3:2:0:0:
136,288,95622,1,2,3:2:0:0:
272,209,95827,6,0,B|349:185|324:253|401:230,1,138.75,6|2,3:2|3:2,0:0:0:0:
459,178,96444,1,2,1:2:0:0:
385,154,96649,1,2,1:2:0:0:
385,154,96752,1,0,1:1:0:0:
385,154,96855,1,2,3:2:0:0:
288,285,97060,1,2,3:2:0:0:
289,302,97163,1,0,1:1:0:0:
291,319,97266,1,2,3:2:0:0:
293,336,97369,1,0,1:1:0:0:
294,354,97471,1,0,3:3:0:0:
127,267,97677,6,0,B|170:248|170:248|214:260,1,92.5,6|2,3:2|2:2,0:0:0:0:
385,154,98088,2,0,B|342:173|342:173|298:161,1,92.5,2|2,1:2|2:2,0:0:0:0:
201,0,98499,2,0,L|198:46,1,46.25,2|0,3:2|0:0,0:0:0:0:
118,82,98704,2,0,L|123:175,1,92.5,2|0,3:2|1:1,0:0:0:0:
211,306,99115,1,2,2:2:0:0:
212,283,99218,1,0,0:0:0:0:
214,260,99321,6,0,B|111:229|145:319|42:289,1,185,2|0,3:2|1:1,0:0:0:0:
208,352,99937,1,2,2:2:0:0:
291,312,100143,1,0,3:3:0:0:
291,312,100245,1,0,0:0:0:0:
291,312,100348,2,0,L|337:309,1,46.25,2|0,3:2|0:0,0:0:0:0:
220,168,100554,2,0,L|173:165,1,46.25,2|0,1:2|0:0,0:0:0:0:
298,35,100759,6,0,L|303:128,1,92.5,2|2,2:2|3:2,0:0:0:0:
214,260,101170,1,2,2:2:0:0:
131,36,101375,1,2,1:2:0:0:
220,168,101581,1,2,2:2:0:0:
39,294,101786,1,2,3:2:0:0:
128,162,101992,1,2,3:2:0:0:
208,352,102197,1,2,1:2:0:0:
392,273,102403,6,0,B|349:254|349:254|306:266,1,92.5,2|0,2:2|3:3,0:0:0:0:
220,168,102814,1,2,2:2:0:0:
55,250,103019,1,0,1:1:0:0:
111,115,103225,1,0,0:0:0:0:
112,138,103327,1,0,0:0:0:0:
114,162,103430,2,0,L|116:208,1,46.25,2|0,3:2|0:0,0:0:0:0:
222,121,103636,2,0,L|220:168,1,46.25,0|0,3:3|0:0,0:0:0:0:
342,344,103841,1,2,1:2:0:0:
451,304,104047,1,2,3:2:0:0:
449,280,104149,1,0,1:1:0:0:
448,257,104252,6,0,B|435:207|455:138|455:138|445:154|434:165|416:174|394:177,1,194.25,6|0,3:2|0:0,0:0:0:0:
387,97,104663,5,2,1:2:0:0:
245,216,104869,2,0,B|288:235|288:235|332:224,1,92.5,2|0,2:2|3:3,0:0:0:0:
257,86,105280,2,0,B|214:67|214:67|170:78,1,92.5,2|0,3:2|1:1,0:0:0:0:
88,211,105691,5,2,2:2:0:0:
89,234,105793,1,0,0:0:0:0:
90,257,105896,1,2,3:2:0:0:
167,168,106101,1,2,2:2:0:0:
0,108,106307,1,2,1:2:0:0:
77,19,106512,1,2,2:2:0:0:
257,86,106718,5,0,3:3:0:0:
279,89,106821,1,0,3:3:0:0:
302,89,106923,1,0,1:1:0:0:
325,86,107026,1,0,1:1:0:0:
348,80,107129,2,0,L|350:33,1,46.25,2|0,3:2|3:3,0:0:0:0:
457,171,107334,2,0,L|455:124,1,46.25,2|0,1:2|1:1,0:0:0:0:
305,239,107540,5,6,3:2:0:0:
305,239,107745,2,0,P|252:240|200:221,1,92.5,2|0,2:2|3:3,0:0:0:0:
157,155,108156,1,2,2:2:0:0:
29,255,108362,1,2,1:2:0:0:
180,316,108567,1,6,2:2:0:0:
123,243,108773,1,2,3:2:0:0:
276,141,108978,6,0,B|384:109|348:203|457:171,1,194.25,6|0,3:2|0:0,0:0:0:0:
421,98,109389,5,2,1:2:0:0:
312,214,109595,1,0,3:3:0:0:
266,61,109800,1,2,3:2:0:0:
301,259,110006,2,0,L|312:214,1,46.25,0|0,3:3|0:0,0:0:0:0:
509,71,110211,1,2,1:2:0:0:
487,78,110314,1,0,1:1:0:0:
465,84,110417,2,0,L|421:98,1,46.25,0|0,3:3|0:0,0:0:0:0:
232,29,110622,2,0,L|266:61,1,46.25,2|0,3:2|1:1,0:0:0:0:
200,164,110827,6,0,P|113:157|66:123,1,129.5,14|2,3:2|2:2,0:0:0:0:
16,271,111136,2,0,P|73:242|137:242,1,129.5,14|0,3:2|0:0,0:0:0:0:
253,353,111444,2,0,P|227:332|214:304,1,64.75,14|0,3:2|0:0,0:0:0:0:
322,120,111649,6,0,B|352:75|352:75|348:242,1,194.25,2|2,1:2|2:2,0:0:0:0:
406,291,112060,5,0,1:1:0:0:
428,284,112163,1,0,1:1:0:0:
446,270,112266,2,0,P|450:233|446:211,1,46.25,2|0,1:2|1:1,0:0:0:0:
322,120,112471,6,0,B|262:92|262:92|182:123,1,129.5,6|0,3:2|0:0,0:0:0:0:
196,279,112780,2,0,B|249:241|249:241|260:178,1,129.5,2|0,3:2|0:0,0:0:0:0:
120,90,113088,2,0,B|126:154,1,64.75,2|0,3:2|3:3,0:0:0:0:
21,313,113293,5,2,1:2:0:0:
41,322,113396,1,0,1:1:0:0:
64,326,113499,1,0,1:1:0:0:
87,323,113601,1,0,1:1:0:0:
130,289,113704,5,0,1:1:0:0:
150,280,113807,1,0,1:0:0:0:
173,276,113910,1,2,1:2:0:0:
196,279,114012,1,0,1:1:0:0:
239,313,114115,6,0,B|289:323|320:293|320:293|322:312|336:331,1,129.5,14|2,3:2|2:2,0:0:0:0:
488,265,114423,2,0,B|438:275|407:245|407:245|405:264|391:284,1,129.5,14|0,3:2|0:0,0:0:0:0:
238,217,114732,2,0,P|278:218|313:204,1,64.75,14|0,3:2|0:0,0:0:0:0:
405,24,114937,6,0,B|430:69|405:115|405:115|351:116|324:69,1,194.25,2|0,1:2|0:0,0:0:0:0:
244,22,115348,5,0,1:1:0:0:
221,26,115451,1,0,1:0:0:0:
201,39,115554,2,0,P|188:73|186:94,1,46.25,2|0,1:2|1:1,0:0:0:0:
238,217,115759,6,0,B|199:157|133:176|133:176|124:216|85:233,1,194.25,6|2,3:2|2:2,0:0:0:0:
59,161,116170,5,2,3:2:0:0:
5,333,116375,1,0,0:0:0:0:
4,356,116478,1,0,0:0:0:0:
3,379,116581,2,0,P|86:340|177:351,1,185,2|2,3:2|3:2,0:0:0:0:
419,187,117197,6,0,B|311:155|347:249|238:217,1,194.25,6|0,3:2|0:0,0:0:0:0:
177,172,117608,5,2,3:2:0:0:
358,50,117814,1,2,1:2:0:0:
207,20,118019,1,2,3:2:0:0:
328,202,118225,1,2,3:2:0:0:
226,318,118430,2,0,P|184:298|139:289,1,92.5,2|2,3:2|1:2,0:0:0:0:
3,200,118841,6,0,B|36:215|50:247|50:247|54:212|80:186,1,138.75,6|0,3:2|0:0,0:0:0:0:
31,126,119252,1,2,3:2:0:0:
123,16,119458,1,2,1:2:0:0:
172,150,119663,1,2,3:2:0:0:
306,51,119869,1,2,1:2:0:0:
282,52,119971,1,0,1:1:0:0:
260,54,120074,2,0,L|214:58,1,46.25,0|0,3:3|0:0,0:0:0:0:
356,143,120280,2,0,L|402:146,1,46.25,6|0,1:2|0:0,0:0:0:0:
270,285,120485,1,2,3:2:0:0:
268,261,120588,1,0,3:3:0:0:
268,239,120690,6,0,L|266:193,1,46.25,6|0,1:2|0:0,0:0:0:0:
260,54,120896,1,2,3:2:0:0:
134,250,121101,6,0,L|147:206,1,46.25,2|0,1:2|0:0,0:0:0:0:
189,74,121307,1,2,3:2:0:0:
3,215,121512,6,0,L|31:178,1,46.25,2|0,1:2|0:0,0:0:0:0:
115,68,121718,2,0,L|86:104,1,46.25,2|0,3:2|0:0,0:0:0:0:
85,104,122129,6,0,B|191:139|159:44|266:80,1,194.25,6|0,3:2|0:0,0:0:0:0:
355,85,122540,5,0,3:3:0:0:
223,156,122745,1,2,3:2:0:0:
228,0,122951,1,2,3:2:0:0:
324,176,123156,5,0,3:3:0:0:
428,136,123362,1,2,3:2:0:0:
269,81,123567,1,2,3:2:0:0:
300,247,123773,1,2,3:2:0:0:
134,193,123978,6,0,P|72:186|25:228,1,129.5,10|0,3:2|0:0,0:0:0:0:
61,330,124286,2,0,B|91:352|91:352|95:259,1,129.5,10|0,3:2|0:0,0:0:0:0:
27,164,124595,2,0,B|25:229,1,64.75,10|0,3:2|0:0,0:0:0:0:
106,85,124800,2,0,B|108:20,1,64.75,2|0,1:2|0:0,0:0:0:0:
213,115,125006,5,2,1:2:0:0:
246,121,125108,1,0,1:1:0:0:
281,121,125211,1,2,3:2:0:0:
315,113,125314,1,0,1:1:0:0:
346,98,125417,2,0,P|381:93|407:94,1,46.25,2|0,1:2|0:0,0:0:0:0:
496,281,125622,6,0,B|481:340|421:356|421:356|379:314|393:256,1,222,14|2,3:2|1:2,0:0:0:0:
455,162,126033,6,0,P|460:189|456:216,1,55.5,2|0,3:2|0:0,0:0:0:0:
347,99,126238,2,0,P|341:71|345:44,1,55.5,2|0,1:2|0:0,0:0:0:0:
229,209,126444,2,0,P|173:213|112:183,1,111,10|2,3:2|1:2,0:0:0:0:
106,170,126752,1,2,1:2:0:0:
97,142,126855,2,0,L|92:78,1,55.5,2|0,3:2|0:0,0:0:0:0:
0,268,127060,2,0,L|5:204,1,55.5,2|0,1:2|0:0,0:0:0:0:
150,342,127266,6,0,B|242:370|211:290|305:317,1,166.5,2|2,3:2|1:2,0:0:0:0:
425,359,127677,2,0,P|398:310|393:256,1,111,2|2,3:2|1:2,0:0:0:0:
442,84,128088,1,2,3:2:0:0:
296,213,128293,2,0,L|356:193,1,55.5,2|2,1:2|2:2,0:0:0:0:
193,34,128499,2,0,L|253:54,1,55.5,2|0,3:2|0:0,0:0:0:0:
47,263,128704,1,2,1:2:0:0:
73,254,128807,1,0,1:1:0:0:
99,245,128910,6,0,B|152:227|152:227|191:130|95:87,1,222,14|2,3:2|1:2,0:0:0:0:
7,144,129321,6,0,P|32:154|59:158,1,55.5,2|0,3:2|0:0,0:0:0:0:
193,34,129526,2,0,P|167:23|140:19,1,55.5,2|0,1:2|0:0,0:0:0:0:
248,126,129732,2,0,P|311:127|365:92,1,111,2|0,3:2|0:0,0:0:0:0:
370,83,130040,1,2,1:2:0:0:
379,56,130143,1,2,3:2:0:0:
486,159,130348,5,2,1:2:0:0:
248,126,130554,1,6,3:2:0:0:
422,293,130759,1,2,2:2:0:0:
422,293,130862,1,2,1:2:0:0:
422,293,130964,1,6,3:2:0:0:
379,56,131170,1,2,1:2:0:0:
274,272,131375,2,0,B|308:323|308:323|374:237|302:157,1,222,6|2,3:2|1:2,0:0:0:0:
248,126,131786,5,2,3:2:0:0:
219,118,131889,1,0,0:0:0:0:
174,121,131992,1,2,1:2:0:0:
123,152,132095,1,2,1:2:0:0:
93,219,132197,6,0,B|97:280|153:306|153:306|201:272|197:210,1,222,14|10,3:2|1:2,0:0:0:0:
174,121,132608,6,0,P|171:89|182:51,1,55.5,10|0,3:2|0:0,0:0:0:0:
300,7,132814,2,0,P|303:34|299:62,1,55.5,2|0,1:2|0:0,0:0:0:0:
391,176,133019,2,0,B|446:188|446:188|506:126,1,111,10|2,3:2|1:2,0:0:0:0:
490,121,133327,1,2,1:2:0:0:
496,94,133430,2,0,L|491:30,1,55.5,2|0,3:2|0:0,0:0:0:0:
391,176,133636,2,0,L|395:231,1,55.5,2|0,1:2|0:0,0:0:0:0:
501,346,133841,6,0,P|446:322|388:322,1,111,10|0,3:2|0:0,0:0:0:0:
372,335,134149,1,10,1:2:0:0:
348,350,134252,2,0,L|292:345,1,55.5,2|0,2:2|0:0,0:0:0:0:
95,237,134458,2,0,P|150:234|201:212,1,111,2|2,1:2|3:2,0:0:0:0:
355,2,134869,2,0,L|300:7,1,55.5,2|0,1:2|0:0,0:0:0:0:
126,133,135074,2,0,L|181:137,1,55.5,2|0,3:2|0:0,0:0:0:0:
395,231,135280,1,2,1:2:0:0:
367,233,135382,1,0,1:1:0:0:
339,235,135485,6,0,B|281:217|285:132|360:100|451:164,1,222,6|2,3:2|1:2,0:0:0:0:
481,219,135896,6,0,P|483:258|479:283,1,55.5,2|0,3:2|0:0,0:0:0:0:
343,384,136101,2,0,P|341:345|345:320,1,55.5,2|0,1:2|0:0,0:0:0:0:
65,280,136307,6,0,B|134:245|198:287|198:287|226:254|201:212,1,222,6|2,3:2|1:2,0:0:0:0:
126,133,136718,6,0,P|123:160|125:188,1,55.5,2|0,3:2|0:0,0:0:0:0:
299,62,136923,2,0,P|302:34|300:7,1,55.5,2|0,1:2|0:0,0:0:0:0:
213,98,137129,5,6,3:2:0:0:
412,241,137334,1,2,1:2:0:0:
381,180,137437,1,2,1:2:0:0:
327,149,137540,1,2,1:2:0:0:
270,151,137643,1,2,3:2:0:0:
227,175,137745,1,2,1:2:0:0:
201,212,137848,1,2,1:2:0:0:
190,249,137951,1,2,3:2:0:0:
182,281,138054,1,2,3:2:0:0:
169,305,138156,1,2,1:2:0:0:
154,321,138259,1,0,3:3:0:0:
142,330,138362,2,0,P|117:343|90:349,1,55.5,2|0,3:2|3:3,0:0:0:0:
24,233,138567,1,2,1:2:0:0:
52,235,138670,1,0,1:1:0:0:
80,238,138773,6,0,B|156:234|206:285|206:285|213:266|232:245|260:234|283:239,1,222,14|2,3:2|1:2,0:0:0:0:
328,328,139184,6,0,P|301:325|275:313,1,55.5,2|0,3:2|0:0,0:0:0:0:
210,147,139389,2,0,P|237:150|263:162,1,55.5,2|0,1:2|0:0,0:0:0:0:
459,61,139595,2,0,B|411:88|411:88|342:73,1,111,10|2,3:2|1:2,0:0:0:0:
331,63,139903,1,2,1:2:0:0:
306,50,140006,2,0,P|278:47|251:52,1,55.5,2|0,3:2|0:0,0:0:0:0:
185,196,140211,2,0,P|201:174|210:148,1,55.5,2|0,1:2|0:0,0:0:0:0:
119,19,140417,6,0,B|72:2|72:2|111:52|101:151,1,166.5,2|2,3:2|1:2,0:0:0:0:
72,226,140827,2,0,P|76:150|118:127,1,111,2|2,3:2|1:2,0:0:0:0:
251,52,141238,1,2,3:2:0:0:
374,163,141444,2,0,L|369:99,1,55.5,0|2,1:1|2:2,0:0:0:0:
180,252,141649,2,0,L|185:197,1,55.5,2|0,3:2|0:0,0:0:0:0:
444,362,141855,1,2,1:2:0:0:
441,334,141958,1,0,1:1:0:0:
440,307,142060,6,0,B|317:271|358:378|234:341,1,222,14|2,3:2|1:2,0:0:0:0:
133,226,142471,6,0,P|159:235|181:251,1,55.5,2|0,3:2|0:0,0:0:0:0:
294,112,142677,2,0,P|267:121|245:137,1,55.5,2|0,1:2|0:0,0:0:0:0:
10,63,142882,2,0,P|57:89|112:84,1,111,10|0,3:2|0:0,0:0:0:0:
136,71,143191,1,2,1:2:0:0:
155,51,143293,1,2,3:2:0:0:
303,36,143499,5,2,1:2:0:0:
124,196,143704,1,2,3:2:0:0:
363,172,143910,1,2,2:2:0:0:
363,172,144012,1,2,1:2:0:0:
363,172,144115,1,6,3:2:0:0:
155,51,144321,1,2,1:2:0:0:
252,270,144526,2,0,B|326:299|389:253|389:253|377:309|304:335,1,222,6|2,3:2|1:2,0:0:0:0:
260,373,144937,5,2,3:2:0:0:
231,379,145040,1,0,0:0:0:0:
186,378,145143,1,2,1:2:0:0:
136,346,145245,1,2,1:3:0:0:
99,278,145348,6,0,B|76:201|115:138|115:138|117:156|121:175|136:192|151:201,1,222,14|2,3:2|1:2,0:0:0:0:
191,136,145759,5,2,3:2:0:0:
334,49,145964,2,0,L|325:159,1,111,2|10,1:2|3:2,0:0:0:0:
237,326,146375,1,2,2:2:0:0:
239,298,146478,1,10,1:2:0:0:
241,270,146581,2,0,L|246:215,1,55.5,2|0,3:2|0:0,0:0:0:0:
195,80,146786,2,0,L|191:136,1,55.5,10|0,1:2|1:1,0:0:0:0:
15,195,146992,6,0,P|81:238|151:201,1,166.5,10|2,3:2|1:2,0:0:0:0:
121,61,147403,2,0,B|93:95|93:95|85:161,1,111,2|2,3:2|1:2,0:0:0:0:
133,355,147814,1,2,3:2:0:0:
281,160,148019,2,0,L|277:216,1,55.5,0|2,1:1|1:2,0:0:0:0:
416,360,148225,2,0,L|411:304,1,55.5,10|0,3:2|0:0,0:0:0:0:
466,64,148430,1,2,1:2:0:0:
468,91,148533,1,0,1:1:0:0:
471,119,148636,6,0,B|345:146|394:42|267:70,1,222,6|2,3:2|1:2,0:0:0:0:
144,142,149047,6,0,P|171:139|195:125,1,55.5,2|0,3:2|0:0,0:0:0:0:
328,233,149252,2,0,P|300:229|277:215,1,55.5,2|0,1:2|0:0,0:0:0:0:
100,358,149458,6,0,B|147:292|226:313|226:313|245:353|286:361,1,222,6|2,3:2|1:2,0:0:0:0:
424,325,149869,6,0,P|397:317|370:319,1,55.5,2|0,3:2|0:0,0:0:0:0:
222,207,150074,2,0,P|249:215|277:215,1,55.5,2|0,1:2|0:0,0:0:0:0:
423,92,150280,6,0,P|403:111|390:135,1,55.5,6|0,3:2|0:0,0:0:0:0:
230,32,150485,1,0,1:1:0:0:
250,51,150588,1,0,1:1:0:0:
263,76,150691,5,0,3:3:0:0:
221,70,150793,1,0,3:0:0:0:
180,69,150896,1,0,1:1:0:0:
138,73,150999,1,0,1:1:0:0:
98,81,151101,2,0,P|86:122|86:153,1,55.5,0|0,3:3|0:0,0:0:0:0:
224,301,151307,1,0,1:1:0:0:
240,264,151410,1,0,1:1:0:0:
253,224,151512,2,0,P|235:202|213:185,1,55.5,2|0,3:2|0:0,0:0:0:0:
0,224,151718,1,2,1:2:0:0:
24,257,151821,1,0,1:1:0:0:
52,288,151923,6,0,P|92:278|119:262,1,55.5,14|0,3:2|0:0,0:0:0:0:
203,75,152129,1,0,0:0:0:0:
205,102,152232,1,0,1:1:0:0:
208,130,152334,2,0,L|213:186,1,55.5,2|0,3:2|0:0,0:0:0:0:
298,293,152540,2,0,B|390:317|357:238|452:262,1,166.5,6|0,3:2|0:0,0:0:0:0:
472,355,152951,2,0,P|445:347|423:330,1,55.5,2|2,3:2|2:2,0:0:0:0:
432,169,153156,2,0,P|458:176|480:193,1,55.5,2|2,3:2|2:2,0:0:0:0:
298,293,153362,6,0,B|173:321|221:217|95:244,1,222,6|0,3:2|0:0,0:0:0:0:
28,280,153773,5,0,3:3:0:0:
82,59,153978,2,0,L|98:174,1,111,2|2,1:2|3:2,0:0:0:0:
298,293,154389,1,0,1:1:0:0:
270,169,154595,1,0,3:3:0:0:
205,380,154800,1,2,1:2:0:0:
421,331,155006,1,2,1:2:0:0:
419,304,155108,1,0,1:1:0:0:
416,276,155211,6,0,L|411:220,1,55.5,6|2,3:2|2:2,0:0:0:0:
351,84,155417,1,2,1:2:0:0:
349,111,155519,1,2,1:2:0:0:
346,139,155622,6,0,L|341:195,1,55.5,2|0,3:2|0:0,0:0:0:0:
148,282,155827,2,0,B|128:240|155:203|155:203|199:208|219:250,1,166.5,6|0,3:2|0:0,0:0:0:0:
265,329,156238,2,0,P|237:332|210:327,1,55.5,2|0,3:2|0:0,0:0:0:0:
286,192,156444,2,0,P|313:188|340:193,1,55.5,2|0,1:2|0:0,0:0:0:0:
193,58,156649,6,0,B|126:12|48:57|48:57|82:66|99:99,1,222,6|0,3:2|0:0,0:0:0:0:
31,185,157060,6,0,P|26:158|30:131,1,55.5,2|2,3:2|2:2,0:0:0:0:
164,330,157266,1,2,1:2:0:0:
152,355,157369,2,0,P|130:372|105:382,1,55.5,2|2,3:2|3:2,0:0:0:0:
238,165,157574,2,0,P|264:174|286:192,1,55.5,6|2,1:2|3:2,0:0:0:0:
336,364,157780,1,2,1:2:0:0:
374,380,157882,1,2,1:2:0:0:
415,380,157985,1,2,1:2:0:0:
453,364,158088,1,2,1:2:0:0:
482,335,158190,1,2,1:2:0:0:
497,296,158293,1,2,1:2:0:0:
497,255,158396,1,2,1:2:0:0:
453,172,158499,6,0,B|433:138|399:131|399:131|363:203|396:277,1,222,6|0,3:2|1:1,0:0:0:0:
336,363,158910,6,0,P|281:366|234:338,1,111,2|2,3:2|1:2,0:0:0:0:
50,177,159321,2,0,B|143:154|108:233|204:211,1,166.5,2|0,3:2|1:1,0:0:0:0:
298,119,159732,2,0,P|271:128|250:145,1,55.5,2|0,3:2|0:0,0:0:0:0:
234,338,159937,1,2,1:2:0:0:
239,310,160040,1,0,0:0:0:0:
234,283,160143,6,0,P|146:292|56:317,1,166.5,2|0,3:2|1:1,0:0:0:0:
10,352,160554,2,0,P|38:289|39:233,1,111,2|2,3:2|1:2,0:0:0:0:
99,62,160964,2,0,L|45:70,1,55.5,2|0,3:2|0:0,0:0:0:0:
204,211,161170,2,0,L|150:203,1,55.5,2|0,1:2|0:0,0:0:0:0:
358,21,161375,2,0,L|304:29,1,55.5,2|0,1:2|0:0,0:0:0:0:
463,252,161581,1,2,3:2:0:0:
435,247,161684,1,0,3:3:0:0:
408,243,161786,6,0,B|354:235|354:235|324:130|445:74,1,222,6|0,3:2|1:1,0:0:0:0:
480,52,162197,6,0,P|489:105|463:153,1,111,2|2,3:2|1:2,0:0:0:0:
314,227,162608,2,0,L|150:203,1,166.5,6|0,3:2|1:1,0:0:0:0:
38,133,163019,2,0,P|65:136|90:148,1,55.5,2|0,3:2|0:0,0:0:0:0:
143,332,163225,2,0,P|132:307|130:280,1,55.5,2|0,1:2|0:0,0:0:0:0:
263,142,163430,6,0,P|276:75|183:18,1,166.5,2|2,3:2|1:3,0:0:0:0:
146,104,163841,2,0,L|200:96,1,55.5,10|0,3:2|0:0,0:0:0:0:
314,227,164047,1,0,1:1:0:0:
286,223,164149,1,0,1:1:0:0:
258,219,164252,2,0,L|149:203,1,111,10|0,3:2|0:0,0:0:0:0:
40,286,164526,2,0,P|88:293|143:214,1,147.999995483399,2|2,0:0|0:0,0:0:0:0:
73,161,164869,2,0,P|67:188|70:216,1,55.5,2|2,3:2|3:2,0:0:0:0:
270,305,165074,6,0,B|342:322|342:322|392:268,1,148,14|0,3:2|0:0,0:0:0:0:
281,121,165382,6,0,L|313:227,1,111,2|0,2:2|0:0,0:0:0:0:
326,229,165691,2,0,L|309:175,1,55.5,10|0,2:2|0:0,0:0:0:0:
248,41,165896,6,0,B|152:29|196:103|100:92,1,166.5,6|0,3:2|0:0,0:0:0:0:
4,68,166204,6,0,P|53:109|77:169,1,129.5,2|0,2:2|0:0,0:0:0:0:
43,251,166512,2,0,P|50:220|71:196,1,64.75,10|0,2:2|0:0,0:0:0:0:
281,121,166718,6,0,B|331:83|396:77|418:153|371:181,1,185,6|0,3:2|0:0,0:0:0:0:
313,227,167026,6,0,B|227:237|266:172|181:181,1,148,2|0,2:2|0:0,0:0:0:0:
127,302,167334,2,0,P|161:286|184:258,1,74,10|0,2:2|0:0,0:0:0:0:
273,66,167540,6,0,L|281:121,1,55.5,6|0,3:2|0:0,0:0:0:0:
387,257,167745,1,0,0:0:0:0:
383,284,167848,1,0,3:3:0:0:
379,311,167951,5,2,2:2:0:0:
354,298,168054,1,2,2:2:0:0:
327,290,168156,1,6,3:2:0:0:
300,286,168259,1,2,2:2:0:0:
250,318,168362,6,0,B|200:305|184:258|184:258|108:344|0:299|-51:179|62:102,1,444,6|0,3:2|1:1,0:0:0:0:
103,198,169081,1,0,1:1:0:0:
103,198,169184,6,0,B|170:182|195:120|193:67|146:22|146:22|277:109|259:-45|401:50,1,499.5,6|0,3:2|1:1,0:0:0:0:
350,145,169903,1,0,1:1:0:0:
350,145,170006,6,0,B|368:28|539:41|546:214|426:229|426:229|372:206|316:235|284:283|312:356,1,555,6|0,3:2|1:1,0:0:0:0:
389,309,170725,1,0,1:1:0:0:
389,309,170827,6,0,B|312:221|186:263|252:327|145:401|34:371|-49:294|-48:195|-10:115|57:77|152:56|232:89|278:181|239:292|105:298|71:225|113:198|134:200,1,813.999999999999,6|10,3:2|2:2,0:0:0:0:
134,200,173293,6,0,P|217:180|261:183,1,104.0625,10|2,2:2|2:2,0:0:0:0:
315,231,173704,2,0,P|283:219|256:198,1,69.3750000000002,2|2,2:2|2:2,0:0:0:0:
271,88,174115,2,0,L|275:51,1,34.6875000000001,2|0,2:2|0:0,0:0:0:0:
287,100,174321,2,0,B|363:77|338:144|415:122,1,138.75,2|2,2:2|2:2,0:0:0:0:
430,111,174834,1,2,2:2:0:0:
440,97,174937,6,0,P|431:151|438:225,1,104.0625,10|0,2:2|0:0,0:0:0:0:
500,253,175348,2,0,P|472:231|440:219,1,69.3750000000002,2|0,2:2|0:0,0:0:0:0:
381,330,175759,2,0,P|385:295|381:261,1,69.3750000000002,2|0,2:2|0:0,0:0:0:0:
256,266,176170,2,0,P|288:253|316:232,1,69.3750000000002,10|0,2:2|0:0,0:0:0:0:
248,126,176581,5,2,2:2:0:0:
177,82,176786,1,2,2:2:0:0:
133,153,176992,1,2,2:2:0:0:
204,197,177197,1,2,2:2:0:0:
177,82,177403,2,0,B|178:81|167:21,1,34.6875000000001,2|0,2:2|0:0,0:0:0:0:
153,72,177608,2,0,P|86:63|44:114,1,138.75,10|2,2:2|2:2,0:0:0:0:
47,132,178122,1,2,2:2:0:0:
50,149,178225,6,0,P|60:204|71:284,1,104.0625,10|0,2:2|0:0,0:0:0:0:
0,334,178636,2,0,P|42:297|106:248,1,104.0625,2|2,2:2|2:2,0:0:0:0:
186,285,179047,2,0,P|133:266|58:235,1,104.0625,2|0,2:2|0:0,0:0:0:0:
169,182,179458,1,2,2:2:0:0:
203,184,179560,1,2,2:2:0:0:
241,198,179663,1,2,2:2:0:0:
276,231,179766,1,2,2:2:0:0:
295,283,179869,6,0,P|323:217|353:196,1,104.0625,2|2,2:2|2:2,0:0:0:0:
443,197,180280,2,0,P|410:206|376:205,1,69.3750000000002,2|2,2:2|2:2,0:0:0:0:
325,98,180691,2,0,B|322:57,1,34.6875000000001,2|0,2:2|0:0,0:0:0:0:
305,90,180896,2,0,B|229:67|254:134|177:112,1,138.75,10|2,2:2|2:2,0:0:0:0:
160,103,181410,1,2,2:2:0:0:
148,89,181512,6,0,P|151:149|139:223,1,104.0625,10|0,2:2|0:0,0:0:0:0:
68,232,181923,2,0,P|103:217|147:216,1,69.3750000000002,2|2,2:2|2:2,0:0:0:0:
234,194,182334,2,0,P|231:229|217:260,1,69.3750000000002,10|0,2:2|0:0,0:0:0:0:
183,358,182745,2,0,P|152:335|129:297,1,69.3750000000002,0|2,0:0|2:2,0:0:0:0:
217,261,183156,6,0,B|293:238|268:305|345:283,1,138.75,2|2,2:2|2:2,0:0:0:0:
426,215,183773,1,2,2:2:0:0:
429,198,183875,1,2,2:2:0:0:
432,180,183978,2,0,P|429:122|426:88,1,69.3750000000002,10|0,2:2|0:0,0:0:0:0:
478,51,184286,2,0,P|429:82|401:102,1,69.3750000000002,2|0,2:2|0:0,0:0:0:0:
344,76,184595,2,0,P|395:102|426:116,1,69.3750000000002,2|2,2:2|2:1,0:0:0:0:
320,208,185006,5,2,2:2:0:0:
275,239,185108,1,2,2:2:0:0:
222,235,185211,1,10,2:2:0:0:
185,202,185314,1,10,2:2:0:0:
175,158,185417,1,2,2:2:0:0:
166,116,185519,1,2,2:2:0:0:
141,87,185622,1,2,2:2:0:0:
107,74,185725,1,2,2:2:0:0:
76,77,185827,1,2,2:2:0:0:
50,88,185930,1,2,2:2:0:0:
33,105,186033,1,2,2:2:0:0:
23,123,186136,1,2,2:2:0:0:
18,139,186238,1,2,2:2:0:0:
16,152,186341,1,0,0:0:0:0:
96,154,186444,6,0,P|176:148|231:142,1,104.0625,2|2,2:2|2:2,0:0:0:0:
254,83,186855,2,0,P|226:106|211:139,1,69.3750000000002,2|2,2:2|2:2,0:0:0:0:
261,257,187266,2,0,L|262:310,1,34.6875000000001,2|0,2:2|0:0,0:0:0:0:
275,239,187471,2,0,P|318:221|420:217,1,138.75,10|2,2:2|2:2,0:0:0:0:
422,226,187985,1,2,2:2:0:0:
434,238,188088,6,0,L|431:344,1,104.0625,2|0,2:2|0:0,0:0:0:0:
355,378,188499,2,0,P|386:362|420:354,1,69.3750000000002,2|0,2:2|0:0,0:0:0:0:
275,239,188910,1,2,2:2:0:0:
224,305,189115,1,2,2:2:0:0:
157,255,189321,1,2,2:2:0:0:
208,188,189526,1,2,2:2:0:0:
148,339,189732,6,0,P|89:342|56:337,1,69.3750000000002,2|2,2:2|2:2,0:0:0:0:
62,334,190040,1,2,2:2:0:0:
49,321,190143,2,0,L|52:241,1,69.3750000000002,2|2,2:2|2:2,0:0:0:0:
108,133,190554,2,0,L|106:93,1,34.6875000000001,2|0,2:2|0:0,0:0:0:0:
131,148,190759,2,0,P|183:158|272:118,1,138.75,10|2,2:2|2:2,0:0:0:0:
274,116,191273,1,2,2:3:0:0:
284,102,191375,6,0,P|285:168|302:217,1,104.0625,2|0,2:2|0:0,0:0:0:0:
377,236,191786,2,0,P|347:218|312:216,1,69.3750000000002,2|0,2:2|0:0,0:0:0:0:
391,323,192197,2,0,P|425:320|455:303,1,69.3750000000002,2|0,2:2|0:0,0:0:0:0:
446,112,192608,1,2,2:2:0:0:
419,89,192711,1,2,2:2:0:0:
381,75,192814,1,2,2:2:0:0:
333,76,192917,1,2,2:2:0:0:
284,102,193019,6,0,P|231:117|172:103,1,104.0625,2|2,2:2|2:2,0:0:0:0:
133,35,193430,2,0,P|155:56|168:109,1,69.3750000000002,2|2,2:2|2:2,0:0:0:0:
105,208,193841,2,0,L|113:259,1,34.6875000000001,2|0,2:2|0:0,0:0:0:0:
91,124,194047,1,2,2:2:0:0:
38,262,194252,1,2,2:2:0:0:
183,239,194458,1,2,2:2:0:0:
200,238,194560,1,0,0:0:0:0:
217,239,194663,6,0,P|277:242|326:232,1,104.0625,2|0,2:2|0:0,0:0:0:0:
366,163,195074,2,0,P|341:187|330:220,1,69.3750000000002,10|0,2:2|0:0,0:0:0:0:
308,383,195485,2,0,P|297:350|273:326,1,69.3750000000002,10|0,2:2|0:0,0:0:0:0:
143,259,195896,5,2,2:2:0:0:
196,313,196101,1,2,2:2:0:0:
217,239,196307,2,0,L|265:191,1,41.625,2|2,2:2|2:2,0:0:0:0:
196,313,196718,5,2,2:2:0:0:
217,239,196923,1,2,2:2:0:0:
143,259,197129,2,0,L|75:240,1,41.625,2|2,2:2|2:2,0:0:0:0:
217,239,197540,5,2,2:2:0:0:
143,259,197745,1,2,2:2:0:0:
196,313,197951,1,2,2:2:0:0:
196,313,198362,6,0,L|208:363,1,41.625,2|8,2:2|2:3,0:0:0:0:
351,235,199184,6,0,L|338:285,1,46.25,2|0,3:2|3:3,0:0:0:0:
153,140,199389,2,0,L|164:185,1,46.25,2|0,3:2|3:3,0:0:0:0:
393,62,199595,5,6,3:2:0:0:
438,68,199697,1,2,1:2:0:0:
472,99,199800,1,2,1:2:0:0:
481,144,199903,1,2,1:2:0:0:
430,192,200006,5,2,1:2:0:0:
380,180,200108,1,2,1:2:0:0:
330,169,200211,1,2,1:2:0:0:
279,160,200314,1,2,1:2:0:0:
217,192,200417,5,2,1:2:0:0:
217,247,200519,1,2,1:2:0:0:
250,291,200622,1,2,1:2:0:0:
305,295,200725,1,2,1:2:0:0:
351,244,200827,5,10,1:2:0:0:
344,184,200930,1,10,1:2:0:0:
336,124,201033,1,10,1:2:0:0:
327,64,201136,1,10,1:2:0:0:
273,20,201238,6,0,P|213:43|149:40,1,129.5,6|0,3:2|0:0,0:0:0:0:
63,149,201547,2,0,P|127:144|187:167,1,129.5,2|0,3:2|0:0,0:0:0:0:
250,291,201855,2,0,P|258:238|281:183,1,64.75,2|0,3:2|0:0,0:0:0:0:
430,109,202060,2,0,P|421:161|398:216,1,64.75,2|0,1:2|0:0,0:0:0:0:
489,321,202266,6,0,L|416:304,1,74,2|0,2:2|0:0,0:0:0:0:
406,312,202882,6,0,L|477:327,1,74,6|0,2:2|0:0,0:0:0:0:
467,335,203499,6,0,L|250:290,1,222,6|0,3:2|0:0,0:0:0:0:
179,361,203910,5,0,1:1:0:0:
205,327,204012,1,0,1:1:0:0:
212,286,204115,1,2,3:2:0:0:
202,246,204218,1,0,1:1:0:0:
176,214,204321,2,0,L|121:202,1,55.5,2|0,1:2|0:0,0:0:0:0:
20,289,204526,2,0,L|75:301,1,55.5,2|0,3:2|0:0,0:0:0:0:
183,30,204732,6,0,B|254:-18|324:47|324:47|305:92|259:99,1,231.25,6|0,3:2|0:0,0:0:0:0:
121,202,205040,6,0,B|159:163|165:111|165:111|186:158|234:180,1,203.5,6|0,3:2|0:0,0:0:0:0:
336,324,205348,6,0,B|286:383|286:383|311:185,1,263.625,6|0,3:2|0:0,0:0:0:0:
396,148,205759,6,0,B|386:232,1,83.2499999999998,10|0,3:2|0:0,0:0:0:0:
260,280,206170,6,0,B|135:307|183:203|57:230,1,222,14|2,3:2|1:2,0:0:0:0:
48,347,206581,6,0,P|72:334|90:312,1,55.5,2|0,3:2|0:0,0:0:0:0:
64,115,206786,2,0,P|39:128|22:149,1,55.5,2|0,1:2|0:0,0:0:0:0:
225,198,206992,2,0,P|288:191|347:148,1,111,2|0,3:2|0:0,0:0:0:0:
343,142,207300,1,2,1:2:0:0:
352,115,207403,1,2,3:2:0:0:
470,209,207608,5,2,1:2:0:0:
265,343,207814,1,6,3:2:0:0:
352,115,208019,1,2,2:2:0:0:
352,115,208122,1,2,1:2:0:0:
352,115,208225,1,6,3:2:0:0:
416,350,208430,1,2,1:2:0:0:
225,198,208636,2,0,L|230:142,1,55.5,6|0,3:2|0:0,0:0:0:0:
82,334,208841,1,0,0:0:0:0:
79,306,208944,1,2,1:2:0:0:
77,278,209047,5,2,3:2:0:0:
97,297,209149,1,0,0:0:0:0:
137,317,209252,1,2,1:2:0:0:
197,315,209355,1,2,1:3:0:0:
255,270,209458,6,0,P|360:260|416:350,1,222,14|10,3:2|1:2,0:0:0:0:
296,381,209869,6,0,L|242:374,1,55.5,10|0,3:2|0:0,0:0:0:0:
384,231,210074,2,0,L|438:223,1,55.5,2|0,1:2|0:0,0:0:0:0:
296,80,210280,2,0,P|232:107|168:97,1,111,10|0,3:2|0:0,0:0:0:0:
166,92,210588,1,2,1:2:0:0:
149,69,210691,2,0,L|141:14,1,55.5,2|0,3:2|0:0,0:0:0:0:
19,193,210896,2,0,L|26:138,1,55.5,2|0,1:2|0:0,0:0:0:0:
196,315,211101,6,0,P|246:290|301:290,1,111,10|0,3:2|0:0,0:0:0:0:
325,304,211410,1,10,1:2:0:0:
345,322,211512,2,0,L|399:314,1,55.5,2|0,2:2|0:0,0:0:0:0:
474,130,211718,2,0,P|425:153|370:154,1,111,2|2,1:2|3:2,0:0:0:0:
274,8,212129,2,0,L|267:63,1,55.5,2|0,1:2|0:0,0:0:0:0:
109,153,212334,2,0,L|116:208,1,55.5,2|0,3:2|0:0,0:0:0:0:
301,290,212540,1,2,1:2:0:0:
297,317,212643,1,0,1:1:0:0:
294,345,212745,6,0,B|167:364|222:263|94:281,1,222,6|2,3:2|1:2,0:0:0:0:
26,381,213156,6,0,P|52:373|74:356,1,55.5,2|0,3:2|0:0,0:0:0:0:
164,183,213362,2,0,P|138:191|116:208,1,55.5,2|0,1:2|0:0,0:0:0:0:
294,345,213567,6,0,B|379:362|421:311|421:311|438:360|493:369,1,222,6|2,3:2|1:2,0:0:0:0:
510,233,213978,6,0,P|499:259|497:287,1,55.5,2|0,3:2|0:0,0:0:0:0:
370,154,214184,2,0,P|359:128|356:100,1,55.5,2|0,1:2|0:0,0:0:0:0:
450,14,214389,5,6,3:2:0:0:
441,194,214595,1,2,1:2:0:0:
388,233,214697,1,2,1:2:0:0:
327,223,214800,1,2,1:2:0:0:
293,178,214903,1,2,3:2:0:0:
264,136,215006,1,2,1:2:0:0:
221,121,215108,1,2,1:2:0:0:
183,128,215211,1,2,3:2:0:0:
156,147,215314,1,2,3:2:0:0:
141,171,215417,1,2,1:2:0:0:
136,192,215519,1,0,3:3:0:0:
135,207,215622,2,0,P|142:234|157:258,1,55.5,2|0,3:2|3:3,0:0:0:0:
305,337,215827,1,2,1:2:0:0:
278,329,215930,1,0,1:1:0:0:
250,330,216033,6,0,B|174:333|121:361|121:361|115:315|67:297,1,222,14|2,3:2|1:2,0:0:0:0:
10,198,216444,6,0,P|3:226|4:253,1,55.5,2|0,3:2|0:0,0:0:0:0:
156,147,216649,2,0,P|156:119|149:92,1,55.5,2|0,1:2|0:0,0:0:0:0:
272,246,216855,2,0,P|327:255|381:242,1,111,10|0,3:2|1:1,0:0:0:0:
402,224,217163,1,2,1:2:0:0:
415,199,217266,2,0,L|418:143,1,55.5,2|0,3:2|0:0,0:0:0:0:
270,0,217471,2,0,L|273:55,1,55.5,2|0,1:2|0:0,0:0:0:0:
156,147,217677,6,0,B|124:115|120:73|120:73|102:111|63:129,1,166.5,2|2,3:2|1:2,0:0:0:0:
93,217,218088,2,0,P|143:240|197:230,1,111,2|2,3:2|1:2,0:0:0:0:
296,153,218499,1,2,3:2:0:0:
374,352,218704,2,0,L|378:297,1,55.5,0|2,1:1|2:2,0:0:0:0:
420,88,218910,2,0,L|417:144,1,55.5,2|0,3:2|0:0,0:0:0:0:
253,234,219115,1,2,1:2:0:0:
225,232,219218,1,0,1:1:0:0:
198,231,219321,6,0,B|134:224|73:270|73:270|63:216|116:184,1,222,14|2,3:2|1:2,0:0:0:0:
167,97,219732,6,0,P|175:123|174:150,1,55.5,2|0,3:2|0:0,0:0:0:0:
310,53,219937,2,0,P|309:25|317:0,1,55.5,2|0,1:2|0:0,0:0:0:0:
384,186,220143,2,0,L|378:297,1,111,10|0,3:2|0:0,0:0:0:0:
376,324,220451,1,2,1:2:0:0:
374,352,220554,1,2,3:2:0:0:
496,274,220759,5,2,1:2:0:0:
262,260,220964,1,2,3:2:0:0:
461,133,221170,1,2,2:2:0:0:
461,133,221273,1,2,1:2:0:0:
461,133,221375,1,6,3:2:0:0:
374,352,221581,1,2,1:2:0:0:
315,123,221786,2,0,B|190:93|236:198|111:167,1,222,6|2,3:2|1:2,0:0:0:0:
14,136,222197,5,2,3:2:0:0:
38,151,222300,1,0,0:0:0:0:
70,180,222403,1,2,1:2:0:0:
100,230,222506,1,2,1:3:0:0:
110,302,222608,6,0,P|190:350|243:235,1,222,14|2,3:2|1:2,0:0:0:0:
243,190,223019,5,2,3:2:0:0:
387,56,223225,2,0,L|380:166,1,111,2|10,1:2|3:2,0:0:0:0:
177,112,223636,1,2,2:2:0:0:
205,110,223738,1,10,1:2:0:0:
232,109,223841,2,0,L|288:106,1,55.5,2|0,3:2|0:0,0:0:0:0:
442,59,224047,2,0,L|387:56,1,55.5,10|0,1:2|1:1,0:0:0:0:
311,217,224252,6,0,P|297:290|386:342,1,166.5,10|2,3:2|1:2,0:0:0:0:
469,290,224663,2,0,B|438:263|438:263|369:267,1,111,2|2,3:2|1:2,0:0:0:0:
204,235,225074,1,2,3:2:0:0:
288,106,225280,2,0,P|281:144|258:175,1,55.5,0|2,1:1|1:2,0:0:0:0:
274,373,225485,2,0,P|244:347|229:312,1,55.5,10|0,3:2|0:0,0:0:0:0:
49,227,225690,1,2,1:2:0:0:
74,216,225793,1,0,1:1:0:0:
102,214,225896,6,0,B|153:268|162:358|72:379|33:318,1,222,6|2,3:2|1:2,0:0:0:0:
1,198,226307,6,0,L|4:142,1,55.5,2|0,3:2|0:0,0:0:0:0:
129,28,226512,2,0,L|125:83,1,55.5,2|0,1:2|0:0,0:0:0:0:
251,225,226718,6,0,B|328:252|381:183|381:183|400:227|366:269,1,222,6|2,3:2|1:2,0:0:0:0:
320,364,227129,6,0,P|310:338|308:310,1,55.5,2|0,3:2|0:0,0:0:0:0:
498,168,227334,2,0,P|480:189|457:204,1,55.5,2|0,1:2|0:0,0:0:0:0:
238,111,227540,6,0,P|266:115|291:128,1,55.5,6|0,3:2|0:0,0:0:0:0:
437,48,227745,1,0,1:1:0:0:
409,52,227848,1,0,1:1:0:0:
385,65,227951,5,2,3:2:0:0:
351,40,228054,1,0,3:0:0:0:
312,25,228156,1,0,1:1:0:0:
271,18,228259,1,0,1:1:0:0:
230,21,228362,2,0,L|156:15,1,55.5,2|0,3:2|0:0,0:0:0:0:
25,123,228567,1,2,1:2:0:0:
65,116,228670,1,0,1:1:0:0:
107,119,228773,2,0,L|181:112,1,55.5,2|0,3:2|0:0,0:0:0:0:
312,220,228978,1,2,1:2:0:0:
272,213,229081,1,0,1:1:0:0:
230,216,229184,6,0,B|162:293|206:363|267:376|306:338,1,222,6|0,3:2|0:0,0:0:0:0:
394,280,229595,6,0,L|387:191,1,55.5,2|0,1:2|0:0,0:0:0:0:
384,141,229800,1,2,3:2:0:0:
284,8,230006,6,0,L|277:96,1,55.5,2|2,1:2|2:2,0:0:0:0:
274,146,230211,1,2,3:2:0:0:
174,279,230417,6,0,L|167:190,1,55.5,2|2,1:2|2:2,0:0:0:0:
164,141,230622,1,2,3:2:0:0:
63,7,230827,6,0,L|56:95,1,55.5,2|0,1:2|0:0,0:0:0:0:
53,145,231033,1,2,3:2:0:0:
210,11,231238,6,0,L|181:94,1,55.5,2|0,1:2|0:0,0:0:0:0:
164,141,231444,1,2,3:2:0:0:
350,52,231649,6,0,L|300:125,1,55.5,2|2,1:2|2:2,0:0:0:0:
272,165,231855,1,2,3:2:0:0:
474,127,232060,6,0,L|407:184,1,55.5,2|2,1:2|2:2,0:0:0:0:
370,216,232266,1,2,3:2:0:0:
348,233,232369,1,2,3:2:0:0:
327,251,232471,6,0,P|412:252|451:335,1,166.5,6|0,1:2|0:0,0:0:0:0:
358,346,232882,6,0,L|271:328,1,55.5,2|0,1:2|0:0,0:0:0:0:
223,318,233088,1,2,3:2:0:0:
234,126,233293,6,0,L|251:178,1,55.5,2|0,1:2|0:0,0:0:0:0:
278,255,233499,1,2,3:2:0:0:
106,342,233704,6,0,L|143:301,1,55.5,2|0,1:2|0:0,0:0:0:0:
197,239,233910,1,2,3:2:0:0:
53,48,234115,6,0,L|64:135,1,55.5,6|0,1:2|0:0,0:0:0:0:
124,168,234321,1,2,3:2:0:0:
120,195,234423,1,0,0:0:0:0:
116,223,234526,2,0,P|53:227|3:201,1,111,2|2,1:2|3:2,0:0:0:0:
198,71,234937,2,0,L|206:127,1,55.5,2|0,1:2|0:0,0:0:0:0:
364,181,235143,1,2,3:2:0:0:
360,208,235245,1,0,3:3:0:0:
357,236,235348,2,0,L|350:292,1,55.5,6|0,1:2|0:0,0:0:0:0:
143,301,235554,1,2,3:2:0:0:
147,328,235656,1,0,3:3:0:0:
150,356,235759,6,0,B|277:375|222:274|350:292,1,222,6|0,1:2|0:0,0:0:0:0:
460,372,236170,6,0,P|435:362|417:342,1,55.5,2|0,1:2|0:0,0:0:0:0:
360,208,236375,1,2,3:2:0:0:
272,372,236581,6,0,P|255:350|250:324,1,55.5,2|2,1:2|2:2,0:0:0:0:
267,179,236786,1,2,3:2:0:0:
108,277,236992,6,0,P|104:249|112:224,1,55.5,2|2,1:2|2:2,0:0:0:0:
200,107,237197,1,2,3:2:0:0:
13,112,237403,6,0,L|20:200,1,55.5,2|0,1:2|0:0,0:0:0:0:
23,250,237608,1,2,3:2:0:0:
170,384,237814,6,0,L|177:296,1,55.5,2|0,1:2|0:0,0:0:0:0:
179,246,238019,1,2,3:2:0:0:
327,112,238225,6,0,L|334:200,1,55.5,2|0,1:2|0:0,0:0:0:0:
337,250,238430,1,2,3:2:0:0:
484,384,238636,6,0,L|491:296,1,55.5,2|0,1:2|0:0,0:0:0:0:
493,246,238841,1,2,3:2:0:0:
495,218,238944,1,0,3:3:0:0:
497,190,239047,6,0,B|504:121|476:83|476:83|446:97|437:131,1,166.5,6|0,1:2|0:0,0:0:0:0:
379,190,239458,6,0,P|352:184|331:167,1,55.5,2|0,1:2|0:0,0:0:0:0:
261,76,239663,1,2,3:2:0:0:
253,322,239869,6,0,P|238:298|235:271,1,55.5,2|0,1:2|0:0,0:0:0:0:
250,156,240074,1,2,3:2:0:0:
70,324,240280,6,0,P|76:297|93:275,1,55.5,2|0,1:2|0:0,0:0:0:0:
185,204,240485,1,2,3:2:0:0:
158,212,240588,1,0,3:3:0:0:
131,208,240690,6,0,P|122:181|127:154,1,55.5,6|0,1:2|0:0,0:0:0:0:
329,182,240896,1,2,3:2:0:0:
350,199,240999,1,0,3:3:0:0:
359,226,241101,2,0,P|340:246|314:255,1,55.5,2|0,1:2|0:0,0:0:0:0:
238,67,241307,1,2,3:2:0:0:
243,40,241410,1,0,1:1:0:0:
261,19,241512,2,0,P|287:25|309:42,1,55.5,2|0,3:2|0:0,0:0:0:0:
359,226,241718,2,0,L|354:355,1,111,2|2,1:2|3:2,0:0:0:0:
232,209,242129,1,2,1:2:0:0:
233,181,242232,1,0,1:1:0:0:
235,154,242334,6,0,B|220:111|242:74|242:74|264:94|290:78|290:78|305:118|283:159|283:159|322:133|362:142|362:142|350:169|374:189|374:189|341:214|296:207|296:207|331:235|336:277|336:277|306:274|294:303|294:303|259:278|252:233|252:233|237:277|199:294|199:294|192:264|162:262|162:262|174:222|215:200|215:200|169:200|140:168|140:168|166:153|160:125|160:125|202:122|235:154,1,1040.625,6|2,3:2|2:2,0:0:0:0:
86,64,245622,6,0,B|84:109|84:109|61:149|61:149|59:195,1,138.75,10|2,2:2|2:2,0:0:0:0:
4,248,246238,2,0,P|68:231|121:272,1,138.75,2|2,2:2|2:2,0:0:0:0:
59,375,246855,2,0,L|54:306,1,69.3750000000002,2|2,2:2|2:2,0:0:0:0:
180,377,247266,5,2,2:2:0:0:
288,279,247677,1,2,2:2:0:0:
227,146,248088,1,2,2:2:0:0:
82,162,248499,1,2,2:2:0:0:
288,279,248910,6,0,B|402:313|365:212|481:246,2,208.125000000001,2|10|2,2:2|2:2|2:2,0:0:0:0:
58,201,250554,2,0,B|49:295|129:349|129:349|211:309|221:214,1,346.875000000001,2|2,2:2|2:2,0:0:0:0:
233,80,251786,5,2,2:2:0:0:
189,143,251992,1,2,2:2:0:0:
266,150,252197,2,0,L|322:189,1,69.3750000000002,10|2,2:2|2:2,0:0:0:0:
189,143,252608,5,2,2:2:0:0:
266,150,252814,1,2,2:2:0:0:
233,80,253019,2,0,L|238:10,1,69.3750000000002,10|2,2:2|2:2,0:0:0:0:
266,150,253430,5,2,2:2:0:0:
233,80,253636,1,2,2:2:0:0:
189,143,253841,1,10,2:2:0:0:
189,143,254252,6,0,L|126:172,1,69.375,2|2,2:2|2:2,0:0:0:0:
126,172,255485,6,0,P|147:203|152:233,1,46.25,10|2,2:2|2:2,0:0:0:0:
101,342,255985,6,0,P|117:308|140:288,1,46.25,10|2,2:2|2:2,0:0:0:0:
143,291,256413,1,0,0:0:0:0:
143,291,256556,6,0,L|242:300,1,92.5,2|2,2:2|2:2,0:0:0:0:
296,353,257507,1,2,2:2:0:0:
349,292,257799,6,0,B|367:209|299:241|317:160,1,144.53125,2|2,2:2|2:2,0:0:0:0:
