osu file format v14

[General]
AudioFilename: audio.mp3
AudioLeadIn: 0
PreviewTime: 54218
Countdown: 0
SampleSet: Soft
StackLeniency: 0.4
Mode: 0
LetterboxInBreaks: 0
WidescreenStoryboard: 1

[Editor]
Bookmarks: 84526,95211,171649,185006
DistanceSpacing: 1
BeatDivisor: 4
GridSize: 32
TimelineZoom: 1.6

[Metadata]
Title:Hanayuki
TitleUnicode:花雪
Artist:smileY inc.
ArtistUnicode:smileY inc.
Creator:Creamy Candy
Version:SupaV's Hard
Source:ハナヤマタ
Tags:syndicate_ - Nilou asuka_- lit120 -hakurei- supav riene kuro fuyusaki nakazawa ed ending hanayamata anime japanese j-pop jpop pop 大坪由佳 Ootsubo Otsubo Yuka ゆうゆ yuuyu スマイリー ハナ・N・フォンテーンスタンド Hana N. Fountainstand yosakoi 西御門 多美 Nishimikado Tami oxypetalum
BeatmapID:4106986
BeatmapSetID:1073360

[Difficulty]
HPDrainRate:4.5
CircleSize:3.6
OverallDifficulty:6
ApproachRate:8
SliderMultiplier:1.5
SliderTickRate:1

[Events]
//Background and Video events
0,0,"Hana N. Fountainstand.jpg",0,0
//Break Periods
2,84725,94389
2,173293,183773
//Storyboard Layer 0 (Background)
//Storyboard Layer 1 (Fail)
//Storyboard Layer 2 (Pass)
//Storyboard Layer 3 (Foreground)
//Storyboard Layer 4 (Overlay)
//Storyboard Sound Samples

[TimingPoints]
417,410.958904109589,4,2,1,50,1,0
691,410.958904109589,4,2,1,50,1,0
691,-125,4,2,1,50,0,0
999,-125,4,2,2,50,0,0
1307,-125,4,2,3,50,0,0
1718,-125,4,2,4,50,0,0
1923,-125,4,2,5,50,0,0
2334,-125,4,2,6,50,0,0
2642,-125,4,2,7,50,0,0
2950,-125,4,2,8,50,0,0
3156,-125,4,2,9,50,0,0
3362,-125,4,2,10,50,0,0
3773,-125,4,2,11,50,0,0
3875,-125,4,2,12,50,0,0
3978,-125,4,2,13,50,0,0
4184,-125,4,2,10,50,0,0
4388,-125,4,2,8,50,0,0
4595,-125,4,2,14,50,0,0
4800,-125,4,2,15,50,0,0
5006,-125,4,2,10,50,0,0
5210,-125,4,2,8,50,0,0
5417,-125,4,2,16,50,0,0
5622,-125,4,2,17,50,0,0
6033,-125,4,2,4,50,0,0
6238,-125,4,2,18,50,0,0
6649,-125,4,2,19,50,0,0
6752,-125,4,2,20,50,0,0
6855,-125,4,2,19,50,0,0
6957,-125,4,2,21,50,0,0
7060,-125,4,2,22,50,0,0
7266,-125,4,2,23,50,0,0
7677,-125,4,2,24,50,0,0
7883,-125,4,2,25,50,0,0
8293,-125,4,2,26,50,0,0
8499,-125,4,2,27,50,0,0
8704,-125,4,2,28,50,0,0
8910,-125,4,2,29,50,0,0
9321,-125,4,2,30,50,0,0
9732,-125,4,2,31,50,0,0
9937,-125,4,2,2,50,0,0
10143,-125,4,2,32,50,0,0
10348,-125,4,2,33,50,0,0
10554,-100,4,2,34,50,0,0
10964,-100,4,2,35,50,0,0
11170,-100,4,2,36,50,0,0
11375,-100,4,2,37,50,0,0
11580,-100,4,2,35,40,0,0
11786,-100,4,2,35,50,0,0
11992,-100,4,2,33,50,0,0
12197,-100,4,2,38,70,0,0
13019,-100,4,2,2,70,0,0
13225,-100,4,2,1,70,0,0
13841,-125,4,2,39,50,0,0
14046,-125,4,2,40,50,0,0
14252,-125,4,2,41,50,0,0
14457,-125,4,2,40,50,0,0
14663,-125,4,2,41,50,0,0
14869,-125,4,2,42,50,0,0
15074,-125,4,2,3,50,0,0
15280,-125,4,2,43,50,0,0
15485,-125,4,2,44,50,0,0
16718,-125,4,2,41,50,0,0
16923,-125,4,2,45,50,0,0
17129,-125,4,2,40,50,0,0
18156,-125,4,2,44,50,0,0
18362,-125,4,2,40,50,0,0
18567,-125,4,2,46,50,0,0
18773,-125,4,2,41,50,0,0
20211,-125,4,2,47,50,0,0
20417,-125,4,2,48,50,0,0
20827,-125,4,2,49,50,0,0
21033,-125,4,2,42,50,0,0
21238,-125,4,2,3,50,0,0
21444,-125,4,2,50,50,0,0
21649,-125,4,2,3,50,0,0
21855,-125,4,2,42,50,0,0
22060,-125,4,2,3,50,0,0
22265,-125,4,2,47,50,0,0
22471,-125,4,2,51,50,0,0
22677,-125,4,2,52,50,0,0
22882,-125,4,2,44,50,0,0
23499,-125,4,2,41,50,0,0
23704,-125,4,2,40,50,0,0
24321,-125,4,2,45,50,0,0
24526,-125,4,2,44,50,0,0
24937,-125,4,2,53,60,0,0
25143,-125,4,2,54,60,0,0
25553,-125,4,2,55,60,0,0
25759,-125,4,2,56,60,0,0
25964,-125,4,2,35,60,0,0
26170,-125,4,2,57,60,0,0
26375,-125,4,2,58,60,0,0
26581,-125,4,2,59,60,0,0
26683,-125,4,2,57,60,0,0
26992,-111.111111111111,4,2,60,60,0,0
27197,-111.111111111111,4,2,61,60,0,0
27403,-111.111111111111,4,2,57,60,0,0
27608,-111.111111111111,4,2,61,60,0,0
27814,-111.111111111111,4,2,57,60,0,0
28019,-111.111111111111,4,2,30,60,0,0
28225,-111.111111111111,4,2,4,60,0,0
28430,-111.111111111111,4,2,62,60,0,0
28636,-111.111111111111,4,2,63,60,0,0
28841,-111.111111111111,4,2,57,60,0,0
29252,-111.111111111111,4,2,64,60,0,0
29457,-111.111111111111,4,2,4,60,0,0
29663,-111.111111111111,4,2,65,60,0,0
29869,-111.111111111111,4,2,57,60,0,0
30074,-111.111111111111,4,2,66,60,0,0
30280,-111.111111111111,4,2,67,60,0,0
30485,-111.111111111111,4,2,61,60,0,0
30690,-111.111111111111,4,2,68,60,0,0
30895,-111.111111111111,4,2,61,60,0,0
31101,-111.111111111111,4,2,69,60,0,0
31307,-111.111111111111,4,2,58,60,0,0
31512,-111.111111111111,4,2,61,60,0,0
31718,-111.111111111111,4,2,70,60,0,0
31923,-111.111111111111,4,2,2,60,0,0
32129,-111.111111111111,4,2,71,60,0,0
32334,-111.111111111111,4,2,57,60,0,0
33362,-111.111111111111,4,2,35,60,0,0
33567,-111.111111111111,4,2,72,60,0,0
33773,-111.111111111111,4,2,2,60,0,0
33977,-111.111111111111,4,2,73,60,0,0
34184,-111.111111111111,4,2,30,60,0,0
34389,-111.111111111111,4,2,4,60,0,0
34595,-111.111111111111,4,2,74,60,0,0
34800,-111.111111111111,4,2,4,60,0,0
35006,-111.111111111111,4,2,30,60,0,0
35211,-111.111111111111,4,2,75,60,0,0
35314,-111.111111111111,4,2,35,60,0,0
35622,-111.111111111111,4,2,76,60,0,0
35725,-111.111111111111,4,2,77,60,0,0
35827,-111.111111111111,4,2,77,60,0,0
36033,-111.111111111111,4,2,58,60,0,0
36649,-111.111111111111,4,2,57,60,0,0
36855,-111.111111111111,4,2,78,60,0,0
37060,-111.111111111111,4,2,61,60,0,0
37882,-111.111111111111,4,2,58,60,0,0
38088,-111.111111111111,4,2,61,60,0,0
38293,-111.111111111111,4,2,79,60,0,0
38703,-111.111111111111,4,2,80,60,0,0
38910,-111.111111111111,4,2,74,60,0,0
39526,-111.111111111111,4,2,81,60,0,0
39731,-111.111111111111,4,2,82,60,0,0
40143,-100,4,2,83,60,0,0
40348,-100,4,2,84,60,0,0
40451,-100,4,2,85,60,0,0
40759,-100,4,2,86,60,0,0
40964,-100,4,2,87,60,0,0
41170,-100,4,2,88,60,0,0
41273,-100,4,2,89,60,0,0
41375,-100,4,2,1,60,0,0
41478,-100,4,2,84,60,0,0
41581,-100,4,2,84,60,0,0
41786,-100,4,2,90,60,0,0
42095,-100,4,2,91,60,0,0
42403,-100,4,2,92,60,0,0
42608,-100,4,2,93,60,0,0
42711,-100,4,2,2,60,0,0
42814,-100,4,2,2,60,0,0
43019,-100,4,2,1,60,0,0
43088,-100,4,2,2,60,0,0
43224,-100,4,2,82,60,0,0
43430,-100,4,2,83,60,0,0
43636,-100,4,2,84,60,0,0
43738,-100,4,2,85,60,0,0
44046,-100,4,2,86,60,0,0
44252,-100,4,2,87,60,0,0
44458,-100,4,2,84,60,0,0
44663,-100,4,2,1,60,0,0
44732,-100,4,2,2,60,0,0
44868,-100,4,2,94,60,0,0
45074,-100,4,2,95,60,0,0
45382,-100,4,2,96,60,0,0
45485,-100,4,2,97,60,0,0
45895,-100,4,2,98,60,0,0
46307,-100,4,2,99,60,0,0
46512,-100,4,2,100,60,0,0
46718,-100,4,2,101,60,0,0
46922,-100,4,2,102,60,0,0
47129,-100,4,2,103,60,0,0
47334,-100,4,2,104,60,0,0
47539,-100,4,2,105,60,0,0
47745,-100,4,2,106,60,0,0
47951,-100,4,2,107,60,0,0
48156,-100,4,2,98,60,0,0
48566,-100,4,2,108,60,0,0
48773,-100,4,2,109,60,0,0
48978,-100,4,2,110,60,0,0
49184,-100,4,2,111,60,0,0
49389,-100,4,2,2,60,0,0
49595,-100,4,2,112,60,0,0
49800,-100,4,2,113,60,0,0
50006,-100,4,2,114,60,0,0
50211,-100,4,2,115,60,0,0
50417,-100,4,2,116,60,0,0
50622,-100,4,2,117,60,0,0
50827,-100,4,2,116,60,0,0
51033,-100,4,2,118,60,0,0
51444,-100,4,2,119,60,0,0
51854,-100,4,2,119,50,0,0
52060,-100,4,2,120,50,0,0
52266,-100,4,2,121,50,0,0
52471,-100,4,2,121,60,0,0
52677,-100,4,2,122,60,0,0
53293,-100,4,2,123,70,0,0
54321,-100,4,2,58,55,0,0
54423,-100,4,2,1,55,0,0
54526,-100,4,2,124,55,0,0
54628,-100,4,2,33,55,0,0
54937,-86.9565217391304,4,2,125,80,0,0
55245,-86.9565217391304,4,2,126,80,0,0
55348,-86.9565217391304,4,2,127,80,0,0
55554,-86.9565217391304,4,2,128,80,0,0
55759,-86.9565217391304,4,2,129,80,0,0
55964,-86.9565217391304,4,2,130,80,0,0
56170,-86.9565217391304,4,2,131,80,0,0
56375,-86.9565217391304,4,2,132,80,0,0
56581,-86.9565217391304,4,2,133,80,0,0
56889,-86.9565217391304,4,2,134,80,0,0
56992,-86.9565217391304,4,2,135,80,0,0
57197,-86.9565217391304,4,2,136,80,0,0
57403,-86.9565217391304,4,2,137,80,0,0
57608,-86.9565217391304,4,2,134,80,0,0
57814,-86.9565217391304,4,2,138,80,0,0
58019,-86.9565217391304,4,2,136,80,0,0
58225,-86.9565217391304,4,2,139,80,0,0
58533,-86.9565217391304,4,2,140,80,0,0
58635,-86.9565217391304,4,2,141,80,0,0
58841,-86.9565217391304,4,2,142,80,0,0
59047,-86.9565217391304,4,2,139,80,0,0
59355,-86.9565217391304,4,2,140,80,0,0
59457,-86.9565217391304,4,2,141,80,0,0
59663,-86.9565217391304,4,2,142,80,0,0
59869,-86.9565217391304,4,2,143,80,0,0
60074,-86.9565217391304,4,2,120,80,0,0
60177,-86.9565217391304,4,2,144,80,0,0
60280,-86.9565217391304,4,2,145,80,0,0
60485,-86.9565217391304,4,2,146,80,0,0
60690,-86.9565217391304,4,2,147,80,0,0
60998,-86.9565217391304,4,2,144,80,0,0
61101,-86.9565217391304,4,2,148,80,0,0
61307,-86.9565217391304,4,2,149,80,0,0
61410,-86.9565217391304,4,2,1,80,0,0
61512,-86.9565217391304,4,2,150,80,0,0
61821,-86.9565217391304,4,2,126,80,0,0
61923,-86.9565217391304,4,2,127,80,0,0
62129,-86.9565217391304,4,2,128,80,0,0
62334,-86.9565217391304,4,2,129,80,0,0
62539,-86.9565217391304,4,2,130,80,0,0
62745,-86.9565217391304,4,2,131,80,0,0
62951,-86.9565217391304,4,2,132,80,0,0
63156,-86.9565217391304,4,2,151,80,0,0
63464,-86.9565217391304,4,2,152,80,0,0
63568,-86.9565217391304,4,2,134,80,0,0
63773,-86.9565217391304,4,2,153,80,0,0
63979,-86.9565217391304,4,2,136,80,0,0
64183,-86.9565217391304,4,2,154,80,0,0
64389,-86.9565217391304,4,2,155,80,0,0
64595,-86.9565217391304,4,2,156,80,0,0
64800,-86.9565217391304,4,2,157,80,0,0
65108,-86.9565217391304,4,2,158,80,0,0
65211,-86.9565217391304,4,2,159,80,0,0
65417,-86.9565217391304,4,2,160,80,0,0
65622,-86.9565217391304,4,2,161,80,0,0
65930,-86.9565217391304,4,2,158,80,0,0
66033,-86.9565217391304,4,2,159,80,0,0
66238,-86.9565217391304,4,2,162,80,0,0
66444,-86.9565217391304,4,2,163,80,0,0
66649,-86.9565217391304,4,2,164,80,0,0
66752,-86.9565217391304,4,2,165,80,0,0
66855,-86.9565217391304,4,2,166,80,0,0
66958,-86.9565217391304,4,2,167,80,0,0
67060,-86.9565217391304,4,2,168,80,0,0
67163,-86.9565217391304,4,2,169,80,0,0
67266,-86.9565217391304,4,2,170,80,0,0
67368,-86.9565217391304,4,2,171,80,0,0
67471,-86.9565217391304,4,2,172,80,0,0
67677,-86.9565217391304,4,2,173,80,0,0
67882,-86.9565217391304,4,2,174,80,0,0
68088,-86.9565217391304,4,2,175,80,0,0
68396,-86.9565217391304,4,2,176,80,0,0
68499,-86.9565217391304,4,2,177,80,0,0
68704,-86.9565217391304,4,2,178,80,0,0
68910,-86.9565217391304,4,2,179,80,0,0
69115,-86.9565217391304,4,2,130,80,0,0
69321,-86.9565217391304,4,2,180,80,0,0
69526,-86.9565217391304,4,2,181,80,0,0
69732,-86.9565217391304,4,2,182,80,0,0
70040,-86.9565217391304,4,2,134,80,0,0
70143,-86.9565217391304,4,2,135,80,0,0
70348,-86.9565217391304,4,2,136,80,0,0
70554,-86.9565217391304,4,2,137,80,0,0
70759,-86.9565217391304,4,2,134,80,0,0
70964,-86.9565217391304,4,2,138,80,0,0
71169,-86.9565217391304,4,2,136,80,0,0
71375,-86.9565217391304,4,2,139,80,0,0
71684,-86.9565217391304,4,2,140,80,0,0
71785,-86.9565217391304,4,2,141,80,0,0
71992,-86.9565217391304,4,2,142,80,0,0
72197,-86.9565217391304,4,2,183,80,0,0
72506,-86.9565217391304,4,2,140,80,0,0
72607,-86.9565217391304,4,2,141,80,0,0
72814,-86.9565217391304,4,2,142,80,0,0
73019,-86.9565217391304,4,2,184,80,0,0
73225,-86.9565217391304,4,2,120,80,0,0
73327,-86.9565217391304,4,2,144,80,0,0
73430,-86.9565217391304,4,2,185,80,0,0
73636,-86.9565217391304,4,2,186,80,0,0
73841,-86.9565217391304,4,2,187,80,0,0
74149,-86.9565217391304,4,2,144,80,0,0
74252,-86.9565217391304,4,2,188,80,0,0
74458,-86.9565217391304,4,2,149,80,0,0
74560,-86.9565217391304,4,2,1,80,0,0
74663,-86.9565217391304,4,2,189,80,0,0
74972,-86.9565217391304,4,2,130,80,0,0
75073,-86.9565217391304,4,2,190,80,0,0
75280,-86.9565217391304,4,2,191,80,0,0
75485,-86.9565217391304,4,2,192,80,0,0
75691,-86.9565217391304,4,2,193,80,0,0
75793,-86.9565217391304,4,2,130,80,0,0
75896,-86.9565217391304,4,2,194,80,0,0
76101,-86.9565217391304,4,2,195,80,0,0
76307,-86.9565217391304,4,2,196,80,0,0
76615,-86.9565217391304,4,2,134,80,0,0
76718,-86.9565217391304,4,2,197,80,0,0
76923,-86.9565217391304,4,2,136,80,0,0
77129,-86.9565217391304,4,2,198,80,0,0
77334,-86.9565217391304,4,2,134,80,0,0
77540,-86.9565217391304,4,2,199,80,0,0
77745,-86.9565217391304,4,2,200,80,0,0
77951,-86.9565217391304,4,2,201,80,0,0
78259,-86.9565217391304,4,2,202,80,0,0
78362,-86.9565217391304,4,2,203,80,0,0
78567,-86.9565217391304,4,2,204,80,0,0
78773,-86.9565217391304,4,2,205,80,0,0
79081,-86.9565217391304,4,2,202,80,0,0
79184,-86.9565217391304,4,2,203,80,0,0
79389,-86.9565217391304,4,2,204,80,0,0
79595,-86.9565217391304,4,2,206,80,0,0
79800,-86.9565217391304,4,2,33,80,0,0
81238,-111.111111111111,4,2,207,70,0,0
81444,-111.111111111111,4,2,208,70,0,0
81648,-111.111111111111,4,2,209,70,0,0
81855,-111.111111111111,4,2,33,70,0,0
82060,-111.111111111111,4,2,210,70,0,0
82471,-111.111111111111,4,2,211,70,0,0
82677,-111.111111111111,4,2,33,70,0,0
82882,-111.111111111111,4,2,212,70,0,0
83293,-111.111111111111,4,2,213,70,0,0
83909,-111.111111111111,4,2,214,70,0,0
84525,-111.111111111111,4,2,215,50,0,0
84732,-111.111111111111,4,2,216,50,0,0
84937,-111.111111111111,4,2,215,50,0,0
85143,-111.111111111111,4,2,216,50,0,0
85348,-111.111111111111,4,2,215,50,0,0
85554,-111.111111111111,4,2,217,50,0,0
85965,-111.111111111111,4,2,218,50,0,0
86067,-111.111111111111,4,2,89,50,0,0
86170,-111.111111111111,4,2,219,50,0,0
86787,-111.111111111111,4,2,220,50,0,0
87198,-111.111111111111,4,2,24,50,0,0
87403,-111.111111111111,4,2,215,50,0,0
87609,-111.111111111111,4,2,221,50,0,0
87711,-111.111111111111,4,2,89,50,0,0
88225,-111.111111111111,4,2,216,50,0,0
88842,-111.111111111111,4,2,24,50,0,0
89047,-111.111111111111,4,2,216,50,0,0
89253,-111.111111111111,4,2,222,50,0,0
89663,-111.111111111111,4,2,89,50,0,0
90691,-111.111111111111,4,2,215,50,0,0
90896,-111.111111111111,4,2,28,50,0,0
91102,-111.111111111111,4,2,223,60,0,0
91513,-111.111111111111,4,2,224,60,0,0
91718,-111.111111111111,4,2,225,60,0,0
91923,-111.111111111111,4,2,1,60,0,0
92129,-111.111111111111,4,2,226,60,0,0
92334,-111.111111111111,4,2,1,60,0,0
92540,-111.111111111111,4,2,225,60,0,0
92745,-111.111111111111,4,2,1,60,0,0
92951,-111.111111111111,4,2,227,60,0,0
93157,-111.111111111111,4,2,228,60,0,0
93362,-111.111111111111,4,2,229,60,0,0
93567,-111.111111111111,4,2,230,60,0,0
94184,-111.111111111111,4,2,231,60,0,0
94389,-111.111111111111,4,2,232,60,0,0
94595,-111.111111111111,4,2,233,60,0,0
94800,-111.111111111111,4,2,232,60,0,0
95211,-111.111111111111,4,2,234,60,0,0
95417,-111.111111111111,4,2,235,60,0,0
95622,-111.111111111111,4,2,236,60,0,0
95827,-111.111111111111,4,2,237,60,0,0
96237,-111.111111111111,4,2,238,60,0,0
96444,-111.111111111111,4,2,37,60,0,0
96649,-111.111111111111,4,2,239,60,0,0
96854,-111.111111111111,4,2,240,60,0,0
97060,-111.111111111111,4,2,241,60,0,0
97163,-111.111111111111,4,2,1,60,0,0
97266,-111.111111111111,4,2,242,60,0,0
97368,-111.111111111111,4,2,33,60,0,0
97677,-111.111111111111,4,2,243,60,0,0
97882,-111.111111111111,4,2,234,60,0,0
98088,-111.111111111111,4,2,240,60,0,0
98293,-111.111111111111,4,2,234,60,0,0
98499,-111.111111111111,4,2,240,60,0,0
98704,-111.111111111111,4,2,30,60,0,0
98909,-111.111111111111,4,2,1,60,0,0
99115,-111.111111111111,4,2,62,60,0,0
99321,-111.111111111111,4,2,244,60,0,0
99731,-111.111111111111,4,2,1,60,0,0
99937,-111.111111111111,4,2,245,60,0,0
100142,-111.111111111111,4,2,65,60,0,0
100554,-111.111111111111,4,2,240,60,0,0
100759,-111.111111111111,4,2,66,60,0,0
100964,-111.111111111111,4,2,67,60,0,0
101170,-111.111111111111,4,2,234,60,0,0
101374,-111.111111111111,4,2,68,60,0,0
101581,-111.111111111111,4,2,234,60,0,0
101786,-111.111111111111,4,2,246,60,0,0
101991,-111.111111111111,4,2,241,60,0,0
102197,-111.111111111111,4,2,234,60,0,0
102403,-111.111111111111,4,2,247,60,0,0
102608,-111.111111111111,4,2,2,60,0,0
102814,-111.111111111111,4,2,71,60,0,0
103019,-111.111111111111,4,2,1,60,0,0
103429,-111.111111111111,4,2,248,60,0,0
103841,-111.111111111111,4,2,240,60,0,0
104047,-111.111111111111,4,2,35,60,0,0
104149,-111.111111111111,4,2,1,60,0,0
104252,-111.111111111111,4,2,249,60,0,0
104662,-111.111111111111,4,2,73,60,0,0
104869,-111.111111111111,4,2,30,60,0,0
105280,-111.111111111111,4,2,74,60,0,0
105485,-111.111111111111,4,2,1,60,0,0
105691,-111.111111111111,4,2,30,60,0,0
105896,-111.111111111111,4,2,75,60,0,0
106101,-111.111111111111,4,2,239,60,0,0
106307,-111.111111111111,4,2,76,60,0,0
106512,-111.111111111111,4,2,77,60,0,0
106717,-111.111111111111,4,2,2,60,0,0
107129,-111.111111111111,4,2,58,60,0,0
107334,-111.111111111111,4,2,240,60,0,0
107540,-111.111111111111,4,2,250,60,0,0
107746,-111.111111111111,4,2,66,60,0,0
107950,-111.111111111111,4,2,234,60,0,0
108567,-111.111111111111,4,2,58,60,0,0
108773,-111.111111111111,4,2,234,60,0,0
108978,-111.111111111111,4,2,251,60,0,0
109388,-111.111111111111,4,2,80,60,0,0
109595,-111.111111111111,4,2,74,60,0,0
110211,-111.111111111111,4,2,81,60,0,0
110416,-111.111111111111,4,2,82,60,0,0
110827,-100,4,2,83,60,0,0
111033,-100,4,2,84,60,0,0
111135,-100,4,2,85,60,0,0
111443,-100,4,2,86,60,0,0
111649,-100,4,2,87,60,0,0
111855,-100,4,2,88,60,0,0
111958,-100,4,2,89,60,0,0
112060,-100,4,2,1,60,0,0
112129,-100,4,2,84,60,0,0
112266,-100,4,2,84,60,0,0
112471,-100,4,2,90,60,0,0
112780,-100,4,2,252,60,0,0
112883,-100,4,2,82,60,0,0
113088,-100,4,2,92,60,0,0
113293,-100,4,2,93,60,0,0
113396,-100,4,2,2,60,0,0
113499,-100,4,2,2,60,0,0
113704,-100,4,2,1,60,0,0
113773,-100,4,2,2,60,0,0
113909,-100,4,2,82,60,0,0
114115,-100,4,2,83,60,0,0
114321,-100,4,2,84,60,0,0
114423,-100,4,2,85,60,0,0
114731,-100,4,2,86,60,0,0
114937,-100,4,2,87,60,0,0
115143,-100,4,2,84,60,0,0
115348,-100,4,2,1,60,0,0
115417,-100,4,2,2,60,0,0
115553,-100,4,2,94,60,0,0
115759,-100,4,2,95,60,0,0
116067,-100,4,2,96,60,0,0
116170,-100,4,2,97,60,0,0
116580,-100,4,2,98,60,0,0
116992,-100,4,2,99,60,0,0
117197,-100,4,2,100,60,0,0
117403,-100,4,2,101,60,0,0
117607,-100,4,2,102,60,0,0
117814,-100,4,2,103,60,0,0
118019,-100,4,2,104,60,0,0
118224,-100,4,2,105,60,0,0
118430,-100,4,2,106,60,0,0
118636,-100,4,2,107,60,0,0
118841,-100,4,2,98,60,0,0
119251,-100,4,2,108,60,0,0
119458,-100,4,2,109,60,0,0
119663,-100,4,2,110,60,0,0
119869,-100,4,2,111,60,0,0
120074,-100,4,2,2,60,0,0
120280,-100,4,2,112,60,0,0
120485,-100,4,2,236,60,0,0
120690,-100,4,2,114,60,0,0
120895,-100,4,2,115,60,0,0
121307,-100,4,2,117,60,0,0
121512,-100,4,2,116,60,0,0
121718,-100,4,2,118,60,0,0
122129,-100,4,2,119,60,0,0
122539,-100,4,2,119,50,0,0
122745,-100,4,2,120,50,0,0
122951,-100,4,2,121,50,0,0
123156,-100,4,2,121,60,0,0
123362,-100,4,2,122,60,0,0
123978,-100,4,2,123,70,0,0
125006,-100,4,2,58,55,0,0
125108,-100,4,2,1,55,0,0
125211,-100,4,2,124,55,0,0
125313,-100,4,2,33,55,0,0
125622,-86.9565217391304,4,2,253,80,0,0
125827,-86.9565217391304,4,2,96,80,0,0
125930,-86.9565217391304,4,2,126,80,0,0
126033,-86.9565217391304,4,2,127,80,0,0
126238,-86.9565217391304,4,2,128,80,0,0
126444,-86.9565217391304,4,2,254,80,0,0
126649,-86.9565217391304,4,2,59,80,0,0
126752,-86.9565217391304,4,2,255,80,0,0
126855,-86.9565217391304,4,2,131,80,0,0
127060,-86.9565217391304,4,2,132,80,0,0
127266,-86.9565217391304,4,2,256,80,0,0
127472,-86.9565217391304,4,2,257,80,0,0
127574,-86.9565217391304,4,2,258,80,0,0
127677,-86.9565217391304,4,2,135,80,0,0
127882,-86.9565217391304,4,2,259,80,0,0
128088,-86.9565217391304,4,2,137,80,0,0
128294,-86.9565217391304,4,2,260,80,0,0
128396,-86.9565217391304,4,2,261,80,0,0
128499,-86.9565217391304,4,2,262,80,0,0
128704,-86.9565217391304,4,2,263,80,0,0
128910,-86.9565217391304,4,2,139,80,0,0
129218,-86.9565217391304,4,2,140,80,0,0
129320,-86.9565217391304,4,2,264,80,0,0
129526,-86.9565217391304,4,2,142,80,0,0
129732,-86.9565217391304,4,2,139,80,0,0
130040,-86.9565217391304,4,2,140,80,0,0
130142,-86.9565217391304,4,2,141,80,0,0
130348,-86.9565217391304,4,2,142,80,0,0
130554,-86.9565217391304,4,2,143,80,0,0
130759,-86.9565217391304,4,2,120,80,0,0
130862,-86.9565217391304,4,2,144,80,0,0
130964,-86.9565217391304,4,2,145,80,0,0
131170,-86.9565217391304,4,2,146,80,0,0
131375,-86.9565217391304,4,2,147,80,0,0
131683,-86.9565217391304,4,2,144,80,0,0
131786,-86.9565217391304,4,2,265,80,0,0
131992,-86.9565217391304,4,2,266,80,0,0
132095,-86.9565217391304,4,2,267,80,0,0
132197,-86.9565217391304,4,2,150,80,0,0
132506,-86.9565217391304,4,2,126,80,0,0
132608,-86.9565217391304,4,2,127,80,0,0
132814,-86.9565217391304,4,2,128,80,0,0
133019,-86.9565217391304,4,2,268,80,0,0
133224,-86.9565217391304,4,2,96,80,0,0
133327,-86.9565217391304,4,2,269,80,0,0
133430,-86.9565217391304,4,2,131,80,0,0
133636,-86.9565217391304,4,2,132,80,0,0
133841,-86.9565217391304,4,2,151,80,0,0
134149,-86.9565217391304,4,2,152,80,0,0
134253,-86.9565217391304,4,2,134,80,0,0
134458,-86.9565217391304,4,2,153,80,0,0
134663,-86.9565217391304,4,2,136,80,0,0
134868,-86.9565217391304,4,2,154,80,0,0
135074,-86.9565217391304,4,2,155,80,0,0
135280,-86.9565217391304,4,2,156,80,0,0
135485,-86.9565217391304,4,2,157,80,0,0
135793,-86.9565217391304,4,2,158,80,0,0
135896,-86.9565217391304,4,2,159,80,0,0
136101,-86.9565217391304,4,2,160,80,0,0
136307,-86.9565217391304,4,2,161,80,0,0
136615,-86.9565217391304,4,2,158,80,0,0
136718,-86.9565217391304,4,2,159,80,0,0
136923,-86.9565217391304,4,2,162,80,0,0
137129,-86.9565217391304,4,2,163,80,0,0
137334,-86.9565217391304,4,2,164,80,0,0
137437,-86.9565217391304,4,2,165,80,0,0
137540,-86.9565217391304,4,2,270,80,0,0
137643,-86.9565217391304,4,2,167,80,0,0
137745,-86.9565217391304,4,2,271,80,0,0
137848,-86.9565217391304,4,2,169,80,0,0
137951,-86.9565217391304,4,2,272,80,0,0
138053,-86.9565217391304,4,2,171,80,0,0
138156,-86.9565217391304,4,2,172,80,0,0
138362,-86.9565217391304,4,2,173,80,0,0
138567,-86.9565217391304,4,2,174,80,0,0
138773,-86.9565217391304,4,2,175,80,0,0
139081,-86.9565217391304,4,2,176,80,0,0
139184,-86.9565217391304,4,2,177,80,0,0
139389,-86.9565217391304,4,2,178,80,0,0
139595,-86.9565217391304,4,2,179,80,0,0
139800,-86.9565217391304,4,2,273,80,0,0
139903,-86.9565217391304,4,2,130,80,0,0
140006,-86.9565217391304,4,2,180,80,0,0
140211,-86.9565217391304,4,2,181,80,0,0
140417,-86.9565217391304,4,2,182,80,0,0
140725,-86.9565217391304,4,2,134,80,0,0
140827,-86.9565217391304,4,2,135,80,0,0
141032,-86.9565217391304,4,2,136,80,0,0
141238,-86.9565217391304,4,2,137,80,0,0
141444,-86.9565217391304,4,2,134,80,0,0
141649,-86.9565217391304,4,2,138,80,0,0
141854,-86.9565217391304,4,2,136,80,0,0
142060,-86.9565217391304,4,2,139,80,0,0
142369,-86.9565217391304,4,2,140,80,0,0
142470,-86.9565217391304,4,2,141,80,0,0
142677,-86.9565217391304,4,2,142,80,0,0
142882,-86.9565217391304,4,2,183,80,0,0
143191,-86.9565217391304,4,2,140,80,0,0
143292,-86.9565217391304,4,2,141,80,0,0
143499,-86.9565217391304,4,2,142,80,0,0
143704,-86.9565217391304,4,2,184,80,0,0
143910,-86.9565217391304,4,2,120,80,0,0
144012,-86.9565217391304,4,2,144,80,0,0
144115,-86.9565217391304,4,2,185,80,0,0
144321,-86.9565217391304,4,2,186,80,0,0
144526,-86.9565217391304,4,2,187,80,0,0
144834,-86.9565217391304,4,2,144,80,0,0
144937,-86.9565217391304,4,2,188,80,0,0
145143,-86.9565217391304,4,2,149,80,0,0
145245,-86.9565217391304,4,2,1,80,0,0
145348,-86.9565217391304,4,2,189,80,0,0
145657,-86.9565217391304,4,2,130,80,0,0
145758,-86.9565217391304,4,2,190,80,0,0
145964,-86.9565217391304,4,2,191,80,0,0
146169,-86.9565217391304,4,2,192,80,0,0
146375,-86.9565217391304,4,2,193,80,0,0
146478,-86.9565217391304,4,2,130,80,0,0
146581,-86.9565217391304,4,2,194,80,0,0
146786,-86.9565217391304,4,2,195,80,0,0
146992,-86.9565217391304,4,2,196,80,0,0
147300,-86.9565217391304,4,2,134,80,0,0
147403,-86.9565217391304,4,2,197,80,0,0
147608,-86.9565217391304,4,2,136,80,0,0
147814,-86.9565217391304,4,2,198,80,0,0
148019,-86.9565217391304,4,2,134,80,0,0
148225,-86.9565217391304,4,2,199,80,0,0
148430,-86.9565217391304,4,2,200,80,0,0
148636,-86.9565217391304,4,2,201,80,0,0
148944,-86.9565217391304,4,2,202,80,0,0
149047,-86.9565217391304,4,2,203,80,0,0
149252,-86.9565217391304,4,2,204,80,0,0
149458,-86.9565217391304,4,2,205,80,0,0
149766,-86.9565217391304,4,2,202,80,0,0
149869,-86.9565217391304,4,2,203,80,0,0
150074,-86.9565217391304,4,2,204,80,0,0
150280,-86.9565217391304,4,2,206,80,0,0
150485,-86.9565217391304,4,2,274,80,0,0
151718,-86.9565217391304,4,2,275,80,0,0
151923,-100,4,2,276,70,0,0
152232,-100,4,2,1,70,0,0
152334,-100,4,2,120,70,0,0
152540,-100,4,2,277,70,0,0
152950,-100,4,2,278,70,0,0
153054,-100,4,2,279,70,0,0
153157,-100,4,2,278,70,0,0
153259,-100,4,2,280,70,0,0
153362,-100,4,2,281,70,0,0
153568,-100,4,2,282,70,0,0
153772,-100,4,2,2,70,0,0
153978,-100,4,2,283,70,0,0
154184,-100,4,2,284,70,0,0
154389,-100,4,2,33,70,0,0
154800,-100,4,2,285,70,0,0
154869,-100,4,2,286,70,0,0
154937,-100,4,2,287,70,0,0
155006,-100,4,2,288,70,0,0
155074,-100,4,2,289,70,0,0
155108,-100,4,2,1,70,0,0
155143,-100,4,2,290,70,0,0
155211,-100,4,2,291,70,0,0
155314,-100,4,2,292,70,0,0
155416,-100,4,2,293,70,0,0
155519,-100,4,2,294,70,0,0
155622,-100,4,2,293,70,0,0
155827,-100,4,2,295,70,0,0
155931,-100,4,2,296,70,0,0
156033,-100,4,2,297,70,0,0
156237,-100,4,2,298,70,0,0
156444,-100,4,2,299,70,0,0
156649,-100,4,2,300,70,0,0
156855,-100,4,2,301,70,0,0
157059,-100,4,2,302,70,0,0
157163,-100,4,2,169,70,0,0
157266,-100,4,2,303,70,0,0
157369,-100,4,2,304,70,0,0
157472,-100,4,2,305,70,0,0
157574,-100,4,2,306,70,0,0
157677,-100,4,2,307,70,0,0
157779,-100,4,2,308,70,0,0
157882,-100,4,2,309,70,0,0
157985,-100,4,2,310,70,0,0
158088,-100,4,2,311,70,0,0
158156,-100,4,2,312,70,0,0
158293,-100,4,2,313,70,0,0
158396,-100,4,2,314,70,0,0
158499,-100,4,2,315,70,0,0
158704,-100,4,2,316,70,0,0
159321,-100,4,2,317,70,0,0
159525,-100,4,2,316,70,0,0
160143,-100,4,2,318,70,0,0
160348,-100,4,2,319,70,0,0
160554,-100,4,2,320,70,0,0
160759,-100,4,2,319,70,0,0
160964,-100,4,2,320,70,0,0
161170,-100,4,2,321,70,0,0
161581,-100,4,2,319,70,0,0
161786,-100,4,2,322,70,0,0
161991,-100,4,2,323,70,0,0
162197,-100,4,2,324,70,0,0
162403,-100,4,2,323,70,0,0
162609,-100,4,2,324,70,0,0
162813,-100,4,2,323,70,0,0
163430,-100,4,2,325,70,0,0
163738,-100,4,2,1,70,0,0
163841,-100,4,2,326,70,0,0
164047,-100,4,2,1,70,0,0
164252,-100,4,2,327,70,0,0
164526,-100,4,2,328,70,0,0
164663,-100,4,2,2,70,0,0
164800,-100,4,2,260,70,0,0
164869,-100,4,2,278,70,0,0
164971,-100,4,2,279,70,0,0
165074,-125,4,2,329,70,0,0
165382,-125,4,2,330,70,0,0
165690,-125,4,2,331,70,0,0
165896,-117.647058823529,4,2,332,70,0,0
166204,-117.647058823529,4,2,333,70,0,0
166512,-117.647058823529,4,2,334,70,0,0
166718,-111.111111111111,4,2,335,70,0,0
167026,-111.111111111111,4,2,336,70,0,0
167334,-111.111111111111,4,2,337,70,0,0
167540,-111.111111111111,4,2,338,70,0,0
167951,-111.111111111111,4,2,339,70,0,0
168053,-111.111111111111,4,2,278,70,0,0
168156,-111.111111111111,4,2,340,70,0,0
168259,-111.111111111111,4,2,278,70,0,0
168362,-111.111111111111,4,2,341,70,0,0
168978,-111.111111111111,4,2,1,70,0,0
169184,-105.263157894737,4,2,342,70,0,0
169800,-105.263157894737,4,2,1,70,0,0
170006,-100,4,2,343,70,0,0
170622,-100,4,2,1,70,0,0
170827,-95.2380952380952,4,2,344,70,0,0
171648,-95.2380952380952,4,2,345,70,0,0
171701,-95.2380952380952,4,2,346,70,0,0
171718,-95.2380952380952,4,2,347,70,0,0
171786,-95.2380952380952,4,2,348,70,0,0
172883,-95.2380952380952,4,2,349,50,0,0
173294,-95.2380952380952,4,2,29,50,0,0
173601,-95.2380952380952,4,2,89,50,0,0
173705,-95.2380952380952,4,2,350,50,0,0
173910,-95.2380952380952,4,2,351,50,0,0
174116,-95.2380952380952,4,2,352,50,0,0
174321,-95.2380952380952,4,2,353,50,0,0
174732,-95.2380952380952,4,2,20,50,0,0
174835,-95.2380952380952,4,2,354,50,0,0
174937,-95.2380952380952,4,2,355,50,0,0
175348,-95.2380952380952,4,2,356,50,0,0
175759,-95.2380952380952,4,2,357,50,0,0
176170,-95.2380952380952,4,2,358,50,0,0
176581,-95.2380952380952,4,2,359,50,0,0
176787,-95.2380952380952,4,2,360,50,0,0
177403,-95.2380952380952,4,2,361,50,0,0
177609,-95.2380952380952,4,2,362,50,0,0
178020,-95.2380952380952,4,2,363,50,0,0
178122,-95.2380952380952,4,2,364,50,0,0
178225,-95.2380952380952,4,2,365,50,0,0
178636,-95.2380952380952,4,2,366,50,0,0
178944,-95.2380952380952,4,2,367,50,0,0
178996,-95.2380952380952,4,2,368,50,0,0
179047,-95.2380952380952,4,2,369,50,0,0
179458,-95.2380952380952,4,2,370,50,0,0
179561,-95.2380952380952,4,2,304,50,0,0
179663,-95.2380952380952,4,2,371,50,0,0
179766,-95.2380952380952,4,2,372,50,0,0
179869,-95.2380952380952,4,2,373,50,0,0
180177,-95.2380952380952,4,2,21,50,0,0
180280,-95.2380952380952,4,2,374,50,0,0
180485,-95.2380952380952,4,2,375,50,0,0
180691,-95.2380952380952,4,2,21,50,0,0
180896,-95.2380952380952,4,2,376,50,0,0
181307,-95.2380952380952,4,2,377,50,0,0
181410,-95.2380952380952,4,2,378,50,0,0
181513,-95.2380952380952,4,2,379,50,0,0
181924,-95.2380952380952,4,2,380,50,0,0
182129,-95.2380952380952,4,2,350,50,0,0
182335,-95.2380952380952,4,2,381,50,0,0
182643,-95.2380952380952,4,2,382,50,0,0
182951,-95.2380952380952,4,2,351,50,0,0
183157,-95.2380952380952,4,2,383,50,0,0
183568,-95.2380952380952,4,2,350,50,0,0
183773,-95.2380952380952,4,2,384,50,0,0
183876,-95.2380952380952,4,2,363,50,0,0
183979,-95.2380952380952,4,2,385,50,0,0
184287,-95.2380952380952,4,2,386,50,0,0
184595,-95.2380952380952,4,2,387,50,0,0
184800,-95.2380952380952,4,2,19,50,0,0
185006,-133.333333333333,4,2,388,50,0,0
185109,-133.333333333333,4,2,389,50,0,0
185211,-133.333333333333,4,2,390,50,0,0
185314,-133.333333333333,4,2,391,50,0,0
185417,-133.333333333333,4,2,378,50,0,0
185520,-133.333333333333,4,2,377,50,0,0
185622,-133.333333333333,4,2,364,50,0,0
185725,-133.333333333333,4,2,392,50,0,0
185828,-133.333333333333,4,2,393,50,0,0
185931,-133.333333333333,4,2,394,50,0,0
186033,-133.333333333333,4,2,395,50,0,0
186136,-133.333333333333,4,2,396,50,0,0
186238,-133.333333333333,4,2,267,50,0,0
186444,-133.333333333333,4,2,397,50,0,0
186753,-133.333333333333,4,2,398,50,0,0
186854,-133.333333333333,4,2,399,50,0,0
187060,-133.333333333333,4,2,400,50,0,0
187266,-133.333333333333,4,2,401,50,0,0
187472,-133.333333333333,4,2,402,50,0,0
187882,-133.333333333333,4,2,403,50,0,0
187985,-133.333333333333,4,2,404,50,0,0
188088,-133.333333333333,4,2,405,50,0,0
188498,-133.333333333333,4,2,406,50,0,0
188910,-133.333333333333,4,2,407,50,0,0
189115,-133.333333333333,4,2,408,50,0,0
189321,-133.333333333333,4,2,27,50,0,0
189526,-133.333333333333,4,2,409,50,0,0
189732,-133.333333333333,4,2,410,50,0,0
189937,-133.333333333333,4,2,411,50,0,0
190040,-133.333333333333,4,2,89,50,0,0
190142,-133.333333333333,4,2,350,50,0,0
190554,-133.333333333333,4,2,412,50,0,0
190759,-133.333333333333,4,2,413,50,0,0
191170,-133.333333333333,4,2,414,50,0,0
191273,-133.333333333333,4,2,19,50,0,0
191375,-133.333333333333,4,2,415,50,0,0
191785,-133.333333333333,4,2,416,50,0,0
192095,-133.333333333333,4,2,417,50,0,0
192146,-133.333333333333,4,2,418,50,0,0
192197,-133.333333333333,4,2,350,50,0,0
192608,-133.333333333333,4,2,419,50,0,0
192710,-133.333333333333,4,2,399,50,0,0
192813,-133.333333333333,4,2,420,50,0,0
192916,-133.333333333333,4,2,394,50,0,0
193019,-133.333333333333,4,2,421,50,0,0
193328,-133.333333333333,4,2,398,50,0,0
193429,-133.333333333333,4,2,399,50,0,0
193636,-133.333333333333,4,2,422,50,0,0
193842,-133.333333333333,4,2,423,50,0,0
194046,-133.333333333333,4,2,407,50,0,0
194252,-133.333333333333,4,2,408,50,0,0
194458,-133.333333333333,4,2,352,50,0,0
194663,-133.333333333333,4,2,424,50,0,0
195049,-133.333333333333,4,2,425,50,0,0
195073,-133.333333333333,4,2,426,50,0,0
195460,-133.333333333333,4,2,427,50,0,0
195484,-133.333333333333,4,2,428,50,0,0
195896,-133.333333333333,4,2,352,50,0,0
196101,-133.333333333333,4,2,411,50,0,0
196307,-200,4,2,429,50,0,0
196513,-200,4,2,423,50,0,0
196718,-200,4,2,430,50,0,0
196924,-200,4,2,431,50,0,0
197129,-200,4,2,432,50,0,0
197335,-200,4,2,273,50,0,0
197540,-200,4,2,433,50,0,0
197746,-200,4,2,434,50,0,0
197951,-200,4,2,435,50,0,0
198361,-200,4,2,436,50,0,0
198978,-200,4,2,19,50,0,0
199184,-200,4,2,120,50,0,0
199389,-200,4,2,437,50,0,0
199595,-100,4,2,438,60,0,0
199646,-100,4,2,439,30,0,0
199800,-100,4,2,440,30,0,0
199903,-100,4,2,439,30,0,0
200006,-100,4,2,441,30,0,0
200108,-100,4,2,442,30,0,0
200211,-100,4,2,443,40,0,0
200314,-100,4,2,442,40,0,0
200417,-100,4,2,444,45,0,0
200520,-100,4,2,445,45,0,0
200622,-100,4,2,446,50,0,0
200725,-100,4,2,445,50,0,0
200827,-100,4,2,447,55,0,0
200930,-100,4,2,448,55,0,0
201033,-100,4,2,449,60,0,0
201136,-100,4,2,448,60,0,0
201238,-100,4,2,450,80,0,0
201855,-100,4,2,451,80,0,0
202266,-125,4,2,452,60,0,0
202472,-125,4,2,453,60,0,0
202676,-125,4,2,454,60,0,0
202882,-125,4,2,455,80,0,0
203191,-125,4,2,456,60,0,0
203294,-125,4,2,457,60,0,0
203499,-90.9090909090909,4,2,458,80,0,0
203705,-90.9090909090909,4,2,459,80,0,0
203909,-90.9090909090909,4,2,1,80,0,0
204115,-90.9090909090909,4,2,437,80,0,0
204217,-90.9090909090909,4,2,274,80,0,0
204526,-90.9090909090909,4,2,334,80,0,0
204706,-90.9090909090909,4,2,460,80,0,0
204732,-80,4,2,461,80,0,0
205015,-80,4,2,460,80,0,0
205040,-80,4,2,462,80,0,0
205323,-80,4,2,463,80,0,0
205348,-80,4,2,464,80,0,0
205758,-80,4,2,465,80,0,0
206170,-86.9565217391304,4,2,466,55,0,0
206478,-86.9565217391304,4,2,140,80,0,0
206580,-86.9565217391304,4,2,141,80,0,0
206786,-86.9565217391304,4,2,142,80,0,0
206992,-86.9565217391304,4,2,139,80,0,0
207300,-86.9565217391304,4,2,140,80,0,0
207402,-86.9565217391304,4,2,141,80,0,0
207608,-86.9565217391304,4,2,142,80,0,0
207814,-86.9565217391304,4,2,143,80,0,0
208019,-86.9565217391304,4,2,120,80,0,0
208122,-86.9565217391304,4,2,144,80,0,0
208225,-86.9565217391304,4,2,145,80,0,0
208431,-86.9565217391304,4,2,146,80,0,0
208636,-86.9565217391304,4,2,147,80,0,0
208944,-86.9565217391304,4,2,144,80,0,0
209047,-86.9565217391304,4,2,148,80,0,0
209252,-86.9565217391304,4,2,149,80,0,0
209355,-86.9565217391304,4,2,1,80,0,0
209458,-86.9565217391304,4,2,150,80,0,0
209766,-86.9565217391304,4,2,126,80,0,0
209869,-86.9565217391304,4,2,127,80,0,0
210074,-86.9565217391304,4,2,128,80,0,0
210280,-86.9565217391304,4,2,129,80,0,0
210588,-86.9565217391304,4,2,130,80,0,0
210690,-86.9565217391304,4,2,131,80,0,0
210896,-86.9565217391304,4,2,132,80,0,0
211101,-86.9565217391304,4,2,151,80,0,0
211410,-86.9565217391304,4,2,152,80,0,0
211513,-86.9565217391304,4,2,134,80,0,0
211718,-86.9565217391304,4,2,153,80,0,0
211924,-86.9565217391304,4,2,136,80,0,0
212128,-86.9565217391304,4,2,154,80,0,0
212334,-86.9565217391304,4,2,155,80,0,0
212540,-86.9565217391304,4,2,156,80,0,0
212745,-86.9565217391304,4,2,157,80,0,0
213054,-86.9565217391304,4,2,158,80,0,0
213156,-86.9565217391304,4,2,159,80,0,0
213362,-86.9565217391304,4,2,160,80,0,0
213567,-86.9565217391304,4,2,161,80,0,0
213875,-86.9565217391304,4,2,158,80,0,0
213978,-86.9565217391304,4,2,159,80,0,0
214184,-86.9565217391304,4,2,162,80,0,0
214389,-86.9565217391304,4,2,163,55,0,0
214594,-86.9565217391304,4,2,164,80,0,0
214698,-86.9565217391304,4,2,165,80,0,0
214800,-86.9565217391304,4,2,270,80,0,0
214903,-86.9565217391304,4,2,167,80,0,0
215006,-86.9565217391304,4,2,271,80,0,0
215108,-86.9565217391304,4,2,169,80,0,0
215211,-86.9565217391304,4,2,272,80,0,0
215313,-86.9565217391304,4,2,171,80,0,0
215416,-86.9565217391304,4,2,172,80,0,0
215622,-86.9565217391304,4,2,173,80,0,0
215827,-86.9565217391304,4,2,174,80,0,0
216033,-86.9565217391304,4,2,467,55,0,0
216341,-86.9565217391304,4,2,176,80,0,0
216444,-86.9565217391304,4,2,177,80,0,0
216649,-86.9565217391304,4,2,178,80,0,0
216855,-86.9565217391304,4,2,179,80,0,0
217060,-86.9565217391304,4,2,130,80,0,0
217266,-86.9565217391304,4,2,180,80,0,0
217471,-86.9565217391304,4,2,181,80,0,0
217677,-86.9565217391304,4,2,182,80,0,0
217985,-86.9565217391304,4,2,134,80,0,0
218088,-86.9565217391304,4,2,135,80,0,0
218293,-86.9565217391304,4,2,136,80,0,0
218499,-86.9565217391304,4,2,137,80,0,0
218704,-86.9565217391304,4,2,134,80,0,0
218910,-86.9565217391304,4,2,138,80,0,0
219115,-86.9565217391304,4,2,136,80,0,0
219321,-86.9565217391304,4,2,139,80,0,0
219629,-86.9565217391304,4,2,140,80,0,0
219731,-86.9565217391304,4,2,141,80,0,0
219937,-86.9565217391304,4,2,142,80,0,0
220143,-86.9565217391304,4,2,183,80,0,0
220451,-86.9565217391304,4,2,140,80,0,0
220553,-86.9565217391304,4,2,141,80,0,0
220759,-86.9565217391304,4,2,142,80,0,0
220964,-86.9565217391304,4,2,184,80,0,0
221170,-86.9565217391304,4,2,120,80,0,0
221273,-86.9565217391304,4,2,144,80,0,0
221375,-86.9565217391304,4,2,185,80,0,0
221581,-86.9565217391304,4,2,186,80,0,0
221786,-86.9565217391304,4,2,187,80,0,0
222094,-86.9565217391304,4,2,144,80,0,0
222197,-86.9565217391304,4,2,188,80,0,0
222403,-86.9565217391304,4,2,149,80,0,0
222506,-86.9565217391304,4,2,1,80,0,0
222608,-86.9565217391304,4,2,189,80,0,0
222917,-86.9565217391304,4,2,130,80,0,0
223018,-86.9565217391304,4,2,190,80,0,0
223225,-86.9565217391304,4,2,191,80,0,0
223430,-86.9565217391304,4,2,192,80,0,0
223636,-86.9565217391304,4,2,193,80,0,0
223738,-86.9565217391304,4,2,130,80,0,0
223841,-86.9565217391304,4,2,194,80,0,0
224047,-86.9565217391304,4,2,195,80,0,0
224252,-86.9565217391304,4,2,196,80,0,0
224560,-86.9565217391304,4,2,134,80,0,0
224663,-86.9565217391304,4,2,197,80,0,0
224868,-86.9565217391304,4,2,136,80,0,0
225074,-86.9565217391304,4,2,198,80,0,0
225279,-86.9565217391304,4,2,134,80,0,0
225485,-86.9565217391304,4,2,199,80,0,0
225690,-86.9565217391304,4,2,200,80,0,0
225896,-86.9565217391304,4,2,201,80,0,0
226204,-86.9565217391304,4,2,202,80,0,0
226307,-86.9565217391304,4,2,203,80,0,0
226512,-86.9565217391304,4,2,204,80,0,0
226718,-86.9565217391304,4,2,205,80,0,0
227026,-86.9565217391304,4,2,202,80,0,0
227129,-86.9565217391304,4,2,203,80,0,0
227334,-86.9565217391304,4,2,204,80,0,0
227540,-86.9565217391304,4,2,468,80,0,0
227745,-86.9565217391304,4,2,1,80,0,0
227951,-86.9565217391304,4,2,469,80,0,0
228156,-86.9565217391304,4,2,172,80,0,0
228567,-86.9565217391304,4,2,470,80,0,0
228773,-86.9565217391304,4,2,471,80,0,0
228978,-86.9565217391304,4,2,472,80,0,0
229184,-86.9565217391304,4,2,473,70,0,1
229390,-86.9565217391304,4,2,474,70,0,1
229458,-86.9565217391304,4,2,475,70,0,1
229527,-86.9565217391304,4,2,476,70,0,1
229594,-86.9565217391304,4,2,477,70,0,1
229663,-86.9565217391304,4,2,478,70,0,1
229732,-86.9565217391304,4,2,479,70,0,1
229800,-86.9565217391304,4,2,480,70,0,1
229869,-86.9565217391304,4,2,347,70,0,1
229937,-86.9565217391304,4,2,481,70,0,1
230006,-86.9565217391304,4,2,482,70,0,1
230109,-86.9565217391304,4,2,483,70,0,1
230211,-86.9565217391304,4,2,484,70,0,1
230314,-86.9565217391304,4,2,485,70,0,1
230417,-86.9565217391304,4,2,486,70,0,1
230520,-86.9565217391304,4,2,487,70,0,1
230622,-86.9565217391304,4,2,488,70,0,1
230725,-86.9565217391304,4,2,489,70,0,1
230827,-86.9565217391304,4,2,490,70,0,1
231032,-86.9565217391304,4,2,491,70,0,1
231102,-86.9565217391304,4,2,492,70,0,1
231136,-86.9565217391304,4,2,492,70,0,1
231170,-86.9565217391304,4,2,493,70,0,1
231238,-86.9565217391304,4,2,494,70,0,1
231307,-86.9565217391304,4,2,495,70,0,1
231376,-86.9565217391304,4,2,346,70,0,1
231443,-86.9565217391304,4,2,496,70,0,1
231513,-86.9565217391304,4,2,497,70,0,1
231581,-86.9565217391304,4,2,498,70,0,1
231649,-86.9565217391304,4,2,499,70,0,1
231753,-86.9565217391304,4,2,500,70,0,1
231855,-86.9565217391304,4,2,501,70,0,1
231958,-86.9565217391304,4,2,502,70,0,1
232060,-86.9565217391304,4,2,503,70,0,1
232163,-86.9565217391304,4,2,306,70,0,1
232266,-86.9565217391304,4,2,504,70,0,1
232369,-86.9565217391304,4,2,257,70,0,1
232471,-86.9565217391304,4,2,505,70,0,1
232677,-86.9565217391304,4,2,506,70,0,1
232746,-86.9565217391304,4,2,507,70,0,1
232814,-86.9565217391304,4,2,508,70,0,1
232881,-86.9565217391304,4,2,509,70,0,1
232951,-86.9565217391304,4,2,290,70,0,1
233020,-86.9565217391304,4,2,346,70,0,1
233088,-86.9565217391304,4,2,510,70,0,1
233293,-86.9565217391304,4,2,511,70,0,1
233498,-86.9565217391304,4,2,512,70,0,1
233568,-86.9565217391304,4,2,290,70,0,1
233636,-86.9565217391304,4,2,346,70,0,1
233704,-86.9565217391304,4,2,513,70,0,1
233773,-86.9565217391304,4,2,514,70,0,1
233842,-86.9565217391304,4,2,498,70,0,1
233909,-86.9565217391304,4,2,515,70,0,1
234115,-86.9565217391304,4,2,516,70,0,1
234320,-86.9565217391304,4,2,517,70,0,1
234390,-86.9565217391304,4,2,290,70,0,1
234458,-86.9565217391304,4,2,518,70,0,1
234526,-86.9565217391304,4,2,519,70,0,1
234595,-86.9565217391304,4,2,514,70,0,1
234663,-86.9565217391304,4,2,520,70,0,1
234732,-86.9565217391304,4,2,521,70,0,1
234937,-86.9565217391304,4,2,522,70,0,1
235143,-86.9565217391304,4,2,523,70,0,1
235348,-86.9565217391304,4,2,524,70,0,1
235553,-86.9565217391304,4,2,525,70,0,1
235759,-86.9565217391304,4,2,526,70,0,1
235965,-86.9565217391304,4,2,527,70,0,1
236033,-86.9565217391304,4,2,528,70,0,1
236102,-86.9565217391304,4,2,529,70,0,1
236169,-86.9565217391304,4,2,530,70,0,1
236239,-86.9565217391304,4,2,531,70,0,1
236307,-86.9565217391304,4,2,532,70,0,1
236375,-86.9565217391304,4,2,533,70,0,1
236444,-86.9565217391304,4,2,347,70,0,1
236513,-86.9565217391304,4,2,481,70,0,1
236581,-86.9565217391304,4,2,482,70,0,1
236684,-86.9565217391304,4,2,483,70,0,1
236786,-86.9565217391304,4,2,484,70,0,1
236890,-86.9565217391304,4,2,534,70,0,1
236992,-86.9565217391304,4,2,535,70,0,1
237095,-86.9565217391304,4,2,536,70,0,1
237197,-86.9565217391304,4,2,488,70,0,1
237300,-86.9565217391304,4,2,489,70,0,1
237403,-86.9565217391304,4,2,490,70,0,1
237608,-86.9565217391304,4,2,491,70,0,1
237677,-86.9565217391304,4,2,537,70,0,1
237711,-86.9565217391304,4,2,537,70,0,1
237746,-86.9565217391304,4,2,508,70,0,1
237814,-86.9565217391304,4,2,538,70,0,1
237883,-86.9565217391304,4,2,495,70,0,1
237951,-86.9565217391304,4,2,346,70,0,1
238019,-86.9565217391304,4,2,539,70,0,1
238225,-86.9565217391304,4,2,540,70,0,1
238430,-86.9565217391304,4,2,541,70,0,1
238499,-86.9565217391304,4,2,495,70,0,1
238568,-86.9565217391304,4,2,346,70,0,1
238636,-86.9565217391304,4,2,542,70,0,1
238705,-86.9565217391304,4,2,497,70,0,1
238773,-86.9565217391304,4,2,498,70,0,1
238841,-86.9565217391304,4,2,543,70,0,1
239047,-86.9565217391304,4,2,544,70,0,1
239253,-86.9565217391304,4,2,545,70,0,1
239457,-86.9565217391304,4,2,546,70,0,1
239663,-86.9565217391304,4,2,547,70,0,1
239869,-86.9565217391304,4,2,548,70,0,1
239937,-86.9565217391304,4,2,549,70,0,1
240006,-86.9565217391304,4,2,550,70,0,1
240074,-86.9565217391304,4,2,551,70,0,1
240143,-86.9565217391304,4,2,346,70,0,1
240211,-86.9565217391304,4,2,347,70,0,1
240280,-86.9565217391304,4,2,552,70,0,1
240348,-86.9565217391304,4,2,498,70,0,1
240417,-86.9565217391304,4,2,553,70,0,1
240485,-86.9565217391304,4,2,554,70,0,1
240690,-86.9565217391304,4,2,555,70,0,1
240895,-86.9565217391304,4,2,556,70,0,1
241101,-86.9565217391304,4,2,557,70,0,1
241307,-86.9565217391304,4,2,558,70,0,1
241410,-86.9565217391304,4,2,1,70,0,1
241512,-86.9565217391304,4,2,559,70,0,1
241718,-86.9565217391304,4,2,560,70,0,1
241923,-86.9565217391304,4,2,561,70,0,1
242129,-86.9565217391304,4,2,562,70,0,1
242334,-125,4,2,563,70,0,0
242642,-125,4,2,564,50,0,0
242950,-125,4,2,565,50,0,0
243362,-125,4,2,566,50,0,0
243772,-125,4,2,89,50,0,0
243978,-125,4,2,567,50,0,0
244286,-125,4,2,568,50,0,0
244389,-125,4,2,89,50,0,0
244594,-125,4,2,569,50,0,0
245006,-125,4,2,570,50,0,0
245211,-125,4,2,89,50,0,0
245417,-125,4,2,571,50,0,0
245622,-125,4,2,572,50,0,0
245828,-125,4,2,136,50,0,0
246032,-125,4,2,573,50,0,0
246238,-125,4,2,574,50,0,0
246648,-125,4,2,575,50,0,0
246855,-125,4,2,576,50,0,0
247060,-125,4,2,577,50,0,0
247266,-125,4,2,578,50,0,0
247677,-125,4,2,579,50,0,0
248088,-125,4,2,580,50,0,0
248499,-125,4,2,581,50,0,0
248910,-125,4,2,582,50,0,0
249218,-125,4,2,583,50,0,0
249526,-125,4,2,584,50,0,0
249937,-125,4,2,190,50,0,0
250143,-125,4,2,585,50,0,0
250554,-125,4,2,586,50,0,0
250862,-125,4,2,587,50,0,0
250964,-125,4,2,89,50,0,0
251170,-125,4,2,565,50,0,0
251581,-125,4,2,588,50,0,0
251786,-125,4,2,589,50,0,0
251992,-125,4,2,590,50,0,0
252146,-125,4,2,89,50,0,0
252172,-125,4,2,591,50,0,0
252197,-125,4,2,592,50,0,0
252403,-125,4,2,577,50,0,0
252607,-125,4,2,593,50,0,0
252814,-125,4,2,594,50,0,0
252968,-125,4,2,89,50,0,0
252994,-125,4,2,591,50,0,0
253019,-125,4,2,595,50,0,0
253224,-125,4,2,596,50,0,0
253430,-125,4,2,597,50,0,0
253636,-125,4,2,598,50,0,0
253790,-125,4,2,89,50,0,0
253816,-125,4,2,591,50,0,0
253841,-125,4,2,599,50,0,0
254252,-125,4,2,600,50,0,0
254868,-125,4,2,601,50,0,0
255460,-125,4,2,602,50,0,0
255485,500,4,2,603,40,1,0
255735,-100,4,2,604,40,0,0
255985,571.428571428571,4,2,605,40,1,0
256270,-100,4,2,606,40,0,0
256413,-100,4,2,607,40,0,0
256449,-100,4,2,608,40,0,0
256485,-100,4,2,14,40,0,0
256520,-100,4,2,609,40,0,0
256556,612.244897959184,4,2,610,40,1,0
256556,-125,4,2,610,40,0,0
256989,-125,4,2,611,40,0,0
257168,631.578947368421,4,2,611,40,1,0
257277,-100,4,2,33,40,0,0
257483,-100,4,2,33,40,0,0
257507,631.578947368421,4,2,33,40,1,0
257720,-100,4,2,612,40,0,0
257760,-100,4,2,613,40,0,0
257799,666.666666666667,4,2,616,40,1,0
257799,-200,4,2,616,40,0,0
257965,-200,4,2,100,40,0,0
258757,-200,4,2,617,30,0,0
258799,-200,4,2,618,30,0,0
258840,-200,4,2,619,30,0,0

[Colours]
Combo1 : 66,68,127
Combo2 : 234,217,226
Combo3 : 153,79,115
Combo4 : 205,128,181
Combo5 : 229,120,95

[HitObjects]
100,166,691,6,0,P|55:162|4:204,2,90,2|2|2,2:2|2:2|2:2,0:0:0:0:
245,280,1718,1,2,2:2:0:0:
245,280,1923,2,0,P|284:274|325:267,1,60,2|0,2:2|0:0,0:0:0:0:
387,305,2334,2,0,P|417:349|401:409,2,90,2|2|2,2:2|2:2|2:2,0:0:0:0:
457,248,3156,2,0,P|467:186|476:124,1,120,2|0,2:2|0:0,0:0:0:0:
472,40,3773,5,2,2:2:0:0:
472,40,3875,1,2,2:2:0:0:
472,40,3978,2,0,P|410:47|361:5,1,120,2|2,2:2|2:2,0:0:0:0:
273,6,4595,1,2,2:2:0:0:
273,6,4800,2,0,P|285:68|299:146,1,120,2|2,2:2|2:2,0:0:0:0:
240,195,5417,1,2,2:2:0:0:
158,156,5622,6,0,B|97:130|66:200|100:176|68:247|0:222,1,180,2|2,2:2|2:2,0:0:0:0:
112,384,6649,1,2,3:2:0:0:
112,384,6752,1,2,2:2:0:0:
112,384,6855,2,0,L|119:339,3,30,2|2|2|0,2:2|2:2|3:2|0:0,0:0:0:0:
128,310,7266,6,0,B|210:340|265:276|265:276|302:354|405:347,1,300,6|2,3:2|2:2,0:0:0:0:
458,293,8499,1,2,2:2:0:0:
458,293,8704,1,2,2:2:0:0:
397,226,8910,2,0,B|319:204|284:93|368:21|467:80|426:157,1,300,6|0,3:2|3:3,0:0:0:0:
509,188,10143,2,0,P|502:223|493:264,1,60,2|2,1:2|2:2,0:0:0:0:
480,288,10451,5,0,1:1:0:0:
484,295,10554,2,0,P|416:340|337:312,1,150,6|10,3:2|2:2,0:0:0:0:
279,271,11170,1,6,2:2:0:0:
279,271,11375,2,0,P|288:232|298:180,1,75,6|0,2:2|3:3,0:0:0:0:
367,132,11786,1,2,3:2:0:0:
367,132,11992,1,2,3:2:0:0:
305,56,12197,6,0,P|267:37|222:48,1,75,2|0,1:2|1:1,0:0:0:0:
194,62,12506,1,0,1:1:0:0:
188,66,12608,2,0,P|195:102|206:152,1,75,0|0,1:1|1:1,0:0:0:0:
229,181,12917,1,0,1:1:0:0:
225,188,13019,1,0,3:3:0:0:
148,248,13225,2,0,B|71:217|83:290|-6:255,1,150,4|0,1:2|1:1,0:0:0:0:
1,355,13841,6,0,P|38:362|72:369,1,60,14|2,3:2|2:2,0:0:0:0:
154,383,14252,2,0,P|175:352|167:317,1,60,2|2,3:2|2:2,0:0:0:0:
119,264,14663,1,2,3:2:0:0:
119,264,14869,2,0,P|124:232|133:183,1,60,2|0,2:2|3:3,0:0:0:0:
186,127,15280,5,2,2:2:0:0:
111,66,15485,2,0,P|41:62|2:101,2,120,0|0|0,3:3|3:3|3:3,0:0:0:0:
188,7,16512,1,2,2:2:0:0:
188,7,16718,1,2,3:2:0:0:
272,51,16923,1,2,2:2:0:0:
227,134,17129,6,0,P|238:181|253:260,1,120,0|2,3:3|3:2,0:0:0:0:
341,298,17745,1,2,2:2:0:0:
341,298,17951,2,0,P|334:331|327:370,1,60,2|2,3:2|2:2,0:0:0:0:
426,382,18362,1,2,3:2:0:0:
426,382,18567,1,2,2:2:0:0:
484,305,18773,6,0,P|474:253|458:178,2,120,0|0|0,3:3|3:3|3:3,0:0:0:0:
308,379,20006,1,2,3:2:0:0:
308,379,20211,1,2,2:2:0:0:
224,331,20417,2,0,P|162:319|118:362,1,120,2|2,3:2|3:2,0:0:0:0:
30,383,21033,2,0,P|36:350|44:312,1,60,2|0,2:2|3:3,0:0:0:0:
91,242,21444,2,0,P|85:209|77:171,1,60,2|0,2:2|3:3,0:0:0:0:
14,113,21855,1,2,2:2:0:0:
70,35,22060,6,0,P|109:46|149:54,1,60,0|2,3:3|2:2,0:0:0:0:
222,24,22471,1,2,3:2:0:0:
222,24,22677,2,0,P|258:77|247:137,1,120,2|0,2:2|0:0,0:0:0:0:
202,214,23293,1,2,3:2:0:0:
202,214,23499,1,2,2:2:0:0:
269,282,23704,5,2,3:2:0:0:
348,226,23910,2,0,P|353:197|359:167,1,60,2|0,2:2|3:3,0:0:0:0:
346,71,24321,2,0,P|391:29|460:51,1,120,2|2,2:2|3:2,0:0:0:0:
510,108,24937,1,2,3:2:0:0:
445,179,25143,6,0,P|391:165|320:154,1,120,6|2,3:2|2:2,0:0:0:0:
246,206,25759,1,2,2:2:0:0:
168,150,25964,1,2,1:2:0:0:
168,150,26067,1,0,1:1:0:0:
168,150,26170,2,0,P|160:123|177:87,1,60,2|2,3:2|3:2,0:0:0:0:
197,54,26478,1,0,1:1:0:0:
202,47,26581,2,0,L|191:2,2,30,2|0|0,3:2|1:1|3:3,0:0:0:0:
288,85,26992,6,0,P|324:78|374:67,1,67.5000000000001,6|2,3:2|1:2,0:0:0:0:
391,42,27300,1,0,1:1:0:0:
397,48,27403,2,0,P|430:54|478:65,1,67.5000000000001,2|2,3:2|1:2,0:0:0:0:
512,147,27814,1,2,3:2:0:0:
512,147,28019,2,0,P|479:168|443:164,1,67.5000000000001,2|0,1:2|3:3,0:0:0:0:
365,160,28430,5,2,1:2:0:0:
365,160,28533,1,0,1:1:0:0:
365,160,28636,2,0,P|354:235|340:316,2,135,6|0|0,3:2|3:3|3:3,0:0:0:0:
312,81,29663,1,2,1:2:0:0:
312,81,29869,1,2,3:2:0:0:
235,136,30074,5,2,1:2:0:0:
235,136,30177,1,0,1:1:0:0:
235,136,30280,2,0,P|202:149|152:137,1,67.5000000000001,6|2,3:2|1:2,0:0:0:0:
125,130,30588,1,0,1:1:0:0:
119,124,30690,2,0,P|125:92|133:41,1,67.5000000000001,2|2,3:2|1:2,0:0:0:0:
59,3,31101,1,2,3:2:0:0:
59,3,31307,1,2,1:2:0:0:
2,78,31512,1,2,3:2:0:0:
74,139,31718,6,0,P|68:177|61:219,1,67.5000000000001,2|4,1:2|3:3,0:0:0:0:
0,276,32129,2,0,P|53:311|125:288,1,135,2|0,1:2|1:1,0:0:0:0:
197,242,32745,2,0,P|236:249|279:259,1,67.5000000000001,0|0,3:3|1:1,0:0:0:0:
300,285,33054,1,0,1:1:0:0:
310,284,33156,1,2,3:2:0:0:
410,311,33362,5,2,1:2:0:0:
410,311,33464,1,0,1:1:0:0:
410,311,33567,2,0,P|400:248|383:157,1,135,6|2,3:2|3:2,0:0:0:0:
303,131,34184,2,0,P|310:101|319:55,1,67.5000000000001,2|0,1:2|3:3,0:0:0:0:
387,1,34595,2,0,P|424:-1|459:24,1,67.5000000000001,2|0,1:2|3:3,0:0:0:0:
511,98,35006,5,2,1:2:0:0:
511,98,35108,1,0,1:1:0:0:
511,98,35211,2,0,P|503:136|492:182,1,67.5000000000001,6|2,3:2|1:2,0:0:0:0:
464,198,35519,1,0,1:1:0:0:
458,204,35622,1,2,3:2:0:0:
379,153,35827,2,0,P|315:143|268:199,1,135,2|0,1:2|1:1,0:0:0:0:
322,269,36444,1,2,3:2:0:0:
276,354,36649,5,2,1:2:0:0:
276,354,36752,1,0,1:1:0:0:
276,354,36855,2,0,P|208:342|125:331,1,135,6|0,3:2|3:3,0:0:0:0:
56,373,37471,1,2,1:2:0:0:
4,299,37677,1,2,1:2:0:0:
4,299,37882,1,6,2:2:0:0:
78,240,38088,1,10,2:2:0:0:
26,161,38293,6,0,P|12:94|-3:19,1,135,6|2,3:2|1:2,0:0:0:0:
90,2,38910,1,0,3:3:0:0:
90,2,39115,2,0,P|98:40|108:85,1,67.5000000000001,2|0,3:2|3:3,0:0:0:0:
163,141,39526,2,0,L|153:189,2,33.75,2|0|0,1:2|1:1|3:3,0:0:0:0:
248,95,39937,5,2,3:2:0:0:
248,95,40040,1,0,1:1:0:0:
248,95,40143,2,0,P|274:65|245:-7,2,112.5,14|14|14,3:2|3:2|3:2,0:0:0:0:
182,166,40964,1,2,1:2:0:0:
298,322,41375,1,0,1:1:0:0:
373,259,41581,5,2,1:2:0:0:
373,259,41684,1,0,1:1:0:0:
373,259,41786,2,0,P|413:251|460:243,1,75,6|0,3:2|0:0,0:0:0:0:
493,230,42095,2,0,P|510:196|483:146,1,75,2|0,3:2|0:0,0:0:0:0:
464,128,42403,1,2,3:2:0:0:
505,39,42608,1,2,1:2:0:0:
422,8,42814,1,0,1:1:0:0:
422,8,42917,1,0,1:1:0:0:
422,8,43019,2,0,L|372:18,3,37.5,0|0|2|0,1:1|0:0|1:2|1:1,0:0:0:0:
344,42,43430,6,0,P|319:96|344:149,2,112.5,14|14|14,3:2|3:2|3:2,0:0:0:0:
254,1,44252,1,2,1:2:0:0:
62,38,44663,2,0,L|75:90,3,37.5,0|0|2|0,1:1|0:0|1:2|1:1,0:0:0:0:
103,111,45074,2,0,P|94:161|79:246,1,112.5,6|2,3:2|2:2,0:0:0:0:
69,268,45485,2,0,P|140:298|200:249,1,150,2|2,3:2|3:2,0:0:0:0:
330,119,46307,1,2,3:2:0:0:
406,178,46512,6,0,P|390:256|375:344,1,150,6|2,3:2|3:2,0:0:0:0:
463,383,47129,1,2,1:2:0:0:
463,383,47334,2,0,P|492:353|487:309,1,75,2|2,3:2|3:2,0:0:0:0:
442,243,47745,1,2,3:2:0:0:
442,243,47951,1,2,1:2:0:0:
507,171,48156,6,0,P|495:98|480:10,1,150,6|2,3:2|3:2,0:0:0:0:
385,4,48773,2,0,P|392:43|401:98,1,75,2|2,1:2|3:2,0:0:0:0:
361,172,49184,1,2,1:2:0:0:
361,172,49286,1,0,1:1:0:0:
361,172,49389,1,0,3:3:0:0:
271,132,49595,2,0,P|232:114|182:122,1,75,6|2,1:2|3:2,0:0:0:0:
163,147,49903,5,0,3:3:0:0:
156,146,50006,2,0,P|113:151|61:159,1,75,6|2,1:2|3:2,0:0:0:0:
6,101,50417,1,2,1:2:0:0:
6,101,50622,1,2,3:2:0:0:
50,14,50827,1,2,1:2:0:0:
138,55,51033,1,2,3:2:0:0:
326,4,51444,6,0,P|366:45|346:139,1,150,6|0,3:2|3:3,0:0:0:0:
283,198,52060,1,2,3:2:0:0:
283,198,52266,2,0,P|291:237|300:290,1,75,2|0,3:2|3:3,0:0:0:0:
334,367,52677,1,2,3:2:0:0:
334,367,52882,1,2,3:2:0:0:
407,303,53088,1,2,3:2:0:0:
467,379,53293,5,10,3:2:0:0:
511,239,53601,5,10,3:2:0:0:
453,103,53910,5,10,3:2:0:0:
363,140,54115,1,2,1:2:0:0:
305,74,54321,1,2,1:2:0:0:
305,74,54423,1,0,1:1:0:0:
305,74,54526,2,0,L|314:17,2,37.5,2|0|2,3:2|1:1|1:2,0:0:0:0:
201,107,54937,6,0,P|163:80|122:86,1,86.25,14|0,3:2|0:0,0:0:0:0:
82,109,55245,1,2,1:2:0:0:
87,118,55348,1,2,3:2:0:0:
38,204,55554,1,2,1:2:0:0:
123,253,55759,2,0,P|114:307|108:350,1,86.25,10|0,3:2|1:1,0:0:0:0:
139,377,56067,1,2,1:2:0:0:
148,382,56170,1,2,3:2:0:0:
222,316,56375,1,2,1:2:0:0:
305,370,56581,6,0,P|331:320|295:242,1,129.375,2|2,3:2|1:2,0:0:0:0:
264,232,56992,2,0,P|258:190|250:139,1,86.25,2|2,3:2|1:2,0:0:0:0:
210,55,57403,2,0,P|254:17|328:31,1,129.375,2|2,3:2|2:2,0:0:0:0:
357,59,57814,2,0,P|399:77|442:64,1,86.25,2|2,3:2|1:2,0:0:0:0:
473,33,58122,5,0,1:1:0:0:
482,36,58225,2,0,P|498:127|514:221,1,172.5,14|2,3:2|3:2,0:0:0:0:
510,305,58841,1,2,1:2:0:0:
416,271,59047,2,0,B|312:247|356:330|239:304,1,172.5,2|2,3:2|3:2,0:0:0:0:
168,260,59663,1,2,1:2:0:0:
118,345,59869,5,6,3:2:0:0:
34,313,60074,1,2,2:2:0:0:
34,313,60177,1,2,1:2:0:0:
34,313,60280,2,0,B|19:263|19:263|32:233|32:233|13:165,1,129.375,6|0,3:2|0:0,0:0:0:0:
1,144,60690,2,0,P|39:104|119:120,1,129.375,6|2,3:2|1:2,0:0:0:0:
147,141,61101,1,2,3:2:0:0:
219,73,61307,5,2,1:2:0:0:
219,73,61410,1,2,1:3:0:0:
219,73,61512,2,0,P|262:81|320:94,1,86.25,14|0,3:2|0:0,0:0:0:0:
345,117,61821,1,10,1:2:0:0:
357,115,61923,1,10,3:2:0:0:
423,41,62129,1,2,1:2:0:0:
511,84,62334,2,0,P|501:131|492:179,1,86.25,10|0,3:2|1:1,0:0:0:0:
467,211,62643,1,2,1:2:0:0:
470,223,62745,1,2,3:2:0:0:
384,274,62951,1,2,1:2:0:0:
312,206,63156,6,0,P|261:200|223:230,1,86.25,10|0,3:2|0:0,0:0:0:0:
199,253,63464,2,0,P|209:300|218:348,1,86.25,10|0,1:2|0:0,0:0:0:0:
260,361,63773,2,0,B|340:326|341:407|431:368,1,172.5,2|2,1:2|1:2,0:0:0:0:
505,312,64389,1,2,3:2:0:0:
462,234,64595,5,2,1:2:0:0:
462,234,64697,1,0,1:1:0:0:
462,234,64800,2,0,P|468:194|482:136,1,86.25,6|0,3:2|0:0,0:0:0:0:
507,109,65108,1,2,1:2:0:0:
502,98,65211,1,2,3:2:0:0:
452,11,65417,1,2,1:2:0:0:
365,58,65622,2,0,P|319:66|278:40,1,86.25,6|0,3:2|0:0,0:0:0:0:
251,11,65930,1,2,1:2:0:0:
240,16,66033,1,2,3:2:0:0:
142,0,66238,1,2,1:2:0:0:
70,69,66444,6,0,P|85:110|99:176,1,86.25,6|2,3:2|1:2,0:0:0:0:
152,256,66855,1,2,1:2:0:0:
152,256,66958,1,2,3:2:0:0:
152,256,67060,1,2,1:2:0:0:
152,256,67163,1,2,1:2:0:0:
152,256,67266,2,0,P|145:287|140:319,3,43.125,2|2|2|0,3:2|3:2|1:2|3:3,0:0:0:0:
164,343,67677,1,2,3:2:0:0:
269,336,67882,5,2,1:2:0:0:
269,336,67985,1,0,1:1:0:0:
269,336,68088,2,0,P|274:298|285:231,1,86.25,14|0,3:2|0:0,0:0:0:0:
307,208,68396,1,2,1:2:0:0:
302,197,68499,1,2,3:2:0:0:
349,110,68704,1,2,1:2:0:0:
438,153,68910,2,0,P|480:153|515:122,1,86.25,10|0,3:2|1:1,0:0:0:0:
511,76,69218,1,2,1:2:0:0:
506,65,69321,1,2,3:2:0:0:
428,3,69526,1,2,1:2:0:0:
332,32,69732,6,0,P|266:13|179:6,1,129.375,2|2,3:2|1:2,0:0:0:0:
156,0,70143,2,0,P|122:37|143:88,1,86.25,2|2,3:2|1:2,0:0:0:0:
144,168,70554,2,0,P|214:179|293:198,1,129.375,2|2,3:2|2:2,0:0:0:0:
311,219,70964,2,0,P|363:207|411:197,1,86.25,2|2,3:2|1:2,0:0:0:0:
438,174,71273,5,0,1:1:0:0:
448,177,71375,2,0,P|496:226|466:325,1,172.5,14|2,3:2|3:2,0:0:0:0:
394,380,71992,1,2,1:2:0:0:
302,342,72197,2,0,P|319:260|336:160,1,172.5,10|2,3:2|3:2,0:0:0:0:
389,89,72814,1,2,1:2:0:0:
325,12,73019,5,2,3:2:0:0:
236,43,73225,1,2,2:2:0:0:
236,43,73327,1,2,1:2:0:0:
236,43,73430,2,0,B|185:34|185:34|159:49|159:49|101:39,1,129.375,6|0,3:2|0:0,0:0:0:0:
69,15,73841,2,0,P|13:66|34:132,1,129.375,6|2,3:2|1:2,0:0:0:0:
52,150,74252,1,2,3:2:0:0:
15,246,74458,5,2,1:2:0:0:
15,246,74560,1,2,1:3:0:0:
15,246,74663,2,0,P|103:226|201:209,1,172.5,14|2,3:2|3:2,0:0:0:0:
262,149,75280,2,0,P|299:190|291:228,1,86.25,2|10,1:2|3:2,0:0:0:0:
346,315,75691,1,2,2:2:0:0:
346,315,75793,1,10,1:2:0:0:
346,315,75896,1,2,3:2:0:0:
272,381,76101,1,10,1:2:0:0:
185,332,76307,6,0,P|149:309|99:318,1,86.25,10|0,3:2|0:0,0:0:0:0:
64,338,76615,1,2,1:2:0:0:
52,345,76718,2,0,P|42:304|27:240,1,86.25,2|2,3:2|1:2,0:0:0:0:
4,165,77129,2,0,P|49:157|92:187,1,86.25,2|0,3:2|1:1,0:0:0:0:
160,238,77540,1,10,3:2:0:0:
249,190,77745,5,2,1:2:0:0:
249,190,77848,1,0,1:1:0:0:
249,190,77951,2,0,P|240:146|228:91,1,86.25,6|0,3:2|0:0,0:0:0:0:
201,65,78259,1,2,1:2:0:0:
203,53,78362,1,2,3:2:0:0:
118,1,78567,1,2,1:2:0:0:
30,47,78773,2,0,P|4:91|25:138,1,86.25,6|0,3:2|0:0,0:0:0:0:
50,154,79081,1,2,1:2:0:0:
48,166,79184,1,2,3:2:0:0:
1,253,79389,1,2,1:2:0:0:
86,304,79595,6,0,P|128:296|195:279,1,86.25,6|0,3:2|1:1,0:0:0:0:
210,256,79903,1,0,1:1:0:0:
217,249,80006,2,0,L|273:258,3,43.125,0|0|0|0,3:3|0:0|1:1|1:1,0:0:0:0:
305,235,80417,1,0,3:3:0:0:
395,275,80622,2,0,L|436:258,2,43.125,0|0|0,1:1|1:1|3:3,0:0:0:0:
384,380,81033,5,0,1:1:0:0:
384,380,81136,1,0,1:1:0:0:
384,380,81238,2,0,P|322:337|258:355,1,135,6|2,3:2|2:2,0:0:0:0:
186,323,81855,1,2,1:2:0:0:
186,323,81958,1,0,1:1:0:0:
186,323,82060,2,0,P|143:332|104:337,1,67.5000000000001,6|0,3:2|0:0,0:0:0:0:
39,384,82471,1,2,2:2:0:0:
0,298,82677,1,2,3:2:0:0:
80,249,82882,6,0,P|96:219|82:176,1,67.5000000000001,2|0,3:2|0:0,0:0:0:0:
43,105,83293,2,0,B|152:53|130:161|247:104,2,202.5,2|2|2,2:2|2:2|2:2,0:0:0:0:
0,15,95211,5,2,3:2:0:0:
0,15,95417,1,2,3:2:0:0:
76,70,95622,1,2,3:2:0:0:
140,1,95827,2,0,P|186:55|167:128,1,135,6|2,3:2|3:2,0:0:0:0:
119,189,96444,1,2,1:2:0:0:
196,242,96649,2,0,L|243:232,2,33.75,2|0|2,1:2|1:1|3:2,0:0:0:0:
137,317,97060,1,2,3:2:0:0:
137,317,97163,1,0,1:1:0:0:
137,317,97266,2,0,L|127:367,3,33.75,2|0|0|0,3:2|1:1|3:3|3:3,0:0:0:0:
166,380,97677,6,0,P|201:373|246:362,1,67.5000000000001,6|2,3:2|2:2,0:0:0:0:
311,314,98088,2,0,P|346:321|391:332,1,67.5000000000001,2|2,1:2|2:2,0:0:0:0:
460,383,98499,1,2,3:2:0:0:
460,383,98704,2,0,P|480:349|473:308,1,67.5000000000001,2|0,3:2|1:1,0:0:0:0:
426,256,99115,5,2,2:2:0:0:
426,256,99218,1,0,0:0:0:0:
426,256,99321,2,0,P|357:265|287:277,2,135,2|0|0,3:2|1:1|3:3,0:0:0:0:
503,200,100348,1,2,3:2:0:0:
503,200,100554,1,2,1:2:0:0:
455,131,100759,5,2,2:2:0:0:
455,131,100862,1,0,0:0:0:0:
455,131,100964,2,0,P|391:91|328:105,1,135,2|2,3:2|1:2,0:0:0:0:
261,158,101581,1,2,2:2:0:0:
261,158,101786,2,0,P|254:121|243:74,1,67.5000000000001,2|2,3:2|3:2,0:0:0:0:
192,14,102197,1,2,1:2:0:0:
112,66,102403,6,0,P|82:50|40:54,1,67.5000000000001,2|0,2:2|3:3,0:0:0:0:
3,135,102814,1,2,2:2:0:0:
3,135,103019,2,0,P|20:202|37:289,1,135,0|2,1:1|3:2,0:0:0:0:
89,343,103636,1,0,3:3:0:0:
164,286,103841,1,2,1:2:0:0:
243,355,104047,5,2,3:2:0:0:
243,355,104149,1,0,1:1:0:0:
243,355,104252,2,0,B|313:327|302:399|384:367,1,135,6|2,3:2|1:2,0:0:0:0:
465,382,104869,2,0,P|471:344|478:303,1,67.5000000000001,2|0,2:2|3:3,0:0:0:0:
511,227,105280,2,0,P|505:189|498:148,1,67.5000000000001,2|0,3:2|1:1,0:0:0:0:
512,73,105691,5,2,2:2:0:0:
512,73,105793,1,0,0:0:0:0:
512,73,105896,2,0,P|478:53|445:57,1,67.5000000000001,2|2,3:2|2:2,0:0:0:0:
365,27,106307,1,2,1:2:0:0:
365,27,106512,2,0,P|359:60|354:93,1,67.5000000000001,2|0,2:2|3:3,0:0:0:0:
293,166,106923,1,0,1:1:0:0:
293,166,107026,1,0,1:1:0:0:
293,166,107129,2,0,L|304:219,3,33.75,2|0|2|0,3:2|3:3|1:2|1:1,0:0:0:0:
313,244,107540,6,0,P|366:207|440:236,1,135,6|0,3:2|3:3,0:0:0:0:
504,283,108156,1,2,2:2:0:0:
462,369,108362,1,2,1:2:0:0:
462,369,108567,1,6,2:2:0:0:
381,318,108773,1,2,3:2:0:0:
306,375,108978,6,0,B|233:400|251:325|164:352,1,135,6|2,3:2|1:2,0:0:0:0:
92,383,109595,1,0,3:3:0:0:
92,383,109800,2,0,P|84:344|72:293,1,67.5000000000001,2|0,3:2|3:3,0:0:0:0:
49,278,110108,1,0,0:0:0:0:
35,275,110211,2,0,L|-5:283,2,33.75,2|0|0,1:2|1:1|3:3,0:0:0:0:
101,208,110622,5,2,3:2:0:0:
101,208,110725,1,0,1:1:0:0:
101,208,110827,2,0,P|155:204|205:254,2,112.5,14|14|14,3:2|3:2|3:2,0:0:0:0:
19,154,111649,1,2,1:2:0:0:
139,0,112060,1,0,1:1:0:0:
230,58,112266,5,2,1:2:0:0:
230,58,112369,1,0,1:1:0:0:
230,58,112471,2,0,P|269:60|303:32,1,75,6|0,3:2|0:0,0:0:0:0:
327,0,112780,2,0,P|367:8|417:18,1,75,2|0,3:2|0:0,0:0:0:0:
447,2,113088,1,2,3:2:0:0:
509,76,113293,1,2,1:2:0:0:
455,159,113499,1,0,1:1:0:0:
455,159,113601,1,0,1:1:0:0:
455,159,113704,2,0,L|399:170,3,37.5,0|0|2|0,1:1|0:0|1:2|1:1,0:0:0:0:
374,187,114115,6,0,P|357:172|371:79,2,112.5,14|14|14,3:2|3:2|3:2,0:0:0:0:
326,272,114937,1,2,1:2:0:0:
144,199,115348,2,0,L|93:209,3,37.5,0|0|2|0,1:1|0:0|1:2|1:1,0:0:0:0:
58,210,115759,2,0,P|25:253|57:319,1,112.5,6|2,3:2|2:2,0:0:0:0:
38,354,116170,2,0,P|106:362|194:384,1,150,2|2,3:2|3:2,0:0:0:0:
365,306,116992,1,2,3:2:0:0:
295,238,117197,6,0,P|269:172|312:96,1,150,6|2,3:2|3:2,0:0:0:0:
286,11,117814,1,2,1:2:0:0:
286,11,118019,2,0,P|333:19|378:28,1,75,2|2,3:2|3:2,0:0:0:0:
458,4,118430,1,2,3:2:0:0:
458,4,118636,1,2,1:2:0:0:
508,87,118841,6,0,P|482:166|471:237,1,150,6|2,3:2|3:2,0:0:0:0:
508,322,119458,2,0,P|465:331|421:315,1,75,2|2,1:2|3:2,0:0:0:0:
360,383,119869,1,2,1:2:0:0:
360,383,119971,1,0,1:1:0:0:
360,383,120074,1,0,3:3:0:0:
277,330,120280,2,0,P|236:325|188:358,1,75,6|2,1:2|3:2,0:0:0:0:
162,361,120588,5,0,3:3:0:0:
154,355,120690,2,0,P|146:319|134:264,1,75,6|2,1:2|3:2,0:0:0:0:
161,189,121101,1,2,1:2:0:0:
161,189,121307,1,2,3:2:0:0:
99,113,121512,1,2,1:2:0:0:
11,155,121718,1,2,3:2:0:0:
0,349,122129,6,0,P|52:307|140:330,1,150,6|0,3:2|3:3,0:0:0:0:
208,384,122745,1,2,3:2:0:0:
208,384,122951,2,0,P|244:376|281:369,1,75,2|0,3:2|3:3,0:0:0:0:
351,301,123362,1,2,3:2:0:0:
351,301,123567,1,2,3:2:0:0:
268,248,123773,1,2,3:2:0:0:
305,158,123978,5,10,3:2:0:0:
439,214,124286,5,10,3:2:0:0:
510,85,124595,5,10,3:2:0:0:
446,11,124800,1,2,1:2:0:0:
383,86,125006,1,2,1:2:0:0:
383,86,125108,1,0,1:1:0:0:
383,86,125211,2,0,L|392:143,2,37.5,2|0|2,3:2|1:1|1:2,0:0:0:0:
298,33,125622,6,0,P|261:28|219:54,1,86.25,14|2,3:2|2:2,0:0:0:0:
198,96,125930,1,2,1:2:0:0:
202,105,126033,1,2,3:2:0:0:
266,180,126238,1,2,1:2:0:0:
237,274,126444,2,0,P|183:265|140:259,1,86.25,10|2,3:2|1:2,0:0:0:0:
107,282,126752,1,2,1:2:0:0:
98,287,126855,1,2,3:2:0:0:
5,251,127060,1,2,1:2:0:0:
56,166,127266,6,0,P|43:119|22:39,1,129.375,2|2,3:2|1:2,0:0:0:0:
52,1,127677,2,0,P|98:-4|139:31,1,86.25,2|2,3:2|1:2,0:0:0:0:
228,1,128088,2,0,P|216:58|201:147,1,129.375,2|2,3:2|2:2,0:0:0:0:
175,169,128499,2,0,P|183:205|195:265,1,86.25,2|2,3:2|1:2,0:0:0:0:
173,298,128807,5,0,1:1:0:0:
176,307,128910,2,0,P|221:369|318:335,1,172.5,14|2,3:2|3:2,0:0:0:0:
388,297,129526,1,2,1:2:0:0:
465,359,129732,2,0,B|474:301|498:177,1,172.5,2|2,3:2|3:2,0:0:0:0:
510,90,130348,1,2,1:2:0:0:
443,16,130554,5,6,3:2:0:0:
355,51,130759,1,2,2:2:0:0:
355,51,130862,1,2,1:2:0:0:
355,51,130964,2,0,B|340:101|340:101|353:131|353:131|334:199,1,129.375,6|0,3:2|0:0,0:0:0:0:
323,220,131375,2,0,P|258:243|203:205,1,129.375,6|2,3:2|1:2,0:0:0:0:
180,174,131786,1,2,3:2:0:0:
105,238,131992,5,2,1:2:0:0:
105,238,132095,1,2,1:2:0:0:
105,238,132197,2,0,P|113:281|126:339,1,86.25,14|0,3:2|0:0,0:0:0:0:
141,368,132506,1,10,1:2:0:0:
153,370,132608,1,10,3:2:0:0:
231,308,132814,1,2,1:2:0:0:
303,375,133019,2,0,P|311:332|320:290,1,86.25,10|2,3:2|1:2,0:0:0:0:
354,253,133327,1,2,1:2:0:0:
351,241,133430,1,2,3:2:0:0:
270,182,133636,1,2,1:2:0:0:
323,99,133841,6,0,P|360:79|402:87,1,86.25,10|0,3:2|0:0,0:0:0:0:
451,77,134149,2,0,P|461:124|470:172,1,86.25,10|0,1:2|0:0,0:0:0:0:
506,194,134458,2,0,P|489:287|475:375,1,172.5,2|2,1:2|1:2,0:0:0:0:
391,312,135074,1,2,3:2:0:0:
319,379,135280,5,2,1:2:0:0:
319,379,135382,1,0,1:1:0:0:
319,379,135485,2,0,P|278:351|223:362,1,86.25,6|0,3:2|0:0,0:0:0:0:
199,375,135793,1,2,1:2:0:0:
188,380,135896,1,2,3:2:0:0:
106,322,136101,1,2,1:2:0:0:
166,243,136307,2,0,P|169:217|181:145,1,86.25,6|0,3:2|0:0,0:0:0:0:
201,113,136615,1,2,1:2:0:0:
197,101,136718,1,2,3:2:0:0:
238,11,136923,1,2,1:2:0:0:
323,62,137129,6,0,P|371:71|411:34,1,86.25,6|2,3:2|1:2,0:0:0:0:
505,24,137540,1,2,1:2:0:0:
505,24,137643,1,2,3:2:0:0:
505,24,137745,1,2,1:2:0:0:
505,24,137848,1,2,1:2:0:0:
505,24,137951,2,0,P|498:55|493:87,3,43.125,2|2|2|0,3:2|3:2|1:2|3:3,0:0:0:0:
509,114,138362,1,2,3:2:0:0:
445,190,138567,5,2,1:2:0:0:
445,190,138670,1,0,1:1:0:0:
445,190,138773,2,0,P|400:200|356:167,1,86.25,14|0,3:2|0:0,0:0:0:0:
325,153,139081,1,2,1:2:0:0:
314,158,139184,1,2,3:2:0:0:
236,219,139389,1,2,1:2:0:0:
151,165,139595,2,0,P|161:127|173:76,1,86.25,10|2,3:2|1:2,0:0:0:0:
199,39,139903,1,2,1:2:0:0:
194,28,140006,1,2,3:2:0:0:
98,1,140211,1,2,1:2:0:0:
13,52,140417,6,0,P|-4:112|37:176,1,129.375,2|2,3:2|1:2,0:0:0:0:
67,195,140827,2,0,P|58:232|48:286,1,86.25,2|2,3:2|1:2,0:0:0:0:
3,367,141238,2,0,P|77:375|126:332,1,129.375,2|2,3:2|2:2,0:0:0:0:
155,311,141649,2,0,P|191:292|245:309,1,86.25,2|2,3:2|1:2,0:0:0:0:
269,335,141958,5,0,1:1:0:0:
272,345,142060,2,0,P|348:357|455:380,1,172.5,14|2,3:2|3:2,0:0:0:0:
508,302,142677,1,2,1:2:0:0:
444,225,142882,2,0,P|373:198|294:260,1,172.5,10|2,3:2|3:2,0:0:0:0:
243,331,143499,1,2,1:2:0:0:
159,277,143704,5,2,3:2:0:0:
209,195,143910,1,2,2:2:0:0:
209,195,144012,1,2,1:2:0:0:
209,195,144115,2,0,B|194:145|194:145|206:117|206:117|190:61,1,129.375,6|0,3:2|0:0,0:0:0:0:
209,24,144526,2,0,P|262:7|325:59,1,129.375,6|2,3:2|1:2,0:0:0:0:
344,88,144937,1,2,3:2:0:0:
433,38,145143,5,2,1:2:0:0:
433,38,145245,1,2,1:3:0:0:
433,38,145348,2,0,P|457:124|470:224,1,172.5,14|2,3:2|3:2,0:0:0:0:
509,297,145964,2,0,P|472:308|417:290,1,86.25,2|10,1:2|3:2,0:0:0:0:
350,252,146375,1,2,2:2:0:0:
350,252,146478,1,10,1:2:0:0:
350,252,146581,1,2,3:2:0:0:
286,327,146786,1,10,1:2:0:0:
210,262,146992,6,0,P|197:309|186:364,1,86.25,10|0,3:2|0:0,0:0:0:0:
144,367,147300,1,2,1:2:0:0:
136,377,147403,2,0,P|94:383|48:349,1,86.25,2|2,3:2|1:2,0:0:0:0:
1,279,147814,2,0,P|39:268|92:251,1,86.25,2|0,3:2|1:1,0:0:0:0:
178,283,148225,1,10,3:2:0:0:
237,206,148430,5,2,1:2:0:0:
237,206,148533,1,0,1:1:0:0:
237,206,148636,2,0,P|249:163|215:109,1,86.25,6|0,3:2|0:0,0:0:0:0:
201,88,148944,1,2,1:2:0:0:
203,76,149047,1,2,3:2:0:0:
268,1,149252,1,2,1:2:0:0:
360,36,149458,2,0,P|352:85|342:147,1,86.25,6|0,3:2|0:0,0:0:0:0:
327,167,149766,1,2,1:2:0:0:
329,179,149869,1,2,3:2:0:0:
409,236,150074,1,2,1:2:0:0:
370,327,150280,6,0,P|326:295|272:308,1,86.25,6|0,3:2|1:1,0:0:0:0:
258,328,150588,1,0,1:1:0:0:
250,338,150691,2,0,L|201:345,3,43.125,0|0|0|0,3:3|0:0|1:1|1:1,0:0:0:0:
160,327,151101,1,0,3:3:0:0:
77,381,151307,1,0,1:1:0:0:
2,315,151512,1,2,3:2:0:0:
84,254,151718,5,2,1:2:0:0:
84,254,151821,1,0,1:1:0:0:
84,254,151923,2,0,P|76:214|67:162,1,75,14|0,3:2|0:0,0:0:0:0:
38,142,152232,1,0,1:1:0:0:
40,130,152334,1,2,3:2:0:0:
95,49,152540,2,0,P|153:91|243:55,1,150,6|2,3:2|3:2,0:0:0:0:
294,4,153156,1,2,3:2:0:0:
385,37,153362,6,0,B|370:93|370:93|387:132|387:132|370:199,1,150,6|0,3:2|3:3,0:0:0:0:
330,268,153978,1,2,1:2:0:0:
330,268,154184,1,2,3:2:0:0:
382,349,154389,1,0,1:1:0:0:
478,331,154595,1,0,3:3:0:0:
437,242,154800,1,2,1:2:0:0:
511,178,155006,5,2,1:2:0:0:
511,178,155108,1,0,1:1:0:0:
511,178,155211,2,0,P|504:138|496:91,1,75,6|2,3:2|1:2,0:0:0:0:
471,63,155519,1,2,1:2:0:0:
473,51,155622,1,2,3:2:0:0:
389,1,155827,2,0,P|328:53|255:33,1,150,6|2,3:2|3:2,0:0:0:0:
173,2,156444,1,2,1:2:0:0:
90,54,156649,6,0,P|113:129|127:224,1,150,6|2,3:2|3:2,0:0:0:0:
204,256,157266,1,2,1:2:0:0:
212,264,157369,2,0,P|204:306|196:358,1,75,2|2,3:2|1:2,0:0:0:0:
169,377,157677,2,0,L|126:386,3,37.5,2|2|2|2,3:2|1:2|1:2|1:2,0:0:0:0:
87,366,158088,2,0,L|44:357,3,37.5,2|2|2|2,1:2|1:2|1:2|1:2,0:0:0:0:
12,326,158499,6,0,P|-1:297|21:254,1,75,6|2,3:2|2:2,0:0:0:0:
51,226,158807,1,0,1:1:0:0:
61,228,158910,1,2,3:2:0:0:
155,249,159115,2,0,P|224:237|309:224,1,150,2|2,1:2|2:2,0:0:0:0:
346,202,159629,1,0,1:1:0:0:
357,205,159732,1,2,3:2:0:0:
435,261,159937,1,2,1:2:0:0:
504,191,160143,6,0,P|510:157|488:116,1,75,2|2,3:2|2:2,0:0:0:0:
456,89,160451,1,0,1:1:0:0:
458,79,160554,1,2,3:2:0:0:
386,12,160759,2,0,P|349:5|289:-5,1,75,2|2,1:2|3:2,0:0:0:0:
238,62,161170,1,2,1:2:0:0:
162,0,161375,1,2,1:2:0:0:
95,71,161581,5,2,3:2:0:0:
95,71,161684,1,0,3:3:0:0:
95,71,161786,2,0,P|82:117|102:154,1,75,6|2,3:2|2:2,0:0:0:0:
128,173,162095,1,0,1:1:0:0:
139,170,162197,1,2,3:2:0:0:
236,160,162403,2,0,P|225:222|211:315,1,150,2|2,1:2|2:2,0:0:0:0:
188,351,162917,1,0,1:1:0:0:
178,356,163019,1,2,3:2:0:0:
105,290,163225,1,2,1:2:0:0:
33,356,163430,6,0,P|25:326|10:271,1,75,2|0,3:2|0:0,0:0:0:0:
9,234,163738,1,2,1:3:0:0:
7,223,163841,1,10,3:2:0:0:
83,161,164047,5,0,1:1:0:0:
83,161,164149,1,0,1:1:0:0:
83,161,164252,1,10,3:2:0:0:
11,8,164560,5,2,2:2:0:0:
187,28,164869,5,2,3:2:0:0:
187,28,164971,1,2,3:2:0:0:
187,28,165074,2,0,P|230:37|278:48,2,90,14|2|10,3:2|2:2|2:2,0:0:0:0:
124,100,165896,2,0,P|81:90|21:74,2,95.6250000000003,6|2|10,3:2|2:2|2:2,0:0:0:0:
186,180,166718,2,0,P|229:190|299:209,2,101.25,6|2|10,3:2|2:2|2:2,0:0:0:0:
91,217,167540,1,6,3:2:0:0:
163,304,167745,1,0,0:0:0:0:
163,304,167848,1,0,3:3:0:0:
163,304,167951,2,0,L|174:360,3,33.75,2|2|6|2,2:2|2:2|3:2|2:2,0:0:0:0:
188,380,168362,6,0,B|241:372|241:372|254:348|254:348|323:334,1,135,6|0,3:2|0:0,0:0:0:0:
351,257,168978,1,0,1:1:0:0:
351,257,169081,1,0,1:1:0:0:
351,257,169184,2,0,B|298:249|298:249|279:219|279:219|211:207,1,142.5,6|0,3:2|0:0,0:0:0:0:
191,127,169800,1,0,1:1:0:0:
191,127,169903,1,0,1:1:0:0:
191,127,170006,2,0,B|243:118|243:118|265:84|265:84|328:72,1,150,6|0,3:2|0:0,0:0:0:0:
405,9,170622,5,0,1:1:0:0:
405,9,170725,1,0,1:1:0:0:
405,9,170827,2,0,B|466:-6|541:36|541:105|512:153|490:158|429:169|416:99,1,315,6|10,3:2|2:2,0:0:0:0:
512,372,185006,6,0,B|442:409|374:353|391:298|394:294|397:291|412:239|341:180|270:219,1,337.500000000001,2|2,2:2|2:2,0:0:0:0:
196,193,186444,2,0,P|209:244|225:322,1,112.5,2|2,2:2|2:2,0:0:0:0:
192,384,187060,1,2,2:2:0:0:
192,384,187266,2,0,P|139:346|89:360,1,112.5,2|0,2:2|0:0,0:0:0:0:
18,382,187882,1,2,2:2:0:0:
18,382,188088,2,0,P|6:328|-7:262,1,112.5,2|2,2:2|2:2,0:0:0:0:
11,103,188910,2,0,P|4:70|-2:42,1,56.2500000000001,2|2,2:2|2:2,0:0:0:0:
70,1,189321,1,2,2:2:0:0:
70,1,189526,1,2,2:2:0:0:
147,34,189732,6,0,P|184:74|163:145,1,112.5,2|2,2:2|2:2,0:0:0:0:
101,160,190348,1,2,2:2:0:0:
101,160,190554,2,0,P|92:216|81:286,1,112.5,2|0,2:2|0:0,0:0:0:0:
106,352,191170,1,2,2:2:0:0:
180,312,191375,2,0,P|230:299|278:347,1,112.5,2|2,2:2|2:2,0:0:0:0:
357,381,191992,1,0,0:0:0:0:
357,381,192095,1,2,2:2:0:0:
357,381,192197,2,0,P|389:375|429:368,1,56.2500000000001,2|0,2:2|0:0,0:0:0:0:
496,380,192608,2,0,L|488:338,3,28.1250000000001,2|2|2|2,2:2|2:2|2:2|2:2,0:0:0:0:
509,314,193019,6,0,P|463:269|410:283,1,112.5,2|2,2:2|2:2,0:0:0:0:
335,267,193636,2,0,P|346:214|357:138,1,112.5,2|2,2:2|2:2,0:0:0:0:
347,76,194252,1,2,2:2:0:0:
347,76,194458,1,2,2:2:0:0:
414,25,194663,2,0,P|470:33|512:1,2,112.5,2|10|10,2:2|2:2|2:2,0:0:0:0:
250,5,195896,1,2,2:2:0:0:
250,5,196101,1,2,2:2:0:0:
179,72,196307,6,0,B|104:119|122:217|185:231|190:229|195:228|254:242|274:343|196:392,1,375,2|2,2:2|2:2,0:0:0:0:
447,250,199184,1,2,3:2:0:0:
512,335,199389,5,2,3:2:0:0:
512,335,199492,1,0,3:3:0:0:
512,335,199595,2,0,L|467:345,3,37.5,6|2|2|2,3:2|1:2|1:2|1:2,0:0:0:0:
436,372,200006,2,0,L|391:362,3,37.5,2|2|2|2,1:2|1:2|1:2|1:2,0:0:0:0:
367,326,200417,1,2,1:2:0:0:
286,380,200622,1,2,1:2:0:0:
218,309,200827,5,10,1:2:0:0:
220,298,200930,1,10,1:2:0:0:
222,287,201033,1,10,1:2:0:0:
224,276,201136,1,10,1:2:0:0:
225,265,201238,1,6,3:2:0:0:
315,148,201547,5,2,3:2:0:0:
210,54,201855,5,2,3:2:0:0:
210,54,202060,1,2,1:2:0:0:
282,0,202266,2,0,B|327:7|327:7|344:33|344:33|399:43,1,120,2|2,2:2|2:2,0:0:0:0:
476,2,202882,5,6,2:2:0:0:
512,286,203499,2,0,P|442:304|380:237,1,165,6|0,3:2|1:1,0:0:0:0:
370,200,204012,1,0,1:1:0:0:
364,190,204115,2,0,L|371:138,2,41.25,2|0|2,3:2|1:1|1:2,0:0:0:0:
278,236,204526,1,2,3:2:0:0:
199,175,204732,6,0,P|150:170|111:211,1,93.75,6|0,3:2|0:0,0:0:0:0:
76,215,205040,2,0,P|104:265|114:323,1,93.75,6|0,3:2|0:0,0:0:0:0:
126,352,205348,2,0,P|73:382|8:346,1,140.625,6|0,3:2|0:0,0:0:0:0:
0,298,205759,1,10,3:2:0:0:
2,99,206170,6,0,P|66:120|131:37,1,172.5,14|2,3:2|3:2,0:0:0:0:
217,1,206786,1,2,1:2:0:0:
296,60,206992,2,0,P|271:147|259:236,1,172.5,2|2,3:2|3:2,0:0:0:0:
190,299,207608,1,2,1:2:0:0:
247,379,207814,5,6,3:2:0:0:
347,353,208019,1,2,2:2:0:0:
347,353,208122,1,2,1:2:0:0:
347,353,208225,2,0,B|398:343|398:343|426:359|426:359|496:347,1,129.375,6|0,3:2|0:0,0:0:0:0:
511,323,208636,2,0,P|511:249|445:236,1,129.375,6|2,3:2|1:2,0:0:0:0:
424,251,209047,1,2,3:2:0:0:
358,191,209252,5,2,1:2:0:0:
358,191,209355,1,2,1:3:0:0:
358,191,209458,2,0,P|366:148|379:90,1,86.25,14|0,3:2|0:0,0:0:0:0:
403,65,209766,1,10,1:2:0:0:
401,53,209869,1,10,3:2:0:0:
315,2,210074,1,2,1:2:0:0:
238,65,210280,2,0,P|195:74|149:32,1,86.25,10|0,3:2|0:0,0:0:0:0:
126,16,210588,1,2,1:2:0:0:
114,19,210690,1,2,3:2:0:0:
16,2,210896,1,2,1:2:0:0:
1,99,211101,6,0,P|11:145|24:208,1,86.25,10|0,3:2|0:0,0:0:0:0:
54,218,211410,2,0,P|44:265|35:313,1,86.25,10|0,1:2|0:0,0:0:0:0:
43,352,211718,2,0,B|129:314|124:398|214:359,1,172.5,2|2,1:2|1:2,0:0:0:0:
305,378,212334,1,2,3:2:0:0:
370,304,212540,5,2,1:2:0:0:
370,304,212643,1,0,1:1:0:0:
370,304,212745,2,0,P|379:259|345:212,1,86.25,6|0,3:2|0:0,0:0:0:0:
323,192,213054,1,2,1:2:0:0:
312,197,213156,1,2,3:2:0:0:
240,265,213362,1,2,1:2:0:0:
161,204,213567,2,0,P|165:173|176:107,1,86.25,6|0,3:2|0:0,0:0:0:0:
203,78,213875,1,2,1:2:0:0:
198,67,213978,1,2,3:2:0:0:
272,1,214184,1,2,1:2:0:0:
361,45,214389,6,0,P|401:19|457:38,1,86.25,6|2,3:2|1:2,0:0:0:0:
512,117,214800,1,2,1:2:0:0:
512,117,214903,1,2,3:2:0:0:
512,117,215006,1,2,1:2:0:0:
512,117,215108,1,2,1:2:0:0:
512,117,215211,2,0,P|505:148|500:180,3,43.125,2|2|2|0,3:2|3:2|1:2|3:3,0:0:0:0:
511,208,215622,1,2,3:2:0:0:
443,279,215827,5,2,1:2:0:0:
443,279,215930,1,0,1:1:0:0:
443,279,216033,2,0,P|396:288|352:251,1,86.25,14|0,3:2|0:0,0:0:0:0:
333,230,216341,1,2,1:2:0:0:
321,232,216444,1,2,3:2:0:0:
247,297,216649,1,2,1:2:0:0:
161,246,216855,2,0,P|154:287|144:340,1,86.25,10|0,3:2|1:1,0:0:0:0:
128,377,217163,1,2,1:2:0:0:
117,382,217266,1,2,3:2:0:0:
27,340,217471,1,2,1:2:0:0:
64,247,217677,6,0,P|114:225|209:211,1,129.375,2|2,3:2|1:2,0:0:0:0:
236,216,218088,2,0,P|251:175|223:129,1,86.25,2|2,3:2|1:2,0:0:0:0:
282,50,218499,2,0,P|215:34|144:22,1,129.375,2|2,3:2|2:2,0:0:0:0:
111,1,218910,2,0,P|63:11|11:23,1,86.25,2|2,3:2|1:2,0:0:0:0:
1,62,219218,5,0,1:1:0:0:
4,72,219321,2,0,P|68:126|151:104,1,172.5,14|2,3:2|3:2,0:0:0:0:
217,34,219937,1,2,1:2:0:0:
293,97,220143,2,0,P|272:180|259:279,1,172.5,10|2,3:2|3:2,0:0:0:0:
304,355,220759,1,2,1:2:0:0:
394,315,220964,5,2,3:2:0:0:
479,384,221170,1,2,2:2:0:0:
479,384,221273,1,2,1:2:0:0:
479,384,221375,2,0,B|488:333|488:333|473:307|473:307|483:249,1,129.375,6|0,3:2|0:0,0:0:0:0:
510,219,221786,2,0,P|459:174|395:191,1,129.375,6|2,3:2|1:2,0:0:0:0:
364,215,222197,1,2,3:2:0:0:
290,165,222403,5,2,1:2:0:0:
290,165,222506,1,2,1:3:0:0:
290,165,222608,2,0,P|202:185|104:202,1,172.5,14|2,3:2|3:2,0:0:0:0:
21,205,223225,2,0,P|-3:166|12:116,1,86.25,2|10,1:2|3:2,0:0:0:0:
70,55,223636,1,2,2:2:0:0:
70,55,223738,1,10,1:2:0:0:
70,55,223841,1,2,3:2:0:0:
153,107,224047,1,10,1:2:0:0:
218,32,224252,6,0,P|254:9|304:18,1,86.25,10|0,3:2|0:0,0:0:0:0:
339,36,224560,1,2,1:2:0:0:
351,43,224663,2,0,P|338:84|326:148,1,86.25,2|2,3:2|1:2,0:0:0:0:
271,207,225074,2,0,P|284:248|296:312,1,86.25,2|0,3:2|1:1,0:0:0:0:
347,373,225485,1,10,3:2:0:0:
451,359,225690,5,2,1:2:0:0:
451,359,225793,1,0,1:1:0:0:
451,359,225896,2,0,P|471:326|459:273,1,86.25,6|0,3:2|0:0,0:0:0:0:
432,242,226204,1,2,1:2:0:0:
434,230,226307,1,2,3:2:0:0:
506,162,226512,1,2,1:2:0:0:
449,80,226718,2,0,P|406:88|359:95,1,86.25,6|0,3:2|0:0,0:0:0:0:
327,127,227026,1,2,1:2:0:0:
317,124,227129,1,2,3:2:0:0:
243,57,227334,1,2,1:2:0:0:
155,104,227540,6,0,P|132:145|155:201,1,86.25,6|0,3:2|1:1,0:0:0:0:
164,224,227848,1,0,1:1:0:0:
174,232,227951,2,0,L|166:293,3,43.125,2|0|0|0,3:2|0:0|1:1|1:1,0:0:0:0:
168,324,228362,2,0,P|131:353|76:343,1,86.25,2|2,3:2|1:2,0:0:0:0:
44,342,228670,1,0,1:1:0:0:
38,329,228773,1,2,3:2:0:0:
0,249,228978,5,2,1:2:0:0:
0,249,229081,1,0,1:1:0:0:
0,249,229184,2,0,P|9:195|29:75,1,172.5,6|2,3:2|1:2,0:0:0:0:
98,9,229800,1,2,3:2:0:0:
181,63,230006,2,0,P|230:73|269:45,1,86.25,2|2,1:2|3:2,0:0:0:0:
343,2,230417,1,2,1:2:0:0:
343,2,230622,1,2,3:2:0:0:
425,56,230827,6,0,P|413:105|403:161,1,86.25,2|2,1:2|3:2,0:0:0:0:
375,180,231136,1,0,0:0:0:0:
367,190,231238,2,0,P|379:239|389:295,1,86.25,2|2,1:2|3:2,0:0:0:0:
351,369,231649,1,2,1:2:0:0:
351,369,231855,1,2,3:2:0:0:
272,308,232060,1,2,1:2:0:0:
206,383,232266,5,2,3:2:0:0:
206,383,232369,1,2,3:2:0:0:
206,383,232471,2,0,P|165:338|197:227,1,172.5,6|2,1:2|1:2,0:0:0:0:
248,158,233088,1,2,3:2:0:0:
157,117,233293,2,0,P|109:125|53:136,1,86.25,2|2,1:2|3:2,0:0:0:0:
24,44,233704,2,0,P|66:35|108:28,1,86.25,2|2,1:2|3:2,0:0:0:0:
204,0,234115,6,0,P|238:40|224:91,1,86.25,6|2,1:2|3:2,0:0:0:0:
193,163,234526,1,2,1:2:0:0:
193,163,234732,1,2,3:2:0:0:
251,242,234937,1,2,1:2:0:0:
336,187,235143,1,2,3:2:0:0:
336,187,235245,1,0,3:3:0:0:
336,187,235348,2,0,P|328:144|317:91,1,86.25,6|2,1:2|3:2,0:0:0:0:
307,53,235656,5,0,3:3:0:0:
310,39,235759,2,0,P|393:18|453:92,1,172.5,6|2,1:2|1:2,0:0:0:0:
511,151,236375,1,2,3:2:0:0:
441,221,236581,2,0,P|395:211|337:201,1,86.25,2|2,1:2|3:2,0:0:0:0:
282,145,236992,1,2,1:2:0:0:
282,145,237197,1,2,3:2:0:0:
210,213,237403,6,0,P|219:256|234:322,1,86.25,2|2,1:2|3:2,0:0:0:0:
225,346,237711,1,0,0:0:0:0:
223,359,237814,2,0,P|173:370|133:341,1,86.25,2|2,1:2|3:2,0:0:0:0:
61,308,238225,1,2,1:2:0:0:
61,308,238430,1,2,3:2:0:0:
118,226,238636,1,2,1:2:0:0:
47,172,238841,5,2,3:2:0:0:
47,172,238944,1,0,3:3:0:0:
47,172,239047,2,0,P|-4:96|36:24,1,172.5,6|2,1:2|1:2,0:0:0:0:
122,0,239663,1,2,3:2:0:0:
197,64,239869,2,0,P|185:113|175:171,1,86.25,2|2,1:2|3:2,0:0:0:0:
236,228,240280,1,2,1:2:0:0:
236,228,240485,1,2,3:2:0:0:
320,176,240690,6,0,P|359:169|404:201,1,86.25,6|2,1:2|3:2,0:0:0:0:
424,233,240999,1,0,3:3:0:0:
421,246,241101,1,2,1:2:0:0:
360,325,241307,1,2,3:2:0:0:
360,325,241410,1,0,1:1:0:0:
360,325,241512,1,2,3:2:0:0:
441,381,241718,1,2,1:2:0:0:
503,304,241923,1,2,3:2:0:0:
428,255,242129,5,2,1:2:0:0:
428,255,242232,1,0,1:1:0:0:
428,255,242334,2,0,P|392:227|329:227,2,90,6|2|2,3:2|2:2|2:2,0:0:0:0:
511,96,243362,1,2,2:2:0:0:
511,96,243567,2,0,P|471:103|434:109,1,60,0|2,0:0|2:2,0:0:0:0:
363,88,243978,2,0,P|348:39|381:1,2,90,2|2|2,2:2|2:2|2:2,0:0:0:0:
308,160,244800,1,0,0:0:0:0:
308,160,245006,1,2,2:2:0:0:
202,13,245417,1,2,2:2:0:0:
137,74,245622,6,0,P|85:34|25:43,1,120,10|2,2:2|2:2,0:0:0:0:
1,123,246238,2,0,P|19:186|32:255,1,120,2|2,2:2|2:2,0:0:0:0:
14,328,246855,2,0,P|43:328|72:305,1,60,2|2,2:2|2:2,0:0:0:0:
156,306,247266,6,0,P|161:273|176:191,1,90,2|0,2:2|0:0,0:0:0:0:
210,196,247677,2,0,P|204:167|192:115,1,60,2|0,2:2|0:0,0:0:0:0:
228,52,248088,1,2,2:2:0:0:
389,132,248499,1,2,2:2:0:0:
315,296,248910,6,0,P|306:340|296:402,2,90,2|2|10,2:2|2:2|2:2,0:0:0:0:
280,123,249937,1,2,2:2:0:0:
280,123,250143,2,0,P|285:95|294:50,1,60,2|0,2:2|0:0,0:0:0:0:
356,1,250554,2,0,P|395:29|444:17,2,90,2|2|2,2:2|2:2|2:2,0:0:0:0:
176,7,251581,1,2,2:2:0:0:
231,84,251786,1,2,2:2:0:0:
231,84,251992,1,2,2:2:0:0:
149,122,252197,6,0,P|114:182|143:239,1,120,10|2,2:2|2:2,0:0:0:0:
197,293,252814,1,2,2:2:0:0:
197,293,253019,2,0,P|188:330|182:373,1,60,10|2,2:2|2:2,0:0:0:0:
269,381,253430,1,2,2:2:0:0:
269,381,253636,1,2,2:2:0:0:
329,314,253841,1,10,2:2:0:0:
209,179,254252,2,0,B|108:146|154:257|23:222,2,180.146,2|2|10,2:2|2:2|2:2,0:0:0:0:
275,107,255735,5,2,2:2:0:0:
275,107,255985,1,10,2:2:0:0:
370,159,256270,1,2,2:2:0:0:
370,159,256556,2,0,P|402:196|379:274,1,120,2|2,2:2|2:2,0:0:0:0:
285,346,257507,1,2,2:2:0:0:
404,382,257799,6,0,B|460:373|460:373|462:375|462:375|519:365,1,117.1875,2|2,2:2|2:2,0:0:0:0:
