osu file format v14

[General]
AudioFilename: audio.mp3
AudioLeadIn: 0
PreviewTime: 54218
Countdown: 0
SampleSet: Soft
StackLeniency: 0.7
Mode: 0
LetterboxInBreaks: 0
WidescreenStoryboard: 1

[Editor]
Bookmarks: 11581,14252,25554,27403,40143,43019,59047,67882,75485,75793,76101,76307,79595,90691,99321,110827,115348,125622,146992,158910,163430,164560,168362,171649,185006,186238,186444,199184,204732,205040,205348,242334,245622,248910,252197,253430,261132
DistanceSpacing: 1
BeatDivisor: 4
GridSize: 32
TimelineZoom: 1.8

[Metadata]
Title:Hanayuki
TitleUnicode:花雪
Artist:smileY inc.
ArtistUnicode:smileY inc.
Creator:Creamy Candy
Version:Nilou's Normal
Source:ハナヤマタ
Tags:syndicate_ - Nilou asuka_- lit120 -hakurei- supav riene kuro fuyusaki nakazawa ed ending hanayamata anime japanese j-pop jpop pop 大坪由佳 Ootsubo Otsubo Yuka ゆうゆ yuuyu スマイリー ハナ・N・フォンテーンスタンド Hana N. Fountainstand yosakoi 西御門 多美 Nishimikado Tami oxypetalum
BeatmapID:4106985
BeatmapSetID:1073360

[Difficulty]
HPDrainRate:4
CircleSize:3.6
OverallDifficulty:4
ApproachRate:5.5
SliderMultiplier:1.1
SliderTickRate:1

[Events]
//Background and Video events
0,0,"Hana N. Fountainstand.jpg",0,0
//Break Periods
2,171849,185319
2,242534,244497
//Storyboard Layer 0 (Background)
//Storyboard Layer 1 (Fail)
//Storyboard Layer 2 (Pass)
//Storyboard Layer 3 (Foreground)
//Storyboard Layer 4 (Overlay)
//Storyboard Sound Samples

[TimingPoints]
417,410.958904109589,4,2,1,50,1,0
691,410.958904109589,4,2,1,50,1,0
691,-111.111111111111,4,2,1,50,0,0
999,-111.111111111111,4,2,2,50,0,0
1307,-111.111111111111,4,2,3,50,0,0
1718,-111.111111111111,4,2,4,50,0,0
1923,-111.111111111111,4,2,5,50,0,0
2334,-111.111111111111,4,2,6,50,0,0
2642,-111.111111111111,4,2,7,50,0,0
2950,-111.111111111111,4,2,8,50,0,0
3156,-111.111111111111,4,2,9,50,0,0
3361,-111.111111111111,4,2,10,50,0,0
3464,-111.111111111111,4,2,10,50,0,0
3773,-111.111111111111,4,2,11,50,0,0
3876,-111.111111111111,4,2,12,50,0,0
3978,-111.111111111111,4,2,13,50,0,0
4184,-111.111111111111,4,2,10,50,0,0
4388,-111.111111111111,4,2,8,50,0,0
4595,-111.111111111111,4,2,14,50,0,0
4800,-111.111111111111,4,2,15,50,0,0
5006,-111.111111111111,4,2,10,50,0,0
5210,-111.111111111111,4,2,8,50,0,0
5417,-111.111111111111,4,2,16,50,0,0
5622,-111.111111111111,4,2,17,50,0,0
6032,-111.111111111111,4,2,4,50,0,0
6238,-111.111111111111,4,2,18,50,0,0
6649,-111.111111111111,4,2,19,50,0,0
6752,-111.111111111111,4,2,20,50,0,0
6855,-111.111111111111,4,2,19,50,0,0
6958,-111.111111111111,4,2,21,50,0,0
7059,-111.111111111111,4,2,22,50,0,0
7266,-111.111111111111,4,2,23,50,0,0
7677,-111.111111111111,4,2,24,50,0,0
7883,-111.111111111111,4,2,25,50,0,0
8294,-111.111111111111,4,2,26,50,0,0
8499,-111.111111111111,4,2,27,50,0,0
8705,-111.111111111111,4,2,28,50,0,0
8910,-111.111111111111,4,2,29,50,0,0
9320,-111.111111111111,4,2,30,50,0,0
9732,-111.111111111111,4,2,31,50,0,0
9937,-111.111111111111,4,2,2,50,0,0
10143,-111.111111111111,4,2,32,50,0,0
10348,-111.111111111111,4,2,33,50,0,0
10554,-111.111111111111,4,2,34,50,0,0
10964,-111.111111111111,4,2,35,50,0,0
11169,-111.111111111111,4,2,36,50,0,0
11374,-111.111111111111,4,2,37,50,0,0
11581,-111.111111111111,4,2,35,40,0,0
11786,-111.111111111111,4,2,35,50,0,0
11991,-111.111111111111,4,2,33,50,0,0
12196,-111.111111111111,4,2,38,70,0,0
13019,-111.111111111111,4,2,2,70,0,0
13225,-111.111111111111,4,2,1,70,0,0
13841,-111.111111111111,4,2,39,50,0,0
14047,-111.111111111111,4,2,40,50,0,0
14251,-111.111111111111,4,2,41,50,0,0
14458,-111.111111111111,4,2,40,50,0,0
14662,-111.111111111111,4,2,41,50,0,0
14869,-111.111111111111,4,2,42,50,0,0
15074,-111.111111111111,4,2,3,50,0,0
15280,-111.111111111111,4,2,43,50,0,0
15485,-100,4,2,44,50,0,0
16512,-100,4,2,44,50,0,0
16717,-100,4,2,41,50,0,0
16922,-100,4,2,45,50,0,0
17129,-100,4,2,40,50,0,0
18156,-100,4,2,44,50,0,0
18361,-100,4,2,40,50,0,0
18566,-100,4,2,46,50,0,0
18773,-100,4,2,41,50,0,0
20211,-100,4,2,47,50,0,0
20417,-100,4,2,48,50,0,0
20827,-100,4,2,49,50,0,0
21033,-100,4,2,42,50,0,0
21238,-100,4,2,3,50,0,0
21444,-100,4,2,50,50,0,0
21649,-100,4,2,3,50,0,0
21855,-100,4,2,42,50,0,0
22060,-100,4,2,3,50,0,0
22265,-100,4,2,47,50,0,0
22471,-100,4,2,51,50,0,0
22677,-100,4,2,52,50,0,0
22882,-100,4,2,44,50,0,0
23499,-100,4,2,41,50,0,0
23704,-100,4,2,40,50,0,0
24321,-100,4,2,45,50,0,0
24526,-100,4,2,44,50,0,0
24732,-100,4,2,44,50,0,0
24937,-100,4,2,53,60,0,0
25143,-100,4,2,54,60,0,0
25553,-100,4,2,55,60,0,0
25759,-100,4,2,56,60,0,0
25964,-100,4,2,35,60,0,0
26170,-100,4,2,57,60,0,0
26376,-100,4,2,58,60,0,0
26581,-100,4,2,59,60,0,0
26684,-100,4,2,57,60,0,0
26992,-100,4,2,60,60,0,0
27198,-100,4,2,61,60,0,0
27402,-100,4,2,57,60,0,0
27608,-100,4,2,61,60,0,0
27813,-100,4,2,57,60,0,0
28019,-100,4,2,30,60,0,0
28225,-100,4,2,4,60,0,0
28430,-100,4,2,62,60,0,0
28636,-100,4,2,63,60,0,0
28840,-100,4,2,57,60,0,0
29252,-100,4,2,64,60,0,0
29458,-100,4,2,4,60,0,0
29663,-100,4,2,65,60,0,0
29868,-100,4,2,57,60,0,0
30074,-100,4,2,66,60,0,0
30280,-100,4,2,67,60,0,0
30484,-100,4,2,61,60,0,0
30690,-100,4,2,68,60,0,0
30896,-100,4,2,61,60,0,0
31101,-100,4,2,69,60,0,0
31306,-100,4,2,58,60,0,0
31511,-100,4,2,61,60,0,0
31718,-100,4,2,70,60,0,0
31923,-100,4,2,2,60,0,0
32129,-100,4,2,71,60,0,0
32334,-100,4,2,57,60,0,0
33361,-100,4,2,35,60,0,0
33567,-100,4,2,72,60,0,0
33773,-100,4,2,2,60,0,0
33977,-100,4,2,73,60,0,0
34184,-100,4,2,30,60,0,0
34389,-100,4,2,4,60,0,0
34595,-100,4,2,74,60,0,0
34800,-100,4,2,4,60,0,0
35006,-100,4,2,30,60,0,0
35211,-100,4,2,75,60,0,0
35314,-100,4,2,35,60,0,0
35622,-100,4,2,76,60,0,0
35725,-100,4,2,77,60,0,0
35827,-100,4,2,77,60,0,0
36033,-100,4,2,58,60,0,0
36650,-100,4,2,57,60,0,0
36855,-100,4,2,78,60,0,0
37060,-100,4,2,61,60,0,0
37882,-100,4,2,58,60,0,0
38087,-100,4,2,61,60,0,0
38293,-100,4,2,79,60,0,0
38703,-100,4,2,80,60,0,0
38910,-100,4,2,74,60,0,0
39115,-100,4,2,74,60,0,0
39526,-100,4,2,81,60,0,0
39732,-100,4,2,82,60,0,0
39937,-100,4,2,82,60,0,0
40142,-100,4,2,83,60,0,0
40347,-100,4,2,84,60,0,0
40451,-100,4,2,85,60,0,0
40759,-100,4,2,86,60,0,0
40964,-100,4,2,87,60,0,0
41169,-100,4,2,88,60,0,0
41273,-100,4,2,89,60,0,0
41375,-100,4,2,1,60,0,0
41478,-100,4,2,84,60,0,0
41581,-100,4,2,84,60,0,0
41786,-100,4,2,90,60,0,0
42094,-100,4,2,91,60,0,0
42402,-100,4,2,92,60,0,0
42608,-100,4,2,93,60,0,0
42711,-100,4,2,2,60,0,0
43018,-100,4,2,1,60,0,0
43088,-100,4,2,2,60,0,0
43225,-100,4,2,82,60,0,0
43430,-100,4,2,83,60,0,0
43635,-100,4,2,84,60,0,0
43739,-100,4,2,85,60,0,0
44047,-100,4,2,86,60,0,0
44252,-100,4,2,87,60,0,0
44457,-100,4,2,84,60,0,0
44663,-100,4,2,1,60,0,0
44732,-100,4,2,2,60,0,0
44869,-100,4,2,94,60,0,0
45074,-100,4,2,95,60,0,0
45383,-100,4,2,96,60,0,0
45485,-100,4,2,97,60,0,0
45793,-100,4,2,97,60,0,0
45896,-100,4,2,98,60,0,0
46306,-100,4,2,99,60,0,0
46512,-100,4,2,100,60,0,0
46717,-100,4,2,101,60,0,0
46922,-100,4,2,102,60,0,0
47129,-100,4,2,103,60,0,0
47334,-100,4,2,104,60,0,0
47539,-100,4,2,105,60,0,0
47744,-100,4,2,106,60,0,0
47951,-100,4,2,107,60,0,0
48156,-100,4,2,98,60,0,0
48566,-100,4,2,108,60,0,0
48773,-100,4,2,109,60,0,0
48978,-100,4,2,110,60,0,0
49184,-100,4,2,111,60,0,0
49389,-100,4,2,2,60,0,0
49595,-100,4,2,112,60,0,0
49800,-100,4,2,113,60,0,0
50006,-100,4,2,114,60,0,0
50108,-100,4,2,114,60,0,0
50211,-100,4,2,115,60,0,0
50416,-100,4,2,116,60,0,0
50519,-100,4,2,116,60,0,0
50622,-100,4,2,117,60,0,0
50827,-100,4,2,116,60,0,0
50929,-100,4,2,116,60,0,0
51033,-100,4,2,118,60,0,0
51341,-100,4,2,118,60,0,0
51444,-100,4,2,119,60,0,0
51854,-100,4,2,119,50,0,0
52061,-100,4,2,120,50,0,0
52266,-100,4,2,121,50,0,0
52471,-100,4,2,121,60,0,0
52677,-100,4,2,122,60,0,0
52779,-100,4,2,122,60,0,0
52882,-100,4,2,122,60,0,0
52984,-100,4,2,122,60,0,0
53088,-100,4,2,122,60,0,0
53190,-100,4,2,122,60,0,0
53293,-100,4,2,123,70,0,0
53498,-100,4,2,123,70,0,0
53601,-100,4,2,123,70,0,0
53806,-100,4,2,123,70,0,0
53910,-100,4,2,123,70,0,0
54012,-100,4,2,123,70,0,0
54115,-100,4,2,123,70,0,0
54321,-100,4,2,58,55,0,0
54423,-100,4,2,1,55,0,0
54526,-100,4,2,124,55,0,0
54629,-100,4,2,33,55,0,0
54937,-90.9090909090909,4,2,125,80,0,1
55246,-90.9090909090909,4,2,126,80,0,1
55347,-90.9090909090909,4,2,127,80,0,1
55554,-90.9090909090909,4,2,128,80,0,1
55759,-90.9090909090909,4,2,129,80,0,1
55964,-90.9090909090909,4,2,130,80,0,1
56170,-90.9090909090909,4,2,131,80,0,1
56376,-90.9090909090909,4,2,132,80,0,1
56581,-90.9090909090909,4,2,133,80,0,1
56889,-90.9090909090909,4,2,134,80,0,1
56991,-90.9090909090909,4,2,135,80,0,1
57197,-90.9090909090909,4,2,136,80,0,1
57403,-90.9090909090909,4,2,137,80,0,1
57608,-90.9090909090909,4,2,134,80,0,1
57814,-90.9090909090909,4,2,138,80,0,1
58019,-90.9090909090909,4,2,136,80,0,1
58225,-90.9090909090909,4,2,139,80,0,1
58533,-90.9090909090909,4,2,140,80,0,1
58635,-90.9090909090909,4,2,141,80,0,1
58841,-90.9090909090909,4,2,142,80,0,1
59047,-90.9090909090909,4,2,139,80,0,1
59355,-90.9090909090909,4,2,140,80,0,1
59458,-90.9090909090909,4,2,141,80,0,1
59663,-90.9090909090909,4,2,142,80,0,1
59869,-90.9090909090909,4,2,143,80,0,1
60074,-90.9090909090909,4,2,120,80,0,1
60177,-90.9090909090909,4,2,144,80,0,1
60279,-90.9090909090909,4,2,145,80,0,1
60485,-90.9090909090909,4,2,146,80,0,1
60690,-90.9090909090909,4,2,147,80,0,1
60999,-90.9090909090909,4,2,144,80,0,1
61101,-90.9090909090909,4,2,148,80,0,1
61307,-90.9090909090909,4,2,149,80,0,1
61410,-90.9090909090909,4,2,1,80,0,1
61512,-90.9090909090909,4,2,150,80,0,1
61821,-90.9090909090909,4,2,126,80,0,1
61922,-90.9090909090909,4,2,127,80,0,1
62129,-90.9090909090909,4,2,128,80,0,1
62334,-90.9090909090909,4,2,129,80,0,1
62539,-90.9090909090909,4,2,130,80,0,1
62745,-90.9090909090909,4,2,131,80,0,1
62950,-90.9090909090909,4,2,132,80,0,1
63156,-90.9090909090909,4,2,151,80,0,1
63464,-90.9090909090909,4,2,152,80,0,1
63568,-90.9090909090909,4,2,134,80,0,1
63772,-90.9090909090909,4,2,153,80,0,1
63978,-90.9090909090909,4,2,136,80,0,1
64184,-90.9090909090909,4,2,154,80,0,1
64389,-90.9090909090909,4,2,155,80,0,1
64594,-90.9090909090909,4,2,156,80,0,1
64800,-90.9090909090909,4,2,157,80,0,1
65109,-90.9090909090909,4,2,158,80,0,1
65210,-90.9090909090909,4,2,159,80,0,1
65417,-90.9090909090909,4,2,160,80,0,1
65622,-90.9090909090909,4,2,161,80,0,1
65931,-90.9090909090909,4,2,158,80,0,1
66032,-90.9090909090909,4,2,159,80,0,1
66238,-90.9090909090909,4,2,162,80,0,1
66444,-90.9090909090909,4,2,163,80,0,0
66650,-90.9090909090909,4,2,164,80,0,0
66752,-90.9090909090909,4,2,165,80,0,0
66855,-90.9090909090909,4,2,166,80,0,0
66958,-90.9090909090909,4,2,167,80,0,0
67061,-90.9090909090909,4,2,168,80,0,0
67163,-90.9090909090909,4,2,169,80,0,0
67265,-90.9090909090909,4,2,170,80,0,0
67369,-90.9090909090909,4,2,171,80,0,0
67472,-90.9090909090909,4,2,172,80,0,0
67677,-90.9090909090909,4,2,173,80,0,0
67882,-90.9090909090909,4,2,174,80,0,0
68088,-90.9090909090909,4,2,175,80,0,1
68397,-90.9090909090909,4,2,176,80,0,1
68498,-90.9090909090909,4,2,177,80,0,1
68704,-90.9090909090909,4,2,178,80,0,1
68910,-90.9090909090909,4,2,179,80,0,1
69115,-90.9090909090909,4,2,130,80,0,1
69321,-90.9090909090909,4,2,180,80,0,1
69526,-90.9090909090909,4,2,181,80,0,1
69732,-90.9090909090909,4,2,182,80,0,1
70040,-90.9090909090909,4,2,134,80,0,1
70142,-90.9090909090909,4,2,135,80,0,1
70348,-90.9090909090909,4,2,136,80,0,1
70554,-90.9090909090909,4,2,137,80,0,1
70759,-90.9090909090909,4,2,134,80,0,1
70964,-90.9090909090909,4,2,138,80,0,1
71170,-90.9090909090909,4,2,136,80,0,1
71375,-90.9090909090909,4,2,139,80,0,1
71684,-90.9090909090909,4,2,140,80,0,1
71785,-90.9090909090909,4,2,141,80,0,1
71992,-90.9090909090909,4,2,142,80,0,1
72197,-90.9090909090909,4,2,183,80,0,1
72506,-90.9090909090909,4,2,140,80,0,1
72607,-90.9090909090909,4,2,141,80,0,1
72814,-90.9090909090909,4,2,142,80,0,1
73019,-90.9090909090909,4,2,184,80,0,1
73224,-90.9090909090909,4,2,120,80,0,1
73328,-90.9090909090909,4,2,144,80,0,1
73430,-90.9090909090909,4,2,185,80,0,1
73635,-90.9090909090909,4,2,186,80,0,1
73841,-90.9090909090909,4,2,187,80,0,1
74150,-90.9090909090909,4,2,144,80,0,1
74252,-90.9090909090909,4,2,188,80,0,1
74457,-90.9090909090909,4,2,149,80,0,1
74560,-90.9090909090909,4,2,1,80,0,1
74663,-90.9090909090909,4,2,189,80,0,1
74972,-90.9090909090909,4,2,130,80,0,1
75073,-90.9090909090909,4,2,190,80,0,1
75280,-90.9090909090909,4,2,191,80,0,1
75485,-90.9090909090909,4,2,192,80,0,1
75691,-90.9090909090909,4,2,193,80,0,1
75794,-90.9090909090909,4,2,130,80,0,1
75896,-90.9090909090909,4,2,194,80,0,1
76101,-90.9090909090909,4,2,195,80,0,1
76307,-90.9090909090909,4,2,196,80,0,1
76616,-90.9090909090909,4,2,134,80,0,1
76717,-90.9090909090909,4,2,197,80,0,1
76924,-90.9090909090909,4,2,136,80,0,1
77129,-90.9090909090909,4,2,198,80,0,1
77334,-90.9090909090909,4,2,134,80,0,1
77540,-90.9090909090909,4,2,199,80,0,1
77745,-90.9090909090909,4,2,200,80,0,1
77951,-90.9090909090909,4,2,201,80,0,1
78259,-90.9090909090909,4,2,202,80,0,1
78361,-90.9090909090909,4,2,203,80,0,1
78567,-90.9090909090909,4,2,204,80,0,1
78773,-90.9090909090909,4,2,205,80,0,1
79081,-90.9090909090909,4,2,202,80,0,1
79183,-90.9090909090909,4,2,203,80,0,1
79389,-90.9090909090909,4,2,204,80,0,1
79595,-111.111111111111,4,2,206,80,0,1
79800,-111.111111111111,4,2,33,80,0,1
81238,-111.111111111111,4,2,207,70,0,0
81444,-111.111111111111,4,2,208,70,0,0
81649,-111.111111111111,4,2,209,70,0,0
81854,-111.111111111111,4,2,33,70,0,0
82059,-111.111111111111,4,2,210,70,0,0
82471,-111.111111111111,4,2,211,70,0,0
82676,-111.111111111111,4,2,33,70,0,0
82881,-111.111111111111,4,2,212,70,0,0
83293,-111.111111111111,4,2,213,70,0,0
83806,-111.111111111111,4,2,213,70,0,0
83909,-111.111111111111,4,2,214,70,0,0
84526,-100,4,2,215,50,0,0
84732,-100,4,2,216,50,0,0
84936,-100,4,2,215,50,0,0
85143,-100,4,2,216,50,0,0
85348,-100,4,2,215,50,0,0
85553,-100,4,2,217,50,0,0
85964,-100,4,2,218,50,0,0
86067,-100,4,2,89,50,0,0
86170,-100,4,2,219,50,0,0
86786,-100,4,2,220,50,0,0
87197,-100,4,2,24,50,0,0
87402,-100,4,2,215,50,0,0
87608,-100,4,2,221,50,0,0
87711,-100,4,2,89,50,0,0
88225,-100,4,2,216,50,0,0
88841,-100,4,2,24,50,0,0
89046,-100,4,2,216,50,0,0
89252,-100,4,2,222,50,0,0
89662,-100,4,2,89,50,0,0
90691,-100,4,2,215,50,0,0
90896,-100,4,2,28,50,0,0
91101,-100,4,2,223,60,0,0
91511,-100,4,2,224,60,0,0
91718,-100,4,2,225,60,0,0
91923,-100,4,2,1,60,0,0
92129,-100,4,2,226,60,0,0
92334,-100,4,2,1,60,0,0
92540,-100,4,2,225,60,0,0
92745,-100,4,2,1,60,0,0
92950,-100,4,2,227,60,0,0
93156,-100,4,2,228,60,0,0
93362,-100,4,2,229,60,0,0
93567,-100,4,2,230,60,0,0
94184,-100,4,2,231,60,0,0
94389,-100,4,2,232,60,0,0
94595,-100,4,2,233,60,0,0
94799,-100,4,2,232,60,0,0
95211,-100,4,2,234,60,0,0
95416,-100,4,2,235,60,0,0
95621,-100,4,2,236,60,0,0
95827,-100,4,2,237,60,0,0
96237,-100,4,2,238,60,0,0
96444,-100,4,2,37,60,0,0
96650,-100,4,2,239,60,0,0
96855,-100,4,2,240,60,0,0
97061,-100,4,2,241,60,0,0
97163,-100,4,2,1,60,0,0
97266,-100,4,2,242,60,0,0
97369,-100,4,2,33,60,0,0
97677,-100,4,2,243,60,0,0
97883,-100,4,2,234,60,0,0
98087,-100,4,2,240,60,0,0
98293,-100,4,2,234,60,0,0
98499,-100,4,2,240,60,0,0
98704,-100,4,2,30,60,0,0
98910,-100,4,2,1,60,0,0
99116,-100,4,2,62,60,0,0
99321,-100,4,2,244,60,0,0
99731,-100,4,2,1,60,0,0
99937,-100,4,2,245,60,0,0
100143,-100,4,2,65,60,0,0
100554,-100,4,2,240,60,0,0
100759,-100,4,2,66,60,0,0
100965,-100,4,2,67,60,0,0
101169,-100,4,2,234,60,0,0
101375,-100,4,2,68,60,0,0
101581,-100,4,2,234,60,0,0
101786,-100,4,2,246,60,0,0
101991,-100,4,2,241,60,0,0
102196,-100,4,2,234,60,0,0
102403,-100,4,2,247,60,0,0
102608,-100,4,2,2,60,0,0
102814,-100,4,2,71,60,0,0
103019,-100,4,2,1,60,0,0
103430,-100,4,2,248,60,0,0
103841,-100,4,2,240,60,0,0
104046,-100,4,2,35,60,0,0
104149,-100,4,2,1,60,0,0
104252,-100,4,2,249,60,0,0
104662,-100,4,2,73,60,0,0
104869,-100,4,2,30,60,0,0
105280,-100,4,2,74,60,0,0
105485,-100,4,2,1,60,0,0
105691,-100,4,2,30,60,0,0
105896,-100,4,2,75,60,0,0
106101,-100,4,2,239,60,0,0
106307,-100,4,2,76,60,0,0
106512,-100,4,2,77,60,0,0
106718,-100,4,2,2,60,0,0
107129,-100,4,2,58,60,0,0
107335,-100,4,2,240,60,0,0
107540,-100,4,2,250,60,0,0
107746,-100,4,2,66,60,0,0
107950,-100,4,2,234,60,0,0
108567,-100,4,2,58,60,0,0
108772,-100,4,2,234,60,0,0
108978,-100,4,2,251,60,0,0
109388,-100,4,2,80,60,0,0
109595,-100,4,2,74,60,0,0
109800,-100,4,2,74,60,0,0
110211,-100,4,2,81,60,0,0
110417,-100,4,2,82,60,0,0
110622,-100,4,2,82,60,0,0
110827,-100,4,2,83,60,0,0
111032,-100,4,2,84,60,0,0
111136,-100,4,2,85,60,0,0
111444,-100,4,2,86,60,0,0
111649,-100,4,2,87,60,0,0
111854,-100,4,2,88,60,0,0
111958,-100,4,2,89,60,0,0
112060,-100,4,2,1,60,0,0
112129,-100,4,2,84,60,0,0
112266,-100,4,2,84,60,0,0
112471,-100,4,2,90,60,0,0
112779,-100,4,2,252,60,0,0
112883,-100,4,2,82,60,0,0
113087,-100,4,2,92,60,0,0
113293,-100,4,2,93,60,0,0
113396,-100,4,2,2,60,0,0
113703,-100,4,2,1,60,0,0
113773,-100,4,2,2,60,0,0
113910,-100,4,2,82,60,0,0
114115,-100,4,2,83,60,0,0
114320,-100,4,2,84,60,0,0
114424,-100,4,2,85,60,0,0
114732,-100,4,2,86,60,0,0
114937,-100,4,2,87,60,0,0
115142,-100,4,2,84,60,0,0
115348,-100,4,2,1,60,0,0
115417,-100,4,2,2,60,0,0
115554,-100,4,2,94,60,0,0
115759,-100,4,2,95,60,0,0
116068,-100,4,2,96,60,0,0
116170,-100,4,2,97,60,0,0
116581,-100,4,2,98,60,0,0
116991,-100,4,2,99,60,0,0
117197,-100,4,2,100,60,0,0
117402,-100,4,2,101,60,0,0
117607,-100,4,2,102,60,0,0
117814,-100,4,2,103,60,0,0
118019,-100,4,2,104,60,0,0
118224,-100,4,2,105,60,0,0
118429,-100,4,2,106,60,0,0
118636,-100,4,2,107,60,0,0
118841,-100,4,2,98,60,0,0
119251,-100,4,2,108,60,0,0
119458,-100,4,2,109,60,0,0
119663,-100,4,2,110,60,0,0
119869,-100,4,2,111,60,0,0
120074,-100,4,2,2,60,0,0
120280,-100,4,2,112,60,0,0
120485,-100,4,2,236,60,0,0
120690,-100,4,2,114,60,0,0
120792,-100,4,2,114,60,0,0
120895,-100,4,2,115,60,0,0
121203,-100,4,2,115,60,0,0
121307,-100,4,2,117,60,0,0
121512,-100,4,2,116,60,0,0
121614,-100,4,2,116,60,0,0
121718,-100,4,2,118,60,0,0
122026,-100,4,2,118,60,0,0
122129,-100,4,2,119,60,0,0
122539,-100,4,2,119,50,0,0
122745,-100,4,2,120,50,0,0
122950,-100,4,2,121,50,0,0
123156,-100,4,2,121,60,0,0
123362,-100,4,2,122,60,0,0
123464,-100,4,2,122,60,0,0
123567,-100,4,2,122,60,0,0
123669,-100,4,2,122,60,0,0
123773,-100,4,2,122,60,0,0
123875,-100,4,2,122,60,0,0
123978,-100,4,2,123,70,0,0
124183,-100,4,2,123,70,0,0
124286,-100,4,2,123,70,0,0
124491,-100,4,2,123,70,0,0
124595,-100,4,2,123,70,0,0
124697,-100,4,2,123,70,0,0
124800,-100,4,2,123,70,0,0
125006,-100,4,2,58,55,0,0
125108,-100,4,2,1,55,0,0
125211,-100,4,2,124,55,0,0
125314,-100,4,2,33,55,0,0
125622,-90.9090909090909,4,2,253,80,0,1
125828,-90.9090909090909,4,2,96,80,0,1
125930,-90.9090909090909,4,2,126,80,0,1
126032,-90.9090909090909,4,2,127,80,0,1
126238,-90.9090909090909,4,2,128,80,0,1
126444,-90.9090909090909,4,2,254,80,0,1
126650,-90.9090909090909,4,2,59,80,0,1
126753,-90.9090909090909,4,2,255,80,0,1
126854,-90.9090909090909,4,2,131,80,0,1
127060,-90.9090909090909,4,2,132,80,0,1
127266,-90.9090909090909,4,2,256,80,0,1
127472,-90.9090909090909,4,2,257,80,0,1
127574,-90.9090909090909,4,2,258,80,0,1
127677,-90.9090909090909,4,2,135,80,0,1
127882,-90.9090909090909,4,2,259,80,0,1
128088,-90.9090909090909,4,2,137,80,0,1
128293,-90.9090909090909,4,2,260,80,0,1
128396,-90.9090909090909,4,2,261,80,0,1
128499,-90.9090909090909,4,2,262,80,0,1
128705,-90.9090909090909,4,2,263,80,0,1
128910,-90.9090909090909,4,2,139,80,0,1
129218,-90.9090909090909,4,2,140,80,0,1
129320,-90.9090909090909,4,2,264,80,0,1
129526,-90.9090909090909,4,2,142,80,0,1
129732,-90.9090909090909,4,2,139,80,0,1
130040,-90.9090909090909,4,2,140,80,0,1
130142,-90.9090909090909,4,2,141,80,0,1
130348,-90.9090909090909,4,2,142,80,0,1
130554,-90.9090909090909,4,2,143,80,0,1
130759,-90.9090909090909,4,2,120,80,0,1
130862,-90.9090909090909,4,2,144,80,0,1
130964,-90.9090909090909,4,2,145,80,0,1
131169,-90.9090909090909,4,2,146,80,0,1
131375,-90.9090909090909,4,2,147,80,0,1
131684,-90.9090909090909,4,2,144,80,0,1
131786,-90.9090909090909,4,2,265,80,0,1
131991,-90.9090909090909,4,2,266,80,0,1
132095,-90.9090909090909,4,2,267,80,0,1
132197,-90.9090909090909,4,2,150,80,0,1
132506,-90.9090909090909,4,2,126,80,0,1
132607,-90.9090909090909,4,2,127,80,0,1
132814,-90.9090909090909,4,2,128,80,0,1
133019,-90.9090909090909,4,2,268,80,0,1
133224,-90.9090909090909,4,2,96,80,0,1
133328,-90.9090909090909,4,2,269,80,0,1
133430,-90.9090909090909,4,2,131,80,0,1
133635,-90.9090909090909,4,2,132,80,0,1
133841,-90.9090909090909,4,2,151,80,0,1
134149,-90.9090909090909,4,2,152,80,0,1
134253,-90.9090909090909,4,2,134,80,0,1
134457,-90.9090909090909,4,2,153,80,0,1
134663,-90.9090909090909,4,2,136,80,0,1
134869,-90.9090909090909,4,2,154,80,0,1
135074,-90.9090909090909,4,2,155,80,0,1
135279,-90.9090909090909,4,2,156,80,0,1
135485,-90.9090909090909,4,2,157,80,0,1
135794,-90.9090909090909,4,2,158,80,0,1
135895,-90.9090909090909,4,2,159,80,0,1
136101,-90.9090909090909,4,2,160,80,0,1
136307,-90.9090909090909,4,2,161,80,0,1
136616,-90.9090909090909,4,2,158,80,0,1
136717,-90.9090909090909,4,2,159,80,0,1
136923,-90.9090909090909,4,2,162,80,0,1
137129,-90.9090909090909,4,2,163,80,0,0
137335,-90.9090909090909,4,2,164,80,0,0
137437,-90.9090909090909,4,2,165,80,0,0
137540,-90.9090909090909,4,2,270,80,0,0
137643,-90.9090909090909,4,2,167,80,0,0
137746,-90.9090909090909,4,2,271,80,0,0
137848,-90.9090909090909,4,2,169,80,0,0
137950,-90.9090909090909,4,2,272,80,0,0
138054,-90.9090909090909,4,2,171,80,0,0
138157,-90.9090909090909,4,2,172,80,0,0
138362,-90.9090909090909,4,2,173,80,0,0
138567,-90.9090909090909,4,2,174,80,0,0
138773,-90.9090909090909,4,2,175,80,0,1
139081,-90.9090909090909,4,2,176,80,0,1
139183,-90.9090909090909,4,2,177,80,0,1
139389,-90.9090909090909,4,2,178,80,0,1
139595,-90.9090909090909,4,2,179,80,0,1
139800,-90.9090909090909,4,2,273,80,0,1
139903,-90.9090909090909,4,2,130,80,0,1
140006,-90.9090909090909,4,2,180,80,0,1
140211,-90.9090909090909,4,2,181,80,0,1
140417,-90.9090909090909,4,2,182,80,0,1
140725,-90.9090909090909,4,2,134,80,0,1
140827,-90.9090909090909,4,2,135,80,0,1
141033,-90.9090909090909,4,2,136,80,0,1
141238,-90.9090909090909,4,2,137,80,0,1
141444,-90.9090909090909,4,2,134,80,0,1
141649,-90.9090909090909,4,2,138,80,0,1
141854,-90.9090909090909,4,2,136,80,0,1
142060,-90.9090909090909,4,2,139,80,0,1
142369,-90.9090909090909,4,2,140,80,0,1
142470,-90.9090909090909,4,2,141,80,0,1
142677,-90.9090909090909,4,2,142,80,0,1
142882,-90.9090909090909,4,2,183,80,0,1
143191,-90.9090909090909,4,2,140,80,0,1
143292,-90.9090909090909,4,2,141,80,0,1
143499,-90.9090909090909,4,2,142,80,0,1
143704,-90.9090909090909,4,2,184,80,0,1
143909,-90.9090909090909,4,2,120,80,0,1
144013,-90.9090909090909,4,2,144,80,0,1
144115,-90.9090909090909,4,2,185,80,0,1
144320,-90.9090909090909,4,2,186,80,0,1
144526,-90.9090909090909,4,2,187,80,0,1
144835,-90.9090909090909,4,2,144,80,0,1
144937,-90.9090909090909,4,2,188,80,0,1
145142,-90.9090909090909,4,2,149,80,0,1
145245,-90.9090909090909,4,2,1,80,0,1
145348,-90.9090909090909,4,2,189,80,0,1
145657,-90.9090909090909,4,2,130,80,0,1
145758,-90.9090909090909,4,2,190,80,0,1
145964,-90.9090909090909,4,2,191,80,0,1
146169,-90.9090909090909,4,2,192,80,0,1
146375,-90.9090909090909,4,2,193,80,0,1
146479,-90.9090909090909,4,2,130,80,0,1
146580,-90.9090909090909,4,2,194,80,0,1
146785,-90.9090909090909,4,2,195,80,0,1
146992,-90.9090909090909,4,2,196,80,0,1
147300,-90.9090909090909,4,2,134,80,0,1
147403,-90.9090909090909,4,2,197,80,0,1
147609,-90.9090909090909,4,2,136,80,0,1
147814,-90.9090909090909,4,2,198,80,0,1
148019,-90.9090909090909,4,2,134,80,0,1
148225,-90.9090909090909,4,2,199,80,0,1
148430,-90.9090909090909,4,2,200,80,0,1
148636,-90.9090909090909,4,2,201,80,0,1
148944,-90.9090909090909,4,2,202,80,0,1
149046,-90.9090909090909,4,2,203,80,0,1
149252,-90.9090909090909,4,2,204,80,0,1
149458,-90.9090909090909,4,2,205,80,0,1
149766,-90.9090909090909,4,2,202,80,0,1
149868,-90.9090909090909,4,2,203,80,0,1
150074,-90.9090909090909,4,2,204,80,0,1
150280,-90.9090909090909,4,2,206,80,0,1
150485,-90.9090909090909,4,2,274,80,0,1
151717,-90.9090909090909,4,2,275,80,0,1
151923,-100,4,2,276,70,0,0
152232,-100,4,2,1,70,0,0
152333,-100,4,2,120,70,0,0
152540,-100,4,2,277,70,0,0
152951,-100,4,2,278,70,0,0
153054,-100,4,2,279,70,0,0
153156,-100,4,2,278,70,0,0
153259,-100,4,2,280,70,0,0
153362,-100,4,2,281,70,0,0
153568,-100,4,2,282,70,0,0
153772,-100,4,2,2,70,0,0
153978,-100,4,2,283,70,0,0
154184,-100,4,2,284,70,0,0
154389,-100,4,2,33,70,0,0
154800,-100,4,2,285,70,0,0
154869,-100,4,2,286,70,0,0
154937,-100,4,2,287,70,0,0
155006,-100,4,2,288,70,0,0
155074,-100,4,2,289,70,0,0
155108,-100,4,2,1,70,0,0
155143,-100,4,2,290,70,0,0
155211,-100,4,2,291,70,0,0
155314,-100,4,2,292,70,0,0
155416,-100,4,2,293,70,0,0
155520,-100,4,2,294,70,0,0
155622,-100,4,2,293,70,0,0
155827,-100,4,2,295,70,0,0
155931,-100,4,2,296,70,0,0
156033,-100,4,2,297,70,0,0
156238,-100,4,2,298,70,0,0
156443,-100,4,2,299,70,0,0
156649,-100,4,2,300,70,0,0
156855,-100,4,2,301,70,0,0
157059,-100,4,2,302,70,0,0
157163,-100,4,2,169,70,0,0
157266,-100,4,2,303,70,0,0
157369,-100,4,2,304,70,0,0
157472,-100,4,2,305,70,0,0
157574,-100,4,2,306,70,0,0
157677,-100,4,2,307,70,0,0
157780,-100,4,2,308,70,0,0
157882,-100,4,2,309,70,0,0
157985,-100,4,2,310,70,0,0
158088,-100,4,2,311,70,0,0
158156,-100,4,2,312,70,0,0
158293,-100,4,2,313,70,0,0
158396,-100,4,2,314,70,0,0
158499,-100,4,2,315,70,0,0
158705,-100,4,2,316,70,0,0
159321,-100,4,2,317,70,0,0
159526,-100,4,2,316,70,0,0
160143,-100,4,2,318,70,0,0
160348,-100,4,2,319,70,0,0
160553,-100,4,2,320,70,0,0
160759,-100,4,2,319,70,0,0
160965,-100,4,2,320,70,0,0
161170,-100,4,2,321,70,0,0
161581,-100,4,2,319,70,0,0
161786,-100,4,2,322,70,0,0
161992,-100,4,2,323,70,0,0
162196,-100,4,2,324,70,0,0
162403,-100,4,2,323,70,0,0
162608,-100,4,2,324,70,0,0
162814,-100,4,2,323,70,0,0
163430,-100,4,2,325,70,0,0
163738,-100,4,2,1,70,0,0
163841,-100,4,2,326,70,0,0
164047,-100,4,2,1,70,0,0
164252,-100,4,2,327,70,0,0
164526,-100,4,2,328,70,0,0
164663,-100,4,2,2,70,0,0
164800,-100,4,2,260,70,0,0
164868,-100,4,2,278,70,0,0
164972,-100,4,2,279,70,0,0
165074,-100,4,2,329,70,0,0
165382,-100,4,2,330,70,0,0
165690,-100,4,2,331,70,0,0
165896,-100,4,2,332,70,0,0
166204,-100,4,2,333,70,0,0
166512,-100,4,2,334,70,0,0
166718,-100,4,2,335,70,0,0
167026,-100,4,2,336,70,0,0
167334,-100,4,2,337,70,0,0
167540,-100,4,2,338,70,0,0
167951,-100,4,2,339,70,0,0
168054,-100,4,2,278,70,0,0
168156,-100,4,2,340,70,0,0
168259,-100,4,2,278,70,0,0
168362,-100,4,2,341,70,0,0
168978,-100,4,2,1,70,0,0
169184,-100,4,2,342,70,0,0
169800,-100,4,2,1,70,0,0
170006,-100,4,2,343,70,0,0
170622,-100,4,2,1,70,0,0
170827,-100,4,2,344,70,0,0
171649,-100,4,2,345,70,0,0
171701,-100,4,2,346,70,0,0
171718,-100,4,2,347,70,0,0
171786,-100,4,2,348,70,0,0
172883,-100,4,2,349,50,0,0
173294,-100,4,2,29,50,0,0
173601,-100,4,2,89,50,0,0
173705,-100,4,2,350,50,0,0
173910,-100,4,2,351,50,0,0
174116,-100,4,2,352,50,0,0
174321,-100,4,2,353,50,0,0
174732,-100,4,2,20,50,0,0
174835,-100,4,2,354,50,0,0
174937,-100,4,2,355,50,0,0
175348,-100,4,2,356,50,0,0
175759,-100,4,2,357,50,0,0
176170,-100,4,2,358,50,0,0
176581,-100,4,2,359,50,0,0
176787,-100,4,2,360,50,0,0
177403,-100,4,2,361,50,0,0
177609,-100,4,2,362,50,0,0
178020,-100,4,2,363,50,0,0
178122,-100,4,2,364,50,0,0
178225,-100,4,2,365,50,0,0
178636,-100,4,2,366,50,0,0
178944,-100,4,2,367,50,0,0
178996,-100,4,2,368,50,0,0
179047,-100,4,2,369,50,0,0
179458,-100,4,2,370,50,0,0
179561,-100,4,2,304,50,0,0
179663,-100,4,2,371,50,0,0
179766,-100,4,2,372,50,0,0
179869,-100,4,2,373,50,0,0
180177,-100,4,2,21,50,0,0
180280,-100,4,2,374,50,0,0
180485,-100,4,2,375,50,0,0
180691,-100,4,2,21,50,0,0
180896,-100,4,2,376,50,0,0
181307,-100,4,2,377,50,0,0
181410,-100,4,2,378,50,0,0
181513,-100,4,2,379,50,0,0
181924,-100,4,2,380,50,0,0
182129,-100,4,2,350,50,0,0
182335,-100,4,2,381,50,0,0
182643,-100,4,2,382,50,0,0
182951,-100,4,2,351,50,0,0
183157,-100,4,2,383,50,0,0
183568,-100,4,2,350,50,0,0
183773,-100,4,2,384,50,0,0
183876,-100,4,2,363,50,0,0
183979,-100,4,2,385,50,0,0
184287,-100,4,2,386,50,0,0
184595,-100,4,2,387,50,0,0
184800,-100,4,2,19,50,0,0
185006,-100,4,2,388,50,0,0
185109,-100,4,2,389,50,0,0
185211,-100,4,2,390,50,0,0
185314,-100,4,2,391,50,0,0
185417,-100,4,2,378,50,0,0
185520,-100,4,2,377,50,0,0
185622,-100,4,2,364,50,0,0
185725,-100,4,2,392,50,0,0
185828,-100,4,2,393,50,0,0
185931,-100,4,2,394,50,0,0
186033,-100,4,2,395,50,0,0
186136,-100,4,2,396,50,0,0
186239,-100,4,2,267,50,0,0
186444,-111.111111111111,4,2,397,50,0,0
186753,-111.111111111111,4,2,398,50,0,0
186854,-111.111111111111,4,2,399,50,0,0
187060,-111.111111111111,4,2,400,50,0,0
187266,-111.111111111111,4,2,401,50,0,0
187472,-111.111111111111,4,2,402,50,0,0
187882,-111.111111111111,4,2,403,50,0,0
187985,-111.111111111111,4,2,404,50,0,0
188087,-111.111111111111,4,2,405,50,0,0
188499,-111.111111111111,4,2,406,50,0,0
188910,-111.111111111111,4,2,407,50,0,0
189115,-111.111111111111,4,2,408,50,0,0
189320,-111.111111111111,4,2,27,50,0,0
189526,-111.111111111111,4,2,409,50,0,0
189732,-111.111111111111,4,2,410,50,0,0
189937,-111.111111111111,4,2,411,50,0,0
190040,-111.111111111111,4,2,89,50,0,0
190142,-111.111111111111,4,2,350,50,0,0
190554,-111.111111111111,4,2,412,50,0,0
190759,-111.111111111111,4,2,413,50,0,0
191170,-111.111111111111,4,2,414,50,0,0
191273,-111.111111111111,4,2,19,50,0,0
191375,-111.111111111111,4,2,415,50,0,0
191786,-111.111111111111,4,2,416,50,0,0
192095,-111.111111111111,4,2,417,50,0,0
192146,-111.111111111111,4,2,418,50,0,0
192197,-111.111111111111,4,2,350,50,0,0
192608,-111.111111111111,4,2,419,50,0,0
192711,-111.111111111111,4,2,399,50,0,0
192813,-111.111111111111,4,2,420,50,0,0
192917,-111.111111111111,4,2,394,50,0,0
193019,-111.111111111111,4,2,421,50,0,0
193328,-111.111111111111,4,2,398,50,0,0
193429,-111.111111111111,4,2,399,50,0,0
193636,-111.111111111111,4,2,422,50,0,0
193842,-111.111111111111,4,2,423,50,0,0
194047,-111.111111111111,4,2,407,50,0,0
194252,-111.111111111111,4,2,408,50,0,0
194457,-111.111111111111,4,2,352,50,0,0
194663,-111.111111111111,4,2,424,50,0,0
195049,-111.111111111111,4,2,425,50,0,0
195074,-111.111111111111,4,2,426,50,0,0
195460,-111.111111111111,4,2,427,50,0,0
195485,-111.111111111111,4,2,428,50,0,0
195896,-111.111111111111,4,2,352,50,0,0
196101,-111.111111111111,4,2,411,50,0,0
196307,-111.111111111111,4,2,429,50,0,0
196513,-111.111111111111,4,2,423,50,0,0
196718,-111.111111111111,4,2,430,50,0,0
196923,-111.111111111111,4,2,431,50,0,0
197128,-111.111111111111,4,2,432,50,0,0
197335,-111.111111111111,4,2,273,50,0,0
197540,-111.111111111111,4,2,433,50,0,0
197745,-111.111111111111,4,2,434,50,0,0
197950,-111.111111111111,4,2,435,50,0,0
198362,-111.111111111111,4,2,436,50,0,0
198978,-111.111111111111,4,2,19,50,0,0
199184,-111.111111111111,4,2,120,50,0,0
199389,-111.111111111111,4,2,437,50,0,0
199595,-100,4,2,438,60,0,0
199646,-100,4,2,439,30,0,0
199800,-100,4,2,440,30,0,0
199903,-100,4,2,439,30,0,0
200005,-100,4,2,441,30,0,0
200109,-100,4,2,442,30,0,0
200211,-100,4,2,443,40,0,0
200314,-100,4,2,442,40,0,0
200417,-100,4,2,444,45,0,0
200520,-100,4,2,445,45,0,0
200622,-100,4,2,446,50,0,0
200725,-100,4,2,445,50,0,0
200827,-100,4,2,447,55,0,0
200931,-100,4,2,448,55,0,0
201032,-100,4,2,449,60,0,0
201136,-100,4,2,448,60,0,0
201238,-100,4,2,450,80,0,0
201443,-100,4,2,450,80,0,0
201547,-100,4,2,450,80,0,0
201752,-100,4,2,450,80,0,0
201854,-100,4,2,451,80,0,0
201957,-100,4,2,451,80,0,0
202060,-100,4,2,451,80,0,0
202266,-100,4,2,452,60,0,0
202472,-100,4,2,453,60,0,0
202677,-100,4,2,454,60,0,0
202882,-100,4,2,455,80,0,0
203191,-100,4,2,456,60,0,0
203292,-100,4,2,457,60,0,0
203499,-100,4,2,458,80,0,0
203704,-100,4,2,459,80,0,0
203909,-100,4,2,1,80,0,0
204115,-100,4,2,437,80,0,0
204218,-100,4,2,274,80,0,0
204526,-100,4,2,334,80,0,0
204706,-100,4,2,460,80,0,0
204732,-100,4,2,461,80,0,0
204937,-100,4,2,461,80,0,0
205015,-100,4,2,460,80,0,0
205040,-100,4,2,462,80,0,0
205245,-100,4,2,462,80,0,0
205323,-100,4,2,463,80,0,0
205348,-100,4,2,464,80,0,0
205656,-100,4,2,464,80,0,0
205759,-100,4,2,465,80,0,0
206067,-100,4,2,465,80,0,0
206170,-90.9090909090909,4,2,466,55,0,1
206478,-90.9090909090909,4,2,140,80,0,1
206580,-90.9090909090909,4,2,141,80,0,1
206786,-90.9090909090909,4,2,142,80,0,1
206992,-90.9090909090909,4,2,139,80,0,1
207300,-90.9090909090909,4,2,140,80,0,1
207402,-90.9090909090909,4,2,141,80,0,1
207608,-90.9090909090909,4,2,142,80,0,1
207814,-90.9090909090909,4,2,143,80,0,1
208019,-90.9090909090909,4,2,120,80,0,1
208122,-90.9090909090909,4,2,144,80,0,1
208225,-90.9090909090909,4,2,145,80,0,1
208430,-90.9090909090909,4,2,146,80,0,1
208636,-90.9090909090909,4,2,147,80,0,1
208944,-90.9090909090909,4,2,144,80,0,1
209047,-90.9090909090909,4,2,148,80,0,1
209252,-90.9090909090909,4,2,149,80,0,1
209355,-90.9090909090909,4,2,1,80,0,1
209458,-90.9090909090909,4,2,150,80,0,1
209766,-90.9090909090909,4,2,126,80,0,1
209868,-90.9090909090909,4,2,127,80,0,1
210074,-90.9090909090909,4,2,128,80,0,1
210280,-90.9090909090909,4,2,129,80,0,1
210588,-90.9090909090909,4,2,130,80,0,1
210691,-90.9090909090909,4,2,131,80,0,1
210896,-90.9090909090909,4,2,132,80,0,1
211101,-90.9090909090909,4,2,151,80,0,1
211409,-90.9090909090909,4,2,152,80,0,1
211513,-90.9090909090909,4,2,134,80,0,1
211717,-90.9090909090909,4,2,153,80,0,1
211923,-90.9090909090909,4,2,136,80,0,1
212129,-90.9090909090909,4,2,154,80,0,1
212334,-90.9090909090909,4,2,155,80,0,1
212539,-90.9090909090909,4,2,156,80,0,1
212745,-90.9090909090909,4,2,157,80,0,1
213054,-90.9090909090909,4,2,158,80,0,1
213155,-90.9090909090909,4,2,159,80,0,1
213362,-90.9090909090909,4,2,160,80,0,1
213567,-90.9090909090909,4,2,161,80,0,1
213876,-90.9090909090909,4,2,158,80,0,1
213977,-90.9090909090909,4,2,159,80,0,1
214184,-90.9090909090909,4,2,162,80,0,1
214389,-90.9090909090909,4,2,163,55,0,0
214595,-90.9090909090909,4,2,164,80,0,0
214698,-90.9090909090909,4,2,165,80,0,0
214800,-90.9090909090909,4,2,270,80,0,0
214903,-90.9090909090909,4,2,167,80,0,0
215006,-90.9090909090909,4,2,271,80,0,0
215109,-90.9090909090909,4,2,169,80,0,0
215210,-90.9090909090909,4,2,272,80,0,0
215314,-90.9090909090909,4,2,171,80,0,0
215417,-90.9090909090909,4,2,172,80,0,0
215622,-90.9090909090909,4,2,173,80,0,0
215827,-90.9090909090909,4,2,174,80,0,0
216033,-90.9090909090909,4,2,467,55,0,1
216342,-90.9090909090909,4,2,176,80,0,1
216443,-90.9090909090909,4,2,177,80,0,1
216649,-90.9090909090909,4,2,178,80,0,1
216855,-90.9090909090909,4,2,179,80,0,1
217060,-90.9090909090909,4,2,130,80,0,1
217265,-90.9090909090909,4,2,180,80,0,1
217471,-90.9090909090909,4,2,181,80,0,1
217677,-90.9090909090909,4,2,182,80,0,1
217985,-90.9090909090909,4,2,134,80,0,1
218088,-90.9090909090909,4,2,135,80,0,1
218294,-90.9090909090909,4,2,136,80,0,1
218499,-90.9090909090909,4,2,137,80,0,1
218704,-90.9090909090909,4,2,134,80,0,1
218910,-90.9090909090909,4,2,138,80,0,1
219116,-90.9090909090909,4,2,136,80,0,1
219321,-90.9090909090909,4,2,139,80,0,1
219629,-90.9090909090909,4,2,140,80,0,1
219731,-90.9090909090909,4,2,141,80,0,1
219937,-90.9090909090909,4,2,142,80,0,1
220143,-90.9090909090909,4,2,183,80,0,1
220451,-90.9090909090909,4,2,140,80,0,1
220553,-90.9090909090909,4,2,141,80,0,1
220759,-90.9090909090909,4,2,142,80,0,1
220964,-90.9090909090909,4,2,184,80,0,1
221169,-90.9090909090909,4,2,120,80,0,1
221273,-90.9090909090909,4,2,144,80,0,1
221375,-90.9090909090909,4,2,185,80,0,1
221580,-90.9090909090909,4,2,186,80,0,1
221786,-90.9090909090909,4,2,187,80,0,1
222095,-90.9090909090909,4,2,144,80,0,1
222197,-90.9090909090909,4,2,188,80,0,1
222402,-90.9090909090909,4,2,149,80,0,1
222506,-90.9090909090909,4,2,1,80,0,1
222608,-90.9090909090909,4,2,189,80,0,1
222917,-90.9090909090909,4,2,130,80,0,1
223018,-90.9090909090909,4,2,190,80,0,1
223225,-90.9090909090909,4,2,191,80,0,1
223431,-90.9090909090909,4,2,192,80,0,1
223636,-90.9090909090909,4,2,193,80,0,1
223739,-90.9090909090909,4,2,130,80,0,1
223841,-90.9090909090909,4,2,194,80,0,1
224046,-90.9090909090909,4,2,195,80,0,1
224252,-90.9090909090909,4,2,196,80,0,1
224561,-90.9090909090909,4,2,134,80,0,1
224663,-90.9090909090909,4,2,197,80,0,1
224869,-90.9090909090909,4,2,136,80,0,1
225074,-90.9090909090909,4,2,198,80,0,1
225280,-90.9090909090909,4,2,134,80,0,1
225485,-90.9090909090909,4,2,199,80,0,1
225690,-90.9090909090909,4,2,200,80,0,1
225896,-90.9090909090909,4,2,201,80,0,1
226205,-90.9090909090909,4,2,202,80,0,1
226306,-90.9090909090909,4,2,203,80,0,1
226512,-90.9090909090909,4,2,204,80,0,1
226718,-90.9090909090909,4,2,205,80,0,1
227027,-90.9090909090909,4,2,202,80,0,1
227128,-90.9090909090909,4,2,203,80,0,1
227334,-90.9090909090909,4,2,204,80,0,1
227540,-90.9090909090909,4,2,468,80,0,1
227745,-90.9090909090909,4,2,1,80,0,1
227951,-90.9090909090909,4,2,469,80,0,1
228156,-90.9090909090909,4,2,172,80,0,1
228568,-90.9090909090909,4,2,470,80,0,1
228773,-90.9090909090909,4,2,471,80,0,1
228978,-90.9090909090909,4,2,472,80,0,1
229184,-100,4,2,473,70,0,0
229390,-100,4,2,474,70,0,0
229458,-100,4,2,475,70,0,0
229527,-100,4,2,476,70,0,0
229594,-100,4,2,477,70,0,0
229663,-100,4,2,478,70,0,0
229732,-100,4,2,479,70,0,0
229800,-100,4,2,480,70,0,0
229869,-100,4,2,347,70,0,0
229937,-100,4,2,481,70,0,0
230006,-100,4,2,482,70,0,0
230109,-100,4,2,483,70,0,0
230211,-100,4,2,484,70,0,0
230314,-100,4,2,485,70,0,0
230417,-100,4,2,486,70,0,0
230520,-100,4,2,487,70,0,0
230622,-100,4,2,488,70,0,0
230725,-100,4,2,489,70,0,0
230827,-100,4,2,490,70,0,0
231033,-100,4,2,491,70,0,0
231102,-100,4,2,492,70,0,0
231170,-100,4,2,493,70,0,0
231237,-100,4,2,494,70,0,0
231307,-100,4,2,495,70,0,0
231376,-100,4,2,346,70,0,0
231444,-100,4,2,496,70,0,0
231513,-100,4,2,497,70,0,0
231581,-100,4,2,498,70,0,0
231649,-100,4,2,499,70,0,0
231753,-100,4,2,500,70,0,0
231854,-100,4,2,501,70,0,0
231958,-100,4,2,502,70,0,0
232060,-100,4,2,503,70,0,0
232163,-100,4,2,306,70,0,0
232266,-100,4,2,504,70,0,0
232369,-100,4,2,257,70,0,0
232471,-100,4,2,505,70,0,0
232677,-100,4,2,506,70,0,0
232746,-100,4,2,507,70,0,0
232814,-100,4,2,508,70,0,0
232881,-100,4,2,509,70,0,0
232951,-100,4,2,290,70,0,0
233020,-100,4,2,346,70,0,0
233088,-100,4,2,510,70,0,0
233293,-100,4,2,511,70,0,0
233498,-100,4,2,512,70,0,0
233568,-100,4,2,290,70,0,0
233636,-100,4,2,346,70,0,0
233704,-100,4,2,513,70,0,0
233773,-100,4,2,514,70,0,0
233842,-100,4,2,498,70,0,0
233910,-100,4,2,515,70,0,0
234115,-100,4,2,516,70,0,0
234321,-100,4,2,517,70,0,0
234390,-100,4,2,290,70,0,0
234458,-100,4,2,518,70,0,0
234525,-100,4,2,519,70,0,0
234595,-100,4,2,514,70,0,0
234663,-100,4,2,520,70,0,0
234732,-100,4,2,521,70,0,0
234937,-100,4,2,522,70,0,0
235142,-100,4,2,523,70,0,0
235348,-100,4,2,524,70,0,0
235554,-100,4,2,525,70,0,0
235759,-100,4,2,526,70,0,0
235965,-100,4,2,527,70,0,0
236033,-100,4,2,528,70,0,0
236102,-100,4,2,529,70,0,0
236169,-100,4,2,530,70,0,0
236239,-100,4,2,531,70,0,0
236307,-100,4,2,532,70,0,0
236375,-100,4,2,533,70,0,0
236444,-100,4,2,347,70,0,0
236513,-100,4,2,481,70,0,0
236581,-100,4,2,482,70,0,0
236684,-100,4,2,483,70,0,0
236786,-100,4,2,484,70,0,0
236890,-100,4,2,534,70,0,0
236992,-100,4,2,535,70,0,0
237095,-100,4,2,536,70,0,0
237197,-100,4,2,488,70,0,0
237300,-100,4,2,489,70,0,0
237403,-100,4,2,490,70,0,0
237609,-100,4,2,491,70,0,0
237677,-100,4,2,537,70,0,0
237746,-100,4,2,508,70,0,0
237814,-100,4,2,538,70,0,0
237883,-100,4,2,495,70,0,0
237951,-100,4,2,346,70,0,0
238019,-100,4,2,539,70,0,0
238225,-100,4,2,540,70,0,0
238430,-100,4,2,541,70,0,0
238499,-100,4,2,495,70,0,0
238568,-100,4,2,346,70,0,0
238636,-100,4,2,542,70,0,0
238705,-100,4,2,497,70,0,0
238773,-100,4,2,498,70,0,0
238841,-100,4,2,543,70,0,0
239047,-100,4,2,544,70,0,0
239253,-100,4,2,545,70,0,0
239458,-100,4,2,546,70,0,0
239663,-100,4,2,547,70,0,0
239869,-100,4,2,548,70,0,0
239937,-100,4,2,549,70,0,0
240006,-100,4,2,550,70,0,0
240074,-100,4,2,551,70,0,0
240143,-100,4,2,346,70,0,0
240211,-100,4,2,347,70,0,0
240280,-100,4,2,552,70,0,0
240348,-100,4,2,498,70,0,0
240417,-100,4,2,553,70,0,0
240485,-100,4,2,554,70,0,0
240690,-100,4,2,555,70,0,0
240896,-100,4,2,556,70,0,0
241100,-100,4,2,557,70,0,0
241307,-100,4,2,558,70,0,0
241410,-100,4,2,1,70,0,0
241512,-100,4,2,559,70,0,0
241717,-100,4,2,560,70,0,0
241923,-100,4,2,561,70,0,0
242128,-100,4,2,562,70,0,0
242334,-100,4,2,563,70,0,0
242643,-100,4,2,564,50,0,0
242951,-100,4,2,565,50,0,0
243362,-100,4,2,566,50,0,0
243773,-100,4,2,89,50,0,0
243979,-100,4,2,567,50,0,0
244287,-100,4,2,568,50,0,0
244389,-100,4,2,89,50,0,0
244595,-100,4,2,569,50,0,0
245006,-100,4,2,570,50,0,0
245211,-100,4,2,89,50,0,0
245417,-100,4,2,571,50,0,0
245622,-100,4,2,572,50,0,0
245828,-100,4,2,136,50,0,0
246033,-100,4,2,573,50,0,0
246135,-100,4,2,573,50,0,0
246238,-100,4,2,574,50,0,0
246650,-100,4,2,575,50,0,0
246751,-100,4,2,575,50,0,0
246854,-100,4,2,576,50,0,0
247061,-100,4,2,577,50,0,0
247266,-100,4,2,578,50,0,0
247574,-100,4,2,578,50,0,0
247676,-100,4,2,579,50,0,0
247985,-100,4,2,579,50,0,0
248088,-100,4,2,580,50,0,0
248396,-100,4,2,580,50,0,0
248498,-100,4,2,581,50,0,0
248807,-100,4,2,581,50,0,0
248910,-100,4,2,582,50,0,0
249218,-100,4,2,583,50,0,0
249423,-100,4,2,583,50,0,0
249526,-100,4,2,584,50,0,0
249937,-100,4,2,190,50,0,0
250039,-100,4,2,190,50,0,0
250142,-100,4,2,585,50,0,0
250554,-100,4,2,586,50,0,0
250862,-100,4,2,587,50,0,0
250964,-100,4,2,89,50,0,0
251170,-100,4,2,565,50,0,0
251581,-100,4,2,588,50,0,0
251786,-100,4,2,589,50,0,0
251991,-100,4,2,590,50,0,0
252146,-100,4,2,89,50,0,0
252172,-100,4,2,591,50,0,0
252197,-100,4,2,592,50,0,0
252403,-100,4,2,577,50,0,0
252608,-100,4,2,593,50,0,0
252813,-100,4,2,594,50,0,0
252968,-100,4,2,89,50,0,0
252994,-100,4,2,591,50,0,0
253018,-100,4,2,595,50,0,0
253225,-100,4,2,596,50,0,0
253430,-100,4,2,597,50,0,0
253635,-100,4,2,598,50,0,0
253790,-100,4,2,89,50,0,0
253816,-100,4,2,591,50,0,0
253840,-100,4,2,599,50,0,0
254252,-100,4,2,600,50,0,0
254868,-100,4,2,601,50,0,0
255460,-100,4,2,602,50,0,0
255485,500,4,2,603,40,1,0
255735,-100,4,2,604,40,0,0
255985,571.428571428571,4,2,605,40,1,0
256270,-100,4,2,606,40,0,0
256413,-100,4,2,607,40,0,0
256449,-100,4,2,608,40,0,0
256485,-100,4,2,14,40,0,0
256520,-100,4,2,609,40,0,0
256556,612.244897959184,4,2,610,40,1,0
256989,-100,4,2,611,40,0,0
257168,631.578947368421,4,2,611,40,1,0
257277,-100,4,2,33,40,0,0
257507,631.578947368421,4,2,33,40,1,0
257507,-100,4,2,33,40,0,0
257720,-100,4,2,612,40,0,0
257760,-100,4,2,613,40,0,0
257799,666.666666666667,4,2,616,40,1,0
257965,-100,4,2,100,40,0,0
258757,-100,4,2,617,30,0,0
258799,-100,4,2,619,30,0,0

[Colours]
Combo1 : 66,68,127
Combo2 : 234,217,226
Combo3 : 153,79,115
Combo4 : 205,128,181
Combo5 : 229,120,95

[HitObjects]
12,34,691,6,0,P|42:70|90:71,1,99.0000000000001,2|0,2:2|0:0,0:0:0:0:
136,50,1307,1,2,2:2:0:0:
215,108,1718,1,2,2:2:0:0:
215,108,1923,2,0,L|206:156,1,49.5,2|0,2:2|0:0,0:0:0:0:
177,196,2334,6,0,L|103:208,2,74.2500000000001,2|2|2,2:2|2:2|2:2,0:0:0:0:
207,234,3156,2,0,L|255:242,1,49.5,2|2,2:2|2:2,0:0:0:0:
340,293,3773,1,2,2:2:0:0:
340,293,3978,6,0,P|370:329|418:330,1,99.0000000000001,2|2,2:2|2:2,0:0:0:0:
407,231,4800,2,0,P|377:195|329:194,1,99.0000000000001,2|2,2:2|2:2,0:0:0:0:
286,222,5417,1,2,2:2:0:0:
286,222,5622,6,0,L|302:121,1,99.0000000000001,2|2,2:2|2:2,0:0:0:0:
312,75,6238,1,2,2:2:0:0:
407,48,6649,2,0,P|455:47|486:84,1,99.0000000000001,2|2,3:2|3:2,0:0:0:0:
504,130,7266,1,6,3:2:0:0:
316,360,8499,5,2,2:2:0:0:
243,292,8910,2,0,L|142:308,1,99.0000000000001,6|2,3:2|2:2,0:0:0:0:
50,276,9732,1,2,2:2:0:0:
122,208,10143,1,2,1:2:0:0:
99,111,10554,6,0,L|147:119,1,49.5,6|0,3:2|0:0,0:0:0:0:
190,143,10964,2,0,L|238:135,2,49.5,10|6|6,2:2|2:2|2:2,0:0:0:0:
180,33,11786,6,0,L|132:25,2,49.5,2|2|2,3:2|3:2|1:2,0:0:0:0:
250,103,12608,2,0,L|298:95,1,49.5,0|0,1:1|1:1,0:0:0:0:
347,87,13019,1,0,3:3:0:0:
347,87,13225,2,0,P|377:123|425:122,1,99.0000000000001,4|0,1:2|1:1,0:0:0:0:
469,97,13841,6,0,L|487:206,1,99.0000000000001,14|2,3:2|3:2,0:0:0:0:
479,297,14663,1,2,3:2:0:0:
479,297,14869,6,0,P|442:266|392:273,1,98.9999969787599,2|2,2:2|2:2,0:0:0:0:
340,284,15485,2,0,L|322:175,2,110,0|0|0,3:3|3:3|3:3,0:0:0:0:
319,335,16512,1,2,2:2:0:0:
319,335,16718,2,0,L|264:326,1,55,2|2,3:2|2:2,0:0:0:0:
209,319,17129,5,0,3:3:0:0:
120,253,17540,2,0,L|65:262,2,55,2|2|2,3:2|2:2|3:2,0:0:0:0:
161,216,18156,2,0,L|216:207,2,55,2|2|2,2:2|3:2|2:2,0:0:0:0:
127,171,18773,6,0,P|93:130|40:129,2,110,0|0|0,3:3|3:3|3:3,0:0:0:0:
232,203,20006,2,0,L|241:148,1,55,2|2,3:2|2:2,0:0:0:0:
220,97,20417,6,0,P|186:55|132:54,1,110,2|2,3:2|3:2,0:0:0:0:
87,84,21033,1,2,2:2:0:0:
138,181,21444,1,2,2:2:0:0:
39,230,21855,6,0,L|57:340,1,110,2|2,2:2|2:2,0:0:0:0:
99,372,22471,1,2,3:2:0:0:
99,372,22677,2,0,P|133:330|187:329,1,110,2|0,2:2|0:0,0:0:0:0:
235,352,23293,1,2,3:2:0:0:
309,270,23704,1,2,3:2:0:0:
309,270,23910,2,0,L|364:279,1,55,2|0,2:2|3:3,0:0:0:0:
417,285,24321,1,2,2:2:0:0:
490,202,24732,2,0,L|481:147,1,55,2|2,3:2|3:2,0:0:0:0:
482,92,25143,6,0,L|373:74,1,110,6|2,3:2|2:2,0:0:0:0:
321,91,25759,2,0,L|266:100,1,55,2|2,2:2|1:2,0:0:0:0:
212,108,26170,1,2,3:2:0:0:
278,195,26581,2,0,L|269:250,1,55,2|0,3:2|3:3,0:0:0:0:
244,298,26992,6,0,L|253:353,2,55,6|2|2,3:2|1:2|3:2,0:0:0:0:
191,282,27608,1,2,1:2:0:0:
191,282,27814,2,0,L|136:291,1,55,2|2,3:2|1:2,0:0:0:0:
66,206,28430,6,0,P|100:164|154:163,1,110,2|0,1:2|1:1,0:0:0:0:
204,182,29047,1,0,3:3:0:0:
264,89,29458,1,0,3:3:0:0:
264,89,29663,2,0,L|319:80,1,55,2|2,1:2|3:2,0:0:0:0:
344,31,30074,6,0,L|220:10,1,110,2|2,1:2|1:2,0:0:0:0:
181,3,30690,1,2,3:2:0:0:
78,42,31101,2,0,L|23:51,2,55,2|2|2,3:2|1:2|3:2,0:0:0:0:
115,82,31718,1,2,1:2:0:0:
53,173,32129,6,0,L|35:281,1,110,2|0,1:2|1:1,0:0:0:0:
16,333,32745,1,0,3:3:0:0:
122,306,33156,2,0,L|177:297,1,55,2|2,3:2|1:2,0:0:0:0:
206,250,33567,6,0,P|239:208|292:206,1,110,6|2,3:2|3:2,0:0:0:0:
320,253,34184,1,2,1:2:0:0:
358,355,34595,1,2,1:2:0:0:
464,328,35006,6,0,L|481:219,1,110,2|2,1:2|1:2,0:0:0:0:
492,168,35622,1,2,3:2:0:0:
492,168,35827,2,0,P|458:126|405:124,1,110,2|0,1:2|1:1,0:0:0:0:
356,147,36444,1,2,3:2:0:0:
279,67,36855,6,0,L|170:49,1,110,6|0,3:2|3:3,0:0:0:0:
129,85,37471,1,2,1:2:0:0:
129,85,37677,2,0,L|138:140,2,55,2|6|10,1:2|2:2|2:2,0:0:0:0:
78,63,38293,6,0,P|36:96|33:149,1,110,6|2,3:2|1:2,0:0:0:0:
97,238,39115,2,0,L|88:293,1,55,2|0,3:2|3:3,0:0:0:0:
79,346,39526,1,2,1:2:0:0:
180,303,39937,6,0,L|189:358,2,55,2|14|2,3:2|3:2|2:2,0:0:0:0:
275,247,40759,2,0,L|284:302,2,55,14|2|2,3:2|1:2|2:2,0:0:0:0:
376,199,41581,1,2,1:2:0:0:
376,199,41786,6,0,L|457:212,2,82.5,6|2|2,3:2|3:2|3:2,0:0:0:0:
358,146,42608,2,0,P|354:92|312:59,1,110,2|0,1:2|1:1,0:0:0:0:
258,51,43225,6,0,L|203:42,2,55,2|14|2,1:2|3:2|2:2,0:0:0:0:
181,130,44047,2,0,L|126:121,2,55,14|2|2,3:2|1:2|2:2,0:0:0:0:
104,209,44869,1,2,1:2:0:0:
104,209,45074,6,0,L|49:218,1,55,6|0,3:2|0:0,0:0:0:0:
13,259,45485,2,0,P|23:356|138:356,1,220,2|2,3:2|3:2,0:0:0:0:
164,323,46512,6,0,L|173:268,2,55,6|2|2,3:2|2:2|3:2,0:0:0:0:
270,293,47334,2,0,L|279:348,2,55,2|2|2,3:2|3:2|3:2,0:0:0:0:
365,237,48156,6,0,P|399:279|452:282,1,110,6|2,3:2|3:2,0:0:0:0:
494,246,48773,2,0,L|485:191,1,55,2|2,1:2|3:2,0:0:0:0:
478,136,49184,1,2,1:2:0:0:
391,68,49595,1,6,1:2:0:0:
307,138,50006,5,6,1:2:0:0:
307,138,50211,2,0,L|252:147,1,55,2|2,3:2|1:2,0:0:0:0:
210,111,50622,2,0,L|155:102,1,55,2|2,3:2|1:2,0:0:0:0:
101,92,51033,1,2,3:2:0:0:
28,174,51444,6,0,P|61:215|114:219,1,110,6|0,3:2|3:3,0:0:0:0:
160,186,52060,1,2,3:2:0:0:
160,186,52266,1,2,3:2:0:0:
244,264,52677,1,2,3:2:0:0:
244,264,52882,2,0,L|235:319,1,55,2|2,3:2|3:2,0:0:0:0:
193,355,53293,6,0,P|153:351|128:319,2,82.5,10|10|10,3:2|3:2|3:2,0:0:0:0:
240,382,54115,1,2,1:2:0:0:
344,347,54526,2,0,L|335:292,1,55,2|2,3:2|1:2,0:0:0:0:
348,233,54937,6,0,P|385:279|443:283,1,121,14|2,3:2|3:2,0:0:0:0:
497,251,55554,1,2,1:2:0:0:
497,251,55759,2,0,L|475:115,1,121.000003692627,10|2,3:2|3:2,0:0:0:0:
438,92,56375,1,2,1:2:0:0:
438,92,56581,1,2,3:2:0:0:
342,18,56992,6,0,P|315:32|286:38,1,60.5000018463135,2|2,3:2|1:2,0:0:0:0:
243,82,57403,2,0,P|215:74|184:73,1,60.5000018463135,2|0,3:2|1:1,0:0:0:0:
132,106,57814,1,2,3:2:0:0:
25,47,58225,6,0,P|-5:113|33:163,1,121,14|2,3:2|3:2,0:0:0:0:
63,188,58841,1,2,1:2:0:0:
63,188,59047,2,0,P|126:200|188:215,1,121.000003692627,2|2,3:2|3:2,0:0:0:0:
225,254,59663,1,2,1:2:0:0:
225,254,59869,2,0,P|255:239|291:232,1,60.5000018463135,6|2,3:2|2:2,0:0:0:0:
327,193,60280,2,0,P|357:208|393:215,1,60.5000018463135,6|2,3:2|1:2,0:0:0:0:
443,211,60690,1,6,3:2:0:0:
496,319,61101,1,2,3:2:0:0:
388,374,61512,6,0,L|268:354,1,121,14|10,3:2|3:2,0:0:0:0:
211,353,62129,1,2,1:2:0:0:
211,353,62334,2,0,L|201:294,1,60.5,10|0,3:2|1:1,0:0:0:0:
253,263,62745,2,0,L|263:204,1,60.5,2|2,3:2|1:2,0:0:0:0:
282,145,63156,6,0,P|236:153|202:122,2,90.75,10|10|2,3:2|1:2|1:2,0:0:0:0:
338,123,63978,1,2,3:2:0:0:
287,13,64389,2,0,L|228:23,1,60.5,2|2,3:2|1:2,0:0:0:0:
166,22,64800,6,0,L|46:1,1,121,6|2,3:2|3:2,0:0:0:0:
6,46,65417,1,2,1:2:0:0:
6,46,65622,2,0,L|26:165,1,121,6|2,3:2|3:2,0:0:0:0:
47,227,66238,1,2,1:2:0:0:
47,227,66444,6,0,P|204:196|294:145,1,242,6|2,3:2|3:2,0:0:0:0:
389,121,67677,2,0,L|379:62,1,60.5,2|2,3:2|1:2,0:0:0:0:
356,4,68088,6,0,L|476:25,1,121,14|2,3:2|3:2,0:0:0:0:
507,75,68704,1,2,1:2:0:0:
507,75,68910,1,10,3:2:0:0:
413,152,69321,2,0,L|423:211,1,60.5,2|2,3:2|1:2,0:0:0:0:
472,246,69732,6,0,P|492:300|462:350,1,121,2|2,3:2|3:2,0:0:0:0:
405,364,70348,1,2,1:2:0:0:
405,364,70554,2,0,L|346:354,1,60.5,2|0,3:2|1:1,0:0:0:0:
286,341,70964,1,2,3:2:0:0:
180,276,71375,6,0,P|130:245|75:266,1,121,14|2,3:2|3:2,0:0:0:0:
31,306,71992,1,2,1:2:0:0:
31,306,72197,2,0,L|52:186,1,121,10|2,3:2|3:2,0:0:0:0:
70,130,72814,1,2,1:2:0:0:
70,130,73019,2,0,L|60:71,1,60.5,2|2,3:2|2:2,0:0:0:0:
92,19,73430,2,0,L|151:29,1,60.5,6|2,3:2|1:2,0:0:0:0:
211,41,73841,1,6,3:2:0:0:
247,156,74252,2,0,L|237:215,1,60.5,2|2,3:2|1:2,0:0:0:0:
227,275,74663,6,0,P|276:244|331:265,1,121,14|2,3:2|3:2,0:0:0:0:
374,308,75280,1,2,1:2:0:0:
492,331,75691,2,0,L|482:272,1,60.5,2|2,2:2|3:2,0:0:0:0:
444,224,76101,1,10,1:2:0:0:
444,224,76307,6,0,L|465:104,1,121,10|2,3:2|3:2,0:0:0:0:
382,15,77129,1,2,3:2:0:0:
321,119,77540,2,0,L|262:129,1,60.5,10|2,3:2|1:2,0:0:0:0:
222,82,77951,6,0,P|172:51|117:72,1,121,6|2,3:2|3:2,0:0:0:0:
79,119,78567,1,2,1:2:0:0:
79,119,78773,2,0,L|100:239,1,121,6|2,3:2|3:2,0:0:0:0:
113,297,79389,1,2,1:2:0:0:
113,297,79595,6,0,B|316:238|280:380|499:310,1,396,6|6,3:2|3:2,0:0:0:0:
479,213,81649,2,0,L|470:164,2,49.5,2|2|6,2:2|1:2|3:2,0:0:0:0:
384,243,82471,2,0,L|375:291,2,49.5,2|2|2,2:2|3:2|3:2,0:0:0:0:
309,176,83293,6,0,P|257:93|276:50,1,148.5,2|2,2:2|2:2,0:0:0:0:
164,178,84526,6,0,P|128:217|75:214,1,110,2|2,2:2|2:2,0:0:0:0:
33,178,85143,1,2,2:2:0:0:
33,178,85348,2,0,L|23:123,1,55,2|2,2:2|2:2,0:0:0:0:
97,42,85964,1,2,2:2:0:0:
97,42,86170,6,0,P|149:38|185:78,1,110,2|0,2:2|0:0,0:0:0:0:
193,132,86786,1,2,2:2:0:0:
160,236,87197,2,0,L|169:290,1,55,2|2,2:2|2:2,0:0:0:0:
187,342,87608,6,0,P|222:302|275:305,1,110,2|2,2:2|2:2,0:0:0:0:
315,343,88225,1,2,2:2:0:0:
419,308,88636,2,0,L|473:298,2,55,2|2|2,2:2|2:2|2:2,0:0:0:0:
383,265,89252,6,0,P|379:212|419:176,1,110,2|2,2:2|2:2,0:0:0:0:
472,162,89869,1,2,2:2:0:0:
420,64,90280,1,2,2:2:0:0:
321,113,90691,2,0,L|266:103,1,55,2|2,2:2|2:2,0:0:0:0:
227,64,91101,2,0,P|191:103|138:100,1,110,2|2,3:2|3:2,0:0:0:0:
90,72,91718,1,2,2:2:0:0:
24,160,92129,1,2,2:2:0:0:
41,268,92540,6,0,P|76:228|129:231,1,110,2|2,2:2|2:2,0:0:0:0:
174,262,93156,1,2,3:2:0:0:
174,262,93362,2,0,L|294:283,1,110,2|0,2:2|0:0,0:0:0:0:
336,290,93978,1,2,3:2:0:0:
415,365,94389,6,0,P|455:330|452:277,1,110,2|0,3:2|3:3,0:0:0:0:
413,244,95006,1,2,2:2:0:0:
413,244,95211,2,0,L|358:254,2,55,2|2|2,3:2|3:2|3:2,0:0:0:0:
442,197,95827,6,0,P|445:143|405:108,1,110,6|2,3:2|3:2,0:0:0:0:
351,96,96444,1,2,1:2:0:0:
249,138,96855,2,0,L|167:152,2,82.5,2|0|0,3:2|1:1|3:3,0:0:0:0:
289,174,97677,6,0,L|269:282,1,110,6|2,3:2|1:2,0:0:0:0:
253,335,98293,1,2,2:2:0:0:
253,335,98499,2,0,L|198:345,1,55,2|2,3:2|3:2,0:0:0:0:
144,351,98910,1,0,1:1:0:0:
36,329,99321,2,0,P|-4:293|0:240,1,110,2|0,3:2|1:1,0:0:0:0:
59,147,100143,2,0,L|114:157,1,55,0|2,3:3|3:2,0:0:0:0:
166,169,100554,1,2,1:2:0:0:
166,169,100759,6,0,P|205:133|202:80,1,110,2|2,2:2|2:2,0:0:0:0:
169,35,101375,1,2,1:2:0:0:
62,60,101786,2,0,L|72:5,2,55,2|2|2,3:2|3:2|1:2,0:0:0:0:
57,115,102403,1,2,2:2:0:0:
24,220,102814,2,0,P|77:216|113:255,1,110,2|0,2:2|0:0,0:0:0:0:
124,309,103430,1,2,3:2:0:0:
220,362,103841,2,0,L|230:307,1,55,2|2,1:2|3:2,0:0:0:0:
241,253,104252,6,0,P|277:292|330:288,1,110,6|2,3:2|1:2,0:0:0:0:
374,254,104869,1,2,2:2:0:0:
467,311,105280,1,2,3:2:0:0:
504,207,105691,2,0,L|484:98,1,110,2|2,2:2|2:2,0:0:0:0:
467,46,106307,1,2,1:2:0:0:
467,46,106512,2,0,P|413:41|377:80,1,110,2|0,2:2|1:1,0:0:0:0:
365,134,107129,1,2,3:2:0:0:
254,135,107540,6,0,L|234:243,1,110,6|0,3:2|3:3,0:0:0:0:
232,301,108156,1,2,2:2:0:0:
232,301,108362,2,0,L|287:291,2,55,2|6|2,1:2|2:2|3:2,0:0:0:0:
193,339,108978,6,0,P|139:343|103:304,1,110,6|2,3:2|1:2,0:0:0:0:
55,205,109800,1,2,3:2:0:0:
122,118,110211,1,2,1:2:0:0:
213,179,110622,6,0,L|223:234,2,55,2|14|2,3:2|3:2|2:2,0:0:0:0:
122,118,111444,2,0,L|112:173,2,55,14|2|2,3:2|1:2|2:2,0:0:0:0:
215,60,112266,1,2,1:2:0:0:
215,60,112471,6,0,P|255:65|288:35,2,82.5,6|2|2,3:2|3:2|3:2,0:0:0:0:
173,23,113293,2,0,L|64:42,1,110,2|0,1:2|1:1,0:0:0:0:
20,76,113910,6,0,L|10:131,2,55,2|14|2,1:2|3:2|2:2,0:0:0:0:
82,167,114732,2,0,L|92:222,2,55,14|2|2,3:2|1:2|2:2,0:0:0:0:
25,262,115554,1,2,1:2:0:0:
25,262,115759,6,0,L|15:317,1,55,6|0,3:2|0:0,0:0:0:0:
44,362,116170,2,0,P|124:289|231:291,1,220,2|2,3:2|3:2,0:0:0:0:
279,318,117197,6,0,L|289:373,2,55,6|2|2,3:2|2:2|3:2,0:0:0:0:
378,270,118019,2,0,L|388:215,2,55,2|2|2,3:2|3:2|3:2,0:0:0:0:
476,319,118841,6,0,L|495:210,1,110,6|2,3:2|3:2,0:0:0:0:
466,162,119458,2,0,L|456:107,1,55,2|2,1:2|3:2,0:0:0:0:
439,55,119869,1,2,1:2:0:0:
344,111,120280,1,6,1:2:0:0:
263,36,120690,6,0,L|208:26,1,55,6|2,1:2|3:2,0:0:0:0:
169,63,121101,1,2,1:2:0:0:
169,63,121307,2,0,L|114:73,1,55,2|2,3:2|1:2,0:0:0:0:
61,85,121718,1,2,3:2:0:0:
7,180,122129,6,0,P|58:165|101:215,1,110,6|0,3:2|3:3,0:0:0:0:
106,255,122745,1,2,3:2:0:0:
106,255,122951,1,2,3:2:0:0:
136,365,123362,1,2,3:2:0:0:
136,365,123567,2,0,L|191:355,1,55,2|2,3:2|3:2,0:0:0:0:
235,324,123978,6,0,P|208:293|211:253,2,82.5,10|10|10,3:2|3:2|3:2,0:0:0:0:
279,357,124800,1,2,1:2:0:0:
314,252,125211,2,0,L|369:262,1,55,2|2,3:2|1:2,0:0:0:0:
407,307,125622,6,0,L|427:186,1,121,14|2,3:2|3:2,0:0:0:0:
446,132,126238,1,2,1:2:0:0:
446,132,126444,2,0,P|399:80|351:88,1,121,10|2,3:2|3:2,0:0:0:0:
322,139,127060,1,2,1:2:0:0:
322,139,127266,5,2,3:2:0:0:
228,67,127677,2,0,L|168:56,1,60.5,2|2,3:2|1:2,0:0:0:0:
113,30,128088,2,0,L|53:41,1,60.5,2|2,3:2|1:2,0:0:0:0:
4,76,128499,1,2,3:2:0:0:
7,196,128910,6,0,P|54:144|102:152,1,121,14|2,3:2|3:2,0:0:0:0:
148,185,129526,1,2,1:2:0:0:
148,185,129732,2,0,L|128:304,1,121,2|2,3:2|3:2,0:0:0:0:
149,361,130348,1,2,1:2:0:0:
149,361,130554,2,0,L|209:350,1,60.5,6|2,3:2|2:2,0:0:0:0:
262,322,130964,2,0,L|322:333,1,60.5,6|2,3:2|1:2,0:0:0:0:
380,344,131375,1,6,3:2:0:0:
476,270,131786,2,0,L|465:210,1,60.5,2|2,3:2|1:2,0:0:0:0:
452,151,132197,6,0,P|405:203|357:195,1,121,14|10,3:2|3:2,0:0:0:0:
316,153,132814,1,2,1:2:0:0:
316,153,133019,2,0,L|327:93,1,60.5,10|2,3:2|1:2,0:0:0:0:
342,34,133430,2,0,L|402:45,1,60.5,2|2,3:2|1:2,0:0:0:0:
455,73,133841,6,0,P|470:29|518:-1,2,90.7500027694703,10|10|2,3:2|1:2|1:2,0:0:0:0:
440,131,134663,1,2,3:2:0:0:
319,146,135074,2,0,L|259:135,1,60.5,2|2,3:2|1:2,0:0:0:0:
224,85,135485,6,0,P|165:76|116:118,1,121,6|2,3:2|3:2,0:0:0:0:
73,153,136101,1,2,1:2:0:0:
73,153,136307,2,0,L|51:282,1,121,6|2,3:2|3:2,0:0:0:0:
72,334,136923,1,2,1:2:0:0:
72,334,137129,6,0,P|185:371|266:280,1,242,6|2,3:2|3:2,0:0:0:0:
364,224,138362,2,0,L|353:284,1,60.5,2|2,3:2|1:2,0:0:0:0:
368,342,138773,6,0,P|401:294|460:296,1,121,14|2,3:2|3:2,0:0:0:0:
512,330,139389,1,2,1:2:0:0:
512,330,139595,2,0,L|501:270,1,60.5,10|2,3:2|1:2,0:0:0:0:
476,215,140006,2,0,L|487:155,1,60.5,2|2,3:2|1:2,0:0:0:0:
498,95,140417,5,2,3:2:0:0:
384,136,140827,2,0,P|375:93|370:61,1,60.5000018463135,2|2,3:2|1:2,0:0:0:0:
370,16,141238,1,2,3:2:0:0:
269,82,141649,1,2,3:2:0:0:
159,38,142060,6,0,P|100:36|66:83,1,121,14|2,3:2|3:2,0:0:0:0:
52,144,142677,1,2,1:2:0:0:
52,144,142882,2,0,L|30:273,1,121,10|2,3:2|3:2,0:0:0:0:
51,321,143499,1,2,1:2:0:0:
51,321,143704,2,0,L|111:310,1,60.5,2|2,3:2|2:2,0:0:0:0:
166,333,144115,2,0,L|226:344,1,60.5,6|2,3:2|1:2,0:0:0:0:
282,321,144526,1,6,3:2:0:0:
401,342,144937,2,0,L|390:282,1,60.5,2|2,3:2|1:2,0:0:0:0:
440,248,145348,6,0,L|459:128,1,121,14|2,3:2|3:2,0:0:0:0:
450,68,145964,2,0,L|390:79,1,60.5,2|10,1:2|3:2,0:0:0:0:
337,108,146375,2,0,L|326:168,2,60.5,2|2|10,2:2|3:2|1:2,0:0:0:0:
309,53,146992,5,10,3:2:0:0:
221,137,147403,1,2,3:2:0:0:
111,86,147814,1,2,3:2:0:0:
69,199,148225,2,0,L|129:188,1,60.5,10|2,3:2|1:2,0:0:0:0:
175,227,148636,6,0,P|222:260|220:319,1,121,6|2,3:2|3:2,0:0:0:0:
197,375,149252,1,2,1:2:0:0:
197,375,149458,2,0,L|77:355,1,121,6|2,3:2|3:2,0:0:0:0:
32,314,150074,1,2,1:2:0:0:
32,314,150280,6,0,P|164:193|236:209,1,242,6|0,3:2|3:3,0:0:0:0:
323,243,151512,2,0,L|312:183,1,60.5,2|2,3:2|1:2,0:0:0:0:
336,133,151923,6,0,P|300:93|246:94,1,110,14|2,3:2|3:2,0:0:0:0:
201,125,152540,1,6,3:2:0:0:
96,160,152951,2,0,L|41:150,1,55,2|2,3:2|3:2,0:0:0:0:
15,101,153362,6,0,L|123:82,1,110,6|0,3:2|3:3,0:0:0:0:
168,49,153978,1,2,1:2:0:0:
168,49,154184,2,0,P|225:107|306:112,1,165,2|2,3:2|1:2,0:0:0:0:
414,102,155211,6,0,L|404:156,1,55,6|2,3:2|1:2,0:0:0:0:
396,213,155622,1,2,3:2:0:0:
396,213,155827,1,6,3:2:0:0:
451,308,156238,2,0,L|396:317,1,55,2|2,3:2|1:2,0:0:0:0:
359,357,156649,6,0,L|251:338,1,110,6|2,3:2|3:2,0:0:0:0:
195,330,157266,1,2,1:2:0:0:
191,220,157677,2,0,L|181:165,1,55,2|2,3:2|1:2,0:0:0:0:
223,130,158088,2,0,L|232:75,1,55,2|2,1:2|1:2,0:0:0:0:
179,58,158499,6,0,P|137:24|86:39,1,110,6|2,3:2|3:2,0:0:0:0:
45,73,159115,1,2,1:2:0:0:
45,73,159321,2,0,L|64:181,1,110,2|2,3:2|3:2,0:0:0:0:
60,239,159937,1,2,1:2:0:0:
60,239,160143,6,0,P|101:272|152:257,1,110,2|2,3:2|3:2,0:0:0:0:
262,255,160964,2,0,P|269:202|232:165,1,110,2|2,3:2|1:2,0:0:0:0:
181,66,161786,6,0,P|131:85|118:136,1,110,6|2,3:2|3:2,0:0:0:0:
148,188,162403,1,2,1:2:0:0:
148,188,162608,2,0,L|129:296,1,110,6|2,3:2|3:2,0:0:0:0:
214,366,163430,5,2,3:2:0:0:
264,268,163841,1,10,3:2:0:0:
368,302,164252,2,0,L|456:284,1,82.5,10|2,3:2|2:2,0:0:0:0:
455,206,164869,1,2,3:2:0:0:
455,206,165074,6,0,P|492:192|512:157,2,82.5,14|2|10,3:2|2:2|2:2,0:0:0:0:
400,195,165896,2,0,P|371:232|378:284,2,82.5,6|2|10,3:2|2:2|2:2,0:0:0:0:
387,141,166718,6,0,P|408:106|401:66,2,82.5,6|2|10,3:2|2:2|2:2,0:0:0:0:
332,146,167540,1,6,3:2:0:0:
226,178,167951,2,0,L|235:123,1,55,2|6,2:2|3:2,0:0:0:0:
214,72,168362,6,0,B|173:55|119:70|150:91|93:107|49:91,1,165,6|0,3:2|1:1,0:0:0:0:
23,137,169184,2,0,B|51:155|68:196|68:196|111:177|155:182,1,165,6|0,3:2|1:1,0:0:0:0:
190,224,170006,6,0,P|269:220|310:152,1,165,6|0,3:2|1:1,0:0:0:0:
291,101,170827,2,0,P|387:123|470:132,1,165,6|0,3:2|0:0,0:0:0:0:
496,97,171649,5,10,2:2:0:0:
25,59,186444,6,0,P|52:98|99:100,1,99.0000000000001,2|2,2:2|2:2,0:0:0:0:
140,70,187060,1,2,2:2:0:0:
140,70,187266,2,0,L|248:52,1,99.0000000000001,2|0,2:2|0:0,0:0:0:0:
283,73,187882,1,2,2:2:0:0:
283,73,188088,1,2,2:2:0:0:
372,30,188499,1,2,2:2:0:0:
418,117,188910,2,0,L|369:124,2,49.5,2|2|2,2:2|2:2|2:2,0:0:0:0:
467,141,189526,1,2,2:2:0:0:
467,141,189732,6,0,P|466:189|429:220,1,99.0000000000001,2|2,2:2|2:2,0:0:0:0:
406,265,190348,1,2,2:2:0:0:
406,265,190554,2,0,L|308:280,1,99.0000000000001,2|0,2:2|0:0,0:0:0:0:
220,234,191375,5,2,2:2:0:0:
165,316,191786,1,2,2:2:0:0:
68,293,192197,1,2,2:2:0:0:
19,206,192608,2,0,L|26:157,1,49.5,2|2,2:2|2:2,0:0:0:0:
32,107,193019,6,0,P|62:70|111:69,1,99.0000000000001,2|2,2:2|2:2,0:0:0:0:
147,104,193636,1,2,2:2:0:0:
244,85,194047,2,0,L|251:36,2,49.5,2|2|2,2:2|2:2|2:2,0:0:0:0:
237,134,194663,5,2,2:2:0:0:
323,182,195074,1,10,2:2:0:0:
405,127,195485,1,10,2:2:0:0:
480,191,195896,2,0,L|487:239,1,49.5,2|2,2:2|2:2,0:0:0:0:
470,286,196307,5,2,2:2:0:0:
387,340,196718,2,0,L|380:292,1,49.5,2|2,2:2|2:2,0:0:0:0:
352,249,197129,1,2,2:2:0:0:
253,258,197540,2,0,L|260:306,1,49.5,2|2,2:2|2:2,0:0:0:0:
232,348,197951,5,2,2:2:0:0:
155,284,198362,1,2,2:2:0:0:
55,112,199184,2,0,L|67:184,1,49.5,2|2,3:2|3:2,0:0:0:0:
53,215,199595,6,0,L|-19:203,2,55,6|2|2,3:2|1:2|1:2,0:0:0:0:
103,248,200211,1,2,1:2:0:0:
103,248,200417,2,0,L|91:320,1,55,2|2,1:2|1:2,0:0:0:0:
112,353,200827,2,0,L|184:341,1,55,10|10,1:2|1:2,0:0:0:0:
221,349,201238,6,0,P|256:373|311:353,2,82.5,6|2|2,3:2|3:2|3:2,0:0:0:0:
228,294,202060,1,2,1:2:0:0:
308,89,202882,6,0,P|267:26|288:-13,1,110,6|2,2:2|2:2,0:0:0:0:
336,4,203499,1,6,3:2:0:0:
336,4,203704,2,0,L|408:16,1,55,2|0,2:2|1:1,0:0:0:0:
403,66,204115,2,0,L|457:56,1,55,2|2,3:2|1:2,0:0:0:0:
512,78,204526,5,2,3:2:0:0:
512,78,204732,2,0,L|494:180,2,82.5,6|6|6,3:2|3:2|3:2,0:0:0:0:
315,210,206170,6,0,P|359:171|417:180,1,121,14|2,3:2|3:2,0:0:0:0:
464,219,206786,1,2,1:2:0:0:
464,219,206992,2,0,L|442:342,1,121,2|2,3:2|3:2,0:0:0:0:
397,378,207608,1,2,1:2:0:0:
397,378,207814,2,0,L|337:366,1,60.5,6|2,3:2|2:2,0:0:0:0:
323,308,208225,2,0,L|263:319,1,60.5,6|2,3:2|1:2,0:0:0:0:
205,337,208636,1,6,3:2:0:0:
165,222,209047,2,0,L|176:162,1,60.5,2|2,3:2|1:2,0:0:0:0:
204,109,209458,6,0,P|159:70|101:79,1,121,14|10,3:2|3:2,0:0:0:0:
49,110,210074,1,2,1:2:0:0:
49,110,210280,2,0,L|60:169,1,60.5,10|0,3:2|0:0,0:0:0:0:
76,227,210691,2,0,L|64:286,1,60.5,2|2,3:2|1:2,0:0:0:0:
80,343,211101,6,0,P|44:318|0:317,2,90.75,10|10|2,3:2|1:2|1:2,0:0:0:0:
130,379,211923,1,2,3:2:0:0:
213,291,212334,2,0,L|224:231,1,60.5,2|2,3:2|1:2,0:0:0:0:
264,186,212745,6,0,L|237:42,1,121,6|2,3:2|3:2,0:0:0:0:
251,6,213362,1,2,1:2:0:0:
251,6,213567,2,0,P|309:-2|353:35,1,121,6|2,3:2|3:2,0:0:0:0:
375,92,214184,1,2,1:2:0:0:
375,92,214389,6,0,P|233:127|152:179,1,242,6|2,3:2|3:2,0:0:0:0:
208,286,215622,2,0,L|268:297,1,60.5,2|2,3:2|1:2,0:0:0:0:
291,352,216033,6,0,P|335:313|393:321,1,121,14|2,3:2|3:2,0:0:0:0:
440,360,216649,1,2,1:2:0:0:
440,360,216855,2,0,L|467:216,1,121,10|2,3:2|3:2,0:0:0:0:
475,181,217471,1,2,1:2:0:0:
475,181,217677,5,2,3:2:0:0:
392,92,218088,2,0,P|375:132|369:160,1,60.5000018463135,2|2,3:2|1:2,0:0:0:0:
356,207,218499,1,2,3:2:0:0:
361,327,218910,1,2,3:2:0:0:
239,327,219321,6,0,P|194:365|136:357,1,121,14|2,3:2|3:2,0:0:0:0:
132,300,219937,1,2,1:2:0:0:
132,300,220143,2,0,L|105:156,1,121,10|2,3:2|3:2,0:0:0:0:
151,137,220759,1,2,1:2:0:0:
151,137,220964,2,0,L|162:77,1,60.5,2|2,3:2|2:2,0:0:0:0:
130,25,221375,2,0,L|70:36,1,60.5,6|2,3:2|1:2,0:0:0:0:
10,44,221786,1,6,3:2:0:0:
43,160,222197,2,0,L|32:220,1,60.5,2|2,3:2|1:2,0:0:0:0:
4,273,222608,6,0,P|48:311|106:303,1,121,14|2,3:2|3:2,0:0:0:0:
156,267,223225,1,2,1:2:0:0:
265,318,223636,2,0,L|276:378,2,60.5,2|2|10,2:2|3:2|1:2,0:0:0:0:
253,257,224252,5,10,3:2:0:0:
360,312,224663,1,2,3:2:0:0:
373,191,225074,1,2,3:2:0:0:
475,254,225485,2,0,L|486:194,1,60.5,10|2,3:2|1:2,0:0:0:0:
497,135,225896,6,0,P|452:96|394:104,1,121,6|2,3:2|3:2,0:0:0:0:
348,143,226512,1,2,1:2:0:0:
348,143,226718,2,0,L|204:116,1,121,6|2,3:2|3:2,0:0:0:0:
171,101,227334,1,2,1:2:0:0:
171,101,227540,6,0,B|53:154|139:238|22:296,1,242,6|2,3:2|3:2,0:0:0:0:
147,335,228773,2,0,L|207:346,1,60.5,2|2,3:2|1:2,0:0:0:0:
252,302,229184,6,0,P|287:261|280:209,1,110,6|2,3:2|1:2,0:0:0:0:
257,101,230006,2,0,L|317:112,1,55,2|2,1:2|3:2,0:0:0:0:
359,137,230417,1,2,1:2:0:0:
391,93,230622,1,2,3:2:0:0:
445,98,230827,6,0,P|491:156|484:208,1,110,2|2,1:2|1:2,0:0:0:0:
441,287,231649,2,0,L|381:276,1,55,2|2,1:2|3:2,0:0:0:0:
337,253,232060,1,2,1:2:0:0:
283,265,232266,1,2,3:2:0:0:
250,309,232471,6,0,P|215:268|222:216,1,110,6|2,1:2|1:2,0:0:0:0:
117,187,233293,2,0,L|106:127,1,55,2|2,1:2|3:2,0:0:0:0:
141,89,233704,1,2,1:2:0:0:
150,34,233910,1,2,3:2:0:0:
98,14,234115,6,0,P|45:7|5:42,1,110,6|2,1:2|1:2,0:0:0:0:
9,101,234732,1,2,3:2:0:0:
9,101,234937,2,0,L|19:155,1,55,2|2,1:2|3:2,0:0:0:0:
53,197,235348,1,6,1:2:0:0:
36,305,235759,6,0,P|77:270|129:277,1,110,6|2,1:2|1:2,0:0:0:0:
171,320,236375,1,2,3:2:0:0:
171,320,236581,2,0,L|225:310,1,55,2|2,1:2|3:2,0:0:0:0:
268,343,236992,2,0,L|322:352,1,55,2|2,1:2|3:2,0:0:0:0:
367,321,237403,5,2,1:2:0:0:
472,289,237814,2,0,L|462:234,1,55,2|2,1:2|3:2,0:0:0:0:
424,194,238225,2,0,L|433:139,1,55,2|2,1:2|3:2,0:0:0:0:
480,111,238636,2,0,L|470:56,1,55,2|2,1:2|3:2,0:0:0:0:
441,9,239047,5,6,1:2:0:0:
360,83,239458,2,0,L|305:92,1,55,2|2,1:2|3:2,0:0:0:0:
264,128,239869,2,0,L|254:182,1,55,2|2,1:2|3:2,0:0:0:0:
288,225,240280,2,0,L|297:279,1,55,2|2,1:2|3:2,0:0:0:0:
322,328,240690,6,0,P|281:363|229:356,1,110,6|2,1:2|1:2,0:0:0:0:
192,321,241307,1,2,3:2:0:0:
192,321,241512,2,0,L|182:266,1,55,2|2,3:2|1:2,0:0:0:0:
147,224,241923,2,0,L|156:169,1,55,2|2,3:2|1:2,0:0:0:0:
174,117,242334,5,6,3:2:0:0:
177,118,245622,6,0,P|98:124|54:59,2,165,10|2|2,2:2|2:2|2:2,0:0:0:0:
267,54,247266,6,0,L|382:75,1,110,2|2,2:2|2:2,0:0:0:0:
390,182,248088,2,0,L|282:162,1,110,2|2,2:2|2:2,0:0:0:0:
206,242,248910,6,0,P|204:321|270:365,2,165,2|10|2,2:2|2:2|2:2,0:0:0:0:
149,147,250554,6,0,L|54:163,2,82.5,2|2|2,2:2|2:2|2:2,0:0:0:0:
206,242,251581,2,0,L|196:296,2,55,2|2|2,2:2|2:2|2:2,0:0:0:0:
242,200,252197,5,10,2:2:0:0:
329,266,252608,2,0,L|339:321,2,55,2|2|10,2:2|2:2|2:2,0:0:0:0:
429,221,253430,2,0,L|439:275,2,55,2|2|10,2:2|2:2|2:2,0:0:0:0:
445,111,254252,2,0,P|371:135|317:78,1,165,2|2,2:2|2:2,0:0:0:0:
191,25,255485,6,0,L|181:80,1,55,10|2,2:2|2:2,0:0:0:0:
154,119,255985,2,0,L|174:236,1,110,10|2,2:2|2:2,0:0:0:0:
112,315,257168,6,0,P|34:328|-21:342,1,110,2|2,2:2|2:2,0:0:0:0:
39,174,258799,5,2,2:2:0:0:
