osu file format v14

[General]
AudioFilename: audio.mp3
AudioLeadIn: 0
PreviewTime: 54218
Countdown: 0
SampleSet: Soft
StackLeniency: 0.3
Mode: 0
LetterboxInBreaks: 0
WidescreenStoryboard: 1

[Editor]
Bookmarks: 26992,54937,68088,84526,97677,110827,125622,138773,151923,173293,186444,202882,216033,229184,242334
DistanceSpacing: 1
BeatDivisor: 4
GridSize: 32
TimelineZoom: 3.499998

[Metadata]
Title:Hanayuki
TitleUnicode:花雪
Artist:smileY inc.
ArtistUnicode:smileY inc.
Creator:Creamy Candy
Version:FuKaNe's Extra
Source:ハナヤマタ
Tags:syndicate_ - Nilou asuka_- lit120 -hakurei- supav riene kuro fuyusaki nakazawa ed ending hanayamata anime japanese j-pop jpop pop 大坪由佳 Ootsubo Otsubo Yuka ゆうゆ yuuyu スマイリー ハナ・N・フォンテーンスタンド Hana N. Fountainstand yosakoi 西御門 多美 Nishimikado Tami oxypetalum
BeatmapID:4106982
BeatmapSetID:1073360

[Difficulty]
HPDrainRate:5.5
CircleSize:4
OverallDifficulty:8.5
ApproachRate:9.4
SliderMultiplier:1.6
SliderTickRate:1

[Events]
//Background and Video events
0,0,"Hana N. Fountainstand.jpg",0,0
//Break Periods
//Storyboard Layer 0 (Background)
//Storyboard Layer 1 (Fail)
//Storyboard Layer 2 (Pass)
//Storyboard Layer 3 (Foreground)
//Storyboard Layer 4 (Overlay)
//Storyboard Sound Samples

[TimingPoints]
417,410.958904109589,4,2,1,50,1,0
691,410.958904109589,4,2,1,50,1,0
691,-125,4,2,1,50,0,0
999,-125,4,2,2,50,0,0
1307,-125,4,2,3,50,0,0
1718,-125,4,2,4,50,0,0
1923,-125,4,2,5,50,0,0
2334,-125,4,2,6,50,0,0
2642,-125,4,2,7,50,0,0
2950,-125,4,2,8,50,0,0
3156,-125,4,2,9,50,0,0
3362,-125,4,2,10,50,0,0
3773,-125,4,2,11,50,0,0
3875,-125,4,2,12,50,0,0
3978,-125,4,2,13,50,0,0
4183,-125,4,2,10,50,0,0
4388,-125,4,2,8,50,0,0
4595,-125,4,2,14,50,0,0
4800,-125,4,2,15,50,0,0
5005,-125,4,2,10,50,0,0
5210,-125,4,2,8,50,0,0
5417,-125,4,2,16,50,0,0
5622,-125,4,2,17,50,0,0
6033,-125,4,2,4,50,0,0
6238,-125,4,2,18,50,0,0
6649,-125,4,2,19,50,0,0
6752,-125,4,2,20,50,0,0
6855,-125,4,2,19,50,0,0
6958,-125,4,2,21,50,0,0
7060,-125,4,2,22,50,0,0
7266,-142.857142857143,4,2,23,50,0,0
7677,-142.857142857143,4,2,24,50,0,0
7883,-142.857142857143,4,2,25,50,0,0
8293,-142.857142857143,4,2,26,50,0,0
8498,-142.857142857143,4,2,27,50,0,0
8703,-142.857142857143,4,2,28,50,0,0
8910,-142.857142857143,4,2,29,50,0,0
9320,-142.857142857143,4,2,30,50,0,0
9731,-142.857142857143,4,2,31,50,0,0
9937,-142.857142857143,4,2,2,50,0,0
10143,-142.857142857143,4,2,32,50,0,0
10348,-142.857142857143,4,2,33,50,0,0
10554,-111.111111111111,4,2,34,50,0,0
10964,-111.111111111111,4,2,35,50,0,0
11170,-111.111111111111,4,2,36,50,0,0
11375,-111.111111111111,4,2,37,50,0,0
11581,-111.111111111111,4,2,35,40,0,0
11786,-111.111111111111,4,2,35,50,0,0
11992,-111.111111111111,4,2,33,50,0,0
12197,-83.3333333333333,4,2,38,70,0,0
13019,-83.3333333333333,4,2,2,70,0,0
13225,-100,4,2,1,70,0,0
13841,-100,4,2,39,50,0,0
14046,-100,4,2,40,50,0,0
14252,-100,4,2,41,50,0,0
14457,-100,4,2,40,50,0,0
14663,-100,4,2,41,50,0,0
14869,-100,4,2,42,50,0,0
15074,-100,4,2,3,50,0,0
15280,-100,4,2,43,50,0,0
15485,-100,4,2,44,50,0,0
16718,-100,4,2,41,50,0,0
16923,-100,4,2,45,50,0,0
17129,-100,4,2,40,50,0,0
18156,-100,4,2,44,50,0,0
18362,-100,4,2,40,50,0,0
18567,-100,4,2,46,50,0,0
18772,-100,4,2,41,50,0,0
20211,-100,4,2,47,50,0,0
20417,-100,4,2,48,50,0,0
20827,-100,4,2,49,50,0,0
21033,-100,4,2,42,50,0,0
21238,-100,4,2,3,50,0,0
21444,-100,4,2,50,50,0,0
21649,-100,4,2,3,50,0,0
21855,-100,4,2,42,50,0,0
22060,-100,4,2,3,50,0,0
22265,-100,4,2,47,50,0,0
22470,-100,4,2,51,50,0,0
22677,-100,4,2,52,50,0,0
22882,-100,4,2,44,50,0,0
23499,-100,4,2,41,50,0,0
23704,-100,4,2,40,50,0,0
24321,-100,4,2,45,50,0,0
24526,-100,4,2,44,50,0,0
24937,-100,4,2,53,60,0,0
25143,-100,4,2,54,60,0,0
25553,-100,4,2,55,60,0,0
25759,-100,4,2,56,60,0,0
25964,-100,4,2,35,60,0,0
26170,-71.4285714285714,4,2,57,60,0,0
26375,-71.4285714285714,4,2,58,60,0,0
26581,-71.4285714285714,4,2,59,60,0,0
26684,-71.4285714285714,4,2,57,60,0,0
26992,-62.5,4,2,60,60,0,0
27197,-62.5,4,2,61,60,0,0
27403,-62.5,4,2,57,60,0,0
27608,-62.5,4,2,61,60,0,0
27814,-62.5,4,2,57,60,0,0
28019,-62.5,4,2,30,60,0,0
28225,-62.5,4,2,4,60,0,0
28430,-62.5,4,2,62,60,0,0
28636,-62.5,4,2,63,60,0,0
28841,-62.5,4,2,57,60,0,0
29252,-62.5,4,2,64,60,0,0
29458,-62.5,4,2,4,60,0,0
29663,-62.5,4,2,65,60,0,0
29869,-62.5,4,2,57,60,0,0
30074,-62.5,4,2,66,60,0,0
30280,-62.5,4,2,67,60,0,0
30485,-62.5,4,2,61,60,0,0
30690,-62.5,4,2,68,60,0,0
30896,-62.5,4,2,61,60,0,0
31101,-62.5,4,2,69,60,0,0
31307,-62.5,4,2,58,60,0,0
31512,-62.5,4,2,61,60,0,0
31718,-62.5,4,2,70,60,0,0
31923,-62.5,4,2,2,60,0,0
32128,-62.5,4,2,71,60,0,0
32334,-62.5,4,2,57,60,0,0
33362,-62.5,4,2,35,60,0,0
33567,-62.5,4,2,72,60,0,0
33773,-62.5,4,2,2,60,0,0
33978,-62.5,4,2,73,60,0,0
34184,-62.5,4,2,30,60,0,0
34389,-62.5,4,2,4,60,0,0
34595,-62.5,4,2,74,60,0,0
34800,-62.5,4,2,4,60,0,0
35006,-62.5,4,2,30,60,0,0
35211,-62.5,4,2,75,60,0,0
35314,-62.5,4,2,35,60,0,0
35417,-62.5,4,2,35,60,0,0
35622,-62.5,4,2,76,60,0,0
35724,-62.5,4,2,77,60,0,0
36033,-62.5,4,2,58,60,0,0
36649,-62.5,4,2,57,60,0,0
36855,-62.5,4,2,78,60,0,0
37060,-62.5,4,2,61,60,0,0
37882,-62.5,4,2,58,60,0,0
38088,-62.5,4,2,61,60,0,0
38293,-62.5,4,2,79,60,0,0
38704,-62.5,4,2,80,60,0,0
38910,-62.5,4,2,74,60,0,0
39526,-62.5,4,2,81,60,0,0
39732,-62.5,4,2,82,60,0,0
40143,-50,4,2,83,60,0,0
40348,-50,4,2,84,60,0,0
40451,-50,4,2,85,60,0,0
40759,-62.5,4,2,86,60,0,0
40964,-41.6666666666667,4,2,87,60,0,0
41170,-41.6666666666667,4,2,88,60,0,0
41273,-41.6666666666667,4,2,89,60,0,0
41374,-41.6666666666667,4,2,1,60,0,0
41478,-41.6666666666667,4,2,84,60,0,0
41581,-41.6666666666667,4,2,84,60,0,0
41786,-50,4,2,90,60,0,0
42095,-50,4,2,91,60,0,0
42403,-62.5,4,2,92,60,0,0
42608,-62.5,4,2,93,60,0,0
42711,-62.5,4,2,2,60,0,0
43019,-41.6666666666667,4,2,1,60,0,0
43087,-41.6666666666667,4,2,2,60,0,0
43225,-41.6666666666667,4,2,82,60,0,0
43430,-50,4,2,83,60,0,0
43635,-50,4,2,84,60,0,0
43738,-50,4,2,85,60,0,0
44047,-62.5,4,2,86,60,0,0
44252,-41.6666666666667,4,2,87,60,0,0
44458,-41.6666666666667,4,2,84,60,0,0
44662,-41.6666666666667,4,2,1,60,0,0
44732,-41.6666666666667,4,2,2,60,0,0
44869,-41.6666666666667,4,2,94,60,0,0
45074,-50,4,2,95,60,0,0
45382,-50,4,2,96,60,0,0
45485,-55.5555555555556,4,2,97,60,0,0
45896,-62.5,4,2,98,60,0,0
46307,-71.4285714285714,4,2,99,60,0,0
46512,-71.4285714285714,4,2,100,60,0,0
46718,-71.4285714285714,4,2,101,60,0,0
46923,-83.3333333333333,4,2,102,60,0,0
47128,-83.3333333333333,4,2,103,60,0,0
47334,-83.3333333333333,4,2,104,60,0,0
47540,-83.3333333333333,4,2,105,60,0,0
47745,-83.3333333333333,4,2,106,60,0,0
47950,-83.3333333333333,4,2,107,60,0,0
48156,-83.3333333333333,4,2,98,60,0,0
48566,-83.3333333333333,4,2,108,60,0,0
48773,-83.3333333333333,4,2,109,60,0,0
48978,-83.3333333333333,4,2,110,60,0,0
49184,-83.3333333333333,4,2,111,60,0,0
49389,-83.3333333333333,4,2,2,60,0,0
49595,-83.3333333333333,4,2,112,60,0,0
49800,-83.3333333333333,4,2,113,60,0,0
50006,-62.5,4,2,114,60,0,0
50211,-62.5,4,2,115,60,0,0
50417,-62.5,4,2,116,60,0,0
50622,-62.5,4,2,117,60,0,0
50827,-62.5,4,2,116,60,0,0
51033,-50,4,2,118,60,0,0
51444,-50,4,2,119,60,0,0
51855,-500,4,2,119,50,0,0
52060,-250,4,2,120,50,0,0
52266,-166.666666666667,4,2,121,50,0,0
52471,-125,4,2,121,60,0,0
52677,-100,4,2,122,60,0,0
52882,-83.3333333333333,4,2,122,60,0,0
53088,-71.4285714285714,4,2,122,60,0,0
53293,-41.6666666666667,4,2,123,70,0,0
54321,-41.6666666666667,4,2,58,55,0,0
54423,-41.6666666666667,4,2,1,55,0,0
54526,-41.6666666666667,4,2,124,55,0,0
54629,-41.6666666666667,4,2,33,55,0,0
54937,-50,4,2,125,80,0,1
55245,-50,4,2,126,80,0,1
55348,-50,4,2,127,80,0,1
55554,-50,4,2,128,80,0,1
55759,-50,4,2,129,80,0,1
55964,-50,4,2,130,80,0,1
56170,-50,4,2,131,80,0,1
56375,-50,4,2,132,80,0,1
56581,-50,4,2,133,80,0,1
56889,-50,4,2,134,80,0,1
56992,-50,4,2,135,80,0,1
57197,-50,4,2,136,80,0,1
57403,-50,4,2,137,80,0,1
57608,-50,4,2,134,80,0,1
57814,-37.037037037037,4,2,138,80,0,1
58019,-37.037037037037,4,2,136,80,0,1
58225,-50,4,2,139,80,0,1
58533,-50,4,2,140,80,0,1
58636,-50,4,2,141,80,0,1
58841,-50,4,2,142,80,0,1
59047,-50,4,2,139,80,0,1
59355,-50,4,2,140,80,0,1
59458,-50,4,2,141,80,0,1
59663,-50,4,2,142,80,0,1
59869,-50,4,2,143,80,0,1
60074,-50,4,2,120,80,0,1
60177,-50,4,2,144,80,0,1
60280,-50,4,2,145,80,0,1
60485,-50,4,2,146,80,0,1
60690,-41.6666666666667,4,2,147,80,0,1
60999,-41.6666666666667,4,2,144,80,0,1
61101,-41.6666666666667,4,2,148,80,0,1
61307,-41.6666666666667,4,2,149,80,0,1
61410,-41.6666666666667,4,2,1,80,0,1
61512,-50,4,2,150,80,0,1
61821,-50,4,2,126,80,0,1
61923,-50,4,2,127,80,0,1
62129,-50,4,2,128,80,0,1
62334,-50,4,2,129,80,0,1
62539,-50,4,2,130,80,0,1
62745,-50,4,2,131,80,0,1
62951,-50,4,2,132,80,0,1
63156,-50,4,2,151,80,0,1
63464,-50,4,2,152,80,0,1
63567,-50,4,2,134,80,0,1
63773,-50,4,2,153,80,0,1
63978,-50,4,2,136,80,0,1
64184,-50,4,2,154,80,0,1
64389,-50,4,2,155,80,0,1
64595,-50,4,2,156,80,0,1
64800,-50,4,2,157,80,0,1
65108,-50,4,2,158,80,0,1
65211,-50,4,2,159,80,0,1
65417,-50,4,2,160,80,0,1
65622,-50,4,2,161,80,0,1
65930,-50,4,2,158,80,0,1
66033,-50,4,2,159,80,0,1
66238,-50,4,2,162,80,0,1
66444,-50,4,2,163,80,0,0
66649,-50,4,2,164,80,0,0
66752,-50,4,2,165,80,0,0
66855,-50,4,2,166,80,0,0
66958,-50,4,2,167,80,0,0
67060,-50,4,2,168,80,0,0
67163,-50,4,2,169,80,0,0
67266,-50,4,2,170,80,0,0
67369,-50,4,2,171,80,0,0
67471,-50,4,2,172,80,0,0
67677,-62.5,4,2,173,80,0,0
67882,-62.5,4,2,174,80,0,0
68088,-50,4,2,175,80,0,1
68396,-50,4,2,176,80,0,1
68499,-50,4,2,177,80,0,1
68704,-50,4,2,178,80,0,1
68910,-50,4,2,179,80,0,1
69115,-50,4,2,130,80,0,1
69321,-50,4,2,180,80,0,1
69526,-50,4,2,181,80,0,1
69732,-50,4,2,182,80,0,1
70040,-50,4,2,134,80,0,1
70143,-50,4,2,135,80,0,1
70348,-50,4,2,136,80,0,1
70554,-50,4,2,137,80,0,1
70759,-50,4,2,134,80,0,1
70964,-37.037037037037,4,2,138,80,0,1
71169,-37.037037037037,4,2,136,80,0,1
71375,-50,4,2,139,80,0,1
71684,-50,4,2,140,80,0,1
71786,-50,4,2,141,80,0,1
71992,-50,4,2,142,80,0,1
72197,-50,4,2,183,80,0,1
72506,-50,4,2,140,80,0,1
72608,-50,4,2,141,80,0,1
72814,-50,4,2,142,80,0,1
73019,-50,4,2,184,80,0,1
73224,-50,4,2,120,80,0,1
73327,-50,4,2,144,80,0,1
73430,-50,4,2,185,80,0,1
73636,-50,4,2,186,80,0,1
73841,-38.4615384615385,4,2,187,80,0,1
74149,-38.4615384615385,4,2,144,80,0,1
74252,-38.4615384615385,4,2,188,80,0,1
74458,-38.4615384615385,4,2,149,80,0,1
74560,-38.4615384615385,4,2,1,80,0,1
74663,-50,4,2,189,80,0,1
74971,-50,4,2,130,80,0,1
75074,-50,4,2,190,80,0,1
75280,-50,4,2,191,80,0,1
75485,-50,4,2,192,80,0,1
75690,-50,4,2,193,80,0,1
75793,-50,4,2,130,80,0,1
75896,-50,4,2,194,80,0,1
76101,-50,4,2,195,80,0,1
76307,-50,4,2,196,80,0,1
76615,-50,4,2,134,80,0,1
76718,-50,4,2,197,80,0,1
76923,-50,4,2,136,80,0,1
77129,-50,4,2,198,80,0,1
77334,-50,4,2,134,80,0,1
77540,-50,4,2,199,80,0,1
77745,-50,4,2,200,80,0,1
77951,-50,4,2,201,80,0,1
78259,-50,4,2,202,80,0,1
78362,-50,4,2,203,80,0,1
78567,-50,4,2,204,80,0,1
78773,-50,4,2,205,80,0,1
79081,-50,4,2,202,80,0,1
79184,-50,4,2,203,80,0,1
79389,-50,4,2,204,80,0,1
79595,-50,4,2,206,80,0,1
79800,-50,4,2,33,80,0,1
81238,-50,4,2,207,70,0,0
81444,-50,4,2,208,70,0,0
81650,-50,4,2,209,70,0,0
81855,-50,4,2,33,70,0,0
82060,-50,4,2,210,70,0,0
82472,-50,4,2,211,70,0,0
82677,-50,4,2,33,70,0,0
82882,-76.9230769230769,4,2,212,70,0,0
83293,-76.9230769230769,4,2,213,70,0,0
83910,-76.9230769230769,4,2,214,70,0,0
84526,-125,4,2,215,50,0,0
84731,-125,4,2,216,50,0,0
84936,-125,4,2,215,50,0,0
85143,-125,4,2,216,50,0,0
85348,-125,4,2,215,50,0,0
85554,-125,4,2,217,50,0,0
85964,-125,4,2,218,50,0,0
86067,-125,4,2,89,50,0,0
86170,-125,4,2,219,50,0,0
86786,-125,4,2,220,50,0,0
87197,-125,4,2,24,50,0,0
87403,-125,4,2,215,50,0,0
87608,-125,4,2,221,50,0,0
87711,-125,4,2,89,50,0,0
88224,-125,4,2,216,50,0,0
88841,-125,4,2,24,50,0,0
89047,-125,4,2,216,50,0,0
89252,-125,4,2,222,50,0,0
89662,-125,4,2,89,50,0,0
90690,-125,4,2,215,50,0,0
90896,-125,4,2,28,50,0,0
91101,-111.111111111111,4,2,223,60,0,0
91512,-111.111111111111,4,2,224,60,0,0
91718,-111.111111111111,4,2,225,60,0,0
91923,-111.111111111111,4,2,1,60,0,0
92129,-111.111111111111,4,2,226,60,0,0
92334,-111.111111111111,4,2,1,60,0,0
92540,-111.111111111111,4,2,225,60,0,0
92745,-111.111111111111,4,2,1,60,0,0
92950,-111.111111111111,4,2,227,60,0,0
93156,-111.111111111111,4,2,228,60,0,0
93362,-111.111111111111,4,2,229,60,0,0
93567,-111.111111111111,4,2,230,60,0,0
94184,-111.111111111111,4,2,231,60,0,0
94389,-111.111111111111,4,2,232,60,0,0
94595,-111.111111111111,4,2,233,60,0,0
94800,-111.111111111111,4,2,232,60,0,0
95211,-111.111111111111,4,2,234,60,0,0
95417,-111.111111111111,4,2,235,60,0,0
95622,-111.111111111111,4,2,236,60,0,0
95827,-100,4,2,237,60,0,0
96237,-100,4,2,238,60,0,0
96444,-100,4,2,37,60,0,0
96649,-100,4,2,239,60,0,0
96855,-100,4,2,240,60,0,0
97060,-100,4,2,241,60,0,0
97163,-100,4,2,1,60,0,0
97266,-100,4,2,242,60,0,0
97369,-100,4,2,33,60,0,0
97677,-100,4,2,243,60,0,0
97882,-100,4,2,234,60,0,0
98088,-100,4,2,240,60,0,0
98293,-100,4,2,234,60,0,0
98499,-100,4,2,240,60,0,0
98704,-100,4,2,30,60,0,0
98909,-100,4,2,1,60,0,0
99115,-100,4,2,62,60,0,0
99321,-100,4,2,244,60,0,0
99731,-100,4,2,1,60,0,0
99937,-100,4,2,245,60,0,0
100143,-100,4,2,65,60,0,0
100554,-100,4,2,240,60,0,0
100759,-100,4,2,66,60,0,0
100964,-100,4,2,67,60,0,0
101169,-100,4,2,234,60,0,0
101375,-100,4,2,68,60,0,0
101581,-100,4,2,234,60,0,0
101786,-100,4,2,246,60,0,0
101992,-100,4,2,241,60,0,0
102197,-100,4,2,234,60,0,0
102403,-100,4,2,247,60,0,0
102608,-100,4,2,2,60,0,0
102814,-100,4,2,71,60,0,0
103019,-100,4,2,1,60,0,0
103430,-100,4,2,248,60,0,0
103841,-100,4,2,240,60,0,0
104047,-100,4,2,35,60,0,0
104149,-100,4,2,1,60,0,0
104252,-100,4,2,249,60,0,0
104662,-100,4,2,73,60,0,0
104869,-100,4,2,30,60,0,0
105280,-100,4,2,74,60,0,0
105485,-100,4,2,1,60,0,0
105691,-100,4,2,30,60,0,0
105896,-100,4,2,75,60,0,0
106101,-100,4,2,239,60,0,0
106307,-100,4,2,76,60,0,0
106512,-100,4,2,77,60,0,0
106718,-100,4,2,2,60,0,0
107129,-100,4,2,58,60,0,0
107334,-100,4,2,240,60,0,0
107540,-100,4,2,250,60,0,0
107746,-100,4,2,66,60,0,0
107951,-100,4,2,234,60,0,0
108362,-100,4,2,234,60,0,0
108567,-100,4,2,58,60,0,0
108773,-100,4,2,234,60,0,0
108978,-100,4,2,251,60,0,0
109389,-100,4,2,80,60,0,0
109594,-100,4,2,74,60,0,0
109800,-80,4,2,74,60,0,0
110006,-66.6666666666667,4,2,74,60,0,0
110211,-66.6666666666667,4,2,81,60,0,0
110417,-66.6666666666667,4,2,82,60,0,0
110827,-50,4,2,83,60,0,0
111032,-50,4,2,84,60,0,0
111136,-50,4,2,85,60,0,0
111444,-62.5,4,2,86,60,0,0
111649,-41.6666666666667,4,2,87,60,0,0
111855,-41.6666666666667,4,2,88,60,0,0
111957,-41.6666666666667,4,2,89,60,0,0
112060,-41.6666666666667,4,2,1,60,0,0
112128,-41.6666666666667,4,2,84,60,0,0
112471,-50,4,2,90,60,0,0
112780,-50,4,2,252,60,0,0
112882,-50,4,2,82,60,0,0
113088,-50,4,2,92,60,0,0
113293,-50,4,2,93,60,0,0
113396,-50,4,2,2,60,0,0
113704,-41.6666666666667,4,2,1,60,0,0
113772,-41.6666666666667,4,2,2,60,0,0
113910,-41.6666666666667,4,2,82,60,0,0
114115,-50,4,2,83,60,0,0
114320,-50,4,2,84,60,0,0
114423,-50,4,2,85,60,0,0
114732,-62.5,4,2,86,60,0,0
114937,-41.6666666666667,4,2,87,60,0,0
115143,-41.6666666666667,4,2,84,60,0,0
115348,-41.6666666666667,4,2,1,60,0,0
115416,-41.6666666666667,4,2,2,60,0,0
115554,-41.6666666666667,4,2,94,60,0,0
115759,-50,4,2,95,60,0,0
116067,-50,4,2,96,60,0,0
116170,-55.5555555555556,4,2,97,60,0,0
116581,-62.5,4,2,98,60,0,0
116992,-71.4285714285714,4,2,99,60,0,0
117197,-71.4285714285714,4,2,100,60,0,0
117403,-71.4285714285714,4,2,101,60,0,0
117608,-83.3333333333333,4,2,102,60,0,0
117813,-83.3333333333333,4,2,103,60,0,0
118019,-83.3333333333333,4,2,104,60,0,0
118225,-83.3333333333333,4,2,105,60,0,0
118430,-83.3333333333333,4,2,106,60,0,0
118635,-83.3333333333333,4,2,107,60,0,0
118841,-83.3333333333333,4,2,98,60,0,0
119251,-83.3333333333333,4,2,108,60,0,0
119458,-83.3333333333333,4,2,109,60,0,0
119663,-83.3333333333333,4,2,110,60,0,0
119869,-83.3333333333333,4,2,111,60,0,0
120074,-83.3333333333333,4,2,2,60,0,0
120280,-83.3333333333333,4,2,112,60,0,0
120485,-83.3333333333333,4,2,236,60,0,0
120690,-62.5,4,2,114,60,0,0
120896,-62.5,4,2,115,60,0,0
121307,-62.5,4,2,117,60,0,0
121512,-62.5,4,2,116,60,0,0
121718,-50,4,2,118,60,0,0
122129,-50,4,2,119,60,0,0
122540,-500,4,2,119,50,0,0
122745,-250,4,2,120,50,0,0
122951,-166.666666666667,4,2,121,50,0,0
123156,-125,4,2,121,60,0,0
123362,-100,4,2,122,60,0,0
123567,-83.3333333333333,4,2,122,60,0,0
123773,-71.4285714285714,4,2,122,60,0,0
123978,-41.6666666666667,4,2,123,70,0,0
125006,-41.6666666666667,4,2,58,55,0,0
125108,-41.6666666666667,4,2,1,55,0,0
125211,-41.6666666666667,4,2,124,55,0,0
125314,-41.6666666666667,4,2,33,55,0,0
125622,-50,4,2,253,80,0,1
125827,-50,4,2,96,80,0,1
125930,-50,4,2,126,80,0,1
126033,-50,4,2,127,80,0,1
126238,-50,4,2,128,80,0,1
126444,-50,4,2,254,80,0,1
126649,-50,4,2,59,80,0,1
126752,-50,4,2,255,80,0,1
126855,-50,4,2,131,80,0,1
127060,-50,4,2,132,80,0,1
127266,-50,4,2,256,80,0,1
127471,-50,4,2,257,80,0,1
127574,-50,4,2,258,80,0,1
127677,-50,4,2,135,80,0,1
127882,-50,4,2,259,80,0,1
128088,-50,4,2,137,80,0,1
128293,-50,4,2,260,80,0,1
128395,-50,4,2,261,80,0,1
128499,-37.037037037037,4,2,262,80,0,1
128704,-37.037037037037,4,2,263,80,0,1
128910,-50,4,2,139,80,0,1
129218,-50,4,2,140,80,0,1
129321,-50,4,2,264,80,0,1
129526,-50,4,2,142,80,0,1
129732,-50,4,2,139,80,0,1
130040,-50,4,2,140,80,0,1
130143,-50,4,2,141,80,0,1
130348,-50,4,2,142,80,0,1
130554,-50,4,2,143,80,0,1
130759,-50,4,2,120,80,0,1
130862,-50,4,2,144,80,0,1
130964,-50,4,2,145,80,0,1
131170,-50,4,2,146,80,0,1
131375,-41.6666666666667,4,2,147,80,0,1
131684,-41.6666666666667,4,2,144,80,0,1
131786,-41.6666666666667,4,2,265,80,0,1
131992,-41.6666666666667,4,2,266,80,0,1
132095,-41.6666666666667,4,2,267,80,0,1
132197,-50,4,2,150,80,0,1
132506,-50,4,2,126,80,0,1
132608,-50,4,2,127,80,0,1
132814,-50,4,2,128,80,0,1
133019,-50,4,2,268,80,0,1
133224,-50,4,2,96,80,0,1
133327,-50,4,2,269,80,0,1
133430,-50,4,2,131,80,0,1
133636,-50,4,2,132,80,0,1
133841,-50,4,2,151,80,0,1
134149,-50,4,2,152,80,0,1
134252,-50,4,2,134,80,0,1
134458,-50,4,2,153,80,0,1
134663,-50,4,2,136,80,0,1
134869,-50,4,2,154,80,0,1
135074,-50,4,2,155,80,0,1
135280,-50,4,2,156,80,0,1
135485,-50,4,2,157,80,0,1
135793,-50,4,2,158,80,0,1
135896,-50,4,2,159,80,0,1
136101,-50,4,2,160,80,0,1
136307,-50,4,2,161,80,0,1
136615,-50,4,2,158,80,0,1
136718,-50,4,2,159,80,0,1
136923,-50,4,2,162,80,0,1
137129,-50,4,2,163,80,0,0
137334,-50,4,2,164,80,0,0
137437,-50,4,2,165,80,0,0
137540,-50,4,2,270,80,0,0
137643,-50,4,2,167,80,0,0
137745,-50,4,2,271,80,0,0
137848,-50,4,2,169,80,0,0
137951,-50,4,2,272,80,0,0
138054,-50,4,2,171,80,0,0
138156,-50,4,2,172,80,0,0
138362,-50,4,2,173,80,0,0
138567,-50,4,2,174,80,0,0
138773,-38.4615384615385,4,2,175,80,0,1
139081,-38.4615384615385,4,2,176,80,0,1
139184,-50,4,2,177,80,0,1
139389,-50,4,2,178,80,0,1
139595,-50,4,2,179,80,0,1
139800,-50,4,2,273,80,0,1
139903,-50,4,2,130,80,0,1
140006,-50,4,2,180,80,0,1
140211,-50,4,2,181,80,0,1
140417,-50,4,2,182,80,0,1
140725,-50,4,2,134,80,0,1
140827,-50,4,2,135,80,0,1
141033,-50,4,2,136,80,0,1
141238,-50,4,2,137,80,0,1
141444,-50,4,2,134,80,0,1
141649,-38.4615384615385,4,2,138,80,0,1
141854,-38.4615384615385,4,2,136,80,0,1
142060,-50,4,2,139,80,0,1
142369,-50,4,2,140,80,0,1
142471,-50,4,2,141,80,0,1
142677,-50,4,2,142,80,0,1
142882,-50,4,2,183,80,0,1
143191,-50,4,2,140,80,0,1
143293,-50,4,2,141,80,0,1
143499,-50,4,2,142,80,0,1
143704,-50,4,2,184,80,0,1
143909,-50,4,2,120,80,0,1
144012,-50,4,2,144,80,0,1
144115,-50,4,2,185,80,0,1
144321,-50,4,2,186,80,0,1
144526,-38.4615384615385,4,2,187,80,0,1
144834,-38.4615384615385,4,2,144,80,0,1
144937,-38.4615384615385,4,2,188,80,0,1
145143,-38.4615384615385,4,2,149,80,0,1
145245,-38.4615384615385,4,2,1,80,0,1
145348,-50,4,2,189,80,0,1
145656,-50,4,2,130,80,0,1
145759,-50,4,2,190,80,0,1
145964,-50,4,2,191,80,0,1
146170,-50,4,2,192,80,0,1
146375,-50,4,2,193,80,0,1
146478,-50,4,2,130,80,0,1
146581,-50,4,2,194,80,0,1
146786,-50,4,2,195,80,0,1
146992,-50,4,2,196,80,0,1
147300,-50,4,2,134,80,0,1
147403,-50,4,2,197,80,0,1
147608,-50,4,2,136,80,0,1
147814,-50,4,2,198,80,0,1
148019,-50,4,2,134,80,0,1
148225,-50,4,2,199,80,0,1
148430,-50,4,2,200,80,0,1
148636,-50,4,2,201,80,0,1
148944,-50,4,2,202,80,0,1
149047,-50,4,2,203,80,0,1
149252,-50,4,2,204,80,0,1
149458,-50,4,2,205,80,0,1
149766,-50,4,2,202,80,0,1
149869,-50,4,2,203,80,0,1
150074,-50,4,2,204,80,0,1
150280,-50,4,2,206,80,0,0
150485,-50,4,2,274,80,0,0
150691,-55.5555555555556,4,2,274,80,0,0
151718,-55.5555555555556,4,2,275,80,0,0
151923,-41.6666666666667,4,2,276,70,0,0
152232,-41.6666666666667,4,2,1,70,0,0
152334,-62.5,4,2,120,70,0,0
152540,-62.5,4,2,277,70,0,0
152951,-62.5,4,2,278,70,0,0
153054,-62.5,4,2,279,70,0,0
153156,-62.5,4,2,278,70,0,0
153259,-62.5,4,2,280,70,0,0
153362,-41.6666666666667,4,2,281,70,0,0
153567,-52.6315789473684,4,2,282,70,0,0
153773,-52.6315789473684,4,2,2,70,0,0
153978,-52.6315789473684,4,2,283,70,0,0
154184,-52.6315789473684,4,2,284,70,0,0
154389,-62.5,4,2,33,70,0,0
154800,-62.5,4,2,285,70,0,0
154869,-62.5,4,2,286,70,0,0
154937,-62.5,4,2,287,70,0,0
155006,-62.5,4,2,288,70,0,0
155074,-62.5,4,2,289,70,0,0
155108,-62.5,4,2,1,70,0,0
155143,-62.5,4,2,290,70,0,0
155211,-62.5,4,2,291,70,0,0
155314,-62.5,4,2,292,70,0,0
155417,-62.5,4,2,293,70,0,0
155519,-62.5,4,2,294,70,0,0
155622,-62.5,4,2,293,70,0,0
155827,-62.5,4,2,295,70,0,0
155930,-62.5,4,2,296,70,0,0
156033,-62.5,4,2,297,70,0,0
156238,-62.5,4,2,298,70,0,0
156444,-62.5,4,2,299,70,0,0
156649,-62.5,4,2,300,70,0,0
156855,-62.5,4,2,301,70,0,0
157060,-62.5,4,2,302,70,0,0
157163,-62.5,4,2,169,70,0,0
157266,-62.5,4,2,303,70,0,0
157369,-62.5,4,2,304,70,0,0
157471,-62.5,4,2,305,70,0,0
157574,-62.5,4,2,306,70,0,0
157677,-62.5,4,2,307,70,0,0
157780,-62.5,4,2,308,70,0,0
157882,-62.5,4,2,309,70,0,0
157985,-62.5,4,2,310,70,0,0
158088,-62.5,4,2,311,70,0,0
158156,-62.5,4,2,312,70,0,0
158191,-62.5,4,2,312,70,0,0
158293,-62.5,4,2,313,70,0,0
158396,-62.5,4,2,314,70,0,0
158499,-41.6666666666667,4,2,315,70,0,0
158704,-41.6666666666667,4,2,316,70,0,0
159321,-41.6666666666667,4,2,317,70,0,0
159526,-41.6666666666667,4,2,316,70,0,0
160143,-41.6666666666667,4,2,318,70,0,0
160348,-41.6666666666667,4,2,319,70,0,0
160554,-41.6666666666667,4,2,320,70,0,0
160759,-41.6666666666667,4,2,319,70,0,0
160964,-41.6666666666667,4,2,320,70,0,0
161170,-41.6666666666667,4,2,321,70,0,0
161581,-41.6666666666667,4,2,319,70,0,0
161786,-41.6666666666667,4,2,322,70,0,0
161991,-41.6666666666667,4,2,323,70,0,0
162197,-41.6666666666667,4,2,324,70,0,0
162403,-41.6666666666667,4,2,323,70,0,0
162608,-41.6666666666667,4,2,324,70,0,0
162813,-41.6666666666667,4,2,323,70,0,0
163430,-41.6666666666667,4,2,325,70,0,0
163738,-41.6666666666667,4,2,1,70,0,0
163841,-37.037037037037,4,2,326,70,0,0
164046,-37.037037037037,4,2,1,70,0,0
164252,-37.037037037037,4,2,327,70,0,0
164526,-37.037037037037,4,2,328,70,0,0
164663,-37.037037037037,4,2,2,70,0,0
164799,-37.037037037037,4,2,260,70,0,0
164869,-47.6190476190476,4,2,278,70,0,0
164971,-47.6190476190476,4,2,279,70,0,0
165074,-50,4,2,329,70,0,0
165382,-50,4,2,330,70,0,0
165691,-25,4,2,331,70,0,0
165896,-55.5555555555556,4,2,332,70,0,0
166204,-55.5555555555556,4,2,333,70,0,0
166512,-27.7777777777778,4,2,334,70,0,0
166718,-66.6666666666667,4,2,335,70,0,0
167026,-66.6666666666667,4,2,336,70,0,0
167334,-33.3333333333333,4,2,337,70,0,0
167540,-33.3333333333333,4,2,338,70,0,0
167951,-33.3333333333333,4,2,339,70,0,0
168054,-33.3333333333333,4,2,278,70,0,0
168156,-33.3333333333333,4,2,340,70,0,0
168259,-33.3333333333333,4,2,278,70,0,0
168362,-33.3333333333333,4,2,341,70,0,0
168978,-33.3333333333333,4,2,1,70,0,0
169184,-33.3333333333333,4,2,342,70,0,0
169800,-33.3333333333333,4,2,1,70,0,0
170006,-33.3333333333333,4,2,343,70,0,0
170622,-33.3333333333333,4,2,1,70,0,0
170827,-33.3333333333333,4,2,344,70,0,0
171649,-166.666666666667,4,2,345,70,0,0
171675,-83.3333333333333,4,2,345,70,0,0
171701,-83.3333333333333,4,2,346,70,0,0
171718,-83.3333333333333,4,2,347,70,0,0
171753,-83.3333333333333,4,2,347,70,0,0
171786,-83.3333333333333,4,2,348,70,0,0
172883,-83.3333333333333,4,2,349,50,0,0
173293,-125,4,2,29,50,0,0
173601,-125,4,2,89,50,0,0
173704,-125,4,2,350,50,0,0
173910,-125,4,2,351,50,0,0
174115,-125,4,2,352,50,0,0
174321,-125,4,2,353,50,0,0
174731,-125,4,2,20,50,0,0
174834,-125,4,2,354,50,0,0
174937,-125,4,2,355,50,0,0
175347,-125,4,2,356,50,0,0
175759,-125,4,2,357,50,0,0
176169,-125,4,2,358,50,0,0
176581,-125,4,2,359,50,0,0
176786,-125,4,2,360,50,0,0
177403,-125,4,2,361,50,0,0
177608,-250,4,2,362,50,0,0
178018,-250,4,2,363,50,0,0
178122,-250,4,2,364,50,0,0
178225,-250,4,2,365,50,0,0
178636,-125,4,2,366,50,0,0
178944,-125,4,2,367,50,0,0
178995,-125,4,2,368,50,0,0
179047,-125,4,2,369,50,0,0
179458,-125,4,2,370,50,0,0
179560,-125,4,2,304,50,0,0
179663,-125,4,2,371,50,0,0
179766,-125,4,2,372,50,0,0
179869,-125,4,2,373,50,0,0
180177,-125,4,2,21,50,0,0
180280,-125,4,2,374,50,0,0
180485,-125,4,2,375,50,0,0
180691,-125,4,2,21,50,0,0
180896,-125,4,2,376,50,0,0
181306,-125,4,2,377,50,0,0
181410,-125,4,2,378,50,0,0
181512,-125,4,2,379,50,0,0
181923,-125,4,2,380,50,0,0
182129,-125,4,2,350,50,0,0
182334,-125,4,2,381,50,0,0
182643,-125,4,2,382,50,0,0
182951,-125,4,2,351,50,0,0
183156,-125,4,2,383,50,0,0
183566,-125,4,2,350,50,0,0
183773,-125,4,2,384,50,0,0
183875,-125,4,2,363,50,0,0
183978,-125,4,2,385,50,0,0
184286,-125,4,2,386,50,0,0
184595,-125,4,2,387,50,0,0
184800,-125,4,2,19,50,0,0
185006,-125,4,2,388,50,0,0
185108,-125,4,2,389,50,0,0
185211,-125,4,2,390,50,0,0
185314,-125,4,2,391,50,0,0
185417,-125,4,2,378,50,0,0
185519,-125,4,2,377,50,0,0
185622,-125,4,2,364,50,0,0
185725,-125,4,2,392,50,0,0
185827,-125,4,2,393,50,0,0
185930,-125,4,2,394,50,0,0
186033,-125,4,2,395,50,0,0
186136,-125,4,2,396,50,0,0
186238,-125,4,2,267,50,0,0
186444,-125,4,2,397,50,0,0
186752,-125,4,2,398,50,0,0
186855,-125,4,2,399,50,0,0
187060,-125,4,2,400,50,0,0
187266,-125,4,2,401,50,0,0
187471,-125,4,2,402,50,0,0
187882,-125,4,2,403,50,0,0
187985,-125,4,2,404,50,0,0
188088,-125,4,2,405,50,0,0
188499,-125,4,2,406,50,0,0
188910,-125,4,2,407,50,0,0
189115,-125,4,2,408,50,0,0
189321,-125,4,2,27,50,0,0
189526,-125,4,2,409,50,0,0
189732,-125,4,2,410,50,0,0
189937,-125,4,2,411,50,0,0
190040,-125,4,2,89,50,0,0
190142,-125,4,2,350,50,0,0
190554,-125,4,2,412,50,0,0
190759,-125,4,2,413,50,0,0
191170,-125,4,2,414,50,0,0
191273,-125,4,2,19,50,0,0
191375,-125,4,2,415,50,0,0
191785,-125,4,2,416,50,0,0
192095,-125,4,2,417,50,0,0
192146,-125,4,2,418,50,0,0
192197,-125,4,2,350,50,0,0
192607,-125,4,2,419,50,0,0
192711,-125,4,2,399,50,0,0
192814,-125,4,2,420,50,0,0
192917,-125,4,2,394,50,0,0
193019,-125,4,2,421,50,0,0
193327,-125,4,2,398,50,0,0
193430,-125,4,2,399,50,0,0
193635,-125,4,2,422,50,0,0
193841,-125,4,2,423,50,0,0
194047,-125,4,2,407,50,0,0
194252,-125,4,2,408,50,0,0
194458,-125,4,2,352,50,0,0
194663,-125,4,2,424,50,0,0
195049,-125,4,2,425,50,0,0
195074,-125,4,2,426,50,0,0
195460,-125,4,2,427,50,0,0
195485,-125,4,2,428,50,0,0
195896,-125,4,2,352,50,0,0
196101,-125,4,2,411,50,0,0
196307,-125,4,2,429,50,0,0
196512,-125,4,2,423,50,0,0
196718,-125,4,2,430,50,0,0
196923,-125,4,2,431,50,0,0
197129,-125,4,2,432,50,0,0
197334,-125,4,2,273,50,0,0
197540,-125,4,2,433,50,0,0
197745,-125,4,2,434,50,0,0
197951,-125,4,2,435,50,0,0
198362,-125,4,2,436,50,0,0
198978,-125,4,2,19,50,0,0
199184,-125,4,2,120,50,0,0
199389,-125,4,2,437,50,0,0
199595,-100,4,2,438,60,0,0
199646,-100,4,2,439,30,0,0
199800,-100,4,2,440,30,0,0
199903,-100,4,2,439,30,0,0
200005,-100,4,2,441,30,0,0
200108,-100,4,2,442,30,0,0
200211,-100,4,2,443,40,0,0
200314,-100,4,2,442,40,0,0
200416,-100,4,2,444,45,0,0
200519,-100,4,2,445,45,0,0
200622,-100,4,2,446,50,0,0
200725,-100,4,2,445,50,0,0
200827,-100,4,2,447,55,0,0
200930,-100,4,2,448,55,0,0
201033,-100,4,2,449,60,0,0
201136,-100,4,2,448,60,0,0
201238,-41.6666666666667,4,2,450,80,0,0
201444,-41.6666666666667,4,2,100,5,0,0
201547,-41.6666666666667,4,2,450,80,0,0
201752,-20,4,2,100,5,0,0
201855,-27.7777777777778,4,2,451,80,0,0
201958,-27.7777777777778,4,2,100,5,0,0
202060,-27.7777777777778,4,2,451,80,0,0
202266,-125,4,2,452,60,0,0
202471,-125,4,2,453,60,0,0
202676,-125,4,2,454,60,0,0
202882,-41.6666666666667,4,2,455,80,0,1
203088,-41.6666666666667,4,2,455,80,0,0
203191,-41.6666666666667,4,2,456,60,0,0
203293,-41.6666666666667,4,2,457,60,0,0
203499,-71.4285714285714,4,2,458,80,0,1
203705,-71.4285714285714,4,2,459,80,0,1
203910,-71.4285714285714,4,2,1,80,0,0
204115,-71.4285714285714,4,2,437,80,0,0
204218,-71.4285714285714,4,2,274,80,0,0
204526,-71.4285714285714,4,2,334,80,0,0
204706,-71.4285714285714,4,2,460,80,0,0
204732,-33.3333333333333,4,2,461,80,0,1
204834,-33.3333333333333,4,2,461,80,0,0
204937,-33.3333333333333,4,2,100,5,0,0
205015,-33.3333333333333,4,2,460,80,0,0
205040,-33.3333333333333,4,2,462,80,0,1
205143,-33.3333333333333,4,2,462,80,0,0
205245,-33.3333333333333,4,2,100,5,0,0
205323,-33.3333333333333,4,2,463,80,0,0
205348,-50,4,2,464,80,0,1
205554,-50,4,2,464,80,0,0
205656,-50,4,2,100,5,0,0
205759,-125,4,2,465,80,0,0
206170,-50,4,2,466,55,0,1
206478,-50,4,2,140,80,0,1
206581,-50,4,2,141,80,0,1
206786,-50,4,2,142,80,0,1
206992,-50,4,2,139,80,0,1
207300,-50,4,2,140,80,0,1
207403,-50,4,2,141,80,0,1
207608,-50,4,2,142,80,0,1
207814,-50,4,2,143,80,0,1
208019,-50,4,2,120,80,0,1
208122,-50,4,2,144,80,0,1
208225,-50,4,2,145,80,0,1
208430,-50,4,2,146,80,0,1
208636,-50,4,2,147,80,0,1
208944,-50,4,2,144,80,0,1
209047,-50,4,2,148,80,0,1
209252,-50,4,2,149,80,0,1
209355,-50,4,2,1,80,0,1
209458,-50,4,2,150,80,0,1
209766,-50,4,2,126,80,0,1
209869,-50,4,2,127,80,0,1
210074,-50,4,2,128,80,0,1
210280,-50,4,2,129,80,0,1
210588,-50,4,2,130,80,0,1
210691,-50,4,2,131,80,0,1
210896,-50,4,2,132,80,0,1
211101,-50,4,2,151,80,0,1
211410,-50,4,2,152,80,0,1
211512,-50,4,2,134,80,0,1
211718,-50,4,2,153,80,0,1
211923,-50,4,2,136,80,0,1
212129,-50,4,2,154,80,0,1
212334,-50,4,2,155,80,0,1
212540,-50,4,2,156,80,0,1
212745,-50,4,2,157,80,0,1
213054,-50,4,2,158,80,0,1
213156,-50,4,2,159,80,0,1
213362,-50,4,2,160,80,0,1
213567,-50,4,2,161,80,0,1
213875,-50,4,2,158,80,0,1
213978,-50,4,2,159,80,0,1
214184,-50,4,2,162,80,0,1
214389,-50,4,2,163,55,0,0
214595,-50,4,2,164,80,0,0
214697,-50,4,2,165,80,0,0
214800,-50,4,2,270,80,0,0
214903,-50,4,2,167,80,0,0
215006,-50,4,2,271,80,0,0
215108,-50,4,2,169,80,0,0
215211,-50,4,2,272,80,0,0
215314,-50,4,2,171,80,0,0
215417,-50,4,2,172,80,0,0
215622,-62.5,4,2,173,80,0,0
215827,-62.5,4,2,174,80,0,0
216033,-50,4,2,467,55,0,1
216341,-50,4,2,176,80,0,1
216444,-50,4,2,177,80,0,1
216649,-50,4,2,178,80,0,1
216855,-50,4,2,179,80,0,1
217060,-50,4,2,130,80,0,1
217266,-50,4,2,180,80,0,1
217471,-50,4,2,181,80,0,1
217677,-50,4,2,182,80,0,1
217985,-50,4,2,134,80,0,1
218088,-50,4,2,135,80,0,1
218293,-50,4,2,136,80,0,1
218499,-50,4,2,137,80,0,1
218704,-50,4,2,134,80,0,1
218910,-50,4,2,138,80,0,1
219115,-50,4,2,136,80,0,1
219321,-50,4,2,139,80,0,1
219629,-50,4,2,140,80,0,1
219732,-50,4,2,141,80,0,1
219937,-50,4,2,142,80,0,1
220143,-50,4,2,183,80,0,1
220451,-50,4,2,140,80,0,1
220554,-50,4,2,141,80,0,1
220759,-50,4,2,142,80,0,1
220964,-50,4,2,184,80,0,1
221169,-50,4,2,120,80,0,1
221273,-50,4,2,144,80,0,1
221375,-50,4,2,185,80,0,1
221581,-50,4,2,186,80,0,1
221786,-50,4,2,187,80,0,1
222095,-50,4,2,144,80,0,1
222197,-50,4,2,188,80,0,1
222403,-50,4,2,149,80,0,1
222506,-50,4,2,1,80,0,1
222608,-50,4,2,189,80,0,1
222917,-50,4,2,130,80,0,1
223019,-50,4,2,190,80,0,1
223225,-50,4,2,191,80,0,1
223430,-50,4,2,192,80,0,1
223635,-50,4,2,193,80,0,1
223738,-50,4,2,130,80,0,1
223841,-50,4,2,194,80,0,1
224047,-50,4,2,195,80,0,1
224252,-50,4,2,196,80,0,1
224560,-50,4,2,134,80,0,1
224663,-50,4,2,197,80,0,1
224869,-50,4,2,136,80,0,1
225074,-50,4,2,198,80,0,1
225280,-50,4,2,134,80,0,1
225485,-50,4,2,199,80,0,1
225690,-50,4,2,200,80,0,1
225896,-50,4,2,201,80,0,1
226204,-50,4,2,202,80,0,1
226307,-50,4,2,203,80,0,1
226512,-50,4,2,204,80,0,1
226718,-50,4,2,205,80,0,1
227026,-50,4,2,202,80,0,1
227129,-50,4,2,203,80,0,1
227334,-50,4,2,204,80,0,1
227540,-50,4,2,468,80,0,1
227745,-50,4,2,1,80,0,1
227951,-50,4,2,469,80,0,1
228156,-50,4,2,172,80,0,1
228362,-125,4,2,172,80,0,1
228568,-125,4,2,470,80,0,1
228773,-38.4615384615385,4,2,471,80,0,1
228978,-38.4615384615385,4,2,472,80,0,1
229184,-38.4615384615385,4,2,473,70,0,0
229389,-47.6190476190476,4,2,474,70,0,0
229457,-47.6190476190476,4,2,475,70,0,0
229525,-47.6190476190476,4,2,476,70,0,0
229595,-47.6190476190476,4,2,477,70,0,0
229663,-47.6190476190476,4,2,478,70,0,0
229731,-47.6190476190476,4,2,479,70,0,0
229800,-47.6190476190476,4,2,480,70,0,0
229868,-47.6190476190476,4,2,347,70,0,0
229936,-47.6190476190476,4,2,481,70,0,0
230006,-47.6190476190476,4,2,482,70,0,0
230108,-47.6190476190476,4,2,483,70,0,0
230211,-47.6190476190476,4,2,484,70,0,0
230313,-47.6190476190476,4,2,485,70,0,0
230417,-47.6190476190476,4,2,486,70,0,0
230519,-47.6190476190476,4,2,487,70,0,0
230622,-47.6190476190476,4,2,488,70,0,0
230724,-47.6190476190476,4,2,489,70,0,0
230827,-47.6190476190476,4,2,490,70,0,0
231033,-47.6190476190476,4,2,491,70,0,0
231101,-47.6190476190476,4,2,492,70,0,0
231169,-47.6190476190476,4,2,493,70,0,0
231238,-47.6190476190476,4,2,494,70,0,0
231306,-47.6190476190476,4,2,495,70,0,0
231374,-47.6190476190476,4,2,346,70,0,0
231444,-47.6190476190476,4,2,496,70,0,0
231512,-47.6190476190476,4,2,497,70,0,0
231580,-47.6190476190476,4,2,498,70,0,0
231649,-47.6190476190476,4,2,499,70,0,0
231751,-47.6190476190476,4,2,500,70,0,0
231855,-47.6190476190476,4,2,501,70,0,0
231957,-47.6190476190476,4,2,502,70,0,0
232060,-47.6190476190476,4,2,503,70,0,0
232162,-47.6190476190476,4,2,306,70,0,0
232266,-47.6190476190476,4,2,504,70,0,0
232368,-47.6190476190476,4,2,257,70,0,0
232471,-47.6190476190476,4,2,505,70,0,0
232677,-47.6190476190476,4,2,506,70,0,0
232745,-47.6190476190476,4,2,507,70,0,0
232813,-47.6190476190476,4,2,508,70,0,0
232882,-47.6190476190476,4,2,509,70,0,0
232950,-47.6190476190476,4,2,290,70,0,0
233018,-47.6190476190476,4,2,346,70,0,0
233088,-47.6190476190476,4,2,510,70,0,0
233293,-47.6190476190476,4,2,511,70,0,0
233499,-47.6190476190476,4,2,512,70,0,0
233567,-47.6190476190476,4,2,290,70,0,0
233635,-47.6190476190476,4,2,346,70,0,0
233704,-47.6190476190476,4,2,513,70,0,0
233772,-47.6190476190476,4,2,514,70,0,0
233840,-47.6190476190476,4,2,498,70,0,0
233910,-47.6190476190476,4,2,515,70,0,0
234115,-47.6190476190476,4,2,516,70,0,0
234321,-47.6190476190476,4,2,517,70,0,0
234389,-47.6190476190476,4,2,290,70,0,0
234457,-47.6190476190476,4,2,518,70,0,0
234526,-47.6190476190476,4,2,519,70,0,0
234594,-47.6190476190476,4,2,514,70,0,0
234662,-47.6190476190476,4,2,520,70,0,0
234732,-47.6190476190476,4,2,521,70,0,0
234937,-47.6190476190476,4,2,522,70,0,0
235143,-47.6190476190476,4,2,523,70,0,0
235348,-47.6190476190476,4,2,524,70,0,0
235554,-47.6190476190476,4,2,525,70,0,0
235759,-47.6190476190476,4,2,526,70,0,0
235964,-47.6190476190476,4,2,527,70,0,0
236032,-47.6190476190476,4,2,528,70,0,0
236100,-47.6190476190476,4,2,529,70,0,0
236170,-47.6190476190476,4,2,530,70,0,0
236238,-47.6190476190476,4,2,531,70,0,0
236306,-47.6190476190476,4,2,532,70,0,0
236375,-47.6190476190476,4,2,533,70,0,0
236443,-47.6190476190476,4,2,347,70,0,0
236511,-47.6190476190476,4,2,481,70,0,0
236581,-47.6190476190476,4,2,482,70,0,0
236683,-47.6190476190476,4,2,483,70,0,0
236786,-47.6190476190476,4,2,484,70,0,0
236888,-47.6190476190476,4,2,534,70,0,0
236992,-47.6190476190476,4,2,535,70,0,0
237094,-47.6190476190476,4,2,536,70,0,0
237197,-47.6190476190476,4,2,488,70,0,0
237299,-47.6190476190476,4,2,489,70,0,0
237403,-47.6190476190476,4,2,490,70,0,0
237608,-47.6190476190476,4,2,491,70,0,0
237676,-47.6190476190476,4,2,537,70,0,0
237744,-47.6190476190476,4,2,508,70,0,0
237814,-47.6190476190476,4,2,538,70,0,0
237882,-47.6190476190476,4,2,495,70,0,0
237950,-47.6190476190476,4,2,346,70,0,0
238019,-47.6190476190476,4,2,539,70,0,0
238225,-47.6190476190476,4,2,540,70,0,0
238430,-47.6190476190476,4,2,541,70,0,0
238498,-47.6190476190476,4,2,495,70,0,0
238566,-47.6190476190476,4,2,346,70,0,0
238636,-47.6190476190476,4,2,542,70,0,0
238704,-47.6190476190476,4,2,497,70,0,0
238772,-47.6190476190476,4,2,498,70,0,0
238841,-47.6190476190476,4,2,543,70,0,0
239047,-47.6190476190476,4,2,544,70,0,0
239252,-47.6190476190476,4,2,545,70,0,0
239458,-47.6190476190476,4,2,546,70,0,0
239663,-47.6190476190476,4,2,547,70,0,0
239869,-47.6190476190476,4,2,548,70,0,0
239937,-47.6190476190476,4,2,549,70,0,0
240006,-47.6190476190476,4,2,550,70,0,0
240074,-47.6190476190476,4,2,551,70,0,0
240142,-47.6190476190476,4,2,346,70,0,0
240210,-47.6190476190476,4,2,347,70,0,0
240280,-47.6190476190476,4,2,552,70,0,0
240348,-47.6190476190476,4,2,498,70,0,0
240416,-47.6190476190476,4,2,553,70,0,0
240485,-47.6190476190476,4,2,554,70,0,0
240690,-47.6190476190476,4,2,555,70,0,0
240896,-47.6190476190476,4,2,556,70,0,0
241101,-47.6190476190476,4,2,557,70,0,0
241307,-47.6190476190476,4,2,558,70,0,0
241410,-47.6190476190476,4,2,1,70,0,0
241512,-47.6190476190476,4,2,559,70,0,0
241718,-47.6190476190476,4,2,560,70,0,0
241923,-47.6190476190476,4,2,561,70,0,0
242128,-47.6190476190476,4,2,562,70,0,0
242334,-166.666666666667,4,2,563,70,0,0
242643,-166.666666666667,4,2,564,50,0,0
242951,-166.666666666667,4,2,565,50,0,0
243362,-166.666666666667,4,2,566,50,0,0
243773,-166.666666666667,4,2,89,50,0,0
243875,-166.666666666667,4,2,89,5,0,0
243978,-166.666666666667,4,2,567,50,0,0
244286,-166.666666666667,4,2,568,50,0,0
244389,-166.666666666667,4,2,89,50,0,0
244594,-166.666666666667,4,2,569,50,0,0
245006,-166.666666666667,4,2,570,50,0,0
245211,-166.666666666667,4,2,89,50,0,0
245416,-166.666666666667,4,2,571,50,0,0
245622,-166.666666666667,4,2,572,50,0,0
245827,-166.666666666667,4,2,136,50,0,0
246032,-166.666666666667,4,2,573,50,0,0
246238,-166.666666666667,4,2,574,50,0,0
246648,-166.666666666667,4,2,575,50,0,0
246855,-166.666666666667,4,2,576,50,0,0
247060,-166.666666666667,4,2,577,50,0,0
247266,-166.666666666667,4,2,578,50,0,0
247676,-166.666666666667,4,2,579,50,0,0
248087,-166.666666666667,4,2,580,50,0,0
248499,-166.666666666667,4,2,581,50,0,0
248910,-166.666666666667,4,2,582,50,0,0
249218,-166.666666666667,4,2,583,50,0,0
249526,-166.666666666667,4,2,584,50,0,0
249936,-166.666666666667,4,2,190,50,0,0
250143,-166.666666666667,4,2,585,50,0,0
250554,-166.666666666667,4,2,586,50,0,0
250862,-166.666666666667,4,2,587,50,0,0
250964,-166.666666666667,4,2,89,50,0,0
251169,-166.666666666667,4,2,565,50,0,0
251581,-166.666666666667,4,2,588,50,0,0
251786,-166.666666666667,4,2,589,50,0,0
251992,-166.666666666667,4,2,590,50,0,0
252146,-166.666666666667,4,2,89,50,0,0
252172,-166.666666666667,4,2,591,50,0,0
252197,-83.3333333333333,4,2,592,50,0,0
252403,-83.3333333333333,4,2,577,50,0,0
252608,-83.3333333333333,4,2,593,50,0,0
252814,-83.3333333333333,4,2,594,50,0,0
252968,-83.3333333333333,4,2,89,50,0,0
252994,-83.3333333333333,4,2,591,50,0,0
253019,-83.3333333333333,4,2,595,50,0,0
253225,-83.3333333333333,4,2,596,50,0,0
253430,-83.3333333333333,4,2,597,50,0,0
253636,-83.3333333333333,4,2,598,50,0,0
253790,-83.3333333333333,4,2,89,50,0,0
253816,-83.3333333333333,4,2,591,50,0,0
253841,-83.3333333333333,4,2,599,50,0,0
254252,-166.666666666667,4,2,600,50,0,0
254868,-166.666666666667,4,2,601,50,0,0
255460,-166.666666666667,4,2,602,50,0,0
255485,500,4,2,603,40,1,0
255735,-100,4,2,604,40,0,0
255985,571.428571428571,4,2,605,40,1,0
256270,-100,4,2,606,40,0,0
256413,-100,4,2,607,40,0,0
256448,-100,4,2,608,40,0,0
256484,-100,4,2,14,40,0,0
256520,-100,4,2,609,40,0,0
256556,612.244897959184,4,2,610,40,1,0
256989,-100,4,2,611,40,0,0
257168,631.578947368421,4,2,611,40,1,0
257277,-100,4,2,33,40,0,0
257483,-100,4,2,33,40,0,0
257507,631.578947368421,4,2,33,40,1,0
257720,-100,4,2,612,40,0,0
257760,-100,4,2,613,40,0,0
257799,666.666666666667,4,2,616,40,1,0
257965,-100,4,2,100,40,0,0
258757,-100,4,2,617,30,0,0
258798,-100,4,2,618,30,0,0
258840,-100,4,2,619,30,0,0

[Colours]
Combo1 : 66,68,127
Combo2 : 234,217,226
Combo3 : 153,79,115
Combo4 : 205,128,181
Combo5 : 229,120,95

[HitObjects]
34,269,417,6,0,L|41:243,3,26.6666666666667,0|0|0|0,3:3|3:3|3:3|3:3,0:0:0:0:
62,228,691,6,0,P|107:242|137:277,2,96,2|2|2,2:2|2:2|2:2,0:0:0:0:
8,154,1512,1,0,0:0:0:0:
87,108,1718,2,0,P|104:82|109:50,1,64,2|2,2:2|2:2,0:0:0:0:
8,154,2129,1,0,0:0:0:0:
217,196,2334,6,0,P|205:147|174:115,2,96,2|2|2,2:2|2:2|2:2,0:0:0:0:
146,289,3156,2,0,L|158:333,1,32,2|0,2:2|0:0,0:0:0:0:
218,359,3362,2,0,P|263:344|293:309,1,96,2|0,2:2|0:0,0:0:0:0:
346,254,3773,1,2,2:2:0:0:
357,250,3875,1,2,2:2:0:0:
427,274,3978,6,0,P|449:296|459:326,2,64,2|2|2,2:2|2:2|2:2,0:0:0:0:
304,183,4595,1,2,2:2:0:0:
373,51,4800,2,0,P|395:28|425:18,2,64,2|2|2,2:2|2:2|2:2,0:0:0:0:
287,179,5417,2,0,L|238:168,1,32,2|0,2:2|0:0,0:0:0:0:
237,95,5622,2,0,P|288:76|351:195,1,192,2|2,2:2|2:2,0:0:0:0:
361,169,6649,5,2,3:2:0:0:
278,208,6752,1,2,2:2:0:0:
199,183,6855,1,2,2:2:0:0:
180,114,6958,1,2,2:2:0:0:
196,58,7060,1,2,3:2:0:0:
233,29,7163,1,0,0:0:0:0:
254,35,7266,6,0,P|270:120|288:271,1,224,6|0,3:2|0:0,0:0:0:0:
411,354,8293,2,0,P|456:367|487:378,2,55.9999999999999,2|2|2,2:2|2:2|2:2,0:0:0:0:
300,242,8910,2,0,P|245:256|193:274,2,112,6|2|2,3:2|2:2|2:2,0:0:0:0:
430,143,9937,1,0,3:3:0:0:
352,304,10143,1,2,1:2:0:0:
510,161,10348,5,2,2:2:0:0:
490,86,10451,1,0,1:1:0:0:
419,58,10554,2,0,P|369:76|350:124,1,108,6|0,3:2|0:0,0:0:0:0:
284,168,10964,1,10,2:2:0:0:
419,58,11170,1,6,2:2:0:0:
284,168,11375,2,0,P|235:148|217:99,1,108,6|0,2:2|0:0,0:0:0:0:
158,46,11786,1,2,3:2:0:0:
284,168,11992,1,2,3:2:0:0:
158,46,12197,6,0,L|87:66,1,48,2|0,1:2|0:0,0:0:0:0:
60,211,12403,2,0,L|-11:191,2,48,0|0|0,1:1|1:1|1:1,0:0:0:0:
181,363,12814,2,0,L|252:343,1,48,0|0,1:1|1:1,0:0:0:0:
237,334,13019,1,0,3:3:0:0:
13,197,13225,2,0,B|47:136|114:163|114:163|112:213|151:238,1,200,4|0,1:2|1:1,0:0:0:0:
159,245,13841,6,0,P|206:231|256:222,1,80,14|2,3:2|2:2,0:0:0:0:
287,146,14252,2,0,P|326:154|364:166,1,80,2|2,3:2|2:2,0:0:0:0:
433,203,14663,1,2,3:2:0:0:
287,146,14869,2,0,P|299:88|328:74,1,80,2|0,2:2|3:3,0:0:0:0:
471,131,15280,1,2,2:2:0:0:
477,142,15382,1,0,0:0:0:0:
483,153,15485,6,0,P|462:239|446:339,2,160,0|0|0,3:3|3:3|3:3,0:0:0:0:
433,87,16512,1,2,2:2:0:0:
301,147,16718,1,2,3:2:0:0:
380,264,16923,1,2,2:2:0:0:
301,147,17129,6,0,P|242:148|204:192,1,120,0|0,3:3|0:0,0:0:0:0:
178,264,17540,1,2,3:2:0:0:
308,332,17745,1,2,2:2:0:0:
366,196,17951,1,2,3:2:0:0:
383,364,18156,1,2,2:2:0:0:
234,319,18362,1,2,3:2:0:0:
366,196,18567,2,0,P|405:202|444:212,1,80,2|0,2:2|3:3,0:0:0:0:
277,80,18978,5,0,2:2:0:0:
339,24,19184,1,0,3:3:0:0:
278,165,19389,1,0,2:2:0:0:
254,159,19492,1,0,2:2:0:0:
232,154,19595,1,0,3:3:0:0:
171,86,19800,1,0,2:2:0:0:
41,198,20006,1,2,3:2:0:0:
214,244,20211,1,2,2:2:0:0:
158,105,20417,6,0,P|132:181|113:259,1,160,2|2,3:2|3:2,0:0:0:0:
42,349,21033,2,0,P|8:328|0:290,1,80,2|0,2:2|3:3,0:0:0:0:
169,211,21444,1,2,2:2:0:0:
233,295,21649,1,0,3:3:0:0:
72,247,21855,1,2,2:2:0:0:
60,241,21958,1,0,0:0:0:0:
49,236,22060,6,0,P|42:196|32:157,2,80,0|2|2,3:3|2:2|3:2,0:0:0:0:
192,352,22677,2,0,B|265:332|252:302|344:287,1,160,2|0,2:2|0:0,0:0:0:0:
403,190,23293,1,2,3:2:0:0:
481,224,23499,1,2,2:2:0:0:
354,101,23704,5,2,3:2:0:0:
228,150,23910,2,0,P|218:189|208:228,1,80,2|0,2:2|3:3,0:0:0:0:
390,282,24321,1,2,2:2:0:0:
208,227,24526,5,0,3:3:0:0:
354,101,24732,1,2,3:2:0:0:
208,227,24937,2,0,P|203:251|192:290,1,40,2|0,3:2|0:0,0:0:0:0:
255,319,25143,2,0,P|330:299|318:197,1,160,6|2,3:2|2:2,0:0:0:0:
237,102,25759,1,2,2:2:0:0:
85,208,25964,6,0,L|92:239,3,20,2|0|0|0,1:2|0:0|1:1|0:0,0:0:0:0:
77,250,26170,2,0,B|131:262|131:262|166:212,1,112,2|2,3:2|3:2,0:0:0:0:
227,173,26478,1,0,1:1:0:0:
269,187,26581,1,2,3:2:0:0:
284,228,26684,1,0,1:1:0:0:
264,268,26786,1,0,3:3:0:0:
100,175,26992,6,0,L|80:35,1,128,6|2,3:2|1:2,0:0:0:0:
143,6,27300,1,0,1:1:0:0:
155,9,27403,1,2,3:2:0:0:
313,171,27608,1,2,1:2:0:0:
512,51,27814,2,0,B|471:5|471:5|391:22,1,128,2|2,3:2|1:2,0:0:0:0:
347,62,28122,1,0,1:1:0:0:
344,75,28225,1,0,3:3:0:0:
462,264,28430,5,2,1:2:0:0:
511,216,28533,1,0,1:1:0:0:
497,186,28636,2,0,L|428:200,2,64,6|0|0,3:2|3:0|1:1,0:0:0:0:
450,342,28944,1,0,1:1:0:0:
408,376,29047,2,0,L|338:362,3,64,0|0|2|0,3:3|1:1|1:2|0:0,0:0:0:0:
283,319,29458,5,0,3:3:0:0:
497,330,29663,1,2,1:2:0:0:
502,359,29766,1,0,1:1:0:0:
482,384,29869,1,2,3:2:0:0:
331,241,30074,1,2,1:2:0:0:
326,212,30177,1,0,1:1:0:0:
346,187,30280,1,6,3:2:0:0:
235,375,30485,6,0,L|174:355,1,64,2|0,1:2|1:1,0:0:0:0:
101,384,30690,1,2,3:2:0:0:
205,189,30896,2,0,L|147:217,1,64,2|0,1:2|1:1,0:0:0:0:
116,290,31101,1,2,3:2:0:0:
52,78,31307,2,0,L|31:139,1,64,2|0,1:2|1:1,0:0:0:0:
60,213,31512,1,2,3:2:0:0:
69,0,31718,6,0,L|6:9,1,64,2|0,1:2|0:0,0:0:0:0:
139,90,31923,1,4,3:3:0:0:
153,93,32026,2,0,L|216:103,2,64,0|2|0,3:0|1:2|1:1,0:0:0:0:
153,9,32334,1,0,3:3:0:0:
52,78,32540,1,0,1:1:0:0:
29,198,32745,1,0,3:3:0:0:
98,300,32951,5,0,1:1:0:0:
123,281,33054,1,0,1:1:0:0:
154,273,33156,1,2,3:2:0:0:
353,358,33362,1,2,1:2:0:0:
378,376,33464,1,0,1:1:0:0:
409,384,33567,6,0,P|373:325|254:313,1,192,6|0,3:2|1:1,0:0:0:0:
227,384,33978,1,2,3:2:0:0:
331,260,34184,2,0,P|337:228|352:200,1,64,2|0,1:2|1:0,0:0:0:0:
429,188,34389,1,0,3:3:0:0:
276,21,34595,2,0,P|299:42|316:69,1,64,2|0,1:2|1:1,0:0:0:0:
289,141,34800,1,0,3:3:0:0:
510,92,35006,2,0,P|479:101|447:103,1,64,2|0,1:2|1:1,0:0:0:0:
400,44,35211,1,6,3:2:0:0:
512,218,35417,6,0,P|497:247|467:264,1,64,2|0,1:2|1:1,0:0:0:0:
331,260,35622,2,0,P|304:276|289:304,2,64,2|0|2,3:2|1:1|1:2,0:0:0:0:
493,340,36033,1,0,3:3:0:0:
376,124,36238,1,0,1:1:0:0:
344,129,36341,1,0,1:1:0:0:
312,134,36444,1,2,3:2:0:0:
186,287,36649,1,2,1:2:0:0:
154,281,36752,1,0,1:1:0:0:
122,276,36855,6,0,B|93:221|93:221|145:172,1,128,6|0,3:2|1:1,0:0:0:0:
171,175,37163,1,0,1:1:0:0:
171,188,37266,2,0,L|96:204,1,64,0|0,3:3|1:1,0:0:0:0:
0,189,37471,1,2,1:2:0:0:
243,227,37677,1,2,1:2:0:0:
264,313,37882,1,6,2:2:0:0:
508,272,38088,1,10,2:2:0:0:
217,384,38293,6,0,P|269:317|389:316,1,192,6|0,3:2|0:0,0:0:0:0:
445,328,38704,2,0,P|442:359|423:384,1,64,2|0,1:2|0:0,0:0:0:0:
429,234,38910,2,0,P|431:202|450:177,1,64,0|0,3:3|0:0,0:0:0:0:
248,277,39115,6,0,P|223:297|192:301,1,64,2|0,3:2|0:0,0:0:0:0:
303,199,39321,2,0,P|327:178|358:174,1,64,0|0,3:3|0:0,0:0:0:0:
249,103,39526,1,2,1:2:0:0:
243,71,39629,1,0,1:1:0:0:
238,39,39732,1,0,3:3:0:0:
0,226,39937,1,2,3:2:0:0:
6,194,40040,1,0,1:1:0:0:
11,162,40143,6,0,P|82:143|142:200,1,160,14|2,3:2|2:2,0:0:0:0:
226,130,40451,2,0,P|174:78|193:-2,1,160,14|0,3:2|0:0,0:0:0:0:
191,0,40759,2,0,P|184:40|152:71,1,64,14|0,3:2|0:0,0:0:0:0:
0,252,40964,2,0,P|152:187|375:149,1,384,2|0,1:2|1:1,0:0:0:0:
133,371,41581,5,2,1:2:0:0:
178,359,41684,1,0,1:1:0:0:
202,320,41786,2,0,P|141:281|53:260,1,160,6|0,3:2|0:0,0:0:0:0:
24,181,42095,1,2,3:2:0:0:
5,210,42197,6,0,P|25:249|66:260,1,80
119,374,42403,2,0,P|162:371|189:338,1,64,2|0,3:2|3:3,0:0:0:0:
307,210,42608,1,2,1:2:0:0:
267,262,42711,1,0,1:1:0:0:
271,328,42814,1,0,1:1:0:0:
316,376,42917,1,0,1:1:0:0:
381,384,43019,2,0,P|377:347|357:317,2,63.9999999999999,0|0|0,1:1|1:1|1:1,0:0:0:0:
406,193,43225,5,2,1:2:0:0:
446,215,43327,1,0,1:1:0:0:
464,255,43430,2,0,P|428:331|356:318,1,160,14|2,3:2|2:2,0:0:0:0:
276,383,43738,2,0,P|228:313|275:257,1,160,14|0,3:2|0:0,0:0:0:0:
234,213,44047,2,0,P|261:230|266:261,1,64,14|0,3:2|0:0,0:0:0:0:
153,384,44252,2,0,P|287:302|306:83,1,384,2|0,1:2|1:1,0:0:0:0:
261,24,44766,1,0,0:0:0:0:
232,76,44869,1,2,1:2:0:0:
171,87,44971,1,0,1:1:0:0:
118,53,45074,6,0,P|171:16|309:90,1,240,6|2,3:2|2:2,0:0:0:0:
474,118,45485,6,0,P|421:92|303:175,1,216,2|0,3:2|0:0,0:0:0:0:
213,224,45896,6,0,P|264:214|346:312,1,192,2|0,3:2|0:0,0:0:0:0:
297,365,46307,2,0,P|270:359|251:338,1,56,2|0,3:2|0:0,0:0:0:0:
303,172,46512,5,6,3:2:0:0:
175,320,46718,1,2,2:2:0:0:
0,314,46923,2,0,P|29:267|29:220,1,96,2|2,3:2|1:2,0:0:0:0:
0,0,47334,5,2,3:2:0:0:
110,175,47540,1,2,3:2:0:0:
303,172,47745,2,0,P|277:122|236:99,1,96,2|2,3:2|1:2,0:0:0:0:
0,161,48156,6,0,P|88:167|167:238,1,192,6|2,3:2|3:2,0:0:0:0:
0,384,48773,1,2,1:2:0:0:
212,305,48978,1,2,3:2:0:0:
109,93,49184,1,2,1:2:0:0:
100,130,49286,1,0,1:1:0:0:
92,168,49389,1,0,3:3:0:0:
0,0,49595,1,6,1:2:0:0:
192,75,49800,1,2,3:2:0:0:
378,150,50006,6,0,B|404:123|404:123|445:126,1,64,6|0,1:2|0:0,0:0:0:0:
433,272,50211,2,0,B|396:262|396:262|385:239,1,64,2|0,3:2|0:0,0:0:0:0:
308,84,50417,2,0,L|297:20,1,64,2|0,1:2|0:0,0:0:0:0:
511,164,50622,2,0,B|521:200|521:200|498:234,1,64,2|0,3:2|0:0,0:0:0:0:
318,382,50827,2,0,L|329:319,1,64,2|0,1:2|0:0,0:0:0:0:
245,139,51033,2,0,B|204:68|127:100|127:100|129:157|80:184,1,240,2|0,3:2|0:0,0:0:0:0:
9,215,51444,1,6,3:2:0:0:
228,212,51855,6,0,P|235:216|241:216,1,8,0|0,3:3|0:0,0:0:0:0:
307,170,52060,6,0,P|301:158|294:153,1,16,2|0,3:2|0:0,0:0:0:0:
206,110,52266,6,0,P|203:123|206:134,1,24,2|0,3:2|0:0,0:0:0:0:
281,285,52471,6,0,P|295:271|300:257,1,32,0|0,3:3|0:0,0:0:0:0:
317,68,52677,6,0,P|292:70|277:81,1,40,2|0,3:2|0:0,0:0:0:0:
156,276,52882,6,0,P|182:291|206:291,1,48,2|0,3:2|0:0,0:0:0:0:
405,166,53088,6,0,P|396:141|375:122,1,56,2|0,3:2|0:0,0:0:0:0:
90,231,53293,6,0,B|53:236|9:203|9:203|2:202|2:202|9:201|9:201|34:158|80:151,1,192,10|0,3:2|0:0,0:0:0:0:
265,246,53601,6,0,B|287:275|281:329|281:329|284:335|284:335|279:331|279:331|229:330|200:293,1,192,10|0,3:2|0:0,0:0:0:0:
183,119,53910,6,0,B|189:101|215:91|215:91|217:88|217:88|216:91|216:91|228:113|219:134,1,95.9999999999999,10|0,3:2|0:0,0:0:0:0:
128,335,54115,6,0,B|121:352|95:362|95:362|93:365|93:365|94:362|94:362|82:340|91:319,1,95.9999999999999,2|0,1:2|0:0,0:0:0:0:
309,182,54321,5,2,1:2:0:0:
382,205,54423,1,0,1:1:0:0:
382,282,54526,1,2,3:2:0:0:
309,306,54629,1,0,1:1:0:0:
263,244,54732,1,2,1:2:0:0:
263,244,54937,6,0,P|306:181|383:178,1,160,14|0,3:2|0:0,0:0:0:0:
447,128,55245,1,2,1:2:0:0:
408,60,55348,2,0,P|365:48|332:35,1,80,2|0,3:2|0:0,0:0:0:0:
437,235,55554,2,0,P|474:220|512:210,1,80,2|0,1:2|0:0,0:0:0:0:
340,20,55759,6,0,B|262:42|296:91|214:115,1,160,10|0,3:2|1:1,0:0:0:0:
186,270,56067,1,2,1:2:0:0:
258,238,56170,2,0,P|237:204|199:193,1,80,2|0,3:2|0:0,0:0:0:0:
154,61,56375,2,0,P|118:69|96:133,1,80,2|0,1:2|0:0,0:0:0:0:
0,295,56581,6,0,P|73:302|93:223,1,160,2|0,3:2|0:0,0:0:0:0:
17,280,56889,1,2,1:2:0:0:
110,377,56992,2,0,P|146:361|184:350,1,80,2|0,3:2|0:0,0:0:0:0:
252,216,57197,2,0,P|288:231|325:257,1,80,2|0,1:2|0:0,0:0:0:0:
452,252,57403,6,0,P|444:289|415:317,1,80,2|0,3:2|0:0,0:0:0:0:
252,216,57608,2,0,P|263:178|294:154,1,80,0|2,1:1|2:2,0:0:0:0:
210,39,57814,2,0,P|202:142|295:153,1,216,2|2,3:2|1:2,0:0:0:0:
427,118,58122,1,0,1:1:0:0:
403,92,58225,6,0,P|381:169|366:248,1,160,14|0,3:2|0:0,0:0:0:0:
303,295,58533,1,2,1:2:0:0:
287,292,58636,1,2,3:2:0:0:
491,235,58841,2,0,B|494:218|509:201|509:201|486:211|479:227,1,80,2|0,1:2|0:0,0:0:0:0:
290,372,59047,6,0,B|268:294|219:328|195:246,1,160,2|0,3:2|0:0,0:0:0:0:
254,199,59355,1,2,1:2:0:0:
268,200,59458,1,2,3:2:0:0:
87,351,59663,2,0,P|121:332|131:294,1,80,2|0,1:2|0:0,0:0:0:0:
281,191,59869,6,0,P|263:115|193:83,1,160,6|2,3:2|2:2,0:0:0:0:
143,22,60177,1,2,1:2:0:0:
23,148,60280,2,0,P|31:187|41:225,1,80,6|0,3:2|0:0,0:0:0:0:
285,94,60485,2,0,P|276:54|266:16,1,80,2|0,1:2|0:0,0:0:0:0:
102,277,60690,6,0,B|195:250|155:191|253:162,1,192,6|0,3:2|0:0,0:0:0:0:
285,94,60999,1,2,1:2:0:0:
304,97,61101,1,2,3:2:0:0:
489,326,61307,1,2,1:2:0:0:
427,384,61410,1,2,1:3:0:0:
353,346,61512,6,0,P|351:269|417:230,1,160,14|0,3:2|0:0,0:0:0:0:
429,236,61821,1,10,1:2:0:0:
442,243,61923,2,0,P|452:281|461:320,1,80,10|0,3:2|0:0,0:0:0:0:
254,384,62129,2,0,P|243:345|234:306,1,80,2|0,1:2|0:0,0:0:0:0:
485,137,62334,6,0,B|489:158|508:179|508:179|460:137|409:130,1,160,10|0,3:2|1:1,0:0:0:0:
355,66,62643,1,2,1:2:0:0:
362,49,62745,2,0,P|388:19|427:15,1,80,2|0,3:2|0:0,0:0:0:0:
442,243,62951,2,0,P|403:233|381:201,1,80,2|0,1:2|0:0,0:0:0:0:
199,101,63156,6,0,P|181:178|159:256,1,160,10|0,3:2|0:0,0:0:0:0:
193,325,63464,1,10,1:2:0:0:
258,258,63567,2,0,P|266:298|275:337,1,80,2|0,2:2|0:0,0:0:0:0:
70,151,63773,2,0,P|81:191|89:229,1,80,2|0,1:2|0:0,0:0:0:0:
343,276,63978,5,2,3:2:0:0:
299,0,64184,1,2,1:2:0:0:
71,152,64389,1,2,3:2:0:0:
299,0,64595,1,2,1:2:0:0:
370,42,64697,1,0,1:1:0:0:
404,119,64800,6,0,P|353:220|285:209,1,160,6|0,3:2|0:0,0:0:0:0:
252,173,65108,1,2,1:2:0:0:
249,154,65211,2,0,P|257:115|272:78,1,80,2|0,3:2|0:0,0:0:0:0:
468,285,65417,2,0,P|431:269|392:259,1,80,2|0,1:2|0:0,0:0:0:0:
272,78,65622,6,0,P|156:113|94:147,1,160,6|0,3:2|0:0,0:0:0:0:
47,176,65930,1,2,1:2:0:0:
38,163,66033,2,0,P|28:125|49:92,1,80,2|0,3:2|0:0,0:0:0:0:
272,78,66238,2,0,P|254:43|216:36,1,80,2|0,1:2|0:0,0:0:0:0:
74,247,66444,2,0,P|112:260|147:278,1,80,6|0,3:2|0:0,0:0:0:0:
309,384,66649,5,2,1:2:0:0:
396,368,66752,5,2,1:2:0:0:
453,312,66855,5,2,1:2:0:0:
471,244,66958,5,2,3:2:0:0:
464,183,67060,5,2,1:2:0:0:
435,140,67163,5,2,1:2:0:0:
394,120,67266,5,2,3:2:0:0:
353,128,67369,5,2,3:2:0:0:
329,152,67471,5,2,1:2:0:0:
323,181,67574,5,0,3:3:0:0:
327,197,67677,6,0,P|341:220|383:225,1,64,2|0,3:2|3:3,0:0:0:0:
512,154,67882,5,2,1:2:0:0:
480,127,67985,1,0,1:1:0:0:
410,149,68088,6,0,P|374:233|353:319,1,160,14|0,3:2|0:0,0:0:0:0:
285,335,68396,1,2,1:2:0:0:
209,357,68499,2,0,P|169:362|135:331,1,80,2|0,3:2|0:0,0:0:0:0:
300,229,68704,2,0,P|331:205|370:211,1,80,2|0,1:2|0:0,0:0:0:0:
485,383,68910,6,0,B|406:375|430:307|355:299,1,160,10|0,3:2|1:1,0:0:0:0:
300,229,69218,1,2,1:2:0:0:
209,357,69321,2,0,P|210:317|231:280,1,80,2|0,3:2|0:0,0:0:0:0:
238,144,69526,2,0,P|272:125|315:126,1,80,2|0,1:2|0:0,0:0:0:0:
152,206,69732,6,0,P|92:176|-8:158,1,160,2|0,3:2|0:0,0:0:0:0:
1,167,70040,1,2,1:2:0:0:
19,251,70143,2,0,P|51:236|76:196,1,80,2|0,3:2|0:0,0:0:0:0:
209,47,70348,2,0,P|180:58|146:93,1,80,2|0,1:2|0:0,0:0:0:0:
43,77,70554,6,0,P|29:57|-2:6,1,80,2|0,3:2|0:0,0:0:0:0:
289,111,70759,2,0,P|268:145|245:178,1,80,0|2,1:1|2:2,0:0:0:0:
79,333,70964,2,0,P|166:287|296:278,1,216,2|2,3:2|1:2,0:0:0:0:
396,307,71273,1,0,1:1:0:0:
336,361,71375,6,0,P|355:274|371:180,1,160,14|0,3:2|0:0,0:0:0:0:
432,165,71684,1,2,1:2:0:0:
441,163,71786,1,2,3:2:0:0:
281,275,71992,2,0,B|267:280|248:288|248:288|260:273|292:260,1,80,2|0,1:2|0:0,0:0:0:0:
499,110,72197,2,0,P|413:101|356:45,1,160,10|0,3:2|0:0,0:0:0:0:
289,22,72506,1,2,1:2:0:0:
293,12,72608,1,2,3:2:0:0:
200,219,72814,6,0,P|178:185|186:140,1,80,2|0,1:2|0:0,0:0:0:0:
293,12,73019,2,0,P|272:104|259:189,1,160,2|2,3:2|2:2,0:0:0:0:
306,236,73327,1,2,1:2:0:0:
404,117,73430,2,0,P|428:112|494:92,1,80,6|0,3:2|0:0,0:0:0:0:
190,29,73636,2,0,P|166:24|100:4,1,80,2|0,1:2|0:0,0:0:0:0:
39,213,73841,6,0,P|165:205|197:140,1,208,6|0,3:2|0:0,0:0:0:0:
134,98,74149,1,2,1:2:0:0:
129,89,74252,1,2,3:2:0:0:
307,1,74458,1,2,1:2:0:0:
382,24,74560,1,2,1:3:0:0:
394,103,74663,6,0,P|328:166|272:139,1,160,14|0,3:2|0:0,0:0:0:0:
269,132,74971,1,2,1:2:0:0:
271,122,75074,2,0,P|309:108|355:96,1,80,2|0,3:2|0:0,0:0:0:0:
493,252,75280,2,0,P|455:238|409:226,1,80,2|0,1:2|0:0,0:0:0:0:
214,356,75485,6,0,P|280:349|318:265,1,160,10|2,3:2|2:2,0:0:0:0:
276,206,75793,1,10,1:2:0:0:
265,204,75896,2,0,P|239:235|235:282,1,80,2|0,3:2|0:0,0:0:0:0:
415,239,76101,2,0,P|401:200|362:174,1,80,10|0,1:2|1:1,0:0:0:0:
217,110,76307,6,0,B|125:95|161:53|44:43,1,160,10|0,3:2|0:0,0:0:0:0:
9,101,76615,1,2,1:2:0:0:
40,174,76718,2,0,P|82:159|117:149,1,80,2|0,3:2|0:0,0:0:0:0:
299,44,76923,2,0,P|257:29|222:19,1,80,2|0,1:2|0:0,0:0:0:0:
143,234,77129,1,2,3:2:0:0:
337,198,77334,1,0,1:1:0:0:
222,19,77540,1,10,3:2:0:0:
337,198,77745,5,2,1:2:0:0:
303,271,77848,1,0,1:1:0:0:
223,258,77951,2,0,P|204:176|176:95,1,160,6|0,3:2|0:0,0:0:0:0:
132,40,78259,1,2,1:2:0:0:
120,44,78362,2,0,P|101:71|95:120,1,80,2|0,3:2|0:0,0:0:0:0:
161,314,78567,2,0,P|195:335|235:340,1,80,2|0,1:2|0:0,0:0:0:0:
147,206,78773,6,0,B|36:219|82:257|-21:262,1,160,6|0,3:2|0:0,0:0:0:0:
0,181,79081,1,2,1:2:0:0:
5,172,79184,2,0,P|14:140|23:93,1,80,2|0,3:2|0:0,0:0:0:0:
198,31,79389,2,0,P|207:63|216:110,1,80,2|0,1:2|0:0,0:0:0:0:
161,314,79595,5,6,3:2:0:0:
425,170,79800,5,0,1:1:0:0:
457,89,79903,1,0,1:1:0:0:
389,40,80006,2,0,L|338:57,3,53.3333333333333,0|0|0|0,3:3|0:0|0:0|1:1,0:0:0:0:
476,137,80314,1,0,1:1:0:0:
472,145,80417,1,0,3:3:0:0:
261,315,80622,5,0,1:1:0:0:
22,158,80827,1,0,3:3:0:0:
91,359,81033,5,0,1:1:0:0:
93,344,81136,1,0,1:1:0:0:
96,332,81238,1,6,3:2:0:0:
451,203,81855,5,2,1:2:0:0:
438,208,81958,1,0,1:1:0:0:
420,211,82060,1,6,3:2:0:0:
333,197,82369,1,0,3:3:0:0:
297,116,82677,1,2,3:2:0:0:
355,52,82882,6,0,P|403:76|457:89,1,104,2|0,3:2|0:0,0:0:0:0:
500,36,83191,1,0,0:0:0:0:
496,25,83293,5,2,2:2:0:0:
496,25,83910,1,2,2:2:0:0:
509,3,84526,6,0,P|486:25|454:35,2,64,2|2|2,2:2|2:2|2:2,0:0:0:0:
377,4,85143,1,2,2:2:0:0:
336,139,85348,1,2,2:2:0:0:
255,101,85554,2,0,P|237:159|277:207,1,128,2|2,2:2|2:2,0:0:0:0:
512,160,86170,2,0,P|467:116|393:98,1,128,2|0,2:2|0:0,0:0:0:0:
276,206,86786,1,2,2:2:0:0:
276,206,87197,5,2,2:2:0:0:
300,295,87403,1,2,2:2:0:0:
143,367,87608,5,2,2:2:0:0:
135,377,87711,1,2,2:2:0:0:
124,384,87814,2,0,P|150:337|231:327,1,128,2|2,2:2|2:2,0:0:0:0:
329,384,88430,1,2,2:2:0:0:
300,295,88636,1,2,2:2:0:0:
343,212,88841,1,2,2:2:0:0:
433,184,89047,2,0,L|442:234,1,32,2|0,2:2|0:0,0:0:0:0:
345,223,89252,6,0,P|303:181|317:111,1,128,2|2,2:2|2:2,0:0:0:0:
457,33,89869,1,2,2:2:0:0:
505,152,90074,1,2,2:2:0:0:
507,136,90177,1,2,2:2:0:0:
509,120,90280,2,0,P|442:116|366:92,1,128,2|2,2:2|2:2,0:0:0:0:
259,0,90896,5,2,2:2:0:0:
256,15,90999,1,0,0:0:0:0:
254,31,91101,2,0,P|205:12|173:11,1,72.0000000000001,2|0,3:2|0:0,0:0:0:0:
0,83,91512,1,2,3:2:0:0:
72,0,91718,2,0,P|93:30|95:71,1,72.0000000000001,2|0,2:2|3:3,0:0:0:0:
0,197,92129,6,0,B|29:168|29:168|70:173,1,72.0000000000001,2|0,2:2|3:3,0:0:0:0:
233,291,92540,1,2,2:2:0:0:
94,378,92745,2,0,P|99:330|107:294,1,72.0000000000001,0|2,3:3|2:2,0:0:0:0:
292,222,93156,1,2,3:2:0:0:
135,142,93362,2,0,L|140:181,1,36,2|0,2:2|0:0,0:0:0:0:
145,187,93567,6,0,P|209:153|225:74,1,144,0|2,3:3|3:2,0:0:0:0:
192,0,94184,1,2,2:2:0:0:
292,222,94389,5,2,3:2:0:0:
417,262,94595,1,2,2:2:0:0:
496,154,94800,1,0,3:3:0:0:
426,272,95006,5,2,2:2:0:0:
313,126,95211,1,2,3:2:0:0:
435,283,95417,1,2,3:2:0:0:
259,378,95622,1,2,3:2:0:0:
124,207,95827,2,0,P|166:144|240:158,1,160,6|2,3:2|3:2,0:0:0:0:
370,12,96444,1,2,1:2:0:0:
504,119,96649,6,0,L|499:147,2,26.6666666666667,2|0|0,1:2|0:0|0:0,0:0:0:0:
480,30,96855,2,0,P|443:63|397:73,1,80,2|2,3:2|3:2,0:0:0:0:
333,85,97163,1,0,1:1:0:0:
301,44,97266,1,2,3:2:0:0:
254,23,97369,1,0,1:1:0:0:
201,21,97471,1,0,3:3:0:0:
205,39,97574,1,0,3:3:0:0:
209,58,97677,5,6,3:2:0:0:
333,10,97882,1,2,2:2:0:0:
397,190,98088,1,2,1:2:0:0:
214,145,98293,1,2,2:2:0:0:
398,100,98499,1,2,3:2:0:0:
289,272,98704,2,0,P|250:261|211:251,1,80,2|0,3:2|1:1,0:0:0:0:
51,157,99115,1,2,2:2:0:0:
51,157,99218,1,0,0:0:0:0:
51,157,99321,6,0,P|45:78|108:36,1,160,2|0,3:2|1:1,0:0:0:0:
218,149,99937,1,2,2:2:0:0:
155,308,100143,1,0,3:3:0:0:
155,308,100245,1,0,0:0:0:0:
155,308,100348,1,2,3:2:0:0:
0,248,100554,1,2,1:2:0:0:
176,140,100759,1,2,2:2:0:0:
218,149,100862,1,0,0:0:0:0:
249,180,100964,6,0,P|261:218|268:257,1,80,2|2,3:2|2:2,0:0:0:0:
409,337,101375,1,2,1:2:0:0:
469,201,101581,1,2,2:2:0:0:
323,326,101786,1,2,3:2:0:0:
492,374,101992,1,2,3:2:0:0:
368,249,102197,1,2,1:2:0:0:
463,122,102403,5,2,2:2:0:0:
485,117,102506,1,0,0:0:0:0:
509,111,102608,1,0,3:3:0:0:
439,202,102814,1,2,2:2:0:0:
268,117,103019,1,0,1:1:0:0:
361,8,103225,1,0,0:0:0:0:
279,157,103430,5,2,3:2:0:0:
255,151,103533,1,0,0:0:0:0:
233,146,103636,1,0,3:3:0:0:
351,93,103841,1,2,1:2:0:0:
188,231,104047,1,2,3:2:0:0:
316,384,104252,6,0,P|334:309|282:252,1,160,6|2,3:2|1:2,0:0:0:0:
111,206,104869,2,0,P|72:216|35:231,1,80,2|0,2:2|3:3,0:0:0:0:
236,137,105280,2,0,P|246:98|261:56,1,80,2|0,3:2|1:1,0:0:0:0:
31,0,105691,1,2,2:2:0:0:
31,0,105793,1,0,0:0:0:0:
31,0,105896,6,0,P|21:45|4:101,1,80,2|2,3:2|2:2,0:0:0:0:
172,206,106307,1,2,1:2:0:0:
338,58,106512,1,2,2:2:0:0:
172,206,106718,5,0,3:3:0:0:
135,186,106821,1,0,3:3:0:0:
115,150,106923,1,0,1:1:0:0:
114,109,107026,1,0,1:1:0:0:
135,74,107129,5,2,3:2:0:0:
174,119,107232,1,0,3:3:0:0:
204,170,107334,1,2,1:2:0:0:
222,227,107437,1,0,1:1:0:0:
234,285,107540,1,6,3:2:0:0:
239,301,107951,5,0,3:3:0:0:
243,317,108362,5,2,1:2:0:0:
315,380,108567,1,6,2:2:0:0:
454,350,108773,1,2,3:2:0:0:
512,194,108978,1,6,3:2:0:0:
322,74,109184,5,0,0:0:0:0:
322,74,109286,1,0,0:0:0:0:
322,74,109389,2,0,P|338:36|351:-5,1,80,2|0,1:2|3:3,0:0:0:0:
422,40,109697,1,0,0:0:0:0:
422,40,109800,6,0,P|414:58|403:95,1,50,2|0,3:2|0:0,0:0:0:0:
275,178,110006,2,0,P|256:169|207:158,1,60,0|0,3:3|0:0,0:0:0:0:
48,56,110211,5,2,1:2:0:0:
85,17,110314,1,0,1:1:0:0:
138,27,110417,1,0,3:3:0:0:
39,260,110622,5,2,3:2:0:0:
0,223,110725,1,0,1:1:0:0:
10,170,110827,6,0,P|90:199|115:291,1,160,14|2,3:2|2:2,0:0:0:0:
115,346,111136,2,0,P|141:283|239:238,1,160,14|0,3:2|0:0,0:0:0:0:
275,178,111444,2,0,P|301:193|317:226,1,64,14|0,3:2|0:0,0:0:0:0:
199,370,111649,2,0,P|217:243|253:50,1,288,2|2,1:2|2:2,0:0:0:0:
344,38,112060,6,0,P|355:54|370:99,2,63.9999999999999,0|0|0,1:1|1:1|1:1,0:0:0:0:
450,99,112266,1,2,1:2:0:0:
455,112,112369,1,0,1:1:0:0:
454,128,112471,6,0,P|421:169|308:165,1,160,6|0,3:2|0:0,0:0:0:0:
243,95,112780,1,2,3:2:0:0:
245,85,112882,6,0,P|254:52|263:5,1,80,2|0,2:2|0:0,0:0:0:0:
111,86,113088,2,0,P|102:119|93:166,1,80,2|0,3:2|3:3,0:0:0:0:
272,265,113293,1,2,1:2:0:0:
229,213,113396,1,0,1:1:0:0:
162,201,113499,1,0,1:1:0:0:
107,239,113601,1,0,1:1:0:0:
93,305,113704,2,0,P|102:334|113:373,2,63.9999999999999,0|0|0,1:1|1:1|1:1,0:0:0:0:
298,356,113910,5,2,1:2:0:0:
259,365,114012,1,0,1:1:0:0:
221,349,114115,2,0,P|197:275|149:180,1,160,14|2,3:2|2:2,0:0:0:0:
0,239,114423,2,0,P|22:305|105:310,1,160,14|0,3:2|0:0,0:0:0:0:
103,311,114732,2,0,P|136:293|172:282,1,64,14|0,3:2|0:0,0:0:0:0:
353,171,114937,2,0,B|267:200|230:124|244:116|186:35|79:96,1,288,2|0,1:2|0:0,0:0:0:0:
32,139,115348,6,0,P|22:120|17:72,2,63.9999999999999,0|0|0,1:1|1:1|1:1,0:0:0:0:
109,28,115554,1,2,1:2:0:0:
105,56,115656,1,0,1:1:0:0:
102,84,115759,6,0,P|183:152|297:103,1,240,6|2,3:2|2:2,0:0:0:0:
429,191,116170,6,0,P|354:230|248:153,1,216,2|0,3:2|0:0,0:0:0:0:
150,315,116581,6,0,P|219:329|294:245,1,192,2|0,3:2|0:0,0:0:0:0:
252,165,116992,2,0,P|229:174|208:203,1,56,2|0,3:2|0:0,0:0:0:0:
348,360,117197,5,6,3:2:0:0:
486,259,117403,1,2,2:2:0:0:
324,137,117608,2,0,P|302:196|293:251,1,96,2|2,3:2|1:2,0:0:0:0:
58,211,118019,5,2,3:2:0:0:
207,102,118225,1,2,3:2:0:0:
21,10,118430,2,0,P|43:69|52:124,1,96,2|2,3:2|1:2,0:0:0:0:
142,298,118841,6,0,B|167:177|191:221|217:94,1,192,6|2,3:2|3:2,0:0:0:0:
149,29,119458,1,2,1:2:0:0:
314,171,119663,1,2,3:2:0:0:
476,63,119869,1,2,1:2:0:0:
473,49,119971,1,0,1:1:0:0:
470,34,120074,1,0,3:3:0:0:
270,251,120280,5,6,1:2:0:0:
47,118,120485,1,2,3:2:0:0:
101,261,120690,6,0,B|135:258|135:258|164:231,1,64,6|0,1:2|0:0,0:0:0:0:
187,159,120896,2,0,B|167:130|167:130|129:118,1,64,2|0,3:2|0:0,0:0:0:0:
170,384,121101,2,0,L|183:321,1,64,2|0,1:2|0:0,0:0:0:0:
58,126,121307,2,0,B|43:157|43:157|52:196,1,64,2|0,3:2|0:0,0:0:0:0:
251,82,121512,2,0,L|265:9,1,64,2|0,1:2|0:0,0:0:0:0:
352,287,121718,6,0,B|411:288|470:230|470:230|443:275|465:333,1,240,2|0,3:2|0:0,0:0:0:0:
394,367,122129,1,6,3:2:0:0:
205,162,122540,6,0,P|204:165|200:173,1,8,0|0,3:3|0:0,0:0:0:0:
242,235,122745,6,0,P|245:234|257:233,1,16,2|0,3:2|0:0,0:0:0:0:
307,162,122951,6,0,P|302:156|292:141,1,24,2|0,3:2|0:0,0:0:0:0:
130,247,123156,6,0,P|154:244|175:235,1,32,0|0,3:3|0:0,0:0:0:0:
364,268,123362,6,0,P|349:248|331:235,1,40,2|0,3:2|0:0,0:0:0:0:
251,45,123567,6,0,P|241:67|238:89,1,48,2|0,3:2|0:0,0:0:0:0:
270,358,123773,6,0,P|280:331|284:305,1,56,2|0,3:2|0:0,0:0:0:0:
181,149,123978,6,0,B|161:109|126:131|99:118|99:118|121:172|180:158,1,192,10|0,3:2|0:0,0:0:0:0:
308,159,124286,6,0,B|352:161|351:120|375:103|375:103|318:95|300:153,1,192,10|0,3:2|0:0,0:0:0:0:
242,235,124595,6,0,B|229:253|247:263|249:278|249:278|266:255|246:233,1,95.9999999999999,10|0,3:2|0:0,0:0:0:0:
245,82,124800,6,0,B|257:63|239:53|237:38|237:38|220:61|240:83,1,95.9999999999999,2|0,1:2|0:0,0:0:0:0:
375,238,125006,5,2,1:2:0:0:
420,300,125108,1,0,1:1:0:0:
494,275,125211,1,2,3:2:0:0:
494,199,125314,1,0,1:1:0:0:
420,175,125417,1,2,1:2:0:0:
420,175,125622,6,0,P|447:237|466:335,1,160,14|2,3:2|2:2,0:0:0:0:
407,384,125930,1,2,1:2:0:0:
332,342,126033,2,0,P|300:325|251:320,1,80,2|0,3:2|0:0,0:0:0:0:
417,159,126238,2,0,P|456:154|491:136,1,80,2|0,1:2|0:0,0:0:0:0:
346,236,126444,6,0,B|344:153|287:173|286:92,1,160,10|2,3:2|1:2,0:0:0:0:
364,2,126752,1,2,1:2:0:0:
431,43,126855,2,0,P|415:74|364:84,1,80,2|0,3:2|0:0,0:0:0:0:
261,226,127060,2,0,P|226:227|191:188,1,80,2|0,1:2|0:0,0:0:0:0:
0,45,127266,6,0,B|42:36|58:-9|58:-9|51:39|92:69,1,160,2|2,3:2|2:2,0:0:0:0:
98,75,127574,1,2,1:2:0:0:
24,125,127677,2,0,P|6:164|10:209,1,80,2|0,3:2|0:0,0:0:0:0:
178,312,127882,2,0,P|212:331|235:363,1,80,2|0,1:2|0:0,0:0:0:0:
99,248,128088,2,0,P|74:287|70:326,1,80,2|0,3:2|0:0,0:0:0:0:
321,384,128293,2,0,P|346:345|350:306,1,80,2|2,1:2|2:2,0:0:0:0:
104,164,128499,6,0,P|85:257|202:304,1,216,2|2,3:2|1:2,0:0:0:0:
287,230,128807,1,0,1:1:0:0:
263,219,128910,6,0,P|247:139|245:51,1,160,14|0,3:2|0:0,0:0:0:0:
312,4,129218,1,2,1:2:0:0:
332,0,129321,1,2,3:2:0:0:
161,115,129526,6,0,P|143:83|158:35,1,80,2|0,1:2|0:0,0:0:0:0:
337,90,129732,6,0,B|415:112|381:161|463:185,1,160,2|0,3:2|0:0,0:0:0:0:
502,109,130040,1,2,1:2:0:0:
491,88,130143,1,2,3:2:0:0:
256,211,130348,2,0,P|297:201|322:174,1,80,2|0,1:2|0:0,0:0:0:0:
425,12,130554,2,0,P|406:98|398:179,1,160,6|2,3:2|2:2,0:0:0:0:
473,194,130862,1,2,1:2:0:0:
274,287,130964,6,0,P|269:239|251:205,1,80,6|0,3:2|0:0,0:0:0:0:
360,107,131170,2,0,P|396:123|436:126,1,80,2|0,1:2|0:0,0:0:0:0:
512,384,131375,6,0,P|435:294|358:271,1,192,6|0,3:2|0:0,0:0:0:0:
290,304,131684,1,2,1:2:0:0:
274,309,131786,1,2,3:2:0:0:
0,202,131992,5,2,1:2:0:0:
61,162,132095,1,2,1:2:0:0:
122,195,132197,2,0,P|121:257|43:304,1,160,14|0,3:2|0:0,0:0:0:0:
28,302,132506,1,10,1:2:0:0:
30,287,132608,2,0,P|89:283|118:311,1,80,10|0,3:2|0:0,0:0:0:0:
290,304,132814,2,0,P|263:357|225:368,1,80,2|0,1:2|0:0,0:0:0:0:
223,229,133019,2,0,P|234:146|253:50,1,160,10|2,3:2|1:2,0:0:0:0:
289,0,133327,1,2,1:2:0:0:
367,13,133430,6,0,P|354:58|306:72,1,80,2|0,3:2|0:0,0:0:0:0:
164,76,133636,2,0,P|131:42|143:-6,1,80,2|0,1:2|0:0,0:0:0:0:
416,106,133841,6,0,B|432:114|462:115|462:115|380:119|344:167,1,160,10|0,3:2|0:0,0:0:0:0:
307,215,134149,1,10,1:2:0:0:
361,291,134252,2,0,P|387:324|398:372,1,80,2|0,2:2|0:0,0:0:0:0:
512,201,134458,2,0,P|472:207|434:198,1,80,2|0,1:2|0:0,0:0:0:0:
365,13,134663,1,2,3:2:0:0:
456,286,134869,1,2,1:2:0:0:
174,228,135074,1,2,3:2:0:0:
365,13,135280,5,2,1:2:0:0:
414,81,135382,1,0,1:1:0:0:
485,38,135485,2,0,P|403:48|296:163,1,240,6|2,3:2|1:2,0:0:0:0:
297,157,135896,2,0,P|328:134|334:96,1,80,2|0,3:2|0:0,0:0:0:0:
204,46,136101,2,0,P|232:19|270:22,1,80,2|0,1:2|0:0,0:0:0:0:
471,157,136307,2,0,P|493:265|392:312,1,240,6|2,3:2|1:2,0:0:0:0:
391,312,136718,6,0,P|407:275|440:254,1,80,2|0,3:2|0:0,0:0:0:0:
254,232,136923,2,0,P|266:194|287:159,1,80,2|0,1:2|0:0,0:0:0:0:
25,359,137129,2,0,P|15:320|0:283,1,80,6|0,3:2|0:0,0:0:0:0:
207,126,137334,5,2,1:2:0:0:
189,38,137437,5,2,1:2:0:0:
109,10,137540,5,2,1:2:0:0:
34,39,137643,5,2,3:2:0:0:
16,108,137745,5,2,1:2:0:0:
42,166,137848,5,2,1:2:0:0:
93,188,137951,5,2,3:2:0:0:
141,184,138054,5,2,3:2:0:0:
174,163,138156,5,2,1:2:0:0:
205,160,138259,5,0,3:3:0:0:
225,171,138362,6,0,P|252:211|247:256,1,80,2|0,3:2|3:3,0:0:0:0:
0,384,138567,5,2,1:2:0:0:
67,324,138670,1,0,1:1:0:0:
141,354,138773,6,0,P|42:355|14:260,1,208,14|0,3:2|0:0,0:0:0:0:
64,193,139081,1,2,1:2:0:0:
141,184,139184,2,0,P|164:214|174:262,1,80,2|0,3:2|0:0,0:0:0:0:
11,124,139389,2,0,P|20:85|44:53,1,80,2|0,1:2|0:0,0:0:0:0:
302,143,139595,6,0,P|225:152|190:80,1,160,10|2,3:2|1:2,0:0:0:0:
251,29,139903,1,2,1:2:0:0:
354,203,140006,2,0,P|375:179|380:125,1,80,2|0,3:2|0:0,0:0:0:0:
142,23,140211,2,0,P|121:47|116:101,1,80,2|0,1:2|0:0,0:0:0:0:
280,270,140417,6,0,P|342:246|453:227,1,160,2|0,3:2|0:0,0:0:0:0:
446,228,140725,1,2,1:2:0:0:
493,332,140827,2,0,P|473:320|414:304,1,80,2|0,3:2|0:0,0:0:0:0:
279,175,141033,2,0,P|299:187|358:203,1,80,2|0,1:2|0:0,0:0:0:0:
445,133,141238,6,0,P|464:108|466:59,1,80,2|0,3:2|0:0,0:0:0:0:
185,160,141444,2,0,P|184:199|206:232,1,80,0|2,1:1|2:2,0:0:0:0:
348,113,141649,6,0,B|235:101|283:22|163:1,1,208,2|2,3:2|1:2,0:0:0:0:
8,109,141958,1,0,1:1:0:0:
32,32,142060,6,0,P|62:123|78:210,1,160,14|0,3:2|0:0,0:0:0:0:
27,242,142369,1,2,1:2:0:0:
20,249,142471,1,2,3:2:0:0:
107,118,142677,2,0,B|125:103|132:86|132:86|134:104|113:127,1,80,2|0,1:2|0:0,0:0:0:0:
10,246,142882,6,0,P|72:209|176:206,1,160,10|0,3:2|0:0,0:0:0:0:
217,255,143191,1,2,1:2:0:0:
222,265,143293,1,2,3:2:0:0:
190,26,143499,6,0,P|206:61|209:106,1,80,2|0,1:2|0:0,0:0:0:0:
290,324,143704,2,0,P|262:246|258:164,1,160,2|2,3:2|2:2,0:0:0:0:
312,109,144012,1,2,1:2:0:0:
410,201,144115,2,0,P|378:225|335:224,1,80,6|0,3:2|0:0,0:0:0:0:
300,32,144321,2,0,P|339:32|370:56,1,80,2|0,1:2|0:0,0:0:0:0:
217,255,144526,6,0,P|162:219|13:190,1,208,6|0,3:2|0:0,0:0:0:0:
2,260,144834,1,2,1:2:0:0:
1,267,144937,1,2,3:2:0:0:
192,138,145143,1,2,1:2:0:0:
227,71,145245,1,2,1:3:0:0:
162,21,145348,6,0,P|75:56|86:112,1,160,14|0,3:2|0:0,0:0:0:0:
94,119,145656,1,2,1:2:0:0:
103,125,145759,2,0,P|109:95|109:43,1,80,2|0,3:2|0:0,0:0:0:0:
274,167,145964,2,0,P|243:207|197:219,1,80,2|0,1:2|0:0,0:0:0:0:
1,267,146170,6,0,B|93:282|57:324|174:334,1,160,10|2,3:2|2:2,0:0:0:0:
208,369,146478,1,10,1:2:0:0:
216,373,146581,2,0,P|259:359|308:346,1,80,2|0,3:2|0:0,0:0:0:0:
68,234,146786,2,0,P|111:220|160:207,1,80,10|0,1:2|1:1,0:0:0:0:
196,50,146992,6,0,P|277:37|366:10,1,160,10|0,3:2|0:0,0:0:0:0:
422,49,147300,1,2,1:2:0:0:
479,104,147403,2,0,P|485:149|461:178,1,80,2|0,3:2|0:0,0:0:0:0:
178,134,147608,2,0,P|136:116|122:81,1,80,2|0,1:2|0:0,0:0:0:0:
261,11,147814,5,2,3:2:0:0:
304,259,148019,1,0,1:1:0:0:
61,158,148225,1,10,3:2:0:0:
304,259,148430,5,2,1:2:0:0:
348,319,148533,1,0,1:1:0:0:
298,378,148636,2,0,P|232:377|201:298,1,160,6|0,3:2|0:0,0:0:0:0:
172,224,148944,1,2,1:2:0:0:
177,214,149047,2,0,P|222:207|258:195,1,80,2|0,3:2|0:0,0:0:0:0:
425,336,149252,2,0,P|386:324|347:318,1,80,2|0,1:2|0:0,0:0:0:0:
170,136,149458,6,0,B|262:121|226:79|343:69,1,160,6|0,3:2|0:0,0:0:0:0:
381,112,149766,1,2,1:2:0:0:
388,117,149869,2,0,P|398:160|411:199,1,80,2|0,3:2|0:0,0:0:0:0:
271,363,150074,2,0,P|263:325|250:286,1,80,2|0,1:2|0:0,0:0:0:0:
89,90,150280,5,6,3:2:0:0:
251,287,150485,5,0,1:1:0:0:
271,205,150588,1,0,1:1:0:0:
209,156,150691,2,0,L|163:169,3,47.9999985351563,0|0|0|0,3:3|0:0|0:0|1:0,0:0:0:0:
297,85,150999,1,0,1:1:0:0:
306,86,151101,1,0,3:3:0:0:
144,322,151307,5,0,1:1:0:0:
352,181,151512,1,2,3:2:0:0:
145,36,151718,1,2,1:2:0:0:
67,57,151821,1,0,1:1:0:0:
37,129,151923,6,0,P|86:205|178:181,1,192,14|0,3:2|0:0,0:0:0:0:
321,136,152232,1,0,1:1:0:0:
254,79,152334,2,0,P|245:109|237:140,1,64,2|0,3:2|0:0,0:0:0:0:
90,294,152540,6,0,B|86:318|58:342|58:342|134:292|187:281,1,192,6|0,3:2|0:0,0:0:0:0:
214,213,152951,1,2,3:2:0:0:
255,224,153054,1,2,2:2:0:0:
307,275,153156,1,2,3:2:0:0:
306,356,153259,1,2,2:2:0:0:
215,382,153362,6,0,P|212:321|239:300,1,95.9999999999999,6|0,3:2|0:0,0:0:0:0:
404,150,153567,2,0,P|509:221|470:298,1,228,2|0,2:2|0:0,0:0:0:0:
448,368,153978,2,0,P|418:343|383:331,1,76,2|0,1:2|0:0,0:0:0:0:
228,116,154184,5,2,3:2:0:0:
145,244,154389,2,0,P|136:213|125:183,1,64,0|0,1:1|0:0,0:0:0:0:
216,72,154595,5,0,3:3:0:0:
65,272,154800,2,0,P|56:241|45:211,1,64,2|0,1:2|0:0,0:0:0:0:
237,36,155006,5,2,1:2:0:0:
308,59,155108,1,0,1:1:0:0:
318,102,155211,1,6,3:2:0:0:
148,338,155417,5,2,1:2:0:0:
224,359,155519,1,2,1:2:0:0:
272,296,155622,1,2,3:2:0:0:
59,114,155827,5,6,3:2:0:0:
1,169,155930,1,2,2:2:0:0:
33,242,156033,1,10,2:2:0:0:
321,128,156238,5,2,3:2:0:0:
272,59,156341,1,0,0:0:0:0:
195,81,156444,2,0,B|185:117|185:117|179:143,1,64,2|0,1:2|0:0,0:0:0:0:
276,292,156649,6,0,P|391:236|473:206,1,192,6|0,3:2|0:0,0:0:0:0:
488,146,157060,5,2,3:2:0:0:
458,78,157163,1,2,2:2:0:0:
400,46,157266,1,2,1:2:0:0:
344,53,157369,1,2,3:2:0:0:
309,86,157471,1,2,3:2:0:0:
293,130,157574,1,6,1:2:0:0:
301,168,157677,1,2,3:2:0:0:
291,211,157780,1,2,1:2:0:0:
260,254,157882,1,2,1:2:0:0:
203,282,157985,1,2,1:2:0:0:
128,274,158088,1,2,1:2:0:0:
57,232,158191,1,2,1:2:0:0:
21,151,158293,1,2,1:2:0:0:
36,63,158396,1,2,1:2:0:0:
118,18,158499,6,0,P|218:64|192:164,1,192,6|2,3:2|2:2,0:0:0:0:
353,240,158807,1,0,1:1:0:0:
353,240,158910,2,0,P|310:218|265:204,1,95.9999999999999,2|0,3:2|0:0,0:0:0:0:
253,45,159115,2,0,P|231:87|216:133,1,95.9999999999999,2|0,1:2|0:0,0:0:0:0:
96,266,159321,6,0,P|71:173|37:83,1,192,2|2,3:2|2:2,0:0:0:0:
86,18,159629,1,0,1:1:0:0:
86,18,159732,2,0,P|131:10|163:43,1,95.9999999999999,2|0,3:2|0:0,0:0:0:0:
321,255,159937,2,0,P|351:220|340:175,1,95.9999999999999,2|0,1:2|0:0,0:0:0:0:
482,37,160143,6,0,P|390:66|303:106,1,192,2|2,3:2|2:2,0:0:0:0:
247,181,160451,1,0,1:1:0:0:
247,181,160554,2,0,P|269:223|284:269,1,95.9999970703126,2|0,3:2|0:0,0:0:0:0:
370,377,160759,2,0,P|404:344|411:297,1,95.9999999999999,2|0,1:2|0:0,0:0:0:0:
432,163,160964,2,0,P|479:170|512:205,1,95.9999999999999,2|0,3:2|0:0,0:0:0:0:
259,367,161170,5,2,1:2:0:0:
511,203,161375,1,2,1:2:0:0:
259,367,161581,5,2,3:2:0:0:
168,336,161684,1,0,3:3:0:0:
165,246,161786,2,0,P|252:222|311:292,1,192,6|2,3:2|2:2,0:0:0:0:
259,367,162095,1,0,1:1:0:0:
259,367,162197,2,0,P|214:348|168:336,1,95.9999999999999,2|0,3:2|0:0,0:0:0:0:
84,201,162403,2,0,P|39:219|0:245,1,95.9999999999999,2|0,1:2|0:0,0:0:0:0:
281,151,162608,6,0,B|336:143|352:94|352:94|336:143|376:180,1,192,6|2,3:2|2:2,0:0:0:0:
456,216,162917,1,0,1:1:0:0:
456,216,163019,2,0,P|492:173|478:125,1,95.9999999999999,2|0,3:2|0:0,0:0:0:0:
239,49,163225,2,0,P|202:91|216:139,1,95.9999999999999,2|0,1:2|0:0,0:0:0:0:
121,310,163430,6,0,P|207:269|300:246,1,192,2|0,3:2|0:0,0:0:0:0:
407,115,163738,1,2,1:3:0:0:
403,94,163841,6,0,B|404:62|367:30|251:46|363:138|285:183|233:182,1,216,10|0,3:2|1:1,0:0:0:0:
312,336,164149,1,0,1:1:0:0:
324,340,164252,2,0,B|347:352|354:378|354:378|357:333|327:306|279:343|246:324|236:281,1,216,10|0,3:2|0:0,0:0:0:0:
165,229,164526,2,0,B|175:180|248:225|246:285|186:323|139:327|132:242|69:301|48:346,1,288,2|2,2:2|2:2,0:0:0:0:
50,341,164869,2,0,P|44:300|74:272,1,84,2|2,3:2|3:2,0:0:0:0:
378,123,165074,6,0,B|425:134|437:86|437:86|389:74|378:123,1,160,14|0,3:2|0:0,0:0:0:0:
246,268,165382,6,0,B|200:286|219:332|219:332|264:313|246:268,1,160,2|0,2:2|0:0,0:0:0:0:
265,71,165691,6,0,B|290:29|248:3|248:3|222:44|265:71,1,160,10|0,2:2|0:0,0:0:0:0:
352,235,165896,6,0,B|397:232|399:276|399:276|354:278|352:235,1,144,6|0,3:2|0:0,0:0:0:0:
364,124,166204,6,0,B|376:81|418:92|418:92|407:135|364:124,1,144,2|0,2:2|0:0,0:0:0:0:
192,162,166512,6,0,B|157:190|130:156|130:156|164:128|192:162,1,144,10|0,2:2|0:0,0:0:0:0:
256,249,166718,6,0,B|270:284|236:297|236:297|222:262|256:249,1,120,6|0,3:2|0:0,0:0:0:0:
271,101,167026,6,0,B|291:70|259:50|259:50|239:81|271:101,1,120,2|0,2:2|0:0,0:0:0:0:
340,230,167334,6,0,B|341:266|379:264|379:264|377:228|340:230,1,120,10|0,2:2|0:0,0:0:0:0:
284,176,167540,5,6,3:2:0:0:
88,384,167951,5,2,2:2:0:0:
8,366,168054,1,2,2:2:0:0:
0,287,168156,1,6,3:2:0:0:
74,255,168259,1,2,2:2:0:0:
126,313,168362,1,6,3:2:0:0:
471,241,168978,5,0,1:1:0:0:
392,216,169081,1,0,1:1:0:0:
499,163,169184,1,6,3:2:0:0:
28,174,169800,5,0,1:1:0:0:
109,158,169903,1,0,1:1:0:0:
1,95,170006,1,6,3:2:0:0:
452,92,170622,5,0,1:1:0:0:
375,71,170725,1,0,1:1:0:0:
479,15,170827,1,6,3:2:0:0:
145,192,171649,6,0,L|127:210,2,15.9999995117188,10|2|2,2:2|2:2|2:2,0:0:0:0:
292,384,173293,6,0,P|283:342|263:269,1,96,10|2,2:2|2:2,0:0:0:0:
264,280,173704,1,2,2:2:0:0:
196,365,173910,1,2,2:2:0:0:
360,274,174115,5,2,2:2:0:0:
214,191,174321,2,0,P|180:201|158:292,1,128,2|2,2:2|2:2,0:0:0:0:
193,354,174834,1,2,2:2:0:0:
196,365,174937,6,0,P|150:329|71:320,1,128,10|2,2:2|2:2,0:0:0:0:
301,203,175759,6,0,P|363:194|414:156,1,128,2|10,2:2|2:2,0:0:0:0:
187,9,176581,5,2,2:2:0:0:
182,20,176786,1,2,2:2:0:0:
127,98,176992,5,2,2:2:0:0:
264,33,177197,1,2,2:2:0:0:
331,121,177403,5,2,2:2:0:0:
102,25,177608,2,0,P|61:35|32:44,1,64,10|2,2:2|2:2,0:0:0:0:
5,103,178122,1,2,2:2:0:0:
1,112,178225,5,10,2:2:0:0:
143,194,178430,1,0,0:0:0:0:
199,134,178636,2,0,P|210:93|225:52,1,64,2|0,2:2|0:0,0:0:0:0:
309,34,178944,6,0,P|307:45|303:58,1,16,2|2,2:2|2:2,0:0:0:0:
301,66,179047,2,0,P|357:53|406:49,1,96,2|0,2:2|0:0,0:0:0:0:
495,160,179458,5,2,2:2:0:0:
473,149,179560,5,2,2:2:0:0:
427,143,179663,5,2,2:2:0:0:
359,170,179766,5,2,2:2:0:0:
321,238,179869,6,0,B|336:290|350:357,2,96,2|2|2,2:2|2:2|2:2,0:0:0:0:
273,174,180691,1,2,2:2:0:0:
512,320,180896,6,0,B|437:309|475:267|386:258,1,128,10|2,2:2|2:2,0:0:0:0:
331,227,181410,1,2,2:2:0:0:
321,238,181512,2,0,P|280:250|253:252,1,64,10|0,2:2|0:0,0:0:0:0:
148,196,181923,5,2,2:2:0:0:
148,196,182129,1,2,2:2:0:0:
81,268,182334,2,0,P|92:305|99:350,1,64,10|0,2:2|0:0,0:0:0:0:
97,329,182643,1,2,2:2:0:0:
97,329,182745,5,0,0:0:0:0:
163,182,182951,1,2,2:2:0:0:
12,226,183156,6,0,P|25:172|39:82,1,128,2|2,2:2|2:2,0:0:0:0:
274,122,183773,1,2,2:2:0:0:
268,105,183875,1,2,2:2:0:0:
258,92,183978,2,0,P|222:71|177:71,1,64,10|0,2:2|0:0,0:0:0:0:
135,116,184286,2,0,P|109:135|78:142,1,64,2|0,2:2|0:0,0:0:0:0:
11,101,184595,1,2,2:2:0:0:
219,175,184800,5,2,2:1:0:0:
113,280,185006,5,2,2:2:0:0:
57,220,185108,5,2,2:2:0:0:
78,141,185211,5,10,2:2:0:0:
157,127,185314,5,10,2:2:0:0:
219,175,185417,5,2,2:2:0:0:
272,229,185519,5,2,2:2:0:0:
340,223,185622,5,2,2:2:0:0:
383,180,185725,5,2,2:2:0:0:
390,132,185827,5,2,2:2:0:0:
370,98,185930,5,2,2:2:0:0:
344,84,186033,5,2,2:2:0:0:
321,84,186136,5,2,2:2:0:0:
307,92,186238,5,2,2:2:0:0:
299,102,186341,5,0,0:0:0:0:
297,111,186444,2,0,L|403:132,1,96,2|2,2:2|2:2,0:0:0:0:
412,162,186855,1,2,2:2:0:0:
178,132,187060,1,2,2:2:0:0:
227,198,187266,2,0,P|266:196|306:196,1,64,2|10,2:2|2:2,0:0:0:0:
325,216,187574,1,0,0:0:0:0:
94,249,187882,1,2,2:2:0:0:
141,324,188088,2,0,P|197:307|254:293,1,96,2|0,2:2|0:0,0:0:0:0:
264,308,188499,1,2,2:2:0:0:
76,380,188704,5,0,0:0:0:0:
1,345,188910,1,2,2:2:0:0:
12,263,189115,1,2,2:2:0:0:
94,249,189321,1,2,2:2:0:0:
143,325,189526,6,0,L|160:332,2,16,2|0|0,2:2|0:0|0:0,0:0:0:0:
234,383,189732,2,0,P|244:323|291:268,1,128,2|2,2:2|2:2,0:0:0:0:
458,195,190348,1,2,2:2:0:0:
512,264,190554,2,0,P|455:285|383:272,1,128,2|0,2:2|0:0,0:0:0:0:
245,162,191170,1,2,2:2:0:0:
270,83,191375,2,0,P|316:121|341:189,1,128,2|2,2:2|2:2,0:0:0:0:
232,279,191992,1,0,0:0:0:0:
168,210,192095,2,0,L|173:183,1,16,2|2,2:2|2:2,0:0:0:0:
181,205,192197,6,0,B|100:199|125:248|55:249,1,128,2|2,2:2|2:2,0:0:0:0:
49,243,192711,1,2,2:2:0:0:
23,221,192814,1,2,2:2:0:0:
7,178,192917,1,2,2:2:0:0:
19,125,193019,6,0,P|51:132|70:160,1,64,2|0,2:2|0:0,0:0:0:0:
127,233,193327,1,2,2:2:0:0:
136,242,193430,2,0,P|152:213|185:204,1,64,2|2,2:2|2:2,0:0:0:0:
283,166,193841,1,2,2:2:0:0:
283,166,194047,6,0,P|272:153|272:136,1,32,2|0,2:2|0:0,0:0:0:0:
295,54,194252,2,0,P|279:60|264:54,1,32,2|0,2:2|0:0,0:0:0:0:
192,7,194458,2,0,P|193:23|183:36,1,32,2|0,2:2|0:0,0:0:0:0:
115,90,194663,2,0,P|148:97|168:126,1,64,2|0,2:2|0:0,0:0:0:0:
191,193,194971,5,0,0:0:0:0:
192,206,195074,1,10,2:2:0:0:
253,272,195280,1,0,0:0:0:0:
341,283,195485,1,10,2:2:0:0:
404,228,195691,1,0,0:0:0:0:
489,224,195896,1,2,2:2:0:0:
489,224,196101,1,2,2:2:0:0:
484,384,196307,5,2,2:2:0:0:
438,369,196512,1,2,2:2:0:0:
438,321,196718,1,2,2:2:0:0:
484,306,196923,1,2,2:2:0:0:
512,345,197129,5,2,2:2:0:0:
484,299,197334,1,2,2:2:0:0:
433,315,197540,1,2,2:2:0:0:
433,368,197745,1,2,2:2:0:0:
484,384,197951,1,2,2:2:0:0:
256,192,198362,5,2,2:2:0:0:
256,192,198978,5,8,2:3:0:0:
202,267,199184,1,2,3:2:0:0:
170,257,199286,1,0,3:3:0:0:
155,216,199389,1,2,3:2:0:0:
187,173,199492,1,0,3:3:0:0:
256,192,199595,6,0,L|261:165,30,20,6|0|2|0|2|0|2|0|2|0|2|0|2|0|2|0|2|0|2|0|2|0|2|0|10|0|10|0|10|0|10,3:2|1:1|1:2|1:1|1:2|1:1|1:2|1:1|1:2|1:1|1:2|1:1|1:2|1:1|1:2|1:1|1:2|1:1|1:2|1:1|1:2|1:1|1:2|1:1|1:2|1:1|1:2|1:1|1:2|1:1|1:2,0:0:0:0:
301,264,201238,6,0,B|301:271|303:280|315:304|344:304|363:335|349:366|322:375|293:363|283:324|308:306|303:280|298:275|290:270,1,192,6|0,3:2|0:0,0:0:0:0:
307,105,201547,6,0,B|313:104|320:98|334:75|320:50|337:18|371:15|393:34|397:65|368:93|340:80|320:98|318:104|318:115,1,192,2|0,3:2|0:0,0:0:0:0:
167,177,201855,6,0,B|163:174|157:172|137:171|126:190|99:191|84:170|89:149|107:135|136:143|138:166|157:172|162:171|169:168,1,144,2|0,3:2|0:0,0:0:0:0:
256,192,202060,5,2,1:2:0:0:
69,57,202266,6,0,B|75:33|75:33|86:24|86:24|93:-1,2,64,2|2|2,2:2|2:2|2:2,0:0:0:0:
0,87,202882,6,0,B|43:45|43:45|20:99|20:99|38:169,1,192,6|0,2:2|0:0,0:0:0:0:
69,191,203191,2,0,B|87:162|87:162|78:128|78:128|64:151,1,95.9999999999999,2|2,2:2|2:2,0:0:0:0:
467,329,203499,6,0,B|416:337|416:337|457:309|457:309|479:247,1,168,6|0,3:2|0:0,0:0:0:0:
433,168,203910,5,0,1:1:0:0:
348,152,204012,1,0,1:1:0:0:
286,202,204115,1,2,3:2:0:0:
255,268,204218,1,0,1:1:0:0:
222,303,204321,1,2,1:2:0:0:
185,313,204423,1,0,0:0:0:0:
160,304,204526,1,2,3:2:0:0:
47,93,204732,6,0,B|-1:59|0:12|0:12|24:20|36:-1|36:-1|68:39|48:91,1,240,6|0,3:2|0:0,0:0:0:0:
77,285,205040,6,0,B|74:344|32:367|32:367|27:342|2:342|2:342|21:294|76:285,1,240,6|0,3:2|0:0,0:0:0:0:
229,162,205348,6,0,B|283:135|323:160|323:160|304:177|316:198|316:198|265:206|229:162,1,240,6|0,3:2|0:0,0:0:0:0:
118,183,205759,6,0,L|123:162,7,16,10|0|0|0|0|0|0|0,3:2|0:0|0:0|0:0|0:0|0:0|0:0|0:0,0:0:0:0:
117,198,206170,6,0,P|187:155|266:131,1,160,14|0,3:2|0:0,0:0:0:0:
312,64,206478,1,2,1:2:0:0:
308,49,206581,1,2,3:2:0:0:
223,231,206786,2,0,P|260:244|295:263,1,80,2|0,1:2|0:0,0:0:0:0:
491,324,206992,6,0,P|504:249|448:197,1,160,2|0,3:2|0:0,0:0:0:0:
382,249,207300,1,2,1:2:0:0:
386,266,207403,1,2,3:2:0:0:
512,80,207608,2,0,P|476:98|439:112,1,80,2|0,1:2|0:0,0:0:0:0:
200,186,207814,6,0,P|187:110|243:58,1,160,6|2,3:2|2:2,0:0:0:0:
322,38,208122,1,2,1:2:0:0:
356,113,208225,2,0,P|330:142|291:145,1,80,6|0,3:2|0:0,0:0:0:0:
154,299,208430,2,0,P|116:287|96:253,1,80,2|0,1:2|0:0,0:0:0:0:
291,145,208636,6,0,B|371:150|348:205|433:211,1,160,6|0,3:2|0:0,0:0:0:0:
482,276,208944,1,2,1:2:0:0:
456,309,209047,1,2,3:2:0:0:
401,334,209149,1,0,0:0:0:0:
328,313,209252,1,2,1:2:0:0:
288,237,209355,1,2,1:3:0:0:
213,186,209458,6,0,P|134:189|99:273,1,160,14|0,3:2|0:0,0:0:0:0:
102,333,209766,1,10,1:2:0:0:
185,341,209869,2,0,P|203:305|215:267,1,80,10|0,3:2|0:0,0:0:0:0:
53,111,210074,2,0,P|35:147|23:185,1,80,2|0,1:2|0:0,0:0:0:0:
332,188,210280,6,0,P|344:113|279:74,1,160,10|0,3:2|0:0,0:0:0:0:
220,135,210588,1,2,1:2:0:0:
142,99,210691,2,0,P|125:63|128:23,1,80,2|0,3:2|0:0,0:0:0:0:
260,0,210896,2,0,P|279:34|280:74,1,80,2|0,1:2|0:0,0:0:0:0:
394,302,211101,6,0,P|470:305|512:241,1,160,10|0,3:2|0:0,0:0:0:0:
493,165,211410,1,10,1:2:0:0:
425,123,211512,2,0,P|393:147|378:183,1,80,2|0,2:2|0:0,0:0:0:0:
220,233,211718,2,0,P|225:272|249:304,1,80,2|0,1:2|0:0,0:0:0:0:
445,378,211923,5,2,3:2:0:0:
302,162,212129,1,2,1:2:0:0:
509,7,212334,1,2,3:2:0:0:
302,162,212540,1,2,1:2:0:0:
264,78,212643,1,0,1:1:0:0:
334,22,212745,6,0,P|395:48|385:129,1,160,6|0,3:2|0:0,0:0:0:0:
185,110,213054,1,2,1:2:0:0:
182,98,213156,2,0,P|185:58|203:22,1,80,2|0,3:2|0:0,0:0:0:0:
373,211,213362,2,0,P|369:250|352:286,1,80,2|0,1:2|0:0,0:0:0:0:
225,384,213567,6,0,P|152:350|76:325,1,160,6|0,3:2|0:0,0:0:0:0:
3,302,213875,1,2,1:2:0:0:
0,285,213978,2,0,P|20:252|59:246,1,80,2|0,3:2|0:0,0:0:0:0:
240,140,214184,2,0,P|245:101|221:71,1,80,2|0,1:2|0:0,0:0:0:0:
49,0,214389,1,6,3:2:0:0:
172,254,214595,5,2,1:2:0:0:
252,293,214697,5,2,1:2:0:0:
332,266,214800,5,2,1:2:0:0:
362,194,214903,5,2,3:2:0:0:
408,140,215006,5,2,1:2:0:0:
467,135,215108,5,2,1:2:0:0:
503,170,215211,5,2,3:2:0:0:
506,213,215314,5,2,3:2:0:0:
485,241,215417,5,2,1:2:0:0:
456,246,215519,5,0,3:3:0:0:
441,239,215622,6,0,P|436:195|460:174,1,64,2|0,3:2|3:3,0:0:0:0:
512,384,215827,5,2,1:2:0:0:
449,336,215930,1,0,1:1:0:0:
369,340,216033,2,0,P|302:373|213:378,1,160,14|0,3:2|0:0,0:0:0:0:
145,333,216341,1,2,1:2:0:0:
189,257,216444,2,0,P|173:220|142:195,1,80,2|0,3:2|0:0,0:0:0:0:
0,384,216649,2,0,P|36:368|61:337,1,80,2|0,1:2|0:0,0:0:0:0:
266,290,216855,6,0,B|344:312|310:361|392:385,1,160,10|0,3:2|1:1,0:0:0:0:
468,359,217163,1,2,1:2:0:0:
512,290,217266,2,0,P|500:240|484:211,1,80,2|0,3:2|0:0,0:0:0:0:
316,137,217471,2,0,P|298:172|290:212,1,80,2|0,1:2|0:0,0:0:0:0:
500,108,217677,6,0,P|452:176|361:185,1,160,2|0,3:2|0:0,0:0:0:0:
316,137,217985,1,2,1:2:0:0:
344,56,218088,2,0,P|383:66|408:101,1,80,2|0,3:2|0:0,0:0:0:0:
512,300,218293,2,0,P|473:290|449:259,1,80,2|0,1:2|0:0,0:0:0:0:
463,25,218499,1,2,3:2:0:0:
369,267,218704,1,0,1:1:0:0:
175,83,218910,1,2,3:2:0:0:
369,267,219115,5,2,1:2:0:0:
399,349,219218,1,0,1:1:0:0:
322,384,219321,2,0,P|272:336|182:323,1,160,14|0,3:2|0:0,0:0:0:0:
122,384,219629,1,2,1:2:0:0:
101,351,219732,1,2,3:2:0:0:
240,151,219937,6,0,L|160:174,1,80,2|0,1:2|0:0,0:0:0:0:
0,192,220143,2,0,P|50:240|140:253,1,160,10|0,3:2|0:0,0:0:0:0:
163,173,220451,1,2,1:2:0:0:
149,131,220554,1,2,3:2:0:0:
303,7,220759,6,0,P|289:55|263:68,1,80,2|0,1:2|0:0,0:0:0:0:
82,196,220964,2,0,P|12:184|0:103,1,160,2|2,3:2|2:2,0:0:0:0:
76,85,221273,1,2,1:2:0:0:
137,253,221375,2,0,P|177:257|226:275,1,80,6|0,3:2|0:0,0:0:0:0:
316,132,221581,2,0,P|345:159|369:192,1,80,2|0,1:2|0:0,0:0:0:0:
512,384,221786,6,0,P|472:314|394:311,1,160,6|0,3:2|0:0,0:0:0:0:
332,360,222095,1,2,1:2:0:0:
342,384,222197,1,2,3:2:0:0:
512,159,222403,1,2,1:2:0:0:
462,229,222506,1,2,1:3:0:0:
379,209,222608,6,0,P|304:172|218:164,1,160,14|0,3:2|0:0,0:0:0:0:
179,230,222917,1,2,1:2:0:0:
104,194,223019,2,0,P|73:157|78:118,1,80,2|0,3:2|0:0,0:0:0:0:
260,247,223225,2,0,P|257:286|230:313,1,80,2|0,1:2|0:0,0:0:0:0:
27,384,223430,6,0,P|103:339|96:252,1,160,10|2,3:2|2:2,0:0:0:0:
34,232,223738,1,10,1:2:0:0:
0,314,223841,2,0,P|51:312|84:344,1,80,2|0,3:2|0:0,0:0:0:0:
227,173,224047,2,0,P|193:193|178:229,1,80,10|0,1:2|1:1,0:0:0:0:
276,376,224252,6,0,B|355:352|321:303|401:281,1,160,10|0,3:2|0:0,0:0:0:0:
482,294,224560,1,2,1:2:0:0:
487,381,224663,2,0,P|444:380|413:354,1,80,2|0,3:2|0:0,0:0:0:0:
341,218,224869,2,0,P|342:175|368:144,1,80,2|0,1:2|0:0,0:0:0:0:
512,10,225074,5,2,3:2:0:0:
398,281,225280,1,0,1:1:0:0:
198,39,225485,1,10,3:2:0:0:
398,281,225690,5,2,1:2:0:0:
482,294,225793,1,0,1:1:0:0:
512,220,225896,2,0,P|471:167|464:64,1,160,6|0,3:2|0:0,0:0:0:0:
512,10,226204,1,2,1:2:0:0:
430,2,226307,2,0,P|387:18|347:26,1,80,2|0,3:2|0:0,0:0:0:0:
332,215,226512,2,0,P|294:200|255:191,1,80,2|0,1:2|0:0,0:0:0:0:
0,220,226718,6,0,P|41:167|48:64,1,160,6|0,3:2|0:0,0:0:0:0:
0,10,227026,1,2,1:2:0:0:
82,2,227129,2,0,P|125:18|165:26,1,80,2|0,3:2|0:0,0:0:0:0:
180,215,227334,2,0,P|217:200|256:191,1,80,2|0,1:2|0:0,0:0:0:0:
512,220,227540,5,6,3:2:0:0:
263,357,227745,2,0,P|245:320|247:277,1,80,0|0,1:1|1:1,0:0:0:0:
387,99,227951,2,0,P|405:136|403:179,1,80,2|0,3:2|0:0,0:0:0:0:
165,300,228156,2,0,P|121:313|70:314,1,80,0|0,1:1|1:1,0:0:0:0:
20,262,228362,6,0,B|3:235|18:212|18:212|37:231|24:262,1,96,2|0,3:2|1:1,0:0:0:0:
11,340,228773,6,0,P|67:230|63:128,1,208,2|2,3:2|1:2,0:0:0:0:
46,69,229081,1,0,1:1:0:0:
0,0,229184,1,6,3:2:0:0:
149,183,229389,6,0,P|174:170|201:164,2,56,2|2|2,2:2|2:2|2:2,0:0:0:0:
270,61,229595,2,0,P|267:88|259:115,2,56,2|2|2,1:2|2:2|2:2,0:0:0:0:
317,225,229800,2,0,P|293:209|274:188,2,56,2|2|2,3:2|2:2|2:2,0:0:0:0:
136,31,230006,6,0,P|169:56|192:90,1,84,2|2,1:2|2:2,0:0:0:0:
156,293,230211,2,0,P|181:259|215:236,1,84,2|2,3:2|2:2,0:0:0:0:
416,277,230417,2,0,P|382:251|359:217,1,84,2|2,1:2|2:2,0:0:0:0:
381,20,230622,2,0,P|355:53|321:76,1,84,2|2,3:2|2:2,0:0:0:0:
159,167,230827,1,2,1:2:0:0:
283,362,231033,6,0,P|295:336|301:309,2,56,2|2|2,3:2|2:2|2:2,0:0:0:0:
416,277,231238,2,0,P|410:249|400:223,2,56,2|2|2,1:2|2:2|2:2,0:0:0:0:
473,130,231444,2,0,P|451:110|428:95,2,56,2|2|2,3:2|2:2|2:2,0:0:0:0:
329,240,231649,6,0,P|293:218|266:186,1,84,2|2,1:2|2:2,0:0:0:0:
91,275,231855,2,0,P|113:238|145:211,1,84,2|2,3:2|2:2,0:0:0:0:
69,29,232060,2,0,P|104:50|131:82,1,84,2|2,1:2|2:2,0:0:0:0:
306,4,232266,2,0,P|283:40|251:67,1,84,2|2,3:2|3:2,0:0:0:0:
131,82,232471,1,6,1:2:0:0:
399,236,232677,6,0,P|414:212|423:186,2,56,2|2|2,2:2|2:2|2:2,0:0:0:0:
463,302,232882,2,0,P|489:291|511:275,2,56,2|2|2,1:2|2:2|2:2,0:0:0:0:
375,322,233088,1,2,3:2:0:0:
334,62,233293,1,2,1:2:0:0:
116,164,233499,6,0,P|103:138|97:111,2,56,2|2|2,3:2|2:2|2:2,0:0:0:0:
45,223,233704,2,0,P|20:209|0:191,2,56,2|2|2,1:2|2:2|2:2,0:0:0:0:
130,257,233910,1,2,3:2:0:0:
334,62,234115,1,6,1:2:0:0:
130,257,234321,6,0,P|142:282|148:309,2,56,2|2|2,3:2|2:2|2:2,0:0:0:0:
236,334,234526,2,0,P|251:311|272:292,2,56,2|2|2,1:2|2:2|2:2,0:0:0:0:
173,179,234732,1,2,3:2:0:0:
65,306,234937,1,2,1:2:0:0:
327,234,235143,5,2,3:2:0:0:
345,187,235245,1,0,3:3:0:0:
313,147,235348,1,6,1:2:0:0:
142,331,235554,5,2,3:2:0:0:
173,370,235656,1,0,3:3:0:0:
224,362,235759,1,6,1:2:0:0:
420,238,235964,6,0,P|447:244|472:256,2,56,2|2|2,2:2|2:2|2:2,0:0:0:0:
463,147,236170,2,0,P|486:132|513:123,2,56,2|2|2,1:2|2:2|2:2,0:0:0:0:
429,52,236375,2,0,P|435:24|447:0,2,56,2|2|2,3:2|2:2|2:2,0:0:0:0:
346,113,236581,6,0,P|305:102|270:80,1,84,2|2,1:2|2:2,0:0:0:0:
232,207,236786,2,0,P|210:171|201:130,1,84,2|2,3:2|2:2,0:0:0:0:
85,194,236992,2,0,P|95:153|117:118,1,84,2|2,1:2|2:2,0:0:0:0:
0,72,237197,2,0,P|35:50|76:41,1,84,2|2,3:2|2:2,0:0:0:0:
270,80,237403,1,2,1:2:0:0:
66,320,237608,6,0,P|38:326|13:338,2,56,2|2|2,3:2|2:2|2:2,0:0:0:0:
185,281,237814,2,0,P|161:266|134:257,2,56,2|2|2,1:2|2:2|2:2,0:0:0:0:
51,231,238019,1,2,3:2:0:0:
166,360,238225,6,0,P|181:322|184:280,1,84,2|0,1:2|0:0,0:0:0:0:
294,271,238430,2,0,P|280:247|261:227,2,56,2|2|2,3:2|2:2|2:2,0:0:0:0:
335,146,238636,2,0,P|308:139|280:139,2,56,2|2|2,1:2|2:2|2:2,0:0:0:0:
231,60,238841,2,0,P|262:32|301:17,1,84,2|0,3:2|3:3,0:0:0:0:
512,173,239047,5,6,1:2:0:0:
347,384,239252,1,2,2:2:0:0:
512,173,239458,1,2,1:2:0:0:
256,355,239663,1,2,3:2:0:0:
498,266,239869,1,2,1:2:0:0:
271,106,240074,6,0,P|245:118|218:124,2,56,2|2|2,3:2|2:2|2:2,0:0:0:0:
255,242,240280,2,0,P|231:227|204:218,2,56,2|2|2,1:2|2:2|2:2,0:0:0:0:
354,123,240485,1,2,3:2:0:0:
482,344,240690,1,6,1:2:0:0:
146,274,240896,5,2,3:2:0:0:
106,305,240999,1,0,3:3:0:0:
114,354,241101,1,2,1:2:0:0:
387,182,241307,5,2,3:2:0:0:
401,133,241410,1,0,1:1:0:0:
365,98,241512,1,2,3:2:0:0:
188,332,241718,6,0,P|225:313|265:300,1,84,2|0,1:2|1:1,0:0:0:0:
365,98,241923,2,0,P|447:111|474:188,1,168,2|2,3:2|1:2,0:0:0:0:
512,269,242232,1,0,1:1:0:0:
504,277,242334,6,0,B|310:261|348:207|155:194,1,359.999999999999,6|0,3:2|0:0,0:0:0:0:
87,234,243978,2,0,P|75:273|64:302,2,71.9999999999999,2|2|2,2:2|2:2|2:2,0:0:0:0:
258,129,245006,2,0,P|271:82|284:36,1,95.9999999999998,2|2,2:2|2:2,0:0:0:0:
217,1,245622,6,0,P|194:8|173:20,2,47.9999999999999,10|2|2,2:2|2:2|2:2,0:0:0:0:
272,160,246238,2,0,P|250:149|227:143,2,47.9999999999999,2|0|2,2:2|0:0|2:2,0:0:0:0:
198,310,246855,2,0,P|190:287|178:266,1,47.9999999999999,2|2,2:2|2:2,0:0:0:0:
272,160,247266,6,0,B|321:176|310:194|354:211,2,95.9999999999998,2|2|2,2:2|2:2|2:2,0:0:0:0:
108,236,248499,1,2,2:2:0:0:
0,117,248910,6,0,P|35:111|62:88,1,71.9999999999999,2|2,2:2|2:2,0:0:0:0:
74,74,249321,2,0,L|63:37,1,24
137,4,249526,2,0,P|198:23|228:37,1,95.9999999999998,10|2,2:2|2:2,0:0:0:0:
227,36,250143,1,2,2:2:0:0:
347,142,250554,6,0,L|337:190,1,47.9999999999999,2|0,2:2|0:0,0:0:0:0:
267,216,250862,1,2,2:2:0:0:
257,212,250964,2,0,L|247:164,1,47.9999999999999,2|2,2:2|2:2,0:0:0:0:
405,16,251581,5,2,2:2:0:0:
465,77,251786,1,2,2:2:0:0:
429,155,251992,1,2,2:2:0:0:
347,142,252197,2,0,L|344:127,1,12,10|0,2:2|0:0,0:0:0:0:
138,320,252608,5,2,2:2:0:0:
223,309,252814,1,2,2:2:0:0:
236,227,253019,2,0,L|221:224,1,12,10|0,2:2|0:0,0:0:0:0:
110,68,253430,5,2,2:2:0:0:
23,78,253636,1,2,2:2:0:0:
11,160,253841,2,0,L|26:163,1,12,10|0,2:2|0:0,0:0:0:0:
181,337,254252,6,0,L|330:306,1,144,2|2,2:2|2:2,0:0:0:0:
403,146,255485,5,10,2:2:0:0:
338,96,255735,5,2,2:2:0:0:
262,113,255985,5,10,2:2:0:0:
240,185,256270,5,2,2:2:0:0:
174,221,256413,6,0,L|159:217,4,10.07,0|2|2|10|2,0:0|2:2|2:2|2:2|2:2,0:0:0:0:
59,45,257168,5,2,2:2:0:0:
22,116,257507,5,2,2:2:0:0:
88,163,257799,6,0,L|103:158,2,10,2|0|0,2:2|0:0|0:0,0:0:0:0:
180,66,258757,6,0,L|193:68,2,10,2|2|2,2:2|2:2|2:2,0:0:0:0:
