osu file format v14

[General]
AudioFilename: audio.mp3
AudioLeadIn: 0
PreviewTime: 54218
Countdown: 0
SampleSet: Soft
StackLeniency: 0.5
Mode: 0
LetterboxInBreaks: 0
WidescreenStoryboard: 1

[Editor]
Bookmarks: 242334
DistanceSpacing: 1.5
BeatDivisor: 4
GridSize: 32
TimelineZoom: 2.4

[Metadata]
Title:Hanayuki
TitleUnicode:花雪
Artist:smileY inc.
ArtistUnicode:smileY inc.
Creator:Creamy Candy
Version:Asuka_-'s Insane
Source:ハナヤマタ
Tags:syndicate_ - Nilou asuka_- lit120 -hakurei- supav riene kuro fuyusaki nakazawa ed ending hanayamata anime japanese j-pop jpop pop 大坪由佳 Ootsubo Otsubo Yuka ゆうゆ yuuyu スマイリー ハナ・N・フォンテーンスタンド Hana N. Fountainstand yosakoi 西御門 多美 Nishimikado Tami oxypetalum
BeatmapID:4106980
BeatmapSetID:1073360

[Difficulty]
HPDrainRate:5
CircleSize:3.8
OverallDifficulty:7.6
ApproachRate:8.6
SliderMultiplier:1.6
SliderTickRate:1

[Events]
//Background and Video events
0,0,"Hana N. Fountainstand.jpg",0,0
//Break Periods
2,171985,185579
//Storyboard Layer 0 (Background)
//Storyboard Layer 1 (Fail)
//Storyboard Layer 2 (Pass)
//Storyboard Layer 3 (Foreground)
//Storyboard Layer 4 (Overlay)
//Storyboard Sound Samples

[TimingPoints]
417,410.958904109589,4,2,1,50,1,0
691,410.958904109589,4,2,1,50,1,0
691,-142.857142857143,4,2,1,50,0,0
999,-142.857142857143,4,2,2,50,0,0
1307,-142.857142857143,4,2,3,50,0,0
1717,-142.857142857143,4,2,4,50,0,0
1923,-142.857142857143,4,2,5,50,0,0
2334,-142.857142857143,4,2,6,50,0,0
2643,-142.857142857143,4,2,7,50,0,0
2951,-142.857142857143,4,2,8,50,0,0
3156,-142.857142857143,4,2,9,50,0,0
3362,-142.857142857143,4,2,10,50,0,0
3773,-142.857142857143,4,2,11,50,0,0
3875,-142.857142857143,4,2,12,50,0,0
3978,-142.857142857143,4,2,13,50,0,0
4184,-142.857142857143,4,2,10,50,0,0
4388,-142.857142857143,4,2,8,50,0,0
4595,-142.857142857143,4,2,14,50,0,0
4800,-142.857142857143,4,2,15,50,0,0
5006,-142.857142857143,4,2,10,50,0,0
5210,-142.857142857143,4,2,8,50,0,0
5417,-142.857142857143,4,2,16,50,0,0
5622,-142.857142857143,4,2,17,50,0,0
6033,-142.857142857143,4,2,4,50,0,0
6238,-142.857142857143,4,2,18,50,0,0
6649,-142.857142857143,4,2,19,50,0,0
6752,-142.857142857143,4,2,20,50,0,0
6855,-142.857142857143,4,2,19,50,0,0
6957,-142.857142857143,4,2,21,50,0,0
7060,-142.857142857143,4,2,22,50,0,0
7266,-142.857142857143,4,2,23,50,0,0
7676,-142.857142857143,4,2,24,50,0,0
7882,-142.857142857143,4,2,25,50,0,0
8293,-142.857142857143,4,2,26,50,0,0
8499,-142.857142857143,4,2,27,50,0,0
8704,-142.857142857143,4,2,28,50,0,0
8910,-142.857142857143,4,2,29,50,0,0
9320,-142.857142857143,4,2,30,50,0,0
9731,-142.857142857143,4,2,31,50,0,0
9937,-142.857142857143,4,2,2,50,0,0
10143,-142.857142857143,4,2,32,50,0,0
10348,-142.857142857143,4,2,33,50,0,0
10554,-142.857142857143,4,2,34,50,0,0
10964,-142.857142857143,4,2,35,50,0,0
11170,-142.857142857143,4,2,36,50,0,0
11375,-142.857142857143,4,2,37,50,0,0
11581,-142.857142857143,4,2,35,40,0,0
11786,-142.857142857143,4,2,35,50,0,0
11992,-142.857142857143,4,2,33,50,0,0
12197,-142.857142857143,4,2,38,70,0,0
13019,-142.857142857143,4,2,2,70,0,0
13225,-142.857142857143,4,2,1,70,0,0
13841,-125,4,2,39,50,0,0
14046,-125,4,2,40,50,0,0
14252,-125,4,2,41,50,0,0
14457,-125,4,2,40,50,0,0
14663,-125,4,2,41,50,0,0
14869,-125,4,2,42,50,0,0
15074,-125,4,2,3,50,0,0
15280,-125,4,2,43,50,0,0
15485,-125,4,2,44,50,0,0
16718,-125,4,2,41,50,0,0
16923,-125,4,2,45,50,0,0
17129,-125,4,2,40,50,0,0
18156,-125,4,2,44,50,0,0
18362,-125,4,2,40,50,0,0
18567,-125,4,2,46,50,0,0
18773,-125,4,2,41,50,0,0
20211,-125,4,2,47,50,0,0
20417,-125,4,2,48,50,0,0
20827,-125,4,2,49,50,0,0
21033,-125,4,2,42,50,0,0
21238,-125,4,2,3,50,0,0
21444,-125,4,2,50,50,0,0
21649,-125,4,2,3,50,0,0
21855,-125,4,2,42,50,0,0
22060,-125,4,2,3,50,0,0
22265,-125,4,2,47,50,0,0
22471,-125,4,2,51,50,0,0
22677,-125,4,2,52,50,0,0
22882,-125,4,2,44,50,0,0
23499,-125,4,2,41,50,0,0
23704,-125,4,2,40,50,0,0
24321,-125,4,2,45,50,0,0
24526,-125,4,2,44,50,0,0
24937,-125,4,2,53,60,0,0
25143,-125,4,2,54,60,0,0
25553,-125,4,2,55,60,0,0
25759,-125,4,2,56,60,0,0
25964,-125,4,2,35,60,0,0
26170,-125,4,2,57,60,0,0
26375,-125,4,2,58,60,0,0
26581,-125,4,2,59,60,0,0
26683,-125,4,2,57,60,0,0
26992,-125,4,2,60,60,0,0
27197,-125,4,2,61,60,0,0
27403,-125,4,2,57,60,0,0
27608,-125,4,2,61,60,0,0
27814,-125,4,2,57,60,0,0
28019,-125,4,2,30,60,0,0
28225,-125,4,2,4,60,0,0
28430,-125,4,2,62,60,0,0
28636,-125,4,2,63,60,0,0
28840,-125,4,2,57,60,0,0
29252,-125,4,2,64,60,0,0
29458,-125,4,2,4,60,0,0
29663,-125,4,2,65,60,0,0
29869,-125,4,2,57,60,0,0
30074,-125,4,2,66,60,0,0
30280,-125,4,2,67,60,0,0
30485,-125,4,2,61,60,0,0
30690,-125,4,2,68,60,0,0
30896,-125,4,2,61,60,0,0
31101,-125,4,2,69,60,0,0
31306,-125,4,2,58,60,0,0
31512,-125,4,2,61,60,0,0
31718,-125,4,2,70,60,0,0
31923,-125,4,2,2,60,0,0
32129,-125,4,2,71,60,0,0
32334,-125,4,2,57,60,0,0
33362,-125,4,2,35,60,0,0
33567,-125,4,2,72,60,0,0
33773,-125,4,2,2,60,0,0
33977,-125,4,2,73,60,0,0
34184,-125,4,2,30,60,0,0
34389,-125,4,2,4,60,0,0
34595,-125,4,2,74,60,0,0
34800,-125,4,2,4,60,0,0
35006,-125,4,2,30,60,0,0
35211,-125,4,2,75,60,0,0
35314,-125,4,2,35,60,0,0
35622,-125,4,2,76,60,0,0
35725,-125,4,2,77,60,0,0
36033,-125,4,2,58,60,0,0
36649,-125,4,2,57,60,0,0
36855,-125,4,2,78,60,0,0
37060,-125,4,2,61,60,0,0
37882,-125,4,2,58,60,0,0
38088,-125,4,2,61,60,0,0
38293,-125,4,2,79,60,0,0
38703,-125,4,2,80,60,0,0
38910,-125,4,2,74,60,0,0
39526,-125,4,2,81,60,0,0
39732,-125,4,2,82,60,0,0
40143,-125,4,2,83,60,0,0
40348,-125,4,2,84,60,0,0
40451,-125,4,2,85,60,0,0
40759,-125,4,2,86,60,0,0
40964,-125,4,2,87,60,0,0
41170,-125,4,2,88,60,0,0
41273,-125,4,2,89,60,0,0
41375,-125,4,2,1,60,0,0
41477,-125,4,2,84,60,0,0
41786,-125,4,2,90,60,0,0
42095,-125,4,2,91,60,0,0
42403,-125,4,2,92,60,0,0
42608,-125,4,2,93,60,0,0
42710,-125,4,2,2,60,0,0
43019,-125,4,2,1,60,0,0
43088,-125,4,2,2,60,0,0
43224,-125,4,2,82,60,0,0
43430,-125,4,2,83,60,0,0
43636,-125,4,2,84,60,0,0
43738,-125,4,2,85,60,0,0
44047,-125,4,2,86,60,0,0
44252,-125,4,2,87,60,0,0
44458,-125,4,2,84,60,0,0
44663,-125,4,2,1,60,0,0
44732,-125,4,2,2,60,0,0
44868,-125,4,2,94,60,0,0
45074,-125,4,2,95,60,0,0
45383,-125,4,2,96,60,0,0
45485,-125,4,2,97,60,0,0
45896,-125,4,2,98,60,0,0
46307,-125,4,2,99,60,0,0
46512,-125,4,2,100,60,0,0
46718,-125,4,2,101,60,0,0
46922,-125,4,2,102,60,0,0
47129,-125,4,2,103,60,0,0
47334,-125,4,2,104,60,0,0
47540,-125,4,2,105,60,0,0
47745,-125,4,2,106,60,0,0
47951,-125,4,2,107,60,0,0
48156,-125,4,2,98,60,0,0
48566,-125,4,2,108,60,0,0
48773,-125,4,2,109,60,0,0
48978,-125,4,2,110,60,0,0
49184,-125,4,2,111,60,0,0
49389,-125,4,2,2,60,0,0
49595,-125,4,2,112,60,0,0
49800,-125,4,2,113,60,0,0
50006,-125,4,2,114,60,0,0
50211,-125,4,2,115,60,0,0
50417,-125,4,2,116,60,0,0
50622,-125,4,2,117,60,0,0
50827,-125,4,2,116,60,0,0
51033,-125,4,2,118,60,0,0
51444,-111.111111111111,4,2,119,60,0,0
51854,-111.111111111111,4,2,119,50,0,0
52060,-111.111111111111,4,2,120,50,0,0
52266,-111.111111111111,4,2,121,50,0,0
52471,-111.111111111111,4,2,121,60,0,0
52677,-111.111111111111,4,2,122,60,0,0
53293,-111.111111111111,4,2,123,70,0,0
54321,-111.111111111111,4,2,58,55,0,0
54423,-111.111111111111,4,2,1,55,0,0
54526,-111.111111111111,4,2,124,55,0,0
54628,-111.111111111111,4,2,33,55,0,0
54937,-100,4,2,125,80,0,1
55245,-100,4,2,126,80,0,1
55348,-100,4,2,127,80,0,1
55553,-100,4,2,128,80,0,1
55759,-100,4,2,129,80,0,1
55964,-100,4,2,130,80,0,1
56170,-100,4,2,131,80,0,1
56375,-100,4,2,132,80,0,1
56581,-76.9230769230769,4,2,133,80,0,1
56889,-76.9230769230769,4,2,134,80,0,1
56992,-76.9230769230769,4,2,135,80,0,1
57197,-76.9230769230769,4,2,136,80,0,1
57403,-76.9230769230769,4,2,137,80,0,1
57608,-76.9230769230769,4,2,134,80,0,1
57814,-76.9230769230769,4,2,138,80,0,1
58019,-76.9230769230769,4,2,136,80,0,1
58225,-76.9230769230769,4,2,139,80,0,1
58533,-76.9230769230769,4,2,140,80,0,1
58636,-76.9230769230769,4,2,141,80,0,1
58841,-76.9230769230769,4,2,142,80,0,1
59047,-76.9230769230769,4,2,139,80,0,1
59355,-76.9230769230769,4,2,140,80,0,1
59458,-76.9230769230769,4,2,141,80,0,1
59663,-76.9230769230769,4,2,142,80,0,1
59869,-76.9230769230769,4,2,143,80,0,1
60074,-76.9230769230769,4,2,120,80,0,1
60177,-76.9230769230769,4,2,144,80,0,1
60280,-76.9230769230769,4,2,145,80,0,1
60485,-76.9230769230769,4,2,146,80,0,1
60690,-76.9230769230769,4,2,147,80,0,1
60999,-76.9230769230769,4,2,144,80,0,1
61101,-76.9230769230769,4,2,148,80,0,1
61307,-76.9230769230769,4,2,149,80,0,1
61409,-76.9230769230769,4,2,1,80,0,1
61512,-100,4,2,150,80,0,1
61821,-100,4,2,126,80,0,1
61923,-100,4,2,127,80,0,1
62128,-100,4,2,128,80,0,1
62334,-100,4,2,129,80,0,1
62539,-100,4,2,130,80,0,1
62745,-100,4,2,131,80,0,1
62951,-100,4,2,132,80,0,1
63156,-100,4,2,151,80,0,1
63464,-100,4,2,152,80,0,1
63567,-100,4,2,134,80,0,1
63773,-100,4,2,153,80,0,1
63978,-100,4,2,136,80,0,1
64184,-100,4,2,154,80,0,1
64389,-100,4,2,155,80,0,1
64595,-100,4,2,156,80,0,1
64800,-100,4,2,157,80,0,1
65108,-100,4,2,158,80,0,1
65211,-100,4,2,159,80,0,1
65416,-100,4,2,160,80,0,1
65622,-100,4,2,161,80,0,1
65930,-100,4,2,158,80,0,1
66033,-100,4,2,159,80,0,1
66238,-100,4,2,162,80,0,1
66444,-100,4,2,163,80,0,1
66649,-100,4,2,164,80,0,1
66752,-100,4,2,165,80,0,1
66855,-100,4,2,166,80,0,1
66957,-100,4,2,167,80,0,1
67060,-100,4,2,168,80,0,1
67163,-100,4,2,169,80,0,1
67266,-100,4,2,170,80,0,1
67368,-100,4,2,171,80,0,1
67471,-100,4,2,172,80,0,1
67677,-100,4,2,173,80,0,1
67882,-100,4,2,174,80,0,1
68088,-100,4,2,175,80,0,1
68396,-100,4,2,176,80,0,1
68499,-100,4,2,177,80,0,1
68704,-100,4,2,178,80,0,1
68910,-100,4,2,179,80,0,1
69115,-100,4,2,130,80,0,1
69321,-100,4,2,180,80,0,1
69526,-100,4,2,181,80,0,1
69732,-76.9230769230769,4,2,182,80,0,1
70040,-76.9230769230769,4,2,134,80,0,1
70143,-76.9230769230769,4,2,135,80,0,1
70348,-76.9230769230769,4,2,136,80,0,1
70554,-76.9230769230769,4,2,137,80,0,1
70759,-76.9230769230769,4,2,134,80,0,1
70964,-76.9230769230769,4,2,138,80,0,1
71170,-76.9230769230769,4,2,136,80,0,1
71375,-76.9230769230769,4,2,139,80,0,1
71684,-76.9230769230769,4,2,140,80,0,1
71786,-76.9230769230769,4,2,141,80,0,1
71992,-76.9230769230769,4,2,142,80,0,1
72197,-76.9230769230769,4,2,183,80,0,1
72506,-76.9230769230769,4,2,140,80,0,1
72608,-76.9230769230769,4,2,141,80,0,1
72814,-76.9230769230769,4,2,142,80,0,1
73019,-76.9230769230769,4,2,184,80,0,1
73225,-76.9230769230769,4,2,120,80,0,1
73327,-76.9230769230769,4,2,144,80,0,1
73430,-76.9230769230769,4,2,185,80,0,1
73636,-76.9230769230769,4,2,186,80,0,1
73841,-76.9230769230769,4,2,187,80,0,1
74149,-76.9230769230769,4,2,144,80,0,1
74252,-76.9230769230769,4,2,188,80,0,1
74458,-76.9230769230769,4,2,149,80,0,1
74560,-76.9230769230769,4,2,1,80,0,1
74663,-100,4,2,189,80,0,1
74971,-100,4,2,130,80,0,1
75074,-100,4,2,190,80,0,1
75279,-100,4,2,191,80,0,1
75485,-100,4,2,192,80,0,1
75691,-100,4,2,193,80,0,1
75793,-100,4,2,130,80,0,1
75896,-100,4,2,194,80,0,1
76101,-100,4,2,195,80,0,1
76307,-100,4,2,196,80,0,1
76616,-100,4,2,134,80,0,1
76718,-100,4,2,197,80,0,1
76923,-100,4,2,136,80,0,1
77129,-100,4,2,198,80,0,1
77334,-100,4,2,134,80,0,1
77540,-100,4,2,199,80,0,1
77745,-100,4,2,200,80,0,1
77951,-100,4,2,201,80,0,1
78259,-100,4,2,202,80,0,1
78362,-100,4,2,203,80,0,1
78567,-100,4,2,204,80,0,1
78773,-100,4,2,205,80,0,1
79081,-100,4,2,202,80,0,1
79184,-100,4,2,203,80,0,1
79389,-100,4,2,204,80,0,1
79595,-100,4,2,206,80,0,1
79800,-100,4,2,33,80,0,1
81238,-100,4,2,207,70,0,0
81444,-100,4,2,208,70,0,0
81649,-100,4,2,209,70,0,0
81855,-100,4,2,33,70,0,0
82060,-100,4,2,210,70,0,0
82471,-100,4,2,211,70,0,0
82677,-100,4,2,33,70,0,0
82882,-100,4,2,212,70,0,0
83293,-100,4,2,213,70,0,0
83910,-100,4,2,214,70,0,0
84526,-125,4,2,215,50,0,0
84731,-125,4,2,216,50,0,0
84937,-125,4,2,215,50,0,0
85142,-125,4,2,216,50,0,0
85348,-125,4,2,215,50,0,0
85554,-125,4,2,217,50,0,0
85964,-125,4,2,218,50,0,0
86067,-125,4,2,89,50,0,0
86170,-125,4,2,219,50,0,0
86786,-125,4,2,220,50,0,0
87197,-125,4,2,24,50,0,0
87403,-125,4,2,215,50,0,0
87608,-125,4,2,221,50,0,0
87711,-125,4,2,89,50,0,0
88225,-125,4,2,216,50,0,0
88841,-125,4,2,24,50,0,0
89047,-125,4,2,216,50,0,0
89252,-125,4,2,222,50,0,0
89662,-125,4,2,89,50,0,0
90691,-125,4,2,215,50,0,0
90896,-125,4,2,28,50,0,0
91101,-125,4,2,223,60,0,0
91511,-125,4,2,224,60,0,0
91718,-125,4,2,225,60,0,0
91923,-125,4,2,1,60,0,0
92129,-125,4,2,226,60,0,0
92334,-125,4,2,1,60,0,0
92540,-125,4,2,225,60,0,0
92745,-125,4,2,1,60,0,0
92950,-125,4,2,227,60,0,0
93156,-125,4,2,228,60,0,0
93362,-125,4,2,229,60,0,0
93567,-125,4,2,230,60,0,0
94184,-125,4,2,231,60,0,0
94389,-125,4,2,232,60,0,0
94595,-125,4,2,233,60,0,0
94800,-125,4,2,232,60,0,0
95211,-125,4,2,234,60,0,0
95416,-125,4,2,235,60,0,0
95622,-125,4,2,236,60,0,0
95827,-125,4,2,237,60,0,0
96237,-125,4,2,238,60,0,0
96444,-125,4,2,37,60,0,0
96649,-125,4,2,239,60,0,0
96855,-125,4,2,240,60,0,0
97060,-125,4,2,241,60,0,0
97163,-125,4,2,1,60,0,0
97266,-125,4,2,242,60,0,0
97368,-125,4,2,33,60,0,0
97677,-125,4,2,243,60,0,0
97882,-125,4,2,234,60,0,0
98088,-125,4,2,240,60,0,0
98293,-125,4,2,234,60,0,0
98499,-125,4,2,240,60,0,0
98704,-125,4,2,30,60,0,0
98909,-125,4,2,1,60,0,0
99115,-125,4,2,62,60,0,0
99321,-125,4,2,244,60,0,0
99732,-125,4,2,1,60,0,0
99937,-125,4,2,245,60,0,0
100143,-125,4,2,65,60,0,0
100554,-125,4,2,240,60,0,0
100759,-125,4,2,66,60,0,0
100964,-125,4,2,67,60,0,0
101170,-125,4,2,234,60,0,0
101375,-125,4,2,68,60,0,0
101581,-125,4,2,234,60,0,0
101786,-125,4,2,246,60,0,0
101991,-125,4,2,241,60,0,0
102197,-125,4,2,234,60,0,0
102403,-125,4,2,247,60,0,0
102608,-125,4,2,2,60,0,0
102814,-125,4,2,71,60,0,0
103019,-125,4,2,1,60,0,0
103430,-125,4,2,248,60,0,0
103841,-125,4,2,240,60,0,0
104047,-125,4,2,35,60,0,0
104149,-125,4,2,1,60,0,0
104252,-125,4,2,249,60,0,0
104662,-125,4,2,73,60,0,0
104869,-125,4,2,30,60,0,0
105280,-125,4,2,74,60,0,0
105485,-125,4,2,1,60,0,0
105691,-125,4,2,30,60,0,0
105896,-125,4,2,75,60,0,0
106101,-125,4,2,239,60,0,0
106307,-125,4,2,76,60,0,0
106512,-125,4,2,77,60,0,0
106718,-125,4,2,2,60,0,0
107129,-125,4,2,58,60,0,0
107334,-125,4,2,240,60,0,0
107540,-125,4,2,250,60,0,0
107745,-125,4,2,66,60,0,0
107950,-125,4,2,234,60,0,0
108567,-125,4,2,58,60,0,0
108773,-125,4,2,234,60,0,0
108978,-125,4,2,251,60,0,0
109388,-125,4,2,80,60,0,0
109595,-125,4,2,74,60,0,0
110211,-125,4,2,81,60,0,0
110417,-125,4,2,82,60,0,0
110827,-125,4,2,83,60,0,0
111033,-125,4,2,84,60,0,0
111136,-125,4,2,85,60,0,0
111444,-125,4,2,86,60,0,0
111649,-125,4,2,87,60,0,0
111855,-125,4,2,88,60,0,0
111958,-125,4,2,89,60,0,0
112060,-125,4,2,1,60,0,0
112129,-125,4,2,84,60,0,0
112471,-125,4,2,90,60,0,0
112780,-125,4,2,252,60,0,0
112883,-125,4,2,82,60,0,0
113088,-125,4,2,92,60,0,0
113293,-125,4,2,93,60,0,0
113395,-125,4,2,2,60,0,0
113704,-125,4,2,1,60,0,0
113773,-125,4,2,2,60,0,0
113909,-125,4,2,82,60,0,0
114115,-125,4,2,83,60,0,0
114321,-125,4,2,84,60,0,0
114423,-125,4,2,85,60,0,0
114732,-125,4,2,86,60,0,0
114937,-125,4,2,87,60,0,0
115143,-125,4,2,84,60,0,0
115348,-125,4,2,1,60,0,0
115417,-125,4,2,2,60,0,0
115553,-125,4,2,94,60,0,0
115759,-125,4,2,95,60,0,0
116068,-125,4,2,96,60,0,0
116170,-125,4,2,97,60,0,0
116581,-125,4,2,98,60,0,0
116992,-125,4,2,99,60,0,0
117197,-125,4,2,100,60,0,0
117403,-125,4,2,101,60,0,0
117607,-125,4,2,102,60,0,0
117814,-125,4,2,103,60,0,0
118019,-125,4,2,104,60,0,0
118225,-125,4,2,105,60,0,0
118430,-125,4,2,106,60,0,0
118636,-125,4,2,107,60,0,0
118841,-125,4,2,98,60,0,0
119251,-125,4,2,108,60,0,0
119458,-125,4,2,109,60,0,0
119663,-125,4,2,110,60,0,0
119869,-125,4,2,111,60,0,0
120074,-125,4,2,2,60,0,0
120280,-125,4,2,112,60,0,0
120485,-125,4,2,236,60,0,0
120690,-125,4,2,114,60,0,0
120896,-125,4,2,115,60,0,0
121307,-111.111111111111,4,2,117,60,0,0
121512,-111.111111111111,4,2,116,60,0,0
121718,-111.111111111111,4,2,118,60,0,0
122129,-111.111111111111,4,2,119,60,0,0
122539,-111.111111111111,4,2,119,50,0,0
122745,-111.111111111111,4,2,120,50,0,0
122951,-111.111111111111,4,2,121,50,0,0
123156,-111.111111111111,4,2,121,60,0,0
123362,-111.111111111111,4,2,122,60,0,0
123978,-111.111111111111,4,2,123,70,0,0
125006,-111.111111111111,4,2,58,55,0,0
125108,-111.111111111111,4,2,1,55,0,0
125211,-111.111111111111,4,2,124,55,0,0
125313,-111.111111111111,4,2,33,55,0,0
125622,-100,4,2,253,80,0,1
125827,-100,4,2,96,80,0,1
125930,-100,4,2,126,80,0,1
126033,-100,4,2,127,80,0,1
126238,-100,4,2,128,80,0,1
126444,-100,4,2,254,80,0,1
126649,-100,4,2,59,80,0,1
126752,-100,4,2,255,80,0,1
126855,-100,4,2,131,80,0,1
127060,-100,4,2,132,80,0,1
127266,-83.3333333333333,4,2,256,80,0,1
127471,-83.3333333333333,4,2,257,80,0,1
127574,-83.3333333333333,4,2,258,80,0,1
127677,-83.3333333333333,4,2,135,80,0,1
127882,-83.3333333333333,4,2,259,80,0,1
128088,-83.3333333333333,4,2,137,80,0,1
128293,-83.3333333333333,4,2,260,80,0,1
128396,-83.3333333333333,4,2,261,80,0,1
128499,-83.3333333333333,4,2,262,80,0,1
128704,-83.3333333333333,4,2,263,80,0,1
128910,-83.3333333333333,4,2,139,80,0,1
129218,-83.3333333333333,4,2,140,80,0,1
129321,-83.3333333333333,4,2,264,80,0,1
129526,-83.3333333333333,4,2,142,80,0,1
129732,-83.3333333333333,4,2,139,80,0,1
130040,-83.3333333333333,4,2,140,80,0,1
130143,-83.3333333333333,4,2,141,80,0,1
130348,-83.3333333333333,4,2,142,80,0,1
130554,-83.3333333333333,4,2,143,80,0,1
130759,-83.3333333333333,4,2,120,80,0,1
130862,-83.3333333333333,4,2,144,80,0,1
130964,-83.3333333333333,4,2,145,80,0,1
131170,-83.3333333333333,4,2,146,80,0,1
131375,-83.3333333333333,4,2,147,80,0,1
131684,-83.3333333333333,4,2,144,80,0,1
131786,-100,4,2,265,80,0,1
131992,-100,4,2,266,80,0,1
132094,-100,4,2,267,80,0,1
132197,-100,4,2,150,80,0,1
132506,-100,4,2,126,80,0,1
132608,-100,4,2,127,80,0,1
132813,-100,4,2,128,80,0,1
133019,-100,4,2,268,80,0,1
133224,-100,4,2,96,80,0,1
133328,-100,4,2,269,80,0,1
133430,-100,4,2,131,80,0,1
133636,-100,4,2,132,80,0,1
133841,-100,4,2,151,80,0,1
134149,-100,4,2,152,80,0,1
134252,-100,4,2,134,80,0,1
134458,-100,4,2,153,80,0,1
134663,-100,4,2,136,80,0,1
134869,-100,4,2,154,80,0,1
135074,-100,4,2,155,80,0,1
135280,-100,4,2,156,80,0,1
135485,-100,4,2,157,80,0,1
135793,-100,4,2,158,80,0,1
135896,-100,4,2,159,80,0,1
136101,-100,4,2,160,80,0,1
136307,-100,4,2,161,80,0,1
136615,-100,4,2,158,80,0,1
136718,-100,4,2,159,80,0,1
136923,-100,4,2,162,80,0,1
137129,-100,4,2,163,80,0,1
137334,-100,4,2,164,80,0,1
137437,-100,4,2,165,80,0,1
137540,-100,4,2,270,80,0,1
137642,-100,4,2,167,80,0,1
137745,-100,4,2,271,80,0,1
137848,-100,4,2,169,80,0,1
137951,-100,4,2,272,80,0,1
138053,-100,4,2,171,80,0,1
138156,-100,4,2,172,80,0,1
138362,-100,4,2,173,80,0,1
138567,-100,4,2,174,80,0,1
138773,-100,4,2,175,80,0,1
139081,-100,4,2,176,80,0,1
139184,-100,4,2,177,80,0,1
139389,-100,4,2,178,80,0,1
139595,-100,4,2,179,80,0,1
139800,-100,4,2,273,80,0,1
139903,-100,4,2,130,80,0,1
140006,-100,4,2,180,80,0,1
140211,-100,4,2,181,80,0,1
140417,-76.9230769230769,4,2,182,80,0,1
140725,-76.9230769230769,4,2,134,80,0,1
140827,-76.9230769230769,4,2,135,80,0,1
141033,-76.9230769230769,4,2,136,80,0,1
141238,-76.9230769230769,4,2,137,80,0,1
141444,-76.9230769230769,4,2,134,80,0,1
141649,-76.9230769230769,4,2,138,80,0,1
141855,-76.9230769230769,4,2,136,80,0,1
142060,-76.9230769230769,4,2,139,80,0,1
142369,-76.9230769230769,4,2,140,80,0,1
142471,-76.9230769230769,4,2,141,80,0,1
142677,-76.9230769230769,4,2,142,80,0,1
142882,-76.9230769230769,4,2,183,80,0,1
143191,-76.9230769230769,4,2,140,80,0,1
143293,-76.9230769230769,4,2,141,80,0,1
143499,-76.9230769230769,4,2,142,80,0,1
143704,-76.9230769230769,4,2,184,80,0,1
143910,-76.9230769230769,4,2,120,80,0,1
144012,-76.9230769230769,4,2,144,80,0,1
144115,-76.9230769230769,4,2,185,80,0,1
144321,-76.9230769230769,4,2,186,80,0,1
144526,-76.9230769230769,4,2,187,80,0,1
144834,-76.9230769230769,4,2,144,80,0,1
144937,-100,4,2,188,80,0,1
145143,-100,4,2,149,80,0,1
145245,-100,4,2,1,80,0,1
145348,-100,4,2,189,80,0,1
145656,-100,4,2,130,80,0,1
145759,-100,4,2,190,80,0,1
145964,-100,4,2,191,80,0,1
146170,-100,4,2,192,80,0,1
146375,-100,4,2,193,80,0,1
146478,-100,4,2,130,80,0,1
146581,-100,4,2,194,80,0,1
146786,-100,4,2,195,80,0,1
146992,-100,4,2,196,80,0,1
147300,-100,4,2,134,80,0,1
147403,-100,4,2,197,80,0,1
147608,-100,4,2,136,80,0,1
147814,-100,4,2,198,80,0,1
148019,-100,4,2,134,80,0,1
148225,-100,4,2,199,80,0,1
148430,-100,4,2,200,80,0,1
148636,-100,4,2,201,80,0,1
148944,-100,4,2,202,80,0,1
149047,-100,4,2,203,80,0,1
149252,-100,4,2,204,80,0,1
149458,-100,4,2,205,80,0,1
149766,-100,4,2,202,80,0,1
149869,-100,4,2,203,80,0,1
150074,-100,4,2,204,80,0,1
150280,-100,4,2,206,80,0,1
150485,-100,4,2,274,80,0,1
151717,-100,4,2,275,80,0,1
151923,-100,4,2,276,70,0,0
152232,-100,4,2,1,70,0,0
152334,-100,4,2,120,70,0,0
152540,-100,4,2,277,70,0,0
152950,-100,4,2,278,70,0,0
153054,-100,4,2,279,70,0,0
153157,-100,4,2,278,70,0,0
153259,-100,4,2,280,70,0,0
153362,-100,4,2,281,70,0,0
153567,-100,4,2,282,70,0,0
153772,-100,4,2,2,70,0,0
153978,-100,4,2,283,70,0,0
154184,-100,4,2,284,70,0,0
154389,-100,4,2,33,70,0,0
154800,-100,4,2,285,70,0,0
154869,-100,4,2,286,70,0,0
154937,-100,4,2,287,70,0,0
155006,-100,4,2,288,70,0,0
155074,-100,4,2,289,70,0,0
155108,-100,4,2,1,70,0,0
155143,-100,4,2,290,70,0,0
155211,-100,4,2,291,70,0,0
155314,-100,4,2,292,70,0,0
155417,-100,4,2,293,70,0,0
155519,-100,4,2,294,70,0,0
155622,-100,4,2,293,70,0,0
155827,-100,4,2,295,70,0,0
155930,-100,4,2,296,70,0,0
156033,-100,4,2,297,70,0,0
156238,-100,4,2,298,70,0,0
156444,-100,4,2,299,70,0,0
156649,-100,4,2,300,70,0,0
156855,-100,4,2,301,70,0,0
157059,-100,4,2,302,70,0,0
157163,-100,4,2,169,70,0,0
157266,-100,4,2,303,70,0,0
157369,-100,4,2,304,70,0,0
157472,-100,4,2,305,70,0,0
157574,-100,4,2,306,70,0,0
157677,-100,4,2,307,70,0,0
157779,-100,4,2,308,70,0,0
157882,-100,4,2,309,70,0,0
157985,-100,4,2,310,70,0,0
158088,-100,4,2,311,70,0,0
158156,-100,4,2,312,70,0,0
158293,-100,4,2,313,70,0,0
158396,-100,4,2,314,70,0,0
158499,-100,4,2,315,70,0,0
158704,-100,4,2,316,70,0,0
159321,-100,4,2,317,70,0,0
159526,-100,4,2,316,70,0,0
160143,-100,4,2,318,70,0,0
160348,-100,4,2,319,70,0,0
160554,-100,4,2,320,70,0,0
160759,-100,4,2,319,70,0,0
160964,-100,4,2,320,70,0,0
161170,-100,4,2,321,70,0,0
161581,-100,4,2,319,70,0,0
161786,-100,4,2,322,70,0,0
161991,-100,4,2,323,70,0,0
162197,-100,4,2,324,70,0,0
162402,-100,4,2,323,70,0,0
162608,-100,4,2,324,70,0,0
162814,-100,4,2,323,70,0,0
163430,-100,4,2,325,70,0,0
163738,-100,4,2,1,70,0,0
163841,-100,4,2,326,70,0,0
164047,-100,4,2,1,70,0,0
164252,-100,4,2,327,70,0,0
164525,-100,4,2,328,70,0,0
164663,-100,4,2,2,70,0,0
164799,-100,4,2,260,70,0,0
164869,-100,4,2,278,70,0,0
164971,-100,4,2,279,70,0,0
165074,-100,4,2,329,70,0,0
165382,-100,4,2,330,70,0,0
165691,-100,4,2,331,70,0,0
165896,-100,4,2,332,70,0,0
166204,-100,4,2,333,70,0,0
166512,-100,4,2,334,70,0,0
166718,-100,4,2,335,70,0,0
167026,-100,4,2,336,70,0,0
167334,-100,4,2,337,70,0,0
167540,-100,4,2,338,70,0,0
167951,-100,4,2,339,70,0,0
168054,-100,4,2,278,70,0,0
168156,-100,4,2,340,70,0,0
168259,-100,4,2,278,70,0,0
168362,-100,4,2,341,70,0,0
168978,-100,4,2,1,70,0,0
169184,-100,4,2,342,70,0,0
169800,-100,4,2,1,70,0,0
170006,-100,4,2,343,70,0,0
170622,-100,4,2,1,70,0,0
170827,-100,4,2,344,70,0,0
171649,-166.666666666667,4,2,345,70,0,0
171701,-166.666666666667,4,2,346,70,0,0
171717,-166.666666666667,4,2,347,70,0,0
171785,-166.666666666667,4,2,348,70,0,0
172883,-166.666666666667,4,2,349,50,0,0
173294,-166.666666666667,4,2,29,50,0,0
173601,-166.666666666667,4,2,89,50,0,0
173705,-166.666666666667,4,2,350,50,0,0
173910,-166.666666666667,4,2,351,50,0,0
174116,-166.666666666667,4,2,352,50,0,0
174321,-166.666666666667,4,2,353,50,0,0
174732,-166.666666666667,4,2,20,50,0,0
174835,-166.666666666667,4,2,354,50,0,0
174937,-166.666666666667,4,2,355,50,0,0
175348,-166.666666666667,4,2,356,50,0,0
175759,-166.666666666667,4,2,357,50,0,0
176170,-166.666666666667,4,2,358,50,0,0
176581,-166.666666666667,4,2,359,50,0,0
176787,-166.666666666667,4,2,360,50,0,0
177403,-166.666666666667,4,2,361,50,0,0
177609,-166.666666666667,4,2,362,50,0,0
178020,-166.666666666667,4,2,363,50,0,0
178122,-166.666666666667,4,2,364,50,0,0
178225,-166.666666666667,4,2,365,50,0,0
178636,-166.666666666667,4,2,366,50,0,0
178944,-166.666666666667,4,2,367,50,0,0
178996,-166.666666666667,4,2,368,50,0,0
179047,-166.666666666667,4,2,369,50,0,0
179458,-166.666666666667,4,2,370,50,0,0
179561,-166.666666666667,4,2,304,50,0,0
179663,-166.666666666667,4,2,371,50,0,0
179766,-166.666666666667,4,2,372,50,0,0
179869,-166.666666666667,4,2,373,50,0,0
180177,-166.666666666667,4,2,21,50,0,0
180280,-166.666666666667,4,2,374,50,0,0
180485,-166.666666666667,4,2,375,50,0,0
180691,-166.666666666667,4,2,21,50,0,0
180896,-166.666666666667,4,2,376,50,0,0
181307,-166.666666666667,4,2,377,50,0,0
181410,-166.666666666667,4,2,378,50,0,0
181513,-166.666666666667,4,2,379,50,0,0
181924,-166.666666666667,4,2,380,50,0,0
182129,-166.666666666667,4,2,350,50,0,0
182335,-166.666666666667,4,2,381,50,0,0
182643,-166.666666666667,4,2,382,50,0,0
182951,-166.666666666667,4,2,351,50,0,0
183157,-166.666666666667,4,2,383,50,0,0
183568,-166.666666666667,4,2,350,50,0,0
183773,-166.666666666667,4,2,384,50,0,0
183876,-166.666666666667,4,2,363,50,0,0
183979,-166.666666666667,4,2,385,50,0,0
184287,-166.666666666667,4,2,386,50,0,0
184595,-166.666666666667,4,2,387,50,0,0
184800,-166.666666666667,4,2,19,50,0,0
185006,-166.666666666667,4,2,388,50,0,0
185109,-166.666666666667,4,2,389,50,0,0
185211,-166.666666666667,4,2,390,50,0,0
185314,-166.666666666667,4,2,391,50,0,0
185417,-166.666666666667,4,2,378,50,0,0
185520,-166.666666666667,4,2,377,50,0,0
185622,-166.666666666667,4,2,364,50,0,0
185725,-166.666666666667,4,2,392,50,0,0
185828,-166.666666666667,4,2,393,50,0,0
185931,-166.666666666667,4,2,394,50,0,0
186033,-166.666666666667,4,2,395,50,0,0
186136,-166.666666666667,4,2,396,50,0,0
186238,-166.666666666667,4,2,267,50,0,0
186444,-166.666666666667,4,2,397,50,0,0
186753,-166.666666666667,4,2,398,50,0,0
186855,-166.666666666667,4,2,399,50,0,0
187060,-166.666666666667,4,2,400,50,0,0
187266,-166.666666666667,4,2,401,50,0,0
187472,-166.666666666667,4,2,402,50,0,0
187882,-166.666666666667,4,2,403,50,0,0
187985,-166.666666666667,4,2,404,50,0,0
188088,-166.666666666667,4,2,405,50,0,0
188499,-166.666666666667,4,2,406,50,0,0
188910,-166.666666666667,4,2,407,50,0,0
189115,-166.666666666667,4,2,408,50,0,0
189321,-166.666666666667,4,2,27,50,0,0
189526,-166.666666666667,4,2,409,50,0,0
189732,-166.666666666667,4,2,410,50,0,0
189937,-166.666666666667,4,2,411,50,0,0
190040,-166.666666666667,4,2,89,50,0,0
190143,-166.666666666667,4,2,350,50,0,0
190348,-166.666666666667,4,2,350,50,0,0
190554,-166.666666666667,4,2,412,50,0,0
190759,-166.666666666667,4,2,413,50,0,0
191170,-166.666666666667,4,2,414,50,0,0
191273,-166.666666666667,4,2,19,50,0,0
191375,-166.666666666667,4,2,415,50,0,0
191786,-166.666666666667,4,2,416,50,0,0
192095,-166.666666666667,4,2,417,50,0,0
192146,-166.666666666667,4,2,418,50,0,0
192197,-166.666666666667,4,2,350,50,0,0
192608,-166.666666666667,4,2,419,50,0,0
192711,-166.666666666667,4,2,399,50,0,0
192814,-166.666666666667,4,2,420,50,0,0
192917,-166.666666666667,4,2,394,50,0,0
193019,-166.666666666667,4,2,421,50,0,0
193328,-166.666666666667,4,2,398,50,0,0
193431,-166.666666666667,4,2,399,50,0,0
193636,-166.666666666667,4,2,422,50,0,0
193842,-166.666666666667,4,2,423,50,0,0
194047,-166.666666666667,4,2,407,50,0,0
194252,-166.666666666667,4,2,408,50,0,0
194458,-166.666666666667,4,2,352,50,0,0
194663,-166.666666666667,4,2,424,50,0,0
195049,-166.666666666667,4,2,425,50,0,0
195074,-166.666666666667,4,2,426,50,0,0
195460,-166.666666666667,4,2,427,50,0,0
195485,-166.666666666667,4,2,428,50,0,0
195896,-166.666666666667,4,2,352,50,0,0
196101,-166.666666666667,4,2,411,50,0,0
196307,-166.666666666667,4,2,429,50,0,0
196512,-166.666666666667,4,2,423,50,0,0
196718,-166.666666666667,4,2,430,50,0,0
196923,-166.666666666667,4,2,431,50,0,0
197129,-166.666666666667,4,2,432,50,0,0
197334,-166.666666666667,4,2,273,50,0,0
197540,-166.666666666667,4,2,433,50,0,0
197745,-166.666666666667,4,2,434,50,0,0
197951,-166.666666666667,4,2,435,50,0,0
198362,-166.666666666667,4,2,436,50,0,0
198978,-166.666666666667,4,2,19,50,0,0
199184,-166.666666666667,4,2,120,50,0,0
199389,-166.666666666667,4,2,437,50,0,0
199595,-100,4,2,438,60,0,0
199646,-100,4,2,439,30,0,0
199800,-100,4,2,440,30,0,0
199903,-100,4,2,439,30,0,0
200006,-100,4,2,441,30,0,0
200108,-100,4,2,442,30,0,0
200211,-100,4,2,443,40,0,0
200314,-100,4,2,442,40,0,0
200417,-100,4,2,444,45,0,0
200519,-100,4,2,445,45,0,0
200622,-100,4,2,446,50,0,0
200725,-100,4,2,445,50,0,0
200827,-100,4,2,447,55,0,0
200929,-100,4,2,448,55,0,0
201032,-100,4,2,449,60,0,0
201135,-100,4,2,448,60,0,0
201238,-100,4,2,450,80,0,0
201855,-100,4,2,451,80,0,0
202266,-100,4,2,452,60,0,0
202471,-100,4,2,453,60,0,0
202677,-100,4,2,454,60,0,0
202882,-100,4,2,455,80,0,1
202985,-100,4,2,455,80,0,0
203191,-100,4,2,456,60,0,0
203294,-100,4,2,457,60,0,0
203499,-100,4,2,458,80,0,0
203704,-100,4,2,459,80,0,0
203910,-100,4,2,1,80,0,0
204115,-100,4,2,437,80,0,0
204218,-100,4,2,274,80,0,0
204321,-100,4,2,274,80,0,0
204526,-100,4,2,334,80,0,0
204706,-100,4,2,460,80,0,0
204732,-66.6666666666667,4,2,461,80,0,0
205015,-66.6666666666667,4,2,460,80,0,0
205040,-66.6666666666667,4,2,462,80,0,0
205323,-66.6666666666667,4,2,463,80,0,0
205348,-66.6666666666667,4,2,464,80,0,0
205758,-66.6666666666667,4,2,465,80,0,0
206170,-66.6666666666667,4,2,466,55,0,1
206478,-66.6666666666667,4,2,140,80,0,1
206581,-66.6666666666667,4,2,141,80,0,1
206786,-66.6666666666667,4,2,142,80,0,1
206992,-66.6666666666667,4,2,139,80,0,1
207300,-66.6666666666667,4,2,140,80,0,1
207403,-66.6666666666667,4,2,141,80,0,1
207608,-66.6666666666667,4,2,142,80,0,1
207814,-66.6666666666667,4,2,143,80,0,1
208019,-66.6666666666667,4,2,120,80,0,1
208122,-66.6666666666667,4,2,144,80,0,1
208225,-66.6666666666667,4,2,145,80,0,1
208430,-66.6666666666667,4,2,146,80,0,1
208636,-66.6666666666667,4,2,147,80,0,1
208944,-66.6666666666667,4,2,144,80,0,1
209047,-100,4,2,148,80,0,1
209252,-100,4,2,149,80,0,1
209354,-100,4,2,1,80,0,1
209458,-100,4,2,150,80,0,1
209766,-100,4,2,126,80,0,1
209869,-100,4,2,127,80,0,1
210074,-100,4,2,128,80,0,1
210280,-100,4,2,129,80,0,1
210588,-100,4,2,130,80,0,1
210690,-100,4,2,131,80,0,1
210896,-100,4,2,132,80,0,1
211101,-100,4,2,151,80,0,1
211410,-100,4,2,152,80,0,1
211512,-100,4,2,134,80,0,1
211718,-100,4,2,153,80,0,1
211923,-100,4,2,136,80,0,1
212129,-100,4,2,154,80,0,1
212334,-100,4,2,155,80,0,1
212540,-100,4,2,156,80,0,1
212745,-100,4,2,157,80,0,1
213054,-100,4,2,158,80,0,1
213156,-100,4,2,159,80,0,1
213361,-100,4,2,160,80,0,1
213567,-100,4,2,161,80,0,1
213875,-100,4,2,158,80,0,1
213978,-100,4,2,159,80,0,1
214184,-100,4,2,162,80,0,1
214389,-100,4,2,163,55,0,1
214595,-100,4,2,164,80,0,1
214697,-100,4,2,165,80,0,1
214800,-100,4,2,270,80,0,1
214902,-100,4,2,167,80,0,1
215005,-100,4,2,271,80,0,1
215108,-100,4,2,169,80,0,1
215211,-100,4,2,272,80,0,1
215313,-100,4,2,171,80,0,1
215417,-100,4,2,172,80,0,1
215622,-100,4,2,173,80,0,1
215827,-100,4,2,174,80,0,1
216033,-100,4,2,467,55,0,1
216341,-100,4,2,176,80,0,1
216444,-100,4,2,177,80,0,1
216649,-100,4,2,178,80,0,1
216855,-100,4,2,179,80,0,1
217060,-100,4,2,130,80,0,1
217266,-100,4,2,180,80,0,1
217471,-100,4,2,181,80,0,1
217677,-76.9230769230769,4,2,182,80,0,1
217985,-76.9230769230769,4,2,134,80,0,1
218088,-76.9230769230769,4,2,135,80,0,1
218293,-76.9230769230769,4,2,136,80,0,1
218499,-76.9230769230769,4,2,137,80,0,1
218704,-76.9230769230769,4,2,134,80,0,1
218910,-76.9230769230769,4,2,138,80,0,1
219115,-76.9230769230769,4,2,136,80,0,1
219321,-76.9230769230769,4,2,139,80,0,1
219629,-76.9230769230769,4,2,140,80,0,1
219732,-76.9230769230769,4,2,141,80,0,1
219937,-76.9230769230769,4,2,142,80,0,1
220143,-76.9230769230769,4,2,183,80,0,1
220451,-76.9230769230769,4,2,140,80,0,1
220554,-76.9230769230769,4,2,141,80,0,1
220759,-76.9230769230769,4,2,142,80,0,1
220964,-76.9230769230769,4,2,184,80,0,1
221170,-76.9230769230769,4,2,120,80,0,1
221273,-76.9230769230769,4,2,144,80,0,1
221375,-76.9230769230769,4,2,185,80,0,1
221581,-76.9230769230769,4,2,186,80,0,1
221786,-76.9230769230769,4,2,187,80,0,1
222095,-76.9230769230769,4,2,144,80,0,1
222197,-100,4,2,188,80,0,1
222403,-100,4,2,149,80,0,1
222505,-100,4,2,1,80,0,1
222608,-100,4,2,189,80,0,1
222917,-100,4,2,130,80,0,1
223019,-100,4,2,190,80,0,1
223224,-100,4,2,191,80,0,1
223430,-100,4,2,192,80,0,1
223636,-100,4,2,193,80,0,1
223738,-100,4,2,130,80,0,1
223841,-100,4,2,194,80,0,1
224047,-100,4,2,195,80,0,1
224252,-100,4,2,196,80,0,1
224561,-100,4,2,134,80,0,1
224663,-100,4,2,197,80,0,1
224869,-100,4,2,136,80,0,1
225074,-100,4,2,198,80,0,1
225280,-100,4,2,134,80,0,1
225485,-100,4,2,199,80,0,1
225690,-100,4,2,200,80,0,1
225896,-100,4,2,201,80,0,1
226205,-100,4,2,202,80,0,1
226307,-100,4,2,203,80,0,1
226512,-100,4,2,204,80,0,1
226718,-100,4,2,205,80,0,1
227026,-100,4,2,202,80,0,1
227129,-100,4,2,203,80,0,1
227334,-100,4,2,204,80,0,1
227540,-100,4,2,468,80,0,1
227745,-100,4,2,1,80,0,1
227951,-100,4,2,469,80,0,1
228156,-100,4,2,172,80,0,1
228567,-100,4,2,470,80,0,1
228773,-100,4,2,471,80,0,1
228978,-100,4,2,472,80,0,1
229184,-100,4,2,473,70,0,0
229389,-100,4,2,474,70,0,0
229458,-100,4,2,475,70,0,0
229527,-100,4,2,476,70,0,0
229595,-100,4,2,477,70,0,0
229663,-100,4,2,478,70,0,0
229732,-100,4,2,479,70,0,0
229800,-100,4,2,480,70,0,0
229869,-100,4,2,347,70,0,0
229937,-100,4,2,481,70,0,0
230006,-100,4,2,482,70,0,0
230109,-100,4,2,483,70,0,0
230211,-100,4,2,484,70,0,0
230314,-100,4,2,485,70,0,0
230417,-100,4,2,486,70,0,0
230519,-100,4,2,487,70,0,0
230622,-100,4,2,488,70,0,0
230725,-100,4,2,489,70,0,0
230827,-100,4,2,490,70,0,0
231032,-100,4,2,491,70,0,0
231102,-100,4,2,492,70,0,0
231170,-100,4,2,493,70,0,0
231238,-100,4,2,494,70,0,0
231307,-100,4,2,495,70,0,0
231375,-100,4,2,346,70,0,0
231443,-100,4,2,496,70,0,0
231513,-100,4,2,497,70,0,0
231581,-100,4,2,498,70,0,0
231649,-100,4,2,499,70,0,0
231753,-100,4,2,500,70,0,0
231855,-100,4,2,501,70,0,0
231958,-100,4,2,502,70,0,0
232060,-100,4,2,503,70,0,0
232163,-100,4,2,306,70,0,0
232265,-100,4,2,504,70,0,0
232369,-100,4,2,257,70,0,0
232471,-100,4,2,505,70,0,0
232676,-100,4,2,506,70,0,0
232746,-100,4,2,507,70,0,0
232814,-100,4,2,508,70,0,0
232882,-100,4,2,509,70,0,0
232951,-100,4,2,290,70,0,0
233019,-100,4,2,346,70,0,0
233087,-100,4,2,510,70,0,0
233293,-100,4,2,511,70,0,0
233499,-100,4,2,512,70,0,0
233568,-100,4,2,290,70,0,0
233636,-100,4,2,346,70,0,0
233704,-100,4,2,513,70,0,0
233773,-100,4,2,514,70,0,0
233841,-100,4,2,498,70,0,0
233909,-100,4,2,515,70,0,0
234115,-100,4,2,516,70,0,0
234321,-100,4,2,517,70,0,0
234389,-100,4,2,290,70,0,0
234458,-100,4,2,518,70,0,0
234525,-100,4,2,519,70,0,0
234595,-100,4,2,514,70,0,0
234663,-100,4,2,520,70,0,0
234732,-100,4,2,521,70,0,0
234936,-100,4,2,522,70,0,0
235143,-100,4,2,523,70,0,0
235348,-100,4,2,524,70,0,0
235554,-100,4,2,525,70,0,0
235759,-100,4,2,526,70,0,0
235964,-100,4,2,527,70,0,0
236033,-100,4,2,528,70,0,0
236102,-100,4,2,529,70,0,0
236170,-100,4,2,530,70,0,0
236238,-100,4,2,531,70,0,0
236307,-100,4,2,532,70,0,0
236375,-100,4,2,533,70,0,0
236444,-100,4,2,347,70,0,0
236513,-100,4,2,481,70,0,0
236581,-100,4,2,482,70,0,0
236684,-100,4,2,483,70,0,0
236786,-100,4,2,484,70,0,0
236890,-100,4,2,534,70,0,0
236992,-100,4,2,535,70,0,0
237095,-100,4,2,536,70,0,0
237197,-100,4,2,488,70,0,0
237300,-100,4,2,489,70,0,0
237403,-100,4,2,490,70,0,0
237608,-100,4,2,491,70,0,0
237677,-100,4,2,537,70,0,0
237745,-100,4,2,508,70,0,0
237813,-100,4,2,538,70,0,0
237883,-100,4,2,495,70,0,0
237951,-100,4,2,346,70,0,0
238019,-100,4,2,539,70,0,0
238225,-100,4,2,540,70,0,0
238430,-100,4,2,541,70,0,0
238499,-100,4,2,495,70,0,0
238568,-100,4,2,346,70,0,0
238636,-100,4,2,542,70,0,0
238705,-100,4,2,497,70,0,0
238773,-100,4,2,498,70,0,0
238841,-100,4,2,543,70,0,0
239047,-100,4,2,544,70,0,0
239252,-100,4,2,545,70,0,0
239458,-100,4,2,546,70,0,0
239663,-100,4,2,547,70,0,0
239869,-100,4,2,548,70,0,0
239937,-100,4,2,549,70,0,0
240006,-100,4,2,550,70,0,0
240074,-100,4,2,551,70,0,0
240143,-100,4,2,346,70,0,0
240211,-100,4,2,347,70,0,0
240280,-100,4,2,552,70,0,0
240348,-100,4,2,498,70,0,0
240417,-100,4,2,553,70,0,0
240485,-100,4,2,554,70,0,0
240690,-100,4,2,555,70,0,0
240896,-100,4,2,556,70,0,0
241100,-100,4,2,557,70,0,0
241307,-100,4,2,558,70,0,0
241410,-100,4,2,1,70,0,0
241512,-100,4,2,559,70,0,0
241718,-100,4,2,560,70,0,0
241923,-100,4,2,561,70,0,0
242129,-100,4,2,562,70,0,0
242334,-83.3333333333333,4,2,563,70,0,0
242643,-83.3333333333333,4,2,564,50,0,0
242951,-83.3333333333333,4,2,565,50,0,0
243362,-83.3333333333333,4,2,566,50,0,0
243773,-83.3333333333333,4,2,89,50,0,0
243978,-83.3333333333333,4,2,567,50,0,0
244286,-83.3333333333333,4,2,568,50,0,0
244389,-83.3333333333333,4,2,89,50,0,0
244595,-83.3333333333333,4,2,569,50,0,0
245006,-83.3333333333333,4,2,570,50,0,0
245211,-83.3333333333333,4,2,89,50,0,0
245416,-83.3333333333333,4,2,571,50,0,0
245622,-83.3333333333333,4,2,572,50,0,0
245828,-83.3333333333333,4,2,136,50,0,0
246033,-83.3333333333333,4,2,573,50,0,0
246238,-83.3333333333333,4,2,574,50,0,0
246650,-83.3333333333333,4,2,575,50,0,0
246855,-83.3333333333333,4,2,576,50,0,0
247061,-83.3333333333333,4,2,577,50,0,0
247266,-83.3333333333333,4,2,578,50,0,0
247677,-83.3333333333333,4,2,579,50,0,0
248088,-83.3333333333333,4,2,580,50,0,0
248499,-83.3333333333333,4,2,581,50,0,0
248910,-83.3333333333333,4,2,582,50,0,0
249218,-83.3333333333333,4,2,583,50,0,0
249526,-83.3333333333333,4,2,584,50,0,0
249937,-83.3333333333333,4,2,190,50,0,0
250143,-83.3333333333333,4,2,585,50,0,0
250554,-83.3333333333333,4,2,586,50,0,0
250862,-83.3333333333333,4,2,587,50,0,0
250964,-83.3333333333333,4,2,89,50,0,0
251170,-83.3333333333333,4,2,565,50,0,0
251581,-83.3333333333333,4,2,588,50,0,0
251786,-83.3333333333333,4,2,589,50,0,0
251992,-83.3333333333333,4,2,590,50,0,0
252146,-83.3333333333333,4,2,89,50,0,0
252172,-83.3333333333333,4,2,591,50,0,0
252197,-83.3333333333333,4,2,592,50,0,0
252403,-83.3333333333333,4,2,577,50,0,0
252608,-83.3333333333333,4,2,593,50,0,0
252814,-83.3333333333333,4,2,594,50,0,0
252968,-83.3333333333333,4,2,89,50,0,0
252994,-83.3333333333333,4,2,591,50,0,0
253019,-83.3333333333333,4,2,595,50,0,0
253225,-83.3333333333333,4,2,596,50,0,0
253430,-83.3333333333333,4,2,597,50,0,0
253636,-83.3333333333333,4,2,598,50,0,0
253790,-83.3333333333333,4,2,89,50,0,0
253816,-83.3333333333333,4,2,591,50,0,0
253841,-83.3333333333333,4,2,599,50,0,0
254252,-83.3333333333333,4,2,600,50,0,0
254869,-83.3333333333333,4,2,601,50,0,0
255460,-83.3333333333333,4,2,602,50,0,0
255485,500,4,2,603,40,1,0
255735,-100,4,2,604,40,0,0
255985,571.428571428571,4,2,605,40,1,0
256270,-100,4,2,606,40,0,0
256413,-100,4,2,607,40,0,0
256449,-100,4,2,608,40,0,0
256485,-100,4,2,14,40,0,0
256520,-100,4,2,609,40,0,0
256556,612.244897959184,4,2,610,40,1,0
256989,-100,4,2,611,40,0,0
257168,631.578947368421,4,2,611,40,1,0
257277,-100,4,2,33,40,0,0
257483,-100,4,2,33,40,0,0
257507,631.578947368421,4,2,33,40,1,0
257720,-100,4,2,612,40,0,0
257760,-100,4,2,613,40,0,0
257799,666.666666666667,4,2,616,40,1,0
257965,-100,4,2,100,40,0,0
258757,-100,4,2,617,30,0,0
258798,-100,4,2,618,30,0,0
258840,-100,4,2,619,30,0,0

[Colours]
Combo1 : 66,68,127
Combo2 : 234,217,226
Combo3 : 153,79,115
Combo4 : 205,128,181
Combo5 : 229,120,95

[HitObjects]
126,349,691,6,0,L|145:226,1,112,2|0,2:2|0:0,0:0:0:0:
152,144,1307,2,0,P|92:157|39:171,1,112,2|2,2:2|2:2,0:0:0:0:
57,79,1923,1,2,2:2:0:0:
256,192,2334,5,2,2:2:0:0:
431,335,2951,1,2,2:2:0:0:
431,335,3156,2,0,P|469:280|443:222,1,112,2|0,2:2|0:0,0:0:0:0:
415,156,3773,1,2,2:2:0:0:
415,156,3875,1,2,2:2:0:0:
415,156,3978,6,0,P|353:167|292:176,1,112,2|2,2:2|2:2,0:0:0:0:
176,292,4800,2,0,L|306:313,1,112,2|2,2:2|2:2,0:0:0:0:
181,200,5417,1,2,2:2:0:0:
93,289,5622,2,0,P|86:242|79:204,2,83.9999999999999,2|0|2,2:2|0:0|2:2,0:0:0:0:
43,34,6649,1,2,3:2:0:0:
43,34,6752,1,2,2:2:0:0:
43,34,6855,2,0,L|46:85,3,28,2|2|2|0,2:2|2:2|3:2|0:0,0:0:0:0:
25,100,7266,6,0,P|88:93|155:87,1,112,6|2,3:2|2:2,0:0:0:0:
136,88,7882,1,2,2:2:0:0:
457,89,8293,1,2,2:2:0:0:
381,33,8499,1,2,2:2:0:0:
375,130,8704,1,2,2:2:0:0:
457,89,8910,6,0,L|439:213,2,112,6|2|2,3:2|2:2|2:2,0:0:0:0:
332,238,9937,1,0,3:3:0:0:
487,333,10143,5,2,1:2:0:0:
392,308,10348,1,2,2:2:0:0:
332,238,10554,1,6,3:2:0:0:
48,255,10964,5,10,2:2:0:0:
138,222,11170,1,6,2:2:0:0:
184,132,11375,1,6,2:2:0:0:
475,117,11786,5,2,3:2:0:0:
369,91,11992,1,2,3:2:0:0:
304,2,12197,1,2,1:2:0:0:
258,197,12608,1,0,1:1:0:0:
217,374,13019,1,0,3:3:0:0:
217,374,13225,2,0,P|268:338|328:364,1,112,4|0,1:2|1:1,0:0:0:0:
405,317,13841,6,0,L|396:381,1,64,14|2,3:2|2:2,0:0:0:0:
318,190,14252,2,0,L|331:252,1,64,2|2,3:2|2:2,0:0:0:0:
421,202,14663,1,2,3:2:0:0:
311,98,14869,2,0,L|379:113,1,64,2|0,2:2|3:3,0:0:0:0:
421,202,15280,1,2,2:2:0:0:
270,323,15485,6,0,P|231:261|260:195,2,128,0|0|0,3:3|3:3|3:3,0:0:0:0:
145,202,16512,1,2,2:2:0:0:
59,253,16718,1,2,3:2:0:0:
12,161,16923,6,0,L|28:34,1,128,2|0,2:2|0:0,0:0:0:0:
122,95,17540,2,0,P|162:81|190:57,1,64,2|2,3:2|2:2,0:0:0:0:
296,26,17951,2,0,L|280:110,1,64,2|2,3:2|2:2,0:0:0:0:
218,160,18362,1,2,3:2:0:0:
267,269,18567,6,0,P|328:279|383:228,1,128,2|0,2:2|2:2,0:0:0:0:
480,215,19184,2,0,P|466:183|438:154,1,64,0|0,3:3|2:2,0:0:0:0:
355,143,19595,1,0,3:3:0:0:
355,143,19800,1,0,2:2:0:0:
427,63,20006,1,2,3:2:0:0:
355,143,20211,1,2,2:2:0:0:
308,45,20417,6,0,B|170:31,1,128,2|2,3:2|3:2,0:0:0:0:
102,89,21033,2,0,P|82:49|90:13,1,64,2|0,2:2|3:3,0:0:0:0:
186,130,21444,2,0,L|169:210,1,64,2|0,2:2|3:3,0:0:0:0:
134,280,21855,6,0,L|3:266,1,128,2|2,2:2|2:2,0:0:0:0:
89,372,22471,1,2,3:2:0:0:
172,192,22677,2,0,P|223:245|217:302,1,128,2|0,2:2|0:0,0:0:0:0:
375,234,23293,1,2,3:2:0:0:
307,348,23499,1,2,2:2:0:0:
413,322,23704,5,2,3:2:0:0:
311,242,23910,2,0,L|375:234,1,64,2|0,2:2|3:3,0:0:0:0:
506,262,24321,1,2,2:2:0:0:
412,148,24526,1,0,3:3:0:0:
512,158,24732,1,2,3:2:0:0:
434,32,24937,1,2,3:2:0:0:
311,137,25143,6,0,B|284:88|284:88|310:0,1,128,6|2,3:2|2:2,0:0:0:0:
214,183,25759,1,2,2:2:0:0:
303,254,25964,1,2,1:2:0:0:
303,254,26067,1,0,1:1:0:0:
303,254,26170,2,0,L|380:237,1,64,2|2,3:2|3:2,0:0:0:0:
375,244,26478,1,0,1:1:0:0:
383,252,26581,2,0,L|369:304,1,32,2|0,3:2|1:1,0:0:0:0:
451,180,26786,2,0,L|433:123,1,32,0|0,3:3|0:0,0:0:0:0:
376,18,26992,5,6,3:2:0:0:
508,72,27197,1,2,1:2:0:0:
324,140,27403,1,2,3:2:0:0:
376,18,27608,1,2,1:2:0:0:
212,72,27814,1,2,3:2:0:0:
109,11,28019,2,0,L|96:89,1,64,2|0,1:2|3:3,0:0:0:0:
232,198,28430,6,0,L|209:59,1,128,2|0,1:2|1:1,0:0:0:0:
116,209,29047,1,0,3:3:0:0:
116,209,29149,1,0,1:1:0:0:
116,209,29252,1,2,1:2:0:0:
23,165,29458,1,0,3:3:0:0:
177,298,29663,1,2,1:2:0:0:
90,321,29869,1,2,3:2:0:0:
7,347,30074,1,2,1:2:0:0:
7,347,30177,1,0,1:1:0:0:
7,347,30280,5,6,3:2:0:0:
184,339,30485,1,2,1:2:0:0:
181,319,30588,1,0,1:1:0:0:
177,298,30690,1,2,3:2:0:0:
226,210,30896,1,2,1:2:0:0:
297,348,31101,2,0,L|310:260,1,64,2|2,3:2|1:2,0:0:0:0:
402,326,31512,1,2,3:2:0:0:
451,207,31718,6,0,P|418:221|376:216,1,64,2|4,1:2|3:3,0:0:0:0:
403,119,32129,1,2,1:2:0:0:
306,284,32334,2,0,L|292:199,1,64,0|0,3:3|1:1,0:0:0:0:
403,119,32745,1,0,3:3:0:0:
322,52,32951,1,0,1:1:0:0:
322,52,33054,1,0,1:1:0:0:
322,52,33156,1,2,3:2:0:0:
235,116,33362,1,2,1:2:0:0:
213,122,33464,1,0,1:1:0:0:
196,125,33567,6,0,B|66:111,1,128,6|2,3:2|3:2,0:0:0:0:
37,227,34184,2,0,L|102:216,1,64,2|0,1:2|3:3,0:0:0:0:
153,329,34595,2,0,L|80:318,1,64,2|0,1:2|3:3,0:0:0:0:
222,262,35006,6,0,P|256:313|231:382,1,128,2|2,1:2|1:2,0:0:0:0:
326,218,35622,1,2,3:2:0:0:
326,218,35725,1,0,1:1:0:0:
326,218,35827,1,2,1:2:0:0:
455,344,36033,1,0,3:3:0:0:
359,309,36238,1,0,1:1:0:0:
478,194,36444,1,2,3:2:0:0:
385,62,36649,1,2,1:2:0:0:
385,62,36752,1,0,1:1:0:0:
385,62,36855,5,6,3:2:0:0:
308,126,37060,1,0,1:1:0:0:
308,126,37163,1,0,1:1:0:0:
308,126,37266,1,0,3:3:0:0:
243,40,37471,1,2,1:2:0:0:
385,62,37677,1,2,1:2:0:0:
174,162,37882,1,6,2:2:0:0:
308,126,38088,1,10,2:2:0:0:
123,10,38293,6,0,P|84:50|100:128,1,128,6|2,3:2|1:2,0:0:0:0:
174,162,38910,1,0,3:3:0:0:
102,279,39115,2,0,L|89:189,1,64,2|0,3:2|3:3,0:0:0:0:
203,248,39526,1,2,1:2:0:0:
201,262,39629,1,0,1:1:0:0:
200,275,39732,1,0,3:3:0:0:
190,365,39937,1,2,3:2:0:0:
92,215,40143,5,14,3:2:0:0:
286,124,40451,1,14,3:2:0:0:
286,323,40759,1,14,3:2:0:0:
212,232,40964,5,2,1:2:0:0:
212,232,41375,2,0,L|199:178,3,32,0|0|2|0,1:1|1:1|1:2|1:1,0:0:0:0:
185,178,41786,5,6,3:2:0:0:
349,31,42095,1,2,3:2:0:0:
394,247,42403,1,2,3:2:0:0:
317,146,42608,6,0,L|366:135,3,32,2|0|0|0,1:2|1:1|1:1|1:1,0:0:0:0:
380,149,43019,2,0,L|435:154,3,32,0|0|2|0,1:1|0:0|1:2|1:1,0:0:0:0:
445,135,43430,5,14,3:2:0:0:
248,237,43738,1,14,3:2:0:0:
418,368,44047,1,14,3:2:0:0:
377,258,44252,5,2,1:2:0:0:
377,258,44663,2,0,L|368:208,3,32,0|0|2|0,1:1|0:0|1:2|1:1,0:0:0:0:
355,205,45074,6,0,L|277:193,1,64,6|0,3:2|0:0,0:0:0:0:
93,147,45485,2,0,L|176:133,1,64,2|0,3:2|0:0,0:0:0:0:
358,70,45896,2,0,L|269:58,1,64,2|0,3:2|0:0,0:0:0:0:
156,136,46307,1,2,3:2:0:0:
15,52,46512,6,0,B|-13:104|-13:104|1:181,1,128,6|2,3:2|3:2,0:0:0:0:
126,304,47129,1,2,1:2:0:0:
43,253,47334,1,2,3:2:0:0:
0,373,47540,1,2,3:2:0:0:
126,304,47745,1,2,3:2:0:0:
43,253,47951,1,2,1:2:0:0:
211,351,48156,6,0,L|229:217,1,128,6|2,3:2|3:2,0:0:0:0:
184,131,48773,1,2,1:2:0:0:
339,250,48978,1,2,3:2:0:0:
299,131,49184,1,2,1:2:0:0:
299,131,49286,1,0,1:1:0:0:
299,131,49389,1,0,3:3:0:0:
393,173,49595,1,6,1:2:0:0:
483,130,49800,1,2,3:2:0:0:
234,34,50006,5,6,1:2:0:0:
385,77,50211,1,2,3:2:0:0:
219,232,50417,1,2,1:2:0:0:
299,131,50622,1,2,3:2:0:0:
368,340,50827,1,2,1:2:0:0:
316,222,51033,1,2,3:2:0:0:
48,365,51444,6,0,L|30:219,1,144,6|0,3:2|3:3,0:0:0:0:
115,168,52060,1,2,3:2:0:0:
31,223,52266,1,2,3:2:0:0:
220,220,52471,1,0,3:3:0:0:
115,168,52677,1,2,3:2:0:0:
346,158,52882,1,2,3:2:0:0:
220,220,53088,1,2,3:2:0:0:
460,232,53293,5,10,3:2:0:0:
346,158,53601,1,10,3:2:0:0:
220,220,53910,1,10,3:2:0:0:
115,168,54115,5,2,1:2:0:0:
163,357,54321,1,2,1:2:0:0:
163,357,54423,1,0,1:1:0:0:
163,357,54526,2,0,L|116:369,3,36,2|0|2|0,3:2|1:1|1:2|0:0,0:0:0:0:
97,359,54937,6,0,L|84:268,1,80,14|0,3:2|0:0,0:0:0:0:
56,242,55245,1,2,1:2:0:0:
56,242,55348,2,0,P|95:255|146:240,1,80,2|2,3:2|1:2,0:0:0:0:
186,93,55759,1,10,3:2:0:0:
107,158,55964,1,0,1:1:0:0:
107,158,56067,1,2,1:2:0:0:
107,158,56170,1,2,3:2:0:0:
232,211,56375,1,2,1:2:0:0:
361,100,56581,6,0,L|342:271,1,156,2|2,3:2|1:2,0:0:0:0:
361,100,56992,6,0,L|474:252,1,156,2|0,3:2|0:0,0:0:0:0:
357,97,57403,6,0,L|523:132,1,156,2|2,3:2|2:2,0:0:0:0:
357,97,57814,6,0,L|508:11,1,156,2|0,3:2|1:1,0:0:0:0:
361,100,58225,5,14,3:2:0:0:
217,167,58430,1,0,0:0:0:0:
217,167,58533,1,2,1:2:0:0:
217,167,58636,1,2,3:2:0:0:
123,107,58841,1,2,1:2:0:0:
351,247,59047,5,2,3:2:0:0:
217,167,59252,1,0,0:0:0:0:
217,167,59355,1,2,1:2:0:0:
217,167,59458,1,2,3:2:0:0:
123,107,59663,1,2,1:2:0:0:
54,336,59869,5,6,3:2:0:0:
122,245,60074,1,2,2:2:0:0:
149,261,60177,1,2,1:2:0:0:
159,284,60280,1,6,3:2:0:0:
54,336,60485,1,2,1:2:0:0:
319,216,60690,5,6,3:2:0:0:
267,357,60896,1,0,0:0:0:0:
263,343,60999,1,2,1:2:0:0:
259,329,61101,2,0,L|247:269,1,52,2|0,3:2|0:0,0:0:0:0:
319,216,61307,2,0,L|330:151,1,52,2|2,1:2|1:3,0:0:0:0:
213,53,61512,6,0,L|229:144,1,80,14|0,3:2|0:0,0:0:0:0:
223,146,61821,1,10,1:2:0:0:
215,156,61923,2,0,P|168:152|129:113,1,80,10|2,3:2|1:2,0:0:0:0:
339,85,62334,2,0,L|325:177,1,80,10|0,3:2|1:1,0:0:0:0:
399,362,62745,1,2,3:2:0:0:
233,242,62951,1,2,1:2:0:0:
423,240,63156,5,10,3:2:0:0:
406,251,63259,1,0,0:0:0:0:
231,350,63464,1,10,1:2:0:0:
248,342,63567,1,2,2:2:0:0:
325,294,63773,1,2,1:2:0:0:
138,384,63978,5,2,3:2:0:0:
80,307,64184,1,2,1:2:0:0:
248,342,64389,1,2,3:2:0:0:
88,208,64595,1,2,1:2:0:0:
88,208,64697,1,0,1:1:0:0:
88,208,64800,6,0,L|72:129,1,80,6|0,3:2|0:0,0:0:0:0:
62,117,65108,1,2,1:2:0:0:
51,102,65211,2,0,P|91:116|149:107,1,80,2|2,3:2|1:2,0:0:0:0:
297,27,65622,1,6,3:2:0:0:
246,148,65827,1,0,0:0:0:0:
246,148,65930,1,2,1:2:0:0:
246,148,66033,1,2,3:2:0:0:
361,271,66238,1,2,1:2:0:0:
438,200,66444,5,6,3:2:0:0:
260,260,66649,1,2,1:2:0:0:
254,291,66752,1,2,1:2:0:0:
271,318,66855,2,0,L|216:303,3,40,2|2|2|2,1:2|3:2|1:2|1:2,0:0:0:0:
160,219,67266,2,0,L|106:238,1,40,2|2,3:2|3:2,0:0:0:0:
15,312,67471,6,0,L|88:326,1,40,2|0,1:2|3:3,0:0:0:0:
122,232,67677,2,0,L|160:219,1,40,2|0,3:2|3:3,0:0:0:0:
232,307,67882,2,0,L|271:318,1,40,2|0,1:2|1:1,0:0:0:0:
457,358,68088,6,0,P|477:325|466:276,1,80,14|0,3:2|0:0,0:0:0:0:
464,275,68396,1,2,1:2:0:0:
456,264,68499,2,0,L|368:278,1,80,2|2,3:2|1:2,0:0:0:0:
273,109,68910,1,10,3:2:0:0:
368,170,69115,1,0,1:1:0:0:
368,170,69218,1,2,1:2:0:0:
368,170,69321,1,2,3:2:0:0:
418,44,69526,1,2,1:2:0:0:
231,201,69732,6,0,L|199:12,1,156,2|2,3:2|1:2,0:0:0:0:
231,201,70143,6,0,L|115:56,1,156,2|0,3:2|0:0,0:0:0:0:
231,201,70554,6,0,L|297:51,1,156,2|2,3:2|2:2,0:0:0:0:
231,201,70964,6,0,L|63:138,1,156,2|0,3:2|1:1,0:0:0:0:
231,201,71375,5,14,3:2:0:0:
383,169,71581,1,0,0:0:0:0:
383,169,71684,1,2,1:2:0:0:
383,169,71786,1,2,3:2:0:0:
477,136,71992,1,2,1:2:0:0:
293,294,72197,5,10,3:2:0:0:
396,267,72403,1,0,0:0:0:0:
396,267,72506,1,2,1:2:0:0:
396,267,72608,1,2,3:2:0:0:
477,236,72814,1,2,1:2:0:0:
247,116,73019,5,2,3:2:0:0:
308,201,73225,1,2,2:2:0:0:
336,174,73327,1,2,1:2:0:0:
348,133,73430,1,6,3:2:0:0:
247,116,73636,1,2,1:2:0:0:
192,321,73841,5,6,3:2:0:0:
293,270,74047,1,0,0:0:0:0:
311,261,74149,1,2,1:2:0:0:
329,255,74252,2,0,L|260:243,1,52,2|0,3:2|0:0,0:0:0:0:
247,116,74458,2,0,L|196:160,1,52,2|2,1:2|1:3,0:0:0:0:
89,46,74663,6,0,L|101:138,1,80,14|0,3:2|0:0,0:0:0:0:
100,162,74971,1,2,1:2:0:0:
100,162,75074,2,0,P|59:186|10:175,1,80,2|2,3:2|1:2,0:0:0:0:
175,234,75485,1,10,3:2:0:0:
259,126,75691,1,2,2:2:0:0:
259,126,75793,1,10,1:2:0:0:
259,126,75896,1,2,3:2:0:0:
372,163,76101,1,10,1:2:0:0:
344,53,76307,5,10,3:2:0:0:
440,16,76512,1,0,0:0:0:0:
254,122,76718,5,2,3:2:0:0:
143,97,76923,1,2,1:2:0:0:
292,232,77129,5,2,3:2:0:0:
430,198,77334,1,0,1:1:0:0:
190,334,77540,5,10,3:2:0:0:
134,217,77745,1,2,1:2:0:0:
134,217,77848,1,0,1:1:0:0:
134,217,77951,1,6,3:2:0:0:
190,334,78156,1,0,0:0:0:0:
358,125,78362,5,2,3:2:0:0:
326,277,78567,1,2,1:2:0:0:
326,277,78670,1,0,0:0:0:0:
326,277,78773,1,6,3:2:0:0:
358,125,78978,1,0,0:0:0:0:
337,120,79081,1,2,1:2:0:0:
320,116,79184,5,2,3:2:0:0:
160,79,79389,1,2,1:2:0:0:
320,116,79595,1,6,3:2:0:0:
148,258,79800,5,0,1:1:0:0:
137,234,79903,1,0,1:1:0:0:
144,203,80006,2,0,L|204:221,3,40,0|0|0|0,3:3|0:0|1:1|1:1,0:0:0:0:
266,274,80417,2,0,L|326:251,3,40,0|0|0|0,3:3|0:0|1:1|1:1,0:0:0:0:
384,206,80827,2,0,L|443:223,3,40,0|0|0|0,3:3|0:0|1:1|1:1,0:0:0:0:
502,293,81238,5,6,3:2:0:0:
410,47,81649,5,2,2:2:0:0:
497,18,81855,1,2,1:2:0:0:
477,106,82060,1,6,3:2:0:0:
246,313,82471,5,2,2:2:0:0:
372,215,82677,1,2,3:2:0:0:
404,377,82882,1,2,3:2:0:0:
156,38,83293,5,2,2:2:0:0:
98,171,83910,1,2,2:2:0:0:
154,323,84526,6,0,P|196:318|235:289,1,64,2|2,2:2|2:2,0:0:0:0:
318,329,84937,2,0,L|294:248,1,64,2|2,2:2|2:2,0:0:0:0:
224,212,85348,1,2,2:2:0:0:
224,212,85554,2,0,L|235:128,1,64,2|0,2:2|0:0,0:0:0:0:
318,172,85964,1,2,2:2:0:0:
181,75,86170,6,0,P|127:70|90:181,1,192,2|2,2:2|2:2,0:0:0:0:
265,39,87197,1,2,2:2:0:0:
343,85,87403,1,2,2:2:0:0:
434,42,87608,6,0,L|417:171,1,128,2|2,2:2|2:2,0:0:0:0:
329,182,88225,2,0,L|342:258,1,64,2|2,2:2|2:2,0:0:0:0:
431,253,88636,2,0,L|412:331,1,64,2|2,2:2|2:2,0:0:0:0:
332,341,89047,1,2,2:2:0:0:
332,341,89252,6,0,L|194:331,1,128,2|2,2:2|2:2,0:0:0:0:
119,353,89869,2,0,P|105:321|113:270,1,64,2|2,2:2|2:2,0:0:0:0:
181,242,90280,1,2,2:2:0:0:
52,31,90691,1,2,2:2:0:0:
52,31,90896,1,2,2:2:0:0:
52,31,91101,6,0,B|22:71|22:71|39:161,1,128,2|2,3:2|3:2,0:0:0:0:
67,229,91718,2,0,P|90:221|120:177,1,64,2|0,2:2|3:3,0:0:0:0:
178,120,92129,2,0,L|97:99,1,64,2|0,2:2|3:3,0:0:0:0:
205,209,92540,6,0,L|356:182,1,128,2|2,2:2|2:2,0:0:0:0:
415,152,93156,1,2,3:2:0:0:
366,78,93362,2,0,P|329:112|341:199,1,128,2|0,2:2|0:0,0:0:0:0:
401,259,93978,1,2,3:2:0:0:
406,234,94184,1,2,2:2:0:0:
339,336,94389,5,2,3:2:0:0:
246,286,94595,2,0,L|169:274,1,64,2|0,2:2|3:3,0:0:0:0:
339,336,95006,1,2,2:2:0:0:
439,279,95211,2,0,P|453:310|453:360,1,64,2|2,3:2|3:2,0:0:0:0:
333,234,95622,1,2,3:2:0:0:
491,181,95827,6,0,B|511:128|511:128|480:46,1,128,6|2,3:2|3:2,0:0:0:0:
372,10,96444,1,2,1:2:0:0:
271,84,96649,1,2,1:2:0:0:
271,84,96752,1,0,1:1:0:0:
271,84,96855,2,0,L|180:69,1,64,2|2,3:2|3:2,0:0:0:0:
197,68,97163,1,0,1:1:0:0:
187,62,97266,2,0,L|173:114,1,32,2|0,3:2|1:1,0:0:0:0:
226,173,97471,2,0,L|236:226,1,32,0|0,3:3|3:3,0:0:0:0:
174,283,97677,5,6,3:2:0:0:
322,206,97882,1,2,2:2:0:0:
129,178,98088,1,2,1:2:0:0:
126,195,98293,1,2,2:2:0:0:
61,75,98499,1,2,3:2:0:0:
198,114,98704,2,0,L|286:100,1,64,2|0,3:2|1:1,0:0:0:0:
37,183,99115,6,0,P|26:112|68:71,1,128,2|0,2:2|0:0,0:0:0:0:
111,337,99732,1,0,1:1:0:0:
23,278,99937,1,2,2:2:0:0:
153,222,100143,1,0,3:3:0:0:
153,222,100245,1,0,0:0:0:0:
153,222,100348,1,2,3:2:0:0:
220,289,100554,1,2,1:2:0:0:
299,228,100759,1,2,2:2:0:0:
384,360,100964,5,2,3:2:0:0:
299,228,101170,1,2,2:2:0:0:
376,178,101375,1,2,1:2:0:0:
384,270,101581,1,2,2:2:0:0:
300,137,101786,2,0,L|313:49,1,64,2|2,3:2|3:2,0:0:0:0:
407,97,102197,1,2,1:2:0:0:
208,82,102403,6,0,L|128:74,1,64,2|0,2:2|3:3,0:0:0:0:
56,125,102814,1,2,2:2:0:0:
152,237,103019,2,0,P|168:215|172:164,1,64,0|0,1:1|0:0,0:0:0:0:
48,61,103430,2,0,L|56:127,1,64,2|0,3:2|3:3,0:0:0:0:
152,237,103841,1,2,1:2:0:0:
55,217,104047,1,2,3:2:0:0:
236,133,104252,6,0,B|264:180|264:180|248:276,1,128,6|2,3:2|1:2,0:0:0:0:
225,352,104869,2,0,P|189:348|158:321,1,64,2|0,2:2|3:3,0:0:0:0:
318,322,105280,2,0,L|409:312,1,64,2|0,3:2|1:1,0:0:0:0:
506,196,105691,6,0,L|378:180,1,128,2|2,2:2|2:2,0:0:0:0:
275,213,106307,1,2,1:2:0:0:
418,81,106512,1,2,2:2:0:0:
324,20,106718,2,0,L|318:51,3,32,0|0|0|0,3:3|3:3|1:1|1:1,0:0:0:0:
300,87,107129,1,2,3:2:0:0:
225,10,107334,1,2,1:2:0:0:
225,10,107437,1,0,1:1:0:0:
225,10,107540,5,6,3:2:0:0:
152,167,107745,2,0,L|143:92,1,64,2|0,2:2|3:3,0:0:0:0:
248,180,108156,1,2,2:2:0:0:
144,103,108362,1,2,1:2:0:0:
110,252,108567,1,6,2:2:0:0:
248,180,108773,1,2,3:2:0:0:
97,23,108978,6,0,P|60:59|67:150,1,128,6|2,3:2|1:2,0:0:0:0:
178,331,109595,1,0,3:3:0:0:
108,251,109800,2,0,L|18:235,1,64,2|0,3:2|3:3,0:0:0:0:
229,225,110211,1,2,1:2:0:0:
229,225,110314,1,0,1:1:0:0:
229,225,110417,1,0,3:3:0:0:
331,281,110622,1,2,3:2:0:0:
410,79,110827,5,14,3:2:0:0:
229,225,111136,1,14,3:2:0:0:
442,334,111444,1,14,3:2:0:0:
367,201,111649,5,2,1:2:0:0:
367,201,112060,2,0,L|377:143,3,32,0|0|2|0,1:1|1:1|1:2|1:1,0:0:0:0:
401,143,112471,5,6,3:2:0:0:
220,282,112780,1,2,3:2:0:0:
174,54,113088,1,2,3:2:0:0:
262,162,113293,6,0,L|204:176,3,32,2|0|0|0,1:2|1:1|1:1|1:1,0:0:0:0:
196,145,113704,2,0,L|143:154,3,32,0|0|2|0,1:1|0:0|1:2|1:1,0:0:0:0:
121,125,114115,5,14,3:2:0:0:
315,280,114423,1,14,3:2:0:0:
89,370,114732,1,14,3:2:0:0:
171,260,114937,5,2,1:2:0:0:
171,260,115348,2,0,L|162:210,3,32,0|0|2|0,1:1|0:0|1:2|1:1,0:0:0:0:
157,281,115759,6,0,P|193:297|231:291,1,64,6|0,3:2|0:0,0:0:0:0:
246,142,116170,2,0,P|203:128|171:132,1,64,2|0,3:2|0:0,0:0:0:0:
328,237,116581,2,0,L|347:149,1,64,2|0,3:2|0:0,0:0:0:0:
330,38,116992,1,2,3:2:0:0:
453,170,117197,6,0,P|374:150|330:194,1,128,6|2,3:2|3:2,0:0:0:0:
466,368,117814,1,2,1:2:0:0:
382,310,118019,1,2,3:2:0:0:
453,170,118225,1,2,3:2:0:0:
494,269,118430,1,2,3:2:0:0:
340,174,118636,1,2,1:2:0:0:
437,42,118841,6,0,L|455:193,1,128,6|2,3:2|3:2,0:0:0:0:
261,46,119458,1,2,1:2:0:0:
350,90,119663,1,2,3:2:0:0:
203,152,119869,1,2,1:2:0:0:
203,152,119971,1,0,1:1:0:0:
203,152,120074,1,0,3:3:0:0:
269,229,120280,1,6,1:2:0:0:
101,108,120485,1,2,3:2:0:0:
174,49,120690,5,6,1:2:0:0:
107,226,120896,1,2,3:2:0:0:
6,123,121101,1,2,1:2:0:0:
174,49,121307,2,0,P|192:84|192:135,1,72.0000000000001,2|2,3:2|1:2,0:0:0:0:
9,278,121718,2,0,L|21:191,1,72.0000000000001,2|0,3:2|0:0,0:0:0:0:
226,355,122129,6,0,L|200:188,1,144,6|0,3:2|3:3,0:0:0:0:
133,341,122745,1,2,3:2:0:0:
307,258,122951,1,2,3:2:0:0:
349,339,123156,5,0,3:3:0:0:
307,258,123362,1,2,3:2:0:0:
341,175,123567,1,2,3:2:0:0:
304,89,123773,1,2,3:2:0:0:
401,258,123978,5,10,3:2:0:0:
252,165,124286,1,10,3:2:0:0:
390,48,124595,1,10,3:2:0:0:
304,89,124800,5,2,1:2:0:0:
219,53,125006,1,2,1:2:0:0:
219,53,125108,1,0,1:1:0:0:
219,53,125211,2,0,L|157:43,3,36,2|0|2|0,3:2|1:1|1:2|0:0,0:0:0:0:
150,22,125622,6,0,L|161:101,1,80,14|2,3:2|2:2,0:0:0:0:
165,138,125930,1,2,1:2:0:0:
165,138,126033,2,0,P|121:140|79:110,1,80,2|2,3:2|1:2,0:0:0:0:
172,285,126444,1,10,3:2:0:0:
80,234,126649,1,2,1:2:0:0:
80,234,126752,1,2,1:2:0:0:
80,234,126855,1,2,3:2:0:0:
165,138,127060,1,2,1:2:0:0:
302,240,127266,6,0,L|444:213,1,144,2|2,3:2|1:2,0:0:0:0:
313,151,127677,6,0,L|473:226,1,144,2|0,3:2|0:0,0:0:0:0:
373,86,128088,6,0,L|448:222,1,144,2|2,3:2|2:2,0:0:0:0:
465,69,128499,6,0,L|441:216,1,144,2|0,3:2|1:1,0:0:0:0:
501,289,128910,5,14,3:2:0:0:
316,384,129115,1,0,0:0:0:0:
316,384,129218,1,2,1:2:0:0:
316,384,129321,1,2,3:2:0:0:
194,291,129526,1,2,1:2:0:0:
315,221,129732,5,2,3:2:0:0:
185,129,129937,1,0,0:0:0:0:
185,129,130040,1,2,1:2:0:0:
185,129,130143,1,2,3:2:0:0:
94,56,130348,1,2,1:2:0:0:
299,122,130554,5,6,3:2:0:0:
228,284,130759,1,2,2:2:0:0:
209,257,130862,1,2,1:2:0:0:
207,223,130964,1,6,3:2:0:0:
299,122,131170,1,2,1:2:0:0:
402,212,131375,5,6,3:2:0:0:
505,141,131581,1,0,0:0:0:0:
501,127,131684,1,2,1:2:0:0:
494,112,131786,2,0,L|449:126,1,40,2|0,3:2|0:0,0:0:0:0:
402,212,131992,2,0,L|343:202,1,40,2|2,1:2|1:2,0:0:0:0:
299,122,132197,6,0,L|308:42,1,80,14|0,3:2|0:0,0:0:0:0:
296,18,132506,1,10,1:2:0:0:
296,18,132608,2,0,P|254:42|203:29,1,80,10|2,3:2|1:2,0:0:0:0:
72,174,133019,2,0,L|83:80,1,80,10|2,3:2|1:2,0:0:0:0:
227,318,133430,1,2,3:2:0:0:
123,259,133636,1,2,1:2:0:0:
229,185,133841,5,10,3:2:0:0:
235,202,133944,1,0,0:0:0:0:
123,259,134149,1,10,1:2:0:0:
129,242,134252,1,2,2:2:0:0:
227,318,134458,1,2,1:2:0:0:
347,159,134663,5,2,3:2:0:0:
235,202,134869,1,2,1:2:0:0:
387,270,135074,1,2,3:2:0:0:
322,55,135280,1,2,1:2:0:0:
322,55,135382,1,0,1:1:0:0:
322,55,135485,6,0,L|237:63,1,80,6|0,3:2|0:0,0:0:0:0:
225,59,135793,1,2,1:2:0:0:
209,53,135896,2,0,P|188:89|198:151,1,80,2|2,3:2|1:2,0:0:0:0:
144,287,136307,1,6,3:2:0:0:
84,198,136512,1,0,0:0:0:0:
84,198,136615,1,2,1:2:0:0:
84,198,136718,1,2,3:2:0:0:
247,260,136923,1,2,1:2:0:0:
142,363,137129,5,6,3:2:0:0:
247,260,137334,1,2,1:2:0:0:
259,286,137437,1,2,1:2:0:0:
249,313,137540,2,0,L|313:330,3,40,2|2|2|2,1:2|3:2|1:2|1:2,0:0:0:0:
362,235,137951,2,0,L|424:215,1,40,2|2,3:2|3:2,0:0:0:0:
511,335,138156,6,0,L|471:327,1,40,2|0,1:2|3:3,0:0:0:0:
400,222,138362,2,0,L|362:235,1,40,2|0,3:2|3:3,0:0:0:0:
288,324,138567,2,0,L|250:314,1,40,2|0,1:2|1:1,0:0:0:0:
134,162,138773,6,0,L|121:263,1,80,14|0,3:2|0:0,0:0:0:0:
116,253,139081,1,2,1:2:0:0:
104,263,139184,2,0,P|64:266|26:238,1,80,2|2,3:2|1:2,0:0:0:0:
244,219,139595,1,10,3:2:0:0:
140,170,139800,1,2,1:2:0:0:
140,170,139903,1,2,1:2:0:0:
140,170,140006,1,2,3:2:0:0:
315,79,140211,1,2,1:2:0:0:
228,63,140417,6,0,L|243:218,1,156,2|2,3:2|1:2,0:0:0:0:
146,95,140827,6,0,L|243:218,1,156,2|0,3:2|0:0,0:0:0:0:
315,79,141238,6,0,L|242:217,1,156,2|2,3:2|2:2,0:0:0:0:
95,164,141649,6,0,L|242:217,1,156,2|0,3:2|1:1,0:0:0:0:
383,169,142060,5,14,3:2:0:0:
321,304,142266,1,0,0:0:0:0:
321,304,142369,1,2,1:2:0:0:
321,304,142471,1,2,3:2:0:0:
428,269,142677,1,2,1:2:0:0:
241,216,142882,5,10,3:2:0:0:
201,354,143088,1,0,0:0:0:0:
201,354,143191,1,2,1:2:0:0:
201,354,143293,1,2,3:2:0:0:
315,305,143499,1,2,1:2:0:0:
96,243,143704,5,2,3:2:0:0:
201,354,143910,1,2,2:2:0:0:
226,319,144012,1,2,1:2:0:0:
215,277,144115,1,6,3:2:0:0:
96,243,144321,1,2,1:2:0:0:
257,148,144526,5,6,3:2:0:0:
155,72,144732,1,0,0:0:0:0:
155,72,144834,1,2,1:2:0:0:
155,72,144937,2,0,L|159:142,1,40,2|0,3:2|0:0,0:0:0:0:
257,148,145143,2,0,L|213:201,1,40,2|2,1:2|1:3,0:0:0:0:
216,277,145348,6,0,L|107:256,1,80,14|0,3:2|0:0,0:0:0:0:
100,250,145656,1,2,1:2:0:0:
100,250,145759,2,0,P|75:294|88:347,1,80,2|2,3:2|1:2,0:0:0:0:
221,378,146170,1,10,3:2:0:0:
348,327,146375,1,2,2:2:0:0:
348,327,146478,1,10,1:2:0:0:
348,327,146581,1,2,3:2:0:0:
216,277,146786,1,10,1:2:0:0:
353,330,146992,5,10,3:2:0:0:
397,203,147197,1,0,0:0:0:0:
233,83,147403,5,2,3:2:0:0:
275,203,147608,1,2,1:2:0:0:
466,120,147814,5,2,3:2:0:0:
332,88,148019,1,0,1:1:0:0:
256,315,148225,5,10,3:2:0:0:
437,292,148430,1,2,1:2:0:0:
437,292,148533,1,0,1:1:0:0:
437,292,148636,1,6,3:2:0:0:
256,315,148841,1,0,0:0:0:0:
325,206,149047,5,2,3:2:0:0:
361,383,149252,1,2,1:2:0:0:
361,383,149355,1,0,0:0:0:0:
361,383,149458,1,6,3:2:0:0:
325,206,149663,1,0,0:0:0:0:
311,202,149766,1,2,1:2:0:0:
300,199,149869,5,2,3:2:0:0:
437,292,150074,1,2,1:2:0:0:
253,368,150280,1,6,3:2:0:0:
144,310,150485,5,0,1:1:0:0:
133,286,150588,1,0,1:1:0:0:
140,255,150691,2,0,L|200:273,3,40,0|0|0|0,3:3|0:0|1:1|1:1,0:0:0:0:
226,160,151101,2,0,L|247:201,3,40,0|0|0|0,3:3|0:0|1:1|1:1,0:0:0:0:
348,135,151512,2,0,L|343:206,3,40,2|0|2|0,3:2|0:0|1:2|1:1,0:0:0:0:
455,279,151923,6,0,L|361:264,1,80,14|0,3:2|0:0,0:0:0:0:
300,303,152232,2,0,L|197:288,1,80,0|0,1:1|0:0,0:0:0:0:
144,324,152540,2,0,B|97:286|105:248|105:248|158:169,1,160,6|2,3:2|3:2,0:0:0:0:
277,128,153156,1,2,3:2:0:0:
119,42,153362,1,6,3:2:0:0:
277,128,153567,6,0,P|296:84|294:43,1,80,2|0,2:2|3:3,0:0:0:0:
143,189,153978,1,2,1:2:0:0:
26,51,154184,2,0,L|16:139,1,80,2|0,3:2|1:1,0:0:0:0:
156,348,154595,1,0,3:3:0:0:
25,231,154800,1,2,1:2:0:0:
52,315,155006,1,2,1:2:0:0:
55,328,155108,1,0,1:1:0:0:
59,340,155211,5,6,3:2:0:0:
191,208,155417,1,2,1:2:0:0:
177,227,155519,1,2,1:2:0:0:
163,245,155622,1,2,3:2:0:0:
296,345,155827,1,6,3:2:0:0:
274,336,155930,1,2,2:2:0:0:
252,324,156033,1,10,2:2:0:0:
277,181,156238,1,2,3:2:0:0:
163,245,156444,1,2,1:2:0:0:
390,286,156649,6,0,L|379:104,1,160,6|2,3:2|3:2,0:0:0:0:
494,242,157266,1,2,1:2:0:0:
494,226,157369,1,2,3:2:0:0:
381,108,157574,1,6,1:2:0:0:
380,126,157677,2,0,L|323:117,3,40,2|2|2|2,3:2|1:2|1:2|1:2,0:0:0:0:
283,58,158088,2,0,L|235:77,3,40,2|2|2|2,1:2|1:2|1:2|1:2,0:0:0:0:
183,138,158499,6,0,L|92:125,1,80,6|2,3:2|2:2,0:0:0:0:
221,246,158910,1,2,3:2:0:0:
150,323,159115,1,2,1:2:0:0:
150,323,159218,1,0,0:0:0:0:
150,323,159321,2,0,P|126:281|139:227,1,80,2|2,3:2|2:2,0:0:0:0:
133,240,159629,1,0,1:1:0:0:
142,229,159732,2,0,L|224:246,1,80,2|2,3:2|1:2,0:0:0:0:
349,216,160143,5,2,3:2:0:0:
288,370,160348,1,2,2:2:0:0:
288,370,160451,1,0,1:1:0:0:
288,372,160554,1,2,3:2:0:0:
365,311,160759,1,2,1:2:0:0:
465,347,160964,1,2,3:2:0:0:
288,372,161170,1,2,1:2:0:0:
349,216,161375,1,2,1:2:0:0:
474,354,161581,1,2,3:2:0:0:
474,354,161684,1,0,3:3:0:0:
474,354,161786,6,0,L|483:240,1,80,6|2,3:2|2:2,0:0:0:0:
475,259,162095,1,0,1:1:0:0:
475,259,162197,2,0,P|435:288|382:284,1,80,2|2,3:2|1:2,0:0:0:0:
258,168,162608,1,6,3:2:0:0:
352,221,162814,1,2,2:2:0:0:
352,221,162917,1,0,1:1:0:0:
352,221,163019,1,2,3:2:0:0:
204,313,163225,1,2,1:2:0:0:
291,365,163430,5,2,3:2:0:0:
258,168,163636,1,0,0:0:0:0:
277,277,163841,1,10,3:2:0:0:
275,267,163944,1,0,0:0:0:0:
273,256,164047,1,0,1:1:0:0:
62,230,164252,6,0,L|45:336,2,106.666666666667,10|2|2,3:2|2:2|2:2,0:0:0:0:
22,161,164869,1,2,3:2:0:0:
22,161,164971,1,2,3:2:0:0:
22,161,165074,5,14,3:2:0:0:
200,283,165382,1,2,2:2:0:0:
224,70,165691,1,10,2:2:0:0:
146,172,165896,5,6,3:2:0:0:
331,60,166204,1,2,2:2:0:0:
347,267,166512,1,10,2:2:0:0:
270,174,166718,5,6,3:2:0:0:
461,249,167026,1,2,2:2:0:0:
314,379,167334,1,10,2:2:0:0:
347,267,167540,5,6,3:2:0:0:
234,306,167745,1,0,0:0:0:0:
234,306,167848,1,0,3:3:0:0:
234,306,167951,1,2,2:2:0:0:
110,281,168156,1,6,3:2:0:0:
110,281,168259,1,2,2:2:0:0:
110,281,168362,6,0,L|89:94,1,160,6|0,3:2|0:0,0:0:0:0:
221,43,168978,5,0,1:1:0:0:
221,43,169081,1,0,1:1:0:0:
221,43,169184,2,0,L|208:212,1,160,6|0,3:2|0:0,0:0:0:0:
350,289,169800,5,0,1:1:0:0:
350,289,169903,1,0,1:1:0:0:
350,289,170006,2,0,L|328:117,1,160,6|0,3:2|0:0,0:0:0:0:
470,47,170622,5,0,1:1:0:0:
470,47,170725,1,0,1:1:0:0:
470,47,170827,2,0,L|445:229,1,160,6|0,3:2|0:0,0:0:0:0:
256,192,171649,6,0,L|256:168,2,16,10|2|2,2:2|2:2|2:2,0:0:0:0:
48,130,186238,5,2,2:2:0:0:
126,180,186444,1,2,2:2:0:0:
162,28,187060,5,2,2:2:0:0:
126,180,187266,1,2,2:2:0:0:
323,89,187882,5,2,2:2:0:0:
126,180,188088,1,2,2:2:0:0:
337,311,188910,5,2,2:2:0:0:
394,239,189115,1,2,2:2:0:0:
470,296,189321,1,2,2:2:0:0:
412,367,189526,1,2,2:2:0:0:
255,195,189732,5,2,2:2:0:0:
464,64,190348,1,2,2:2:0:0:
450,159,190554,1,2,2:2:0:0:
48,255,191170,1,2,2:2:0:0:
65,343,191375,5,2,2:2:0:0:
202,288,191786,1,2,2:2:0:0:
341,348,192197,1,2,2:2:0:0:
475,272,192608,1,2,2:2:0:0:
256,196,193019,5,2,2:2:0:0:
256,196,193636,1,2,2:2:0:0:
256,196,194047,1,2,2:2:0:0:
213,103,194252,1,2,2:2:0:0:
257,12,194458,1,2,2:2:0:0:
218,297,194663,5,2,2:2:0:0:
257,12,195074,1,10,2:2:0:0:
256,195,195485,1,10,2:2:0:0:
213,103,195896,5,2,2:2:0:0:
296,91,196101,1,2,2:2:0:0:
405,242,196307,5,2,2:2:0:0:
340,169,196512,1,2,2:2:0:0:
422,107,196718,1,2,2:2:0:0:
489,185,196923,1,2,2:2:0:0:
218,245,197129,5,2,2:2:0:0:
340,169,197334,1,2,2:2:0:0:
441,281,197540,1,2,2:2:0:0:
314,362,197745,1,2,2:2:0:0:
109,289,197951,5,2,2:2:0:0:
109,289,198362,1,2,2:2:0:0:
423,66,199184,5,2,3:2:0:0:
348,133,199389,1,2,3:2:0:0:
348,133,199492,1,0,3:3:0:0:
348,133,199595,6,0,L|280:115,3,40,6|2|2|2,3:2|1:2|1:2|1:2,0:0:0:0:
228,186,200006,2,0,L|193:135,3,40,2|2|2|2,1:2|1:2|1:2|1:2,0:0:0:0:
102,172,200417,2,0,L|105:104,3,40,2|2|2|2,1:2|1:2|1:2|1:2,0:0:0:0:
23,72,200827,2,0,L|52:24,3,40,10|10|10|10,1:2|1:2|1:2|1:2,0:0:0:0:
137,38,201238,5,6,3:2:0:0:
428,212,201547,1,2,3:2:0:0:
120,350,201855,1,2,3:2:0:0:
120,350,202060,1,2,1:2:0:0:
238,190,202266,5,2,2:2:0:0:
251,284,202471,1,2,2:2:0:0:
267,382,202677,1,2,2:2:0:0:
346,132,202882,5,6,2:2:0:0:
120,350,203499,1,6,3:2:0:0:
209,306,203704,1,2,2:2:0:0:
311,357,203910,1,0,1:1:0:0:
311,357,204012,1,0,1:1:0:0:
311,357,204115,1,2,3:2:0:0:
282,224,204321,1,2,1:2:0:0:
426,303,204526,5,2,3:2:0:0:
316,118,204732,6,0,P|281:162|296:249,1,120,6|0,3:2|0:0,0:0:0:0:
361,191,205040,6,0,B|372:147|372:147|339:37,1,120,6|0,3:2|0:0,0:0:0:0:
435,40,205348,6,0,B|384:29|384:29|318:48|318:48|236:36,1,180.000006866455,6|0,3:2|0:0,0:0:0:0:
225,8,205759,5,10,3:2:0:0:
361,191,206170,5,14,3:2:0:0:
173,156,206375,1,0,0:0:0:0:
173,156,206478,1,2,1:2:0:0:
173,156,206581,1,2,3:2:0:0:
77,215,206786,1,2,1:2:0:0:
312,303,206992,5,2,3:2:0:0:
265,107,207197,1,0,0:0:0:0:
265,107,207300,1,2,1:2:0:0:
265,107,207403,1,2,3:2:0:0:
152,40,207608,1,2,1:2:0:0:
423,83,207814,5,6,3:2:0:0:
277,151,208019,1,2,2:2:0:0:
266,132,208122,1,2,1:2:0:0:
265,107,208225,1,6,3:2:0:0:
454,237,208430,1,2,1:2:0:0:
347,307,208636,5,6,3:2:0:0:
228,243,208841,1,0,0:0:0:0:
228,258,208944,1,2,1:2:0:0:
228,274,209047,2,0,L|275:255,1,40,2|0,3:2|0:0,0:0:0:0:
398,167,209252,2,0,L|335:156,1,40,2|2,1:2|1:3,0:0:0:0:
241,15,209458,6,0,L|225:120,1,80,14|0,3:2|0:0,0:0:0:0:
224,108,209766,1,10,1:2:0:0:
216,118,209869,2,0,P|169:114|130:75,1,80,10|2,3:2|1:2,0:0:0:0:
40,262,210280,2,0,L|18:153,1,80,10|0,3:2|0:0,0:0:0:0:
6,29,210690,1,2,3:2:0:0:
156,208,210896,1,2,1:2:0:0:
88,357,211101,5,10,3:2:0:0:
100,349,211204,1,0,0:0:0:0:
310,270,211410,1,10,1:2:0:0:
294,277,211512,1,2,2:2:0:0:
197,313,211718,1,2,1:2:0:0:
401,362,211923,5,2,3:2:0:0:
481,234,212129,1,2,1:2:0:0:
379,111,212334,1,2,3:2:0:0:
318,278,212540,1,2,1:2:0:0:
318,278,212643,1,0,1:1:0:0:
318,278,212745,6,0,L|302:199,1,80,6|0,3:2|0:0,0:0:0:0:
297,190,213054,1,2,1:2:0:0:
293,181,213156,2,0,P|255:204|217:204,1,80,2|2,3:2|1:2,0:0:0:0:
66,19,213567,1,6,3:2:0:0:
222,108,213773,1,0,0:0:0:0:
222,108,213875,1,2,1:2:0:0:
222,108,213978,1,2,3:2:0:0:
54,233,214184,1,2,1:2:0:0:
111,147,214389,5,6,3:2:0:0:
190,319,214595,1,2,1:2:0:0:
200,342,214697,1,2,1:2:0:0:
211,358,214800,2,0,L|220:303,3,40,2|2|2|2,1:2|3:2|1:2|1:2,0:0:0:0:
275,208,215211,2,0,L|256:136,1,40,2|2,3:2|3:2,0:0:0:0:
200,36,215417,6,0,L|185:109,1,40,2|0,1:2|3:3,0:0:0:0:
264,169,215622,2,0,L|275:208,1,40,2|0,3:2|3:3,0:0:0:0:
217,318,215827,2,0,L|211:358,1,40,2|0,1:2|1:1,0:0:0:0:
443,352,216033,6,0,L|351:344,1,80,14|0,3:2|0:0,0:0:0:0:
349,351,216341,1,2,1:2:0:0:
337,357,216444,2,0,P|315:320|337:258,1,80,2|2,3:2|1:2,0:0:0:0:
476,115,216855,1,10,3:2:0:0:
395,202,217060,1,0,1:1:0:0:
395,202,217163,1,2,1:2:0:0:
395,202,217266,1,2,3:2:0:0:
281,45,217471,1,2,1:2:0:0:
131,246,217677,6,0,L|109:73,1,156,2|2,3:2|1:2,0:0:0:0:
226,198,218088,6,0,L|106:87,1,156,2|0,3:2|0:0,0:0:0:0:
266,112,218499,6,0,L|98:90,1,156,2|2,3:2|2:2,0:0:0:0:
246,13,218910,6,0,L|101:97,1,156,2|0,3:2|1:1,0:0:0:0:
19,142,219321,5,14,3:2:0:0:
195,284,219526,1,0,0:0:0:0:
195,284,219629,1,2,1:2:0:0:
195,284,219732,1,2,3:2:0:0:
112,367,219937,1,2,1:2:0:0:
333,137,220143,5,10,3:2:0:0:
203,293,220348,1,0,0:0:0:0:
203,293,220451,1,2,1:2:0:0:
203,293,220554,1,2,3:2:0:0:
290,363,220759,1,2,1:2:0:0:
219,143,220964,5,2,3:2:0:0:
312,216,221170,1,2,2:2:0:0:
335,181,221273,1,2,1:2:0:0:
333,137,221375,1,6,3:2:0:0:
189,18,221581,1,2,1:2:0:0:
455,78,221786,5,6,3:2:0:0:
333,137,221992,1,0,0:0:0:0:
325,122,222095,1,2,1:2:0:0:
318,108,222197,2,0,L|375:122,1,40,2|0,3:2|0:0,0:0:0:0:
463,239,222403,2,0,L|393:253,1,40,2|2,1:2|1:3,0:0:0:0:
282,360,222608,6,0,L|271:280,1,80,14|0,3:2|0:0,0:0:0:0:
266,275,222917,1,2,1:2:0:0:
258,269,223019,2,0,P|213:265|175:296,1,80,2|2,3:2|1:2,0:0:0:0:
409,350,223430,1,10,3:2:0:0:
336,216,223636,1,2,2:2:0:0:
336,216,223738,1,10,1:2:0:0:
336,216,223841,1,2,3:2:0:0:
463,239,224047,1,10,1:2:0:0:
229,123,224252,5,10,3:2:0:0:
349,86,224458,1,0,0:0:0:0:
247,224,224663,5,2,3:2:0:0:
105,192,224869,1,2,1:2:0:0:
226,314,225074,5,2,3:2:0:0:
400,276,225280,1,0,1:1:0:0:
294,384,225485,5,10,3:2:0:0:
120,334,225690,1,2,1:2:0:0:
120,334,225793,1,0,1:1:0:0:
120,334,225896,1,6,3:2:0:0:
294,384,226101,1,0,0:0:0:0:
369,114,226307,5,2,3:2:0:0:
326,277,226512,1,2,1:2:0:0:
326,277,226615,1,0,0:0:0:0:
326,277,226718,1,6,3:2:0:0:
369,114,226923,1,0,0:0:0:0:
376,99,227026,1,2,1:2:0:0:
384,82,227129,5,2,3:2:0:0:
475,206,227334,1,2,1:2:0:0:
326,277,227540,1,6,3:2:0:0:
238,127,227745,5,0,1:1:0:0:
220,145,227848,1,0,1:1:0:0:
206,164,227951,2,0,L|226:229,3,40,2|0|0|0,3:2|0:0|1:1|1:1,0:0:0:0:
96,245,228362,2,0,L|143:286,3,40,2|0|2|0,3:2|0:0|1:2|1:1,0:0:0:0:
78,381,228773,1,2,3:2:0:0:
229,336,228978,1,2,1:2:0:0:
96,245,229184,6,0,L|83:138,1,80,6|2,3:2|2:2,0:0:0:0:
212,29,229595,2,0,L|202:131,1,80,2|2,1:2|3:2,0:0:0:0:
95,70,230006,1,2,1:2:0:0:
217,202,230211,1,2,3:2:0:0:
334,112,230417,2,0,L|422:102,1,80,2|2,1:2|3:2,0:0:0:0:
488,279,230827,6,0,L|400:266,1,80,2|2,1:2|3:2,0:0:0:0:
241,365,231238,2,0,P|228:323|240:278,1,80,2|2,1:2|3:2,0:0:0:0:
384,131,231649,1,2,1:2:0:0:
301,211,231855,1,2,3:2:0:0:
172,28,232060,2,0,L|179:107,1,80,2|2,1:2|3:2,0:0:0:0:
52,287,232471,6,0,L|68:187,1,80,6|2,1:2|2:2,0:0:0:0:
172,28,232882,2,0,L|179:107,1,80,2|2,1:2|3:2,0:0:0:0:
287,232,233293,1,2,1:2:0:0:
152,202,233499,1,2,3:2:0:0:
384,176,233704,2,0,L|499:158,1,80,2|2,1:2|3:2,0:0:0:0:
186,333,234115,6,0,P|131:257|169:186,2,160,6|2|2,1:2|1:2|1:2,0:0:0:0:
350,332,235143,1,2,3:2:0:0:
350,332,235245,1,0,3:3:0:0:
350,332,235348,1,6,1:2:0:0:
287,232,235554,1,2,3:2:0:0:
378,61,235759,6,0,L|359:175,1,80,6|2,1:2|2:2,0:0:0:0:
150,200,236170,2,0,L|138:95,1,80,2|2,1:2|3:2,0:0:0:0:
257,142,236581,1,2,1:2:0:0:
78,284,236786,1,2,3:2:0:0:
232,350,236992,2,0,L|244:256,1,80,2|2,1:2|3:2,0:0:0:0:
200,50,237403,6,0,P|105:42|59:119,1,160,2|2,1:2|1:2,0:0:0:0:
257,142,238019,1,2,3:2:0:0:
350,30,238225,2,0,L|366:132,1,80,2|2,1:2|3:2,0:0:0:0:
329,235,238636,1,2,1:2:0:0:
410,346,238841,1,2,3:2:0:0:
410,346,238944,1,0,3:3:0:0:
410,346,239047,5,6,1:2:0:0:
451,209,239252,1,2,2:2:0:0:
410,346,239458,2,0,L|320:334,1,80,2|2,1:2|3:2,0:0:0:0:
107,257,239869,2,0,L|209:240,1,80,2|2,1:2|3:2,0:0:0:0:
414,150,240280,2,0,L|307:135,1,80,2|2,1:2|3:2,0:0:0:0:
137,14,240690,6,0,B|86:69|86:69|121:176,1,160,6|2,1:2|1:2,0:0:0:0:
223,102,241307,1,2,3:2:0:0:
223,102,241410,1,0,1:1:0:0:
223,102,241512,1,2,3:2:0:0:
112,149,241718,2,0,L|21:139,1,80,2|2,1:2|3:2,0:0:0:0:
244,235,242129,1,2,1:2:0:0:
248,215,242232,1,0,1:1:0:0:
254,190,242334,2,0,B|198:126|217:52|217:52|273:112|255:177|255:177|305:105|382:101|382:101|342:172|275:175|275:175|359:200|387:271|387:271|306:256|283:193|283:193|285:280|226:329|226:329|216:247|268:206|268:206|185:235|121:194|121:194|195:159|254:191,1,1440,6|2,3:2|2:2,0:0:0:0:
338,367,245622,5,10,2:2:0:0:
138,286,246238,1,2,2:2:0:0:
295,161,246855,1,2,2:2:0:0:
268,270,247266,5,2,2:2:0:0:
441,49,248910,5,2,2:2:0:0:
241,130,249526,1,10,2:2:0:0:
398,255,250143,1,2,2:2:0:0:
371,146,250554,5,2,2:2:0:0:
465,361,251786,5,2,2:2:0:0:
376,217,251992,1,2,2:2:0:0:
250,331,252197,1,10,2:2:0:0:
140,86,252608,5,2,2:2:0:0:
262,146,252814,1,2,2:2:0:0:
338,36,253019,1,10,2:2:0:0:
36,277,253430,5,2,2:2:0:0:
139,238,253636,1,2,2:2:0:0:
157,347,253841,1,10,2:2:0:0:
364,278,254252,5,2,2:2:0:0:
364,278,254869,1,2,2:2:0:0:
364,278,255485,5,10,2:2:0:0:
364,278,255735,1,2,2:2:0:0:
171,130,255985,5,10,2:2:0:0:
123,156,256270,1,2,2:2:0:0:
167,186,256556,1,2,2:2:0:0:
470,218,257168,5,2,2:2:0:0:
443,171,257507,1,2,2:2:0:0:
413,211,257799,1,2,2:2:0:0:
76,342,258757,2,0,P|68:346|62:349,2,10,2|2|2,2:2|2:2|2:2,0:0:0:0:
