osu file format v14

[General]
AudioFilename: audio.mp3
AudioLeadIn: 0
PreviewTime: 51260
Countdown: 0
SampleSet: Normal
StackLeniency: 0.7
Mode: 1
LetterboxInBreaks: 0
WidescreenStoryboard: 0

[Editor]
DistanceSpacing: 0.9
BeatDivisor: 8
GridSize: 32
TimelineZoom: 3

[Metadata]
Title:To Say Goodbye (Original Mix)
TitleUnicode:To Say Goodbye (Original Mix)
Artist:slushii
ArtistUnicode:slushii
Creator:Surono
Version:Ura Oni
Source:
Tags:EDM Electronic Dance Music
BeatmapID:1516515
BeatmapSetID:717906

[Difficulty]
HPDrainRate:5
CircleSize:2
OverallDifficulty:6
ApproachRate:10
SliderMultiplier:1.4
SliderTickRate:1

[Events]
//Background and Video events
0,0,"nangid.jpg",0,-100
//Break Periods
2,124087,130879
//Storyboard Layer 0 (Background)
//Storyboard Layer 1 (Fail)
//Storyboard Layer 2 (Pass)
//Storyboard Layer 3 (Foreground)
//Storyboard Sound Samples

[TimingPoints]
-50,413.793103448276,4,1,0,90,1,0
11536,-125,4,1,0,90,0,0
12467,-117.647058823529,4,1,0,90,0,0
12674,-111.111111111111,4,1,0,90,0,0
12881,-105.263157894737,4,1,0,90,0,0
13087,-100,4,1,0,90,0,0
26329,-125,4,1,0,90,0,0
39570,-111.111111111111,4,1,0,90,0,0
46191,-100,4,1,0,90,0,0
49553,-90.9090909090909,4,1,0,90,0,0
52915,-83.3333333333333,4,1,0,90,0,1
79191,-120.481927710843,4,1,0,90,0,1
79398,-111.111111111111,4,1,0,90,0,0
85915,-99.9999999999999,4,1,0,90,0,0
89277,-90.9090909090908,4,1,0,90,0,0
91553,-100,4,1,0,90,0,0
91967,-95.2380952380952,4,1,0,90,0,0
92174,-90.9090909090908,4,1,0,90,0,0
92381,-86.9565217391304,4,1,0,90,0,0
92639,-83.3333333333333,4,1,0,90,0,1
119122,-100,4,1,0,90,0,0
130708,-125,4,1,0,90,0,0
131639,-117.647058823529,4,1,0,90,0,0
131846,-111.111111111111,4,1,0,90,0,0
132053,-105.263157894737,4,1,0,90,0,0
132260,-100,4,1,0,90,0,0
145501,-125,4,1,0,90,0,0
158743,-111.111111111111,4,1,0,90,0,0
165415,-100,4,1,0,90,0,0
168725,-90.9090909090909,4,1,0,90,0,0
172087,-83.3333333333333,4,1,0,90,0,1
198570,-111.111111111111,4,1,0,90,0,0
205087,-100,4,1,0,90,0,0
208398,-90.9090909090909,4,1,0,90,0,0
210674,-100,4,1,0,90,0,0
211087,-95.2380952380952,4,1,0,90,0,0
211294,-90.9090909090909,4,1,0,90,0,0
211501,-86.9565217391304,4,1,0,90,0,0
211812,-83.3333333333333,4,1,0,90,0,1
224225,-100,4,1,0,90,0,0

[HitObjects]
256,192,12156,5,8,0:0:0:0:
256,192,12225,1,8,0:0:0:0:
256,192,12294,1,8,0:0:0:0:
256,192,12363,1,8,0:0:0:0:
256,192,12570,1,0,0:0:0:0:
256,192,12777,1,0,0:0:0:0:
256,192,12984,1,0,0:0:0:0:
256,192,13191,1,4,0:0:0:0:
256,192,13398,1,8,0:0:0:0:
256,192,13605,1,0,0:0:0:0:
256,192,13812,1,8,0:0:0:0:
256,192,14018,1,8,0:0:0:0:
256,192,14432,1,0,0:0:0:0:
256,192,14536,1,0,0:0:0:0:
256,192,14639,1,0,0:0:0:0:
256,192,14846,1,8,0:0:0:0:
256,192,15053,1,0,0:0:0:0:
256,192,15260,1,8,0:0:0:0:
256,192,15467,1,0,0:0:0:0:
256,192,15674,1,8,0:0:0:0:
256,192,15881,1,8,0:0:0:0:
256,192,16087,1,0,0:0:0:0:
256,192,16294,1,0,0:0:0:0:
256,192,16501,1,0,0:0:0:0:
256,192,16708,1,8,0:0:0:0:
256,192,16915,1,8,0:0:0:0:
256,192,17122,1,0,0:0:0:0:
256,192,17329,1,8,0:0:0:0:
256,192,17536,1,0,0:0:0:0:
256,192,17743,1,8,0:0:0:0:
256,192,17846,1,8,0:0:0:0:
256,192,17950,1,8,0:0:0:0:
256,192,18363,1,0,0:0:0:0:
256,192,18984,1,8,0:0:0:0:
256,192,19812,1,0,0:0:0:0:
256,192,20018,1,8,0:0:0:0:
256,192,20225,1,0,0:0:0:0:
256,192,20432,1,8,0:0:0:0:
256,192,20639,1,8,0:0:0:0:
256,192,21053,1,0,0:0:0:0:
256,192,21156,1,0,0:0:0:0:
256,192,21260,1,0,0:0:0:0:
256,192,21467,1,8,0:0:0:0:
256,192,21674,1,0,0:0:0:0:
256,192,21881,1,8,0:0:0:0:
256,192,22087,1,0,0:0:0:0:
256,192,22294,1,8,0:0:0:0:
256,192,22501,1,8,0:0:0:0:
256,192,22708,1,0,0:0:0:0:
256,192,22915,1,0,0:0:0:0:
256,192,23122,1,0,0:0:0:0:
256,192,23329,1,8,0:0:0:0:
256,192,23536,1,8,0:0:0:0:
256,192,23743,1,0,0:0:0:0:
256,192,23950,1,8,0:0:0:0:
256,192,24156,1,0,0:0:0:0:
256,192,24363,1,8,0:0:0:0:
256,192,24467,1,8,0:0:0:0:
256,192,24570,1,8,0:0:0:0:
256,192,24984,1,0,0:0:0:0:
256,192,25605,1,8,0:0:0:0:
256,192,26432,1,4,0:0:0:0:
256,192,28087,1,0,0:0:0:0:
256,192,29743,1,8,0:0:0:0:
256,192,30984,5,8,0:0:0:0:
256,192,33053,1,0,0:0:0:0:
256,192,34708,1,0,0:0:0:0:
256,192,36363,1,8,0:0:0:0:
256,192,37605,1,8,0:0:0:0:
256,192,39674,1,0,0:0:0:0:
256,192,40087,1,8,0:0:0:0:
256,192,40501,1,0,0:0:0:0:
256,192,40708,1,0,0:0:0:0:
256,192,40915,1,0,0:0:0:0:
256,192,41329,1,8,0:0:0:0:
256,192,41743,1,0,0:0:0:0:
256,192,41950,1,0,0:0:0:0:
256,192,42156,1,8,0:0:0:0:
256,192,42570,1,8,0:0:0:0:
256,192,42984,1,0,0:0:0:0:
256,192,43191,1,8,0:0:0:0:
256,192,43398,1,0,0:0:0:0:
256,192,43812,1,0,0:0:0:0:
256,192,44225,1,8,0:0:0:0:
256,192,44432,1,8,0:0:0:0:
256,192,44639,1,0,0:0:0:0:
256,192,45053,1,0,0:0:0:0:
256,192,45467,1,8,0:0:0:0:
256,192,45674,1,0,0:0:0:0:
256,192,45881,1,8,0:0:0:0:
256,192,46294,1,8,0:0:0:0:
256,192,46501,1,0,0:0:0:0:
256,192,46605,1,0,0:0:0:0:
256,192,46708,1,8,0:0:0:0:
256,192,46915,1,8,0:0:0:0:
256,192,47122,1,0,0:0:0:0:
256,192,47329,1,8,0:0:0:0:
256,192,47432,1,8,0:0:0:0:
256,192,47536,1,0,0:0:0:0:
256,192,47743,1,0,0:0:0:0:
256,192,47950,1,8,0:0:0:0:
256,192,48156,1,0,0:0:0:0:
256,192,48260,1,0,0:0:0:0:
256,192,48363,1,8,0:0:0:0:
256,192,48570,1,8,0:0:0:0:
256,192,48777,1,0,0:0:0:0:
256,192,48984,1,8,0:0:0:0:
256,192,49087,1,8,0:0:0:0:
256,192,49191,1,0,0:0:0:0:
256,192,49398,1,0,0:0:0:0:
256,192,49605,1,8,0:0:0:0:
256,192,49708,1,0,0:0:0:0:
256,192,49812,1,8,0:0:0:0:
256,192,49915,1,0,0:0:0:0:
256,192,50018,1,8,0:0:0:0:
256,192,50122,1,8,0:0:0:0:
256,192,50225,1,0,0:0:0:0:
256,192,50329,1,8,0:0:0:0:
256,192,50432,1,0,0:0:0:0:
256,192,50536,1,0,0:0:0:0:
256,192,50639,1,0,0:0:0:0:
256,192,50743,1,0,0:0:0:0:
256,192,50846,1,8,0:0:0:0:
256,192,50950,1,8,0:0:0:0:
256,192,51053,1,8,0:0:0:0:
256,192,51156,1,8,0:0:0:0:
256,192,51260,1,0,0:0:0:0:
256,192,52915,1,4,0:0:0:0:
256,192,53122,1,8,0:0:0:0:
256,192,53329,1,8,0:0:0:0:
256,192,53536,1,8,0:0:0:0:
256,192,53743,1,12,0:0:0:0:
256,192,53950,1,8,0:0:0:0:
256,192,53984,1,0,0:0:0:0:
256,192,54156,1,0,0:0:0:0:
256,192,54363,1,0,0:0:0:0:
256,192,54570,1,0,0:0:0:0:
256,192,54622,1,0,0:0:0:0:
256,192,54777,1,0,0:0:0:0:
256,192,54829,1,0,0:0:0:0:
256,192,54984,1,0,0:0:0:0:
256,192,55036,1,0,0:0:0:0:
256,192,55191,1,0,0:0:0:0:
256,192,55243,1,0,0:0:0:0:
256,192,55398,1,12,0:0:0:0:
256,192,55605,1,8,0:0:0:0:
256,192,55674,1,8,0:0:0:0:
256,192,55743,1,0,0:0:0:0:
256,192,55950,1,8,0:0:0:0:
256,192,56018,1,8,0:0:0:0:
256,192,56225,1,0,0:0:0:0:
256,192,56432,1,8,0:0:0:0:
256,192,56639,1,8,0:0:0:0:
256,192,56846,1,0,0:0:0:0:
256,192,57053,1,12,0:0:0:0:
256,192,57260,1,8,0:0:0:0:
256,192,57294,1,0,0:0:0:0:
256,192,57467,1,0,0:0:0:0:
256,192,57674,1,0,0:0:0:0:
256,192,57881,1,8,0:0:0:0:
256,192,57932,1,8,0:0:0:0:
256,192,58087,1,8,0:0:0:0:
256,192,58139,1,8,0:0:0:0:
256,192,58294,1,8,0:0:0:0:
256,192,58346,1,8,0:0:0:0:
256,192,58501,1,8,0:0:0:0:
256,192,58553,1,8,0:0:0:0:
256,192,58708,1,12,0:0:0:0:
256,192,58915,1,0,0:0:0:0:
256,192,59018,1,8,0:0:0:0:
256,192,59122,1,0,0:0:0:0:
256,192,59225,1,0,0:0:0:0:
256,192,59329,1,8,0:0:0:0:
256,192,59432,1,8,0:0:0:0:
256,192,59536,1,0,0:0:0:0:
256,192,59743,1,8,0:0:0:0:
256,192,59950,1,8,0:0:0:0:
256,192,60156,1,8,0:0:0:0:
256,192,60363,1,12,0:0:0:0:
256,192,60570,1,8,0:0:0:0:
256,192,60605,1,0,0:0:0:0:
256,192,60777,1,0,0:0:0:0:
256,192,60984,1,0,0:0:0:0:
256,192,61191,1,0,0:0:0:0:
256,192,61243,1,0,0:0:0:0:
256,192,61398,1,0,0:0:0:0:
256,192,61450,1,0,0:0:0:0:
256,192,61605,1,0,0:0:0:0:
256,192,61656,1,0,0:0:0:0:
256,192,61812,1,0,0:0:0:0:
256,192,61863,1,0,0:0:0:0:
256,192,62018,1,12,0:0:0:0:
256,192,62225,1,8,0:0:0:0:
256,192,62294,1,8,0:0:0:0:
256,192,62363,1,8,0:0:0:0:
256,192,62432,1,0,0:0:0:0:
256,192,62536,1,0,0:0:0:0:
256,192,62639,1,8,0:0:0:0:
256,192,62743,1,8,0:0:0:0:
256,192,62846,1,0,0:0:0:0:
256,192,63053,1,8,0:0:0:0:
256,192,63260,1,8,0:0:0:0:
256,192,63467,1,0,0:0:0:0:
256,192,63674,1,12,0:0:0:0:
256,192,63881,1,0,0:0:0:0:
256,192,63915,1,8,0:0:0:0:
256,192,64087,1,0,0:0:0:0:
256,192,64294,1,0,0:0:0:0:
256,192,64501,1,8,0:0:0:0:
256,192,64553,1,8,0:0:0:0:
256,192,64708,1,8,0:0:0:0:
256,192,64760,1,8,0:0:0:0:
256,192,64915,1,8,0:0:0:0:
256,192,64967,1,8,0:0:0:0:
256,192,65122,1,0,0:0:0:0:
256,192,65225,1,0,0:0:0:0:
256,192,65329,1,8,0:0:0:0:
256,192,65432,1,8,0:0:0:0:
256,192,65536,1,0,0:0:0:0:
256,192,65605,1,0,0:0:0:0:
256,192,65674,1,0,0:0:0:0:
256,192,65743,1,8,0:0:0:0:
256,192,65846,1,0,0:0:0:0:
256,192,65950,1,8,0:0:0:0:
256,192,66156,1,4,0:0:0:0:
256,192,66363,1,8,0:0:0:0:
256,192,66570,1,8,0:0:0:0:
256,192,66777,1,8,0:0:0:0:
256,192,66984,1,12,0:0:0:0:
256,192,67191,1,8,0:0:0:0:
256,192,67225,1,0,0:0:0:0:
256,192,67398,1,0,0:0:0:0:
256,192,67605,1,0,0:0:0:0:
256,192,67812,1,0,0:0:0:0:
256,192,67863,1,0,0:0:0:0:
256,192,68018,1,0,0:0:0:0:
256,192,68070,1,0,0:0:0:0:
256,192,68225,1,0,0:0:0:0:
256,192,68277,1,0,0:0:0:0:
256,192,68432,1,0,0:0:0:0:
256,192,68484,1,0,0:0:0:0:
256,192,68639,1,12,0:0:0:0:
256,192,68846,1,8,0:0:0:0:
256,192,68915,1,8,0:0:0:0:
256,192,68984,1,0,0:0:0:0:
256,192,69191,1,8,0:0:0:0:
256,192,69260,1,8,0:0:0:0:
256,192,69467,1,0,0:0:0:0:
256,192,69674,1,8,0:0:0:0:
256,192,69881,1,8,0:0:0:0:
256,192,70087,1,0,0:0:0:0:
256,192,70294,1,12,0:0:0:0:
256,192,70501,1,8,0:0:0:0:
256,192,70536,1,0,0:0:0:0:
256,192,70708,1,0,0:0:0:0:
256,192,70915,1,0,0:0:0:0:
256,192,71122,1,8,0:0:0:0:
256,192,71174,1,8,0:0:0:0:
256,192,71329,1,8,0:0:0:0:
256,192,71381,1,8,0:0:0:0:
256,192,71536,1,8,0:0:0:0:
256,192,71587,1,8,0:0:0:0:
256,192,71743,1,8,0:0:0:0:
256,192,71794,1,8,0:0:0:0:
256,192,71950,1,12,0:0:0:0:
256,192,72156,1,0,0:0:0:0:
256,192,72363,1,8,0:0:0:0:
256,192,72777,1,0,0:0:0:0:
256,192,72984,1,8,0:0:0:0:
256,192,73191,1,8,0:0:0:0:
256,192,73398,1,8,0:0:0:0:
256,192,73605,1,12,0:0:0:0:
256,192,73812,1,8,0:0:0:0:
256,192,73846,1,0,0:0:0:0:
256,192,74018,1,0,0:0:0:0:
256,192,74225,1,0,0:0:0:0:
256,192,74432,1,0,0:0:0:0:
256,192,74484,1,0,0:0:0:0:
256,192,74639,1,0,0:0:0:0:
256,192,74691,1,0,0:0:0:0:
256,192,74846,1,0,0:0:0:0:
256,192,74898,1,0,0:0:0:0:
256,192,75053,1,0,0:0:0:0:
256,192,75105,1,0,0:0:0:0:
256,192,75260,1,12,0:0:0:0:
256,192,75467,1,8,0:0:0:0:
256,192,75536,1,8,0:0:0:0:
256,192,75605,1,8,0:0:0:0:
256,192,75674,1,0,0:0:0:0:
256,192,75777,1,0,0:0:0:0:
256,192,75881,1,8,0:0:0:0:
256,192,75984,1,8,0:0:0:0:
256,192,76087,1,0,0:0:0:0:
256,192,76294,1,8,0:0:0:0:
256,192,76501,1,8,0:0:0:0:
256,192,76708,1,0,0:0:0:0:
256,192,76915,1,12,0:0:0:0:
256,192,77122,1,0,0:0:0:0:
256,192,77156,1,8,0:0:0:0:
256,192,77329,1,0,0:0:0:0:
256,192,77536,1,0,0:0:0:0:
256,192,77743,1,8,0:0:0:0:
256,192,77794,1,8,0:0:0:0:
256,192,77950,1,8,0:0:0:0:
256,192,78001,1,8,0:0:0:0:
256,192,78156,1,8,0:0:0:0:
256,192,78208,1,8,0:0:0:0:
256,192,78363,1,8,0:0:0:0:
256,192,78415,1,8,0:0:0:0:
256,192,78570,1,12,0:0:0:0:
256,192,79191,1,0,0:0:0:0:
256,192,79398,1,4,0:0:0:0:
256,192,79812,1,8,0:0:0:0:
256,192,80225,1,0,0:0:0:0:
256,192,80432,1,0,0:0:0:0:
256,192,80639,1,0,0:0:0:0:
256,192,81053,1,8,0:0:0:0:
256,192,81467,1,0,0:0:0:0:
256,192,81674,1,0,0:0:0:0:
256,192,81881,1,8,0:0:0:0:
256,192,82294,1,8,0:0:0:0:
256,192,82708,1,0,0:0:0:0:
256,192,82915,1,8,0:0:0:0:
256,192,83122,1,0,0:0:0:0:
256,192,83536,1,0,0:0:0:0:
256,192,83950,1,8,0:0:0:0:
256,192,84156,1,8,0:0:0:0:
256,192,84363,1,0,0:0:0:0:
256,192,84777,1,0,0:0:0:0:
256,192,85191,1,8,0:0:0:0:
256,192,85398,1,0,0:0:0:0:
256,192,85605,1,8,0:0:0:0:
256,192,86018,1,0,0:0:0:0:
256,192,86225,1,0,0:0:0:0:
256,192,86432,1,0,0:0:0:0:
256,192,86639,1,0,0:0:0:0:
256,192,86846,1,0,0:0:0:0:
256,192,87053,1,0,0:0:0:0:
256,192,87260,1,0,0:0:0:0:
256,192,87467,1,0,0:0:0:0:
256,192,87674,1,8,0:0:0:0:
256,192,87881,1,8,0:0:0:0:
256,192,88087,1,8,0:0:0:0:
256,192,88294,1,8,0:0:0:0:
256,192,88501,1,8,0:0:0:0:
256,192,88708,1,8,0:0:0:0:
256,192,88915,1,8,0:0:0:0:
256,192,89122,1,8,0:0:0:0:
256,192,89329,1,0,0:0:0:0:
256,192,89432,1,0,0:0:0:0:
256,192,89536,1,0,0:0:0:0:
256,192,89639,1,0,0:0:0:0:
256,192,89743,1,0,0:0:0:0:
256,192,89846,1,0,0:0:0:0:
256,192,89950,1,0,0:0:0:0:
256,192,90053,1,0,0:0:0:0:
256,192,90156,1,8,0:0:0:0:
256,192,90260,1,8,0:0:0:0:
256,192,90363,1,8,0:0:0:0:
256,192,90467,1,8,0:0:0:0:
256,192,90570,1,8,0:0:0:0:
256,192,90674,1,8,0:0:0:0:
256,192,90777,1,8,0:0:0:0:
256,192,90881,1,8,0:0:0:0:
256,192,90984,1,0,0:0:0:0:
256,192,91605,1,8,0:0:0:0:
256,192,91674,1,8,0:0:0:0:
256,192,91743,1,8,0:0:0:0:
256,192,91812,1,8,0:0:0:0:
256,192,92018,1,0,0:0:0:0:
256,192,92225,1,0,0:0:0:0:
256,192,92432,1,0,0:0:0:0:
256,192,92639,1,4,0:0:0:0:
256,192,92846,1,8,0:0:0:0:
256,192,93053,1,8,0:0:0:0:
256,192,93260,1,8,0:0:0:0:
256,192,93467,1,12,0:0:0:0:
256,192,93674,1,8,0:0:0:0:
256,192,93708,1,8,0:0:0:0:
256,192,93777,1,0,0:0:0:0:
256,192,94087,1,0,0:0:0:0:
256,192,94294,1,0,0:0:0:0:
256,192,94346,1,0,0:0:0:0:
256,192,94501,1,0,0:0:0:0:
256,192,94553,1,0,0:0:0:0:
256,192,94708,1,0,0:0:0:0:
256,192,94760,1,0,0:0:0:0:
256,192,94915,1,0,0:0:0:0:
256,192,94967,1,0,0:0:0:0:
256,192,95122,1,12,0:0:0:0:
256,192,95329,1,8,0:0:0:0:
256,192,95398,1,8,0:0:0:0:
256,192,95467,1,0,0:0:0:0:
256,192,95674,1,8,0:0:0:0:
256,192,95743,1,0,0:0:0:0:
256,192,95950,1,0,0:0:0:0:
256,192,96156,1,8,0:0:0:0:
256,192,96363,1,8,0:0:0:0:
256,192,96570,1,0,0:0:0:0:
256,192,96777,1,12,0:0:0:0:
256,192,96984,1,8,0:0:0:0:
256,192,97018,1,8,0:0:0:0:
256,192,97087,1,0,0:0:0:0:
256,192,97398,1,0,0:0:0:0:
256,192,97605,1,8,0:0:0:0:
256,192,97656,1,8,0:0:0:0:
256,192,97812,1,8,0:0:0:0:
256,192,97863,1,8,0:0:0:0:
256,192,98018,1,8,0:0:0:0:
256,192,98070,1,8,0:0:0:0:
256,192,98225,1,8,0:0:0:0:
256,192,98277,1,8,0:0:0:0:
256,192,98432,1,12,0:0:0:0:
256,192,98639,1,0,0:0:0:0:
256,192,98743,1,8,0:0:0:0:
256,192,98846,1,8,0:0:0:0:
256,192,98950,1,0,0:0:0:0:
256,192,99053,1,8,0:0:0:0:
256,192,99156,1,8,0:0:0:0:
256,192,99260,1,0,0:0:0:0:
256,192,99467,1,8,0:0:0:0:
256,192,99674,1,8,0:0:0:0:
256,192,99881,1,8,0:0:0:0:
256,192,100087,1,12,0:0:0:0:
256,192,100294,1,8,0:0:0:0:
256,192,100329,1,8,0:0:0:0:
256,192,100398,1,0,0:0:0:0:
256,192,100708,1,0,0:0:0:0:
256,192,100915,1,0,0:0:0:0:
256,192,100967,1,0,0:0:0:0:
256,192,101122,1,0,0:0:0:0:
256,192,101174,1,0,0:0:0:0:
256,192,101329,1,0,0:0:0:0:
256,192,101381,1,0,0:0:0:0:
256,192,101536,1,0,0:0:0:0:
256,192,101587,1,0,0:0:0:0:
256,192,101743,1,12,0:0:0:0:
256,192,101950,1,8,0:0:0:0:
256,192,102018,1,0,0:0:0:0:
256,192,102087,1,0,0:0:0:0:
256,192,102156,1,8,0:0:0:0:
256,192,102260,1,0,0:0:0:0:
256,192,102363,1,8,0:0:0:0:
256,192,102467,1,8,0:0:0:0:
256,192,102570,1,0,0:0:0:0:
256,192,102777,1,8,0:0:0:0:
256,192,102984,1,8,0:0:0:0:
256,192,103191,1,0,0:0:0:0:
256,192,103398,1,12,0:0:0:0:
256,192,103605,1,8,0:0:0:0:
256,192,103639,1,8,0:0:0:0:
256,192,103708,1,0,0:0:0:0:
256,192,104018,1,0,0:0:0:0:
256,192,104225,1,8,0:0:0:0:
256,192,104277,1,8,0:0:0:0:
256,192,104432,1,8,0:0:0:0:
256,192,104484,1,8,0:0:0:0:
256,192,104639,1,8,0:0:0:0:
256,192,104691,1,8,0:0:0:0:
256,192,104846,1,8,0:0:0:0:
256,192,104898,1,8,0:0:0:0:
256,192,105053,1,8,0:0:0:0:
256,192,105156,1,0,0:0:0:0:
256,192,105260,1,8,0:0:0:0:
256,192,105363,1,8,0:0:0:0:
256,192,105467,1,0,0:0:0:0:
256,192,105570,1,0,0:0:0:0:
256,192,105674,1,8,0:0:0:0:
256,192,105881,1,4,0:0:0:0:
256,192,106087,1,8,0:0:0:0:
256,192,106294,1,8,0:0:0:0:
256,192,106501,1,8,0:0:0:0:
256,192,106708,1,12,0:0:0:0:
256,192,106915,1,8,0:0:0:0:
256,192,106950,1,0,0:0:0:0:
256,192,107122,1,0,0:0:0:0:
256,192,107329,1,0,0:0:0:0:
256,192,107536,1,0,0:0:0:0:
256,192,107587,1,0,0:0:0:0:
256,192,107743,1,0,0:0:0:0:
256,192,107794,1,0,0:0:0:0:
256,192,107950,1,0,0:0:0:0:
256,192,108001,1,0,0:0:0:0:
256,192,108156,1,0,0:0:0:0:
256,192,108208,1,0,0:0:0:0:
256,192,108363,1,12,0:0:0:0:
256,192,108570,1,8,0:0:0:0:
256,192,108639,1,8,0:0:0:0:
256,192,108708,1,0,0:0:0:0:
256,192,108915,1,8,0:0:0:0:
256,192,108984,1,8,0:0:0:0:
256,192,109191,1,0,0:0:0:0:
256,192,109398,1,8,0:0:0:0:
256,192,109605,1,8,0:0:0:0:
256,192,109812,1,0,0:0:0:0:
256,192,110018,1,12,0:0:0:0:
256,192,110225,1,8,0:0:0:0:
256,192,110260,1,0,0:0:0:0:
256,192,110432,1,0,0:0:0:0:
256,192,110639,1,0,0:0:0:0:
256,192,110846,1,8,0:0:0:0:
256,192,110898,1,8,0:0:0:0:
256,192,111053,1,8,0:0:0:0:
256,192,111105,1,8,0:0:0:0:
256,192,111260,1,8,0:0:0:0:
256,192,111312,1,8,0:0:0:0:
256,192,111467,1,8,0:0:0:0:
256,192,111518,1,8,0:0:0:0:
256,192,111674,1,12,0:0:0:0:
256,192,111881,1,0,0:0:0:0:
256,192,111984,1,8,0:0:0:0:
256,192,112087,1,0,0:0:0:0:
256,192,112191,1,0,0:0:0:0:
256,192,112294,1,8,0:0:0:0:
256,192,112398,1,8,0:0:0:0:
256,192,112501,1,0,0:0:0:0:
256,192,112708,1,8,0:0:0:0:
256,192,112915,1,8,0:0:0:0:
256,192,113122,1,8,0:0:0:0:
256,192,113329,1,12,0:0:0:0:
256,192,113536,1,8,0:0:0:0:
256,192,113570,1,0,0:0:0:0:
256,192,113743,1,0,0:0:0:0:
256,192,113950,1,0,0:0:0:0:
256,192,114156,1,0,0:0:0:0:
256,192,114208,1,0,0:0:0:0:
256,192,114363,1,0,0:0:0:0:
256,192,114415,1,0,0:0:0:0:
256,192,114570,1,0,0:0:0:0:
256,192,114622,1,0,0:0:0:0:
256,192,114777,1,0,0:0:0:0:
256,192,114829,1,0,0:0:0:0:
256,192,114984,1,12,0:0:0:0:
256,192,115191,1,8,0:0:0:0:
256,192,115260,1,8,0:0:0:0:
256,192,115329,1,8,0:0:0:0:
256,192,115398,1,0,0:0:0:0:
256,192,115501,1,0,0:0:0:0:
256,192,115605,1,8,0:0:0:0:
256,192,115708,1,8,0:0:0:0:
256,192,115812,1,0,0:0:0:0:
256,192,116018,1,8,0:0:0:0:
256,192,116225,1,8,0:0:0:0:
256,192,116432,1,0,0:0:0:0:
256,192,116639,1,12,0:0:0:0:
256,192,116846,1,0,0:0:0:0:
256,192,116881,1,8,0:0:0:0:
256,192,117053,1,0,0:0:0:0:
256,192,117260,1,0,0:0:0:0:
256,192,117467,1,8,0:0:0:0:
256,192,117518,1,8,0:0:0:0:
256,192,117674,1,8,0:0:0:0:
256,192,117725,1,8,0:0:0:0:
256,192,117881,1,8,0:0:0:0:
256,192,117932,1,8,0:0:0:0:
256,192,118087,1,8,0:0:0:0:
256,192,118139,1,8,0:0:0:0:
256,192,118294,1,12,0:0:0:0:
256,192,119122,1,4,0:0:0:0:
256,192,131329,5,8,0:0:0:0:
256,192,131398,1,8,0:0:0:0:
256,192,131467,1,8,0:0:0:0:
256,192,131536,1,8,0:0:0:0:
256,192,131743,1,0,0:0:0:0:
256,192,131950,1,0,0:0:0:0:
256,192,132156,1,0,0:0:0:0:
256,192,132363,1,4,0:0:0:0:
256,192,132570,1,8,0:0:0:0:
256,192,132777,1,0,0:0:0:0:
256,192,132984,1,8,0:0:0:0:
256,192,133191,1,8,0:0:0:0:
256,192,133605,1,0,0:0:0:0:
256,192,133708,1,0,0:0:0:0:
256,192,133812,1,0,0:0:0:0:
256,192,134018,1,8,0:0:0:0:
256,192,134225,1,0,0:0:0:0:
256,192,134432,1,8,0:0:0:0:
256,192,134639,1,0,0:0:0:0:
256,192,134846,1,8,0:0:0:0:
256,192,135053,1,8,0:0:0:0:
256,192,135260,1,0,0:0:0:0:
256,192,135467,1,0,0:0:0:0:
256,192,135674,1,0,0:0:0:0:
256,192,135881,1,8,0:0:0:0:
256,192,136087,1,8,0:0:0:0:
256,192,136294,1,0,0:0:0:0:
256,192,136501,1,8,0:0:0:0:
256,192,136708,1,0,0:0:0:0:
256,192,136915,1,8,0:0:0:0:
256,192,137018,1,8,0:0:0:0:
256,192,137122,1,8,0:0:0:0:
256,192,137536,1,0,0:0:0:0:
256,192,138156,1,8,0:0:0:0:
256,192,138984,1,0,0:0:0:0:
256,192,139191,1,8,0:0:0:0:
256,192,139398,1,0,0:0:0:0:
256,192,139605,1,8,0:0:0:0:
256,192,139812,1,8,0:0:0:0:
256,192,140225,1,0,0:0:0:0:
256,192,140329,1,0,0:0:0:0:
256,192,140432,1,0,0:0:0:0:
256,192,140639,1,8,0:0:0:0:
256,192,140846,1,0,0:0:0:0:
256,192,141053,1,8,0:0:0:0:
256,192,141260,1,0,0:0:0:0:
256,192,141467,1,8,0:0:0:0:
256,192,141674,1,8,0:0:0:0:
256,192,141881,1,0,0:0:0:0:
256,192,142087,1,0,0:0:0:0:
256,192,142294,1,0,0:0:0:0:
256,192,142501,1,8,0:0:0:0:
256,192,142708,1,8,0:0:0:0:
256,192,142915,1,0,0:0:0:0:
256,192,143122,1,8,0:0:0:0:
256,192,143329,1,0,0:0:0:0:
256,192,143536,1,8,0:0:0:0:
256,192,143639,1,8,0:0:0:0:
256,192,143743,1,8,0:0:0:0:
256,192,144156,1,0,0:0:0:0:
256,192,144777,1,8,0:0:0:0:
256,192,145605,1,0,0:0:0:0:
256,192,147260,1,0,0:0:0:0:
256,192,148915,1,8,0:0:0:0:
256,192,150156,5,8,0:0:0:0:
256,192,152225,1,0,0:0:0:0:
256,192,153881,1,0,0:0:0:0:
256,192,155536,1,8,0:0:0:0:
256,192,156777,1,8,0:0:0:0:
256,192,158846,1,0,0:0:0:0:
256,192,159260,1,8,0:0:0:0:
256,192,159674,1,0,0:0:0:0:
256,192,159881,1,0,0:0:0:0:
256,192,160087,1,0,0:0:0:0:
256,192,160501,1,8,0:0:0:0:
256,192,160915,1,0,0:0:0:0:
256,192,161122,1,0,0:0:0:0:
256,192,161329,1,8,0:0:0:0:
256,192,161743,1,8,0:0:0:0:
256,192,162156,1,0,0:0:0:0:
256,192,162363,1,8,0:0:0:0:
256,192,162570,1,0,0:0:0:0:
256,192,162984,1,0,0:0:0:0:
256,192,163398,1,8,0:0:0:0:
256,192,163605,1,8,0:0:0:0:
256,192,163812,1,0,0:0:0:0:
256,192,164225,1,0,0:0:0:0:
256,192,164639,1,8,0:0:0:0:
256,192,164846,1,0,0:0:0:0:
256,192,165053,1,8,0:0:0:0:
256,192,165467,1,8,0:0:0:0:
256,192,165674,1,0,0:0:0:0:
256,192,165777,1,0,0:0:0:0:
256,192,165881,1,8,0:0:0:0:
256,192,166087,1,8,0:0:0:0:
256,192,166294,1,0,0:0:0:0:
256,192,166501,1,8,0:0:0:0:
256,192,166605,1,8,0:0:0:0:
256,192,166708,1,0,0:0:0:0:
256,192,166915,1,0,0:0:0:0:
256,192,167122,1,8,0:0:0:0:
256,192,167329,1,0,0:0:0:0:
256,192,167432,1,0,0:0:0:0:
256,192,167536,1,8,0:0:0:0:
256,192,167743,1,8,0:0:0:0:
256,192,167950,1,0,0:0:0:0:
256,192,168156,1,8,0:0:0:0:
256,192,168260,1,8,0:0:0:0:
256,192,168363,1,0,0:0:0:0:
256,192,168570,1,0,0:0:0:0:
256,192,168777,1,8,0:0:0:0:
256,192,168881,1,0,0:0:0:0:
256,192,168984,1,8,0:0:0:0:
256,192,169087,1,0,0:0:0:0:
256,192,169191,1,8,0:0:0:0:
256,192,169294,1,8,0:0:0:0:
256,192,169398,1,0,0:0:0:0:
256,192,169501,1,8,0:0:0:0:
256,192,169605,1,0,0:0:0:0:
256,192,169708,1,0,0:0:0:0:
256,192,169812,1,0,0:0:0:0:
256,192,169915,1,0,0:0:0:0:
256,192,170018,1,8,0:0:0:0:
256,192,170122,1,8,0:0:0:0:
256,192,170225,1,8,0:0:0:0:
256,192,170329,1,8,0:0:0:0:
256,192,170432,1,0,0:0:0:0:
256,192,172087,1,4,0:0:0:0:
256,192,172294,1,8,0:0:0:0:
256,192,172501,1,0,0:0:0:0:
256,192,172708,1,8,0:0:0:0:
256,192,172915,1,12,0:0:0:0:
256,192,173122,1,8,0:0:0:0:
256,192,173156,1,8,0:0:0:0:
256,192,173225,1,0,0:0:0:0:
256,192,173329,1,8,0:0:0:0:
256,192,173536,1,0,0:0:0:0:
256,192,173743,1,0,0:0:0:0:
256,192,173950,1,8,0:0:0:0:
256,192,174156,1,8,0:0:0:0:
256,192,174363,1,0,0:0:0:0:
256,192,174570,1,12,0:0:0:0:
256,192,174777,1,8,0:0:0:0:
256,192,174812,1,8,0:0:0:0:
256,192,174881,1,0,0:0:0:0:
256,192,174984,1,0,0:0:0:0:
256,192,175191,1,0,0:0:0:0:
256,192,175398,1,0,0:0:0:0:
256,192,175605,1,8,0:0:0:0:
256,192,175812,1,8,0:0:0:0:
256,192,176018,1,0,0:0:0:0:
256,192,176225,1,12,0:0:0:0:
256,192,176432,1,8,0:0:0:0:
256,192,176467,1,8,0:0:0:0:
256,192,176536,1,8,0:0:0:0:
256,192,176639,1,0,0:0:0:0:
256,192,176846,1,8,0:0:0:0:
256,192,176950,1,0,0:0:0:0:
256,192,177053,1,8,0:0:0:0:
256,192,177156,1,8,0:0:0:0:
256,192,177260,1,0,0:0:0:0:
256,192,177467,1,0,0:0:0:0:
256,192,177570,1,8,0:0:0:0:
256,192,177674,1,0,0:0:0:0:
256,192,177777,1,0,0:0:0:0:
256,192,177881,1,8,0:0:0:0:
256,192,177932,1,0,0:0:0:0:
256,192,177984,5,8,0:0:0:0:
256,192,178036,1,8,0:0:0:0:
256,192,178087,1,0,0:0:0:0:
256,192,178191,1,8,0:0:0:0:
256,192,178294,1,0,0:0:0:0:
256,192,178363,1,0,0:0:0:0:
256,192,178432,1,8,0:0:0:0:
256,192,178501,1,0,0:0:0:0:
256,192,178605,1,8,0:0:0:0:
256,192,178708,1,0,0:0:0:0:
256,192,178915,1,8,0:0:0:0:
256,192,179122,1,0,0:0:0:0:
256,192,179329,1,8,0:0:0:0:
256,192,179536,1,12,0:0:0:0:
256,192,179743,1,8,0:0:0:0:
256,192,179777,1,8,0:0:0:0:
256,192,179846,1,0,0:0:0:0:
256,192,179950,1,8,0:0:0:0:
256,192,180156,1,0,0:0:0:0:
256,192,180363,1,0,0:0:0:0:
256,192,180570,1,8,0:0:0:0:
256,192,180777,1,8,0:0:0:0:
256,192,180984,1,0,0:0:0:0:
256,192,181191,1,12,0:0:0:0:
256,192,181398,1,8,0:0:0:0:
256,192,181432,1,8,0:0:0:0:
256,192,181501,1,0,0:0:0:0:
256,192,181605,1,0,0:0:0:0:
256,192,181812,1,0,0:0:0:0:
256,192,182018,1,0,0:0:0:0:
256,192,182225,1,8,0:0:0:0:
256,192,182432,1,8,0:0:0:0:
256,192,182639,1,0,0:0:0:0:
256,192,182846,1,12,0:0:0:0:
256,192,183053,1,8,0:0:0:0:
256,192,183087,1,8,0:0:0:0:
256,192,183156,1,8,0:0:0:0:
256,192,183260,1,0,0:0:0:0:
256,192,183467,1,8,0:0:0:0:
256,192,183570,1,0,0:0:0:0:
256,192,183674,1,8,0:0:0:0:
256,192,183777,1,8,0:0:0:0:
256,192,183881,1,0,0:0:0:0:
256,192,184087,1,0,0:0:0:0:
256,192,184191,1,8,0:0:0:0:
256,192,184294,1,0,0:0:0:0:
256,192,184398,1,0,0:0:0:0:
256,192,184501,1,8,0:0:0:0:
256,192,184605,5,0,0:0:0:0:
256,192,184656,1,0,0:0:0:0:
256,192,184708,1,0,0:0:0:0:
256,192,184760,1,8,0:0:0:0:
256,192,184812,1,8,0:0:0:0:
256,192,184915,5,8,0:0:0:0:
256,192,185018,1,0,0:0:0:0:
256,192,185122,1,8,0:0:0:0:
256,192,185329,1,4,0:0:0:0:
256,192,185536,1,8,0:0:0:0:
256,192,185743,1,8,0:0:0:0:
256,192,185950,1,8,0:0:0:0:
256,192,186156,1,12,0:0:0:0:
256,192,186363,1,8,0:0:0:0:
256,192,186398,1,0,0:0:0:0:
256,192,186570,1,0,0:0:0:0:
256,192,186777,1,0,0:0:0:0:
256,192,186984,1,0,0:0:0:0:
256,192,187036,1,0,0:0:0:0:
256,192,187191,1,0,0:0:0:0:
256,192,187243,1,0,0:0:0:0:
256,192,187398,1,0,0:0:0:0:
256,192,187450,1,0,0:0:0:0:
256,192,187605,1,0,0:0:0:0:
256,192,187656,1,0,0:0:0:0:
256,192,187812,1,12,0:0:0:0:
256,192,188018,1,8,0:0:0:0:
256,192,188087,1,8,0:0:0:0:
256,192,188156,1,0,0:0:0:0:
256,192,188363,1,8,0:0:0:0:
256,192,188432,1,8,0:0:0:0:
256,192,188639,1,0,0:0:0:0:
256,192,188846,1,8,0:0:0:0:
256,192,189053,1,8,0:0:0:0:
256,192,189260,1,0,0:0:0:0:
256,192,189467,1,12,0:0:0:0:
256,192,189674,1,8,0:0:0:0:
256,192,189708,1,0,0:0:0:0:
256,192,189881,1,0,0:0:0:0:
256,192,190087,1,0,0:0:0:0:
256,192,190294,1,8,0:0:0:0:
256,192,190346,1,8,0:0:0:0:
256,192,190501,1,8,0:0:0:0:
256,192,190553,1,8,0:0:0:0:
256,192,190708,1,8,0:0:0:0:
256,192,190760,1,8,0:0:0:0:
256,192,190915,1,8,0:0:0:0:
256,192,190967,1,8,0:0:0:0:
256,192,191122,1,12,0:0:0:0:
256,192,191329,1,0,0:0:0:0:
256,192,191536,1,8,0:0:0:0:
256,192,191950,1,0,0:0:0:0:
256,192,192156,1,8,0:0:0:0:
256,192,192363,1,8,0:0:0:0:
256,192,192570,1,8,0:0:0:0:
256,192,192777,1,12,0:0:0:0:
256,192,192984,1,8,0:0:0:0:
256,192,193018,1,0,0:0:0:0:
256,192,193191,1,0,0:0:0:0:
256,192,193398,1,0,0:0:0:0:
256,192,193605,1,0,0:0:0:0:
256,192,193656,1,0,0:0:0:0:
256,192,193812,1,0,0:0:0:0:
256,192,193863,1,0,0:0:0:0:
256,192,194018,1,0,0:0:0:0:
256,192,194070,1,0,0:0:0:0:
256,192,194225,1,0,0:0:0:0:
256,192,194277,1,0,0:0:0:0:
256,192,194432,1,12,0:0:0:0:
256,192,194639,1,8,0:0:0:0:
256,192,194708,1,8,0:0:0:0:
256,192,194777,1,8,0:0:0:0:
256,192,194846,1,0,0:0:0:0:
256,192,194950,1,0,0:0:0:0:
256,192,195053,1,8,0:0:0:0:
256,192,195156,1,8,0:0:0:0:
256,192,195260,1,0,0:0:0:0:
256,192,195467,1,8,0:0:0:0:
256,192,195674,1,8,0:0:0:0:
256,192,195881,1,0,0:0:0:0:
256,192,196087,1,12,0:0:0:0:
256,192,196294,1,0,0:0:0:0:
256,192,196329,1,8,0:0:0:0:
256,192,196501,1,0,0:0:0:0:
256,192,196708,1,0,0:0:0:0:
256,192,196915,1,8,0:0:0:0:
256,192,196967,1,8,0:0:0:0:
256,192,197122,1,8,0:0:0:0:
256,192,197174,1,8,0:0:0:0:
256,192,197329,1,8,0:0:0:0:
256,192,197381,1,8,0:0:0:0:
256,192,197536,1,8,0:0:0:0:
256,192,197587,1,8,0:0:0:0:
256,192,197743,1,12,0:0:0:0:
256,192,198570,1,4,0:0:0:0:
256,192,198984,1,8,0:0:0:0:
256,192,199398,1,0,0:0:0:0:
256,192,199605,1,0,0:0:0:0:
256,192,199812,1,0,0:0:0:0:
256,192,200225,1,8,0:0:0:0:
256,192,200639,1,0,0:0:0:0:
256,192,200846,1,0,0:0:0:0:
256,192,201053,1,8,0:0:0:0:
256,192,201467,1,8,0:0:0:0:
256,192,201881,1,0,0:0:0:0:
256,192,202087,1,8,0:0:0:0:
256,192,202294,1,0,0:0:0:0:
256,192,202708,1,0,0:0:0:0:
256,192,203122,1,8,0:0:0:0:
256,192,203329,1,8,0:0:0:0:
256,192,203536,1,0,0:0:0:0:
256,192,203950,1,0,0:0:0:0:
256,192,204363,1,8,0:0:0:0:
256,192,204570,1,0,0:0:0:0:
256,192,204777,1,8,0:0:0:0:
256,192,205191,1,0,0:0:0:0:
256,192,205398,1,0,0:0:0:0:
256,192,205605,1,0,0:0:0:0:
256,192,205812,1,0,0:0:0:0:
256,192,206018,1,0,0:0:0:0:
256,192,206225,1,0,0:0:0:0:
256,192,206432,1,0,0:0:0:0:
256,192,206639,1,0,0:0:0:0:
256,192,206846,1,8,0:0:0:0:
256,192,207053,1,8,0:0:0:0:
256,192,207260,1,8,0:0:0:0:
256,192,207467,1,8,0:0:0:0:
256,192,207674,1,8,0:0:0:0:
256,192,207881,1,8,0:0:0:0:
256,192,208087,1,8,0:0:0:0:
256,192,208294,1,8,0:0:0:0:
256,192,208501,1,0,0:0:0:0:
256,192,208605,1,0,0:0:0:0:
256,192,208708,1,0,0:0:0:0:
256,192,208812,1,0,0:0:0:0:
256,192,208915,1,0,0:0:0:0:
256,192,209018,1,0,0:0:0:0:
256,192,209122,1,0,0:0:0:0:
256,192,209225,1,0,0:0:0:0:
256,192,209329,1,8,0:0:0:0:
256,192,209432,1,8,0:0:0:0:
256,192,209536,1,8,0:0:0:0:
256,192,209639,1,8,0:0:0:0:
256,192,209743,1,8,0:0:0:0:
256,192,209846,1,8,0:0:0:0:
256,192,209950,1,8,0:0:0:0:
256,192,210053,1,8,0:0:0:0:
256,192,210156,1,0,0:0:0:0:
256,192,210777,1,8,0:0:0:0:
256,192,210846,1,8,0:0:0:0:
256,192,210915,1,8,0:0:0:0:
256,192,210984,1,8,0:0:0:0:
256,192,211191,1,0,0:0:0:0:
256,192,211398,1,0,0:0:0:0:
256,192,211605,1,0,0:0:0:0:
256,192,211812,1,4,0:0:0:0:
256,192,212018,1,8,0:0:0:0:
256,192,212225,1,8,0:0:0:0:
256,192,212432,1,8,0:0:0:0:
256,192,212846,1,8,0:0:0:0:
256,192,212881,1,0,0:0:0:0:
256,192,213053,1,0,0:0:0:0:
256,192,213260,1,0,0:0:0:0:
256,192,213467,1,0,0:0:0:0:
256,192,213518,1,0,0:0:0:0:
256,192,213674,1,0,0:0:0:0:
256,192,213725,1,0,0:0:0:0:
256,192,213881,1,0,0:0:0:0:
256,192,213932,1,0,0:0:0:0:
256,192,214087,1,0,0:0:0:0:
256,192,214139,1,0,0:0:0:0:
256,192,214294,1,8,0:0:0:0:
256,192,214501,1,8,0:0:0:0:
256,192,214570,1,8,0:0:0:0:
256,192,214639,1,0,0:0:0:0:
256,192,214846,1,8,0:0:0:0:
256,192,214915,1,8,0:0:0:0:
256,192,215122,1,0,0:0:0:0:
256,192,215329,1,8,0:0:0:0:
256,192,215536,1,8,0:0:0:0:
256,192,215743,1,0,0:0:0:0:
256,192,215950,1,8,0:0:0:0:
256,192,216156,1,8,0:0:0:0:
256,192,216191,1,0,0:0:0:0:
256,192,216363,1,0,0:0:0:0:
256,192,216570,1,0,0:0:0:0:
256,192,216777,1,8,0:0:0:0:
256,192,216829,1,8,0:0:0:0:
256,192,216984,1,8,0:0:0:0:
256,192,217036,1,8,0:0:0:0:
256,192,217191,1,8,0:0:0:0:
256,192,217243,1,8,0:0:0:0:
256,192,217398,1,8,0:0:0:0:
256,192,217450,1,8,0:0:0:0:
256,192,217605,1,8,0:0:0:0:
256,192,217812,1,0,0:0:0:0:
256,192,217915,1,8,0:0:0:0:
256,192,218018,1,0,0:0:0:0:
256,192,218122,1,0,0:0:0:0:
256,192,218225,1,8,0:0:0:0:
256,192,218329,1,8,0:0:0:0:
256,192,218432,1,0,0:0:0:0:
256,192,218639,1,8,0:0:0:0:
256,192,218846,1,8,0:0:0:0:
256,192,219053,1,8,0:0:0:0:
256,192,219467,1,8,0:0:0:0:
256,192,219501,1,0,0:0:0:0:
256,192,219674,1,0,0:0:0:0:
256,192,219881,1,0,0:0:0:0:
256,192,220087,1,0,0:0:0:0:
256,192,220139,1,0,0:0:0:0:
256,192,220294,1,0,0:0:0:0:
256,192,220346,1,0,0:0:0:0:
256,192,220501,1,0,0:0:0:0:
256,192,220553,1,0,0:0:0:0:
256,192,220708,1,0,0:0:0:0:
256,192,220760,1,0,0:0:0:0:
256,192,220915,1,8,0:0:0:0:
256,192,221122,1,8,0:0:0:0:
256,192,221191,1,8,0:0:0:0:
256,192,221260,1,8,0:0:0:0:
256,192,221329,1,0,0:0:0:0:
256,192,221432,1,0,0:0:0:0:
256,192,221536,1,8,0:0:0:0:
256,192,221639,1,8,0:0:0:0:
256,192,221743,1,0,0:0:0:0:
256,192,221950,1,8,0:0:0:0:
256,192,222156,1,8,0:0:0:0:
256,192,222363,1,0,0:0:0:0:
256,192,222570,1,8,0:0:0:0:
256,192,222777,1,0,0:0:0:0:
256,192,222812,1,8,0:0:0:0:
256,192,222984,1,0,0:0:0:0:
256,192,223191,1,0,0:0:0:0:
256,192,223398,1,8,0:0:0:0:
256,192,223450,1,8,0:0:0:0:
256,192,223605,1,8,0:0:0:0:
256,192,223656,1,8,0:0:0:0:
256,192,223812,1,8,0:0:0:0:
256,192,223863,1,8,0:0:0:0:
256,192,224018,1,8,0:0:0:0:
256,192,224070,1,8,0:0:0:0:
