osu file format v14

[General]
AudioFilename: audio.mp3
AudioLeadIn: 0
PreviewTime: 51260
Countdown: 0
SampleSet: Normal
StackLeniency: 0.7
Mode: 1
LetterboxInBreaks: 0
WidescreenStoryboard: 0

[Editor]
DistanceSpacing: 0.9
BeatDivisor: 4
GridSize: 32
TimelineZoom: 3

[Metadata]
Title:To Say Goodbye (Original Mix)
TitleUnicode:To Say Goodbye (Original Mix)
Artist:slushii
ArtistUnicode:slushii
Creator:Surono
Version:Muzukashii
Source:
Tags:EDM Electronic Dance Music
BeatmapID:1516513
BeatmapSetID:717906

[Difficulty]
HPDrainRate:6
CircleSize:2
OverallDifficulty:5
ApproachRate:10
SliderMultiplier:1.4
SliderTickRate:1

[Events]
//Background and Video events
0,0,"nangid.jpg",0,-100
//Break Periods
2,124087,130879
//Storyboard Layer 0 (Background)
//Storyboard Layer 1 (Fail)
//Storyboard Layer 2 (Pass)
//Storyboard Layer 3 (Foreground)
//Storyboard Sound Samples

[TimingPoints]
-50,413.793103448276,4,1,0,90,1,0
11536,-125,4,1,0,90,0,0
12467,-117.647058823529,4,1,0,90,0,0
12674,-111.111111111111,4,1,0,90,0,0
13087,-100,4,1,0,90,0,0
26329,-125,4,1,0,90,0,0
39570,-111.111111111111,4,1,0,90,0,0
46191,-100,4,1,0,90,0,0
49553,-90.9090909090909,4,1,0,90,0,0
52915,-83.3333333333333,4,1,0,90,0,1
79191,-120.481927710843,4,1,0,90,0,1
79398,-111.111111111111,4,1,0,90,0,0
85915,-99.9999999999999,4,1,0,90,0,0
89277,-90.9090909090908,4,1,0,90,0,0
91553,-100,4,1,0,90,0,0
91967,-95.2380952380952,4,1,0,90,0,0
92174,-90.9090909090908,4,1,0,90,0,0
92639,-83.3333333333333,4,1,0,90,0,1
119122,-100,4,1,0,90,0,0
130708,-125,4,1,0,90,0,0
131639,-117.647058823529,4,1,0,90,0,0
131846,-111.111111111111,4,1,0,90,0,0
132260,-100,4,1,0,90,0,0
145501,-125,4,1,0,90,0,0
158743,-111.111111111111,4,1,0,90,0,0
165415,-100,4,1,0,90,0,0
168725,-90.9090909090909,4,1,0,90,0,0
172087,-83.3333333333333,4,1,0,90,0,1
198570,-111.111111111111,4,1,0,90,0,0
205087,-100,4,1,0,90,0,0
208398,-90.9090909090909,4,1,0,90,0,0
210674,-100,4,1,0,90,0,0
211087,-95.2380952380952,4,1,0,90,0,0
211294,-90.9090909090909,4,1,0,90,0,0
211812,-83.3333333333333,4,1,0,90,0,1
224225,-100,4,1,0,90,0,0

[HitObjects]
256,192,12156,5,8,0:0:0:0:
256,192,12260,1,8,0:0:0:0:
256,192,12363,1,8,0:0:0:0:
256,192,12570,1,0,0:0:0:0:
256,192,12777,1,0,0:0:0:0:
256,192,13191,1,4,0:0:0:0:
256,192,13398,1,8,0:0:0:0:
256,192,13605,1,0,0:0:0:0:
256,192,13812,1,8,0:0:0:0:
256,192,14018,1,8,0:0:0:0:
256,192,14639,1,0,0:0:0:0:
256,192,14846,1,8,0:0:0:0:
256,192,15053,1,0,0:0:0:0:
256,192,15260,1,8,0:0:0:0:
256,192,15674,1,8,0:0:0:0:
256,192,15881,1,8,0:0:0:0:
256,192,16087,1,0,0:0:0:0:
256,192,16501,1,0,0:0:0:0:
256,192,16708,1,8,0:0:0:0:
256,192,16915,1,8,0:0:0:0:
256,192,17122,1,0,0:0:0:0:
256,192,17329,1,8,0:0:0:0:
256,192,17743,1,8,0:0:0:0:
256,192,17950,1,8,0:0:0:0:
256,192,18363,1,0,0:0:0:0:
256,192,18984,1,8,0:0:0:0:
256,192,19812,1,0,0:0:0:0:
256,192,20018,1,8,0:0:0:0:
256,192,20225,1,0,0:0:0:0:
256,192,20432,1,8,0:0:0:0:
256,192,20639,1,8,0:0:0:0:
256,192,21260,1,0,0:0:0:0:
256,192,21467,1,8,0:0:0:0:
256,192,21674,1,0,0:0:0:0:
256,192,21881,1,8,0:0:0:0:
256,192,22294,1,8,0:0:0:0:
256,192,22501,1,8,0:0:0:0:
256,192,22708,1,0,0:0:0:0:
256,192,23122,1,0,0:0:0:0:
256,192,23329,1,8,0:0:0:0:
256,192,23536,1,8,0:0:0:0:
256,192,23743,1,0,0:0:0:0:
256,192,23950,1,8,0:0:0:0:
256,192,24363,1,8,0:0:0:0:
256,192,24570,1,8,0:0:0:0:
256,192,24984,1,0,0:0:0:0:
256,192,25605,1,8,0:0:0:0:
256,192,26432,1,4,0:0:0:0:
256,192,28087,1,0,0:0:0:0:
256,192,29743,1,8,0:0:0:0:
256,192,30984,5,8,0:0:0:0:
256,192,33053,1,0,0:0:0:0:
256,192,34708,1,0,0:0:0:0:
256,192,36363,1,8,0:0:0:0:
256,192,37605,1,8,0:0:0:0:
256,192,39674,1,0,0:0:0:0:
256,192,40087,1,8,0:0:0:0:
256,192,40501,1,0,0:0:0:0:
256,192,40915,1,0,0:0:0:0:
256,192,41329,1,8,0:0:0:0:
256,192,41743,1,0,0:0:0:0:
256,192,42156,1,8,0:0:0:0:
256,192,42570,1,8,0:0:0:0:
256,192,42984,1,0,0:0:0:0:
256,192,43398,1,8,0:0:0:0:
256,192,43812,1,0,0:0:0:0:
256,192,44225,1,8,0:0:0:0:
256,192,44639,1,0,0:0:0:0:
256,192,45053,1,0,0:0:0:0:
256,192,45467,1,8,0:0:0:0:
256,192,45881,1,8,0:0:0:0:
256,192,46294,1,8,0:0:0:0:
256,192,46501,1,0,0:0:0:0:
256,192,46708,1,8,0:0:0:0:
256,192,46915,1,8,0:0:0:0:
256,192,47122,1,0,0:0:0:0:
256,192,47536,1,0,0:0:0:0:
256,192,47950,1,8,0:0:0:0:
256,192,48156,1,0,0:0:0:0:
256,192,48363,1,8,0:0:0:0:
256,192,48570,1,8,0:0:0:0:
256,192,48777,1,0,0:0:0:0:
256,192,49191,1,0,0:0:0:0:
256,192,49605,1,0,0:0:0:0:
256,192,49812,1,8,0:0:0:0:
256,192,50018,1,0,0:0:0:0:
256,192,50225,1,0,0:0:0:0:
256,192,50432,1,8,0:0:0:0:
256,192,50639,1,0,0:0:0:0:
256,192,50846,1,8,0:0:0:0:
256,192,51053,1,8,0:0:0:0:
256,192,51260,1,0,0:0:0:0:
256,192,52915,1,4,0:0:0:0:
256,192,53329,1,8,0:0:0:0:
256,192,53536,1,8,0:0:0:0:
256,192,53743,1,12,0:0:0:0:
256,192,54156,1,8,0:0:0:0:
256,192,54363,1,8,0:0:0:0:
256,192,54570,1,0,0:0:0:0:
256,192,54777,1,8,0:0:0:0:
256,192,55191,1,0,0:0:0:0:
256,192,55398,1,12,0:0:0:0:
256,192,55812,1,0,0:0:0:0:
256,192,56018,1,8,0:0:0:0:
256,192,56225,1,0,0:0:0:0:
256,192,56639,1,8,0:0:0:0:
256,192,56846,1,0,0:0:0:0:
256,192,57053,1,12,0:0:0:0:
256,192,57467,1,0,0:0:0:0:
256,192,57674,1,0,0:0:0:0:
256,192,57881,1,8,0:0:0:0:
256,192,58087,1,0,0:0:0:0:
256,192,58501,1,8,0:0:0:0:
256,192,58708,1,12,0:0:0:0:
256,192,59122,1,0,0:0:0:0:
256,192,59225,1,0,0:0:0:0:
256,192,59329,1,0,0:0:0:0:
256,192,59536,1,0,0:0:0:0:
256,192,59950,1,8,0:0:0:0:
256,192,60156,1,8,0:0:0:0:
256,192,60363,1,12,0:0:0:0:
256,192,60777,1,8,0:0:0:0:
256,192,60984,1,8,0:0:0:0:
256,192,61191,1,0,0:0:0:0:
256,192,61398,1,8,0:0:0:0:
256,192,61812,1,0,0:0:0:0:
256,192,62018,1,12,0:0:0:0:
256,192,62432,1,8,0:0:0:0:
256,192,62536,1,8,0:0:0:0:
256,192,62639,1,8,0:0:0:0:
256,192,62846,1,0,0:0:0:0:
256,192,63260,1,8,0:0:0:0:
256,192,63467,1,0,0:0:0:0:
256,192,63674,1,12,0:0:0:0:
256,192,64087,1,0,0:0:0:0:
256,192,64294,1,0,0:0:0:0:
256,192,64501,1,8,0:0:0:0:
256,192,64708,1,0,0:0:0:0:
256,192,65122,1,0,0:0:0:0:
256,192,65225,1,0,0:0:0:0:
256,192,65329,1,8,0:0:0:0:
256,192,65536,1,0,0:0:0:0:
256,192,65743,1,8,0:0:0:0:
256,192,66156,1,4,0:0:0:0:
256,192,66570,1,8,0:0:0:0:
256,192,66777,1,8,0:0:0:0:
256,192,66984,1,12,0:0:0:0:
256,192,67398,1,8,0:0:0:0:
256,192,67605,1,8,0:0:0:0:
256,192,67812,1,0,0:0:0:0:
256,192,68018,1,8,0:0:0:0:
256,192,68432,1,0,0:0:0:0:
256,192,68639,1,12,0:0:0:0:
256,192,69053,1,0,0:0:0:0:
256,192,69260,1,8,0:0:0:0:
256,192,69467,1,0,0:0:0:0:
256,192,69881,1,8,0:0:0:0:
256,192,70087,1,0,0:0:0:0:
256,192,70294,1,12,0:0:0:0:
256,192,70708,1,0,0:0:0:0:
256,192,70915,1,0,0:0:0:0:
256,192,71122,1,8,0:0:0:0:
256,192,71329,1,0,0:0:0:0:
256,192,71743,1,8,0:0:0:0:
256,192,71950,1,12,0:0:0:0:
256,192,72156,1,0,0:0:0:0:
256,192,72363,1,8,0:0:0:0:
256,192,72777,1,0,0:0:0:0:
256,192,73191,1,8,0:0:0:0:
256,192,73398,1,8,0:0:0:0:
256,192,73605,1,12,0:0:0:0:
256,192,74018,1,8,0:0:0:0:
256,192,74225,1,8,0:0:0:0:
256,192,74432,1,0,0:0:0:0:
256,192,74639,1,8,0:0:0:0:
256,192,75053,1,0,0:0:0:0:
256,192,75260,1,12,0:0:0:0:
256,192,75674,1,8,0:0:0:0:
256,192,75777,1,8,0:0:0:0:
256,192,75881,1,8,0:0:0:0:
256,192,76087,1,0,0:0:0:0:
256,192,76501,1,8,0:0:0:0:
256,192,76708,1,0,0:0:0:0:
256,192,76915,1,12,0:0:0:0:
256,192,77329,1,0,0:0:0:0:
256,192,77536,1,0,0:0:0:0:
256,192,77743,1,8,0:0:0:0:
256,192,77950,1,0,0:0:0:0:
256,192,78363,1,8,0:0:0:0:
256,192,78570,1,12,0:0:0:0:
256,192,79191,1,0,0:0:0:0:
256,192,79398,1,4,0:0:0:0:
256,192,79812,1,8,0:0:0:0:
256,192,80225,1,0,0:0:0:0:
256,192,80639,1,0,0:0:0:0:
256,192,81053,1,8,0:0:0:0:
256,192,81467,1,0,0:0:0:0:
256,192,81881,1,8,0:0:0:0:
256,192,82294,1,8,0:0:0:0:
256,192,82708,1,0,0:0:0:0:
256,192,83122,1,8,0:0:0:0:
256,192,83536,1,0,0:0:0:0:
256,192,83950,1,8,0:0:0:0:
256,192,84363,1,0,0:0:0:0:
256,192,84777,1,0,0:0:0:0:
256,192,85191,1,8,0:0:0:0:
256,192,85605,1,8,0:0:0:0:
256,192,86018,1,0,0:0:0:0:
256,192,86225,1,0,0:0:0:0:
256,192,86432,1,0,0:0:0:0:
256,192,86846,1,0,0:0:0:0:
256,192,87053,1,0,0:0:0:0:
256,192,87260,1,0,0:0:0:0:
256,192,87674,1,8,0:0:0:0:
256,192,87881,1,8,0:0:0:0:
256,192,88087,1,8,0:0:0:0:
256,192,88501,1,8,0:0:0:0:
256,192,88708,1,8,0:0:0:0:
256,192,88915,1,8,0:0:0:0:
256,192,89329,1,0,0:0:0:0:
256,192,89432,1,0,0:0:0:0:
256,192,89536,1,0,0:0:0:0:
256,192,89743,1,0,0:0:0:0:
256,192,90156,1,8,0:0:0:0:
256,192,90260,1,8,0:0:0:0:
256,192,90363,1,8,0:0:0:0:
256,192,90570,1,8,0:0:0:0:
256,192,90984,1,0,0:0:0:0:
256,192,91605,1,8,0:0:0:0:
256,192,91708,1,8,0:0:0:0:
256,192,91812,1,8,0:0:0:0:
256,192,92018,1,0,0:0:0:0:
256,192,92225,1,0,0:0:0:0:
256,192,92639,1,4,0:0:0:0:
256,192,93053,1,8,0:0:0:0:
256,192,93260,1,8,0:0:0:0:
256,192,93467,1,12,0:0:0:0:
256,192,93777,1,0,0:0:0:0:
256,192,94087,1,0,0:0:0:0:
256,192,94294,1,0,0:0:0:0:
256,192,94501,1,8,0:0:0:0:
256,192,94708,1,0,0:0:0:0:
256,192,95122,1,12,0:0:0:0:
256,192,95432,1,0,0:0:0:0:
256,192,95743,1,8,0:0:0:0:
256,192,95950,1,0,0:0:0:0:
256,192,96363,1,8,0:0:0:0:
256,192,96570,1,0,0:0:0:0:
256,192,96777,1,12,0:0:0:0:
256,192,97087,1,0,0:0:0:0:
256,192,97398,1,0,0:0:0:0:
256,192,97605,1,0,0:0:0:0:
256,192,97812,1,8,0:0:0:0:
256,192,98018,1,8,0:0:0:0:
256,192,98432,1,12,0:0:0:0:
256,192,98743,1,0,0:0:0:0:
256,192,98950,1,0,0:0:0:0:
256,192,99053,1,0,0:0:0:0:
256,192,99260,1,0,0:0:0:0:
256,192,99674,1,8,0:0:0:0:
256,192,99881,1,8,0:0:0:0:
256,192,100087,1,12,0:0:0:0:
256,192,100398,1,0,0:0:0:0:
256,192,100708,1,0,0:0:0:0:
256,192,100915,1,0,0:0:0:0:
256,192,101122,1,8,0:0:0:0:
256,192,101329,1,0,0:0:0:0:
256,192,101743,1,12,0:0:0:0:
256,192,102053,1,8,0:0:0:0:
256,192,102260,1,8,0:0:0:0:
256,192,102363,1,8,0:0:0:0:
256,192,102570,1,0,0:0:0:0:
256,192,102984,1,8,0:0:0:0:
256,192,103191,1,0,0:0:0:0:
256,192,103398,1,12,0:0:0:0:
256,192,103708,1,0,0:0:0:0:
256,192,104018,1,0,0:0:0:0:
256,192,104225,1,0,0:0:0:0:
256,192,104432,1,8,0:0:0:0:
256,192,104639,1,8,0:0:0:0:
256,192,105053,1,8,0:0:0:0:
256,192,105156,1,8,0:0:0:0:
256,192,105260,1,0,0:0:0:0:
256,192,105467,1,8,0:0:0:0:
256,192,105881,1,4,0:0:0:0:
256,192,106294,1,8,0:0:0:0:
256,192,106501,1,8,0:0:0:0:
256,192,106708,1,12,0:0:0:0:
256,192,107122,1,8,0:0:0:0:
256,192,107329,1,8,0:0:0:0:
256,192,107536,1,0,0:0:0:0:
256,192,107743,1,8,0:0:0:0:
256,192,108156,1,0,0:0:0:0:
256,192,108363,1,12,0:0:0:0:
256,192,108777,1,0,0:0:0:0:
256,192,108984,1,8,0:0:0:0:
256,192,109191,1,0,0:0:0:0:
256,192,109605,1,8,0:0:0:0:
256,192,109812,1,0,0:0:0:0:
256,192,110018,1,12,0:0:0:0:
256,192,110432,1,0,0:0:0:0:
256,192,110639,1,0,0:0:0:0:
256,192,110846,1,8,0:0:0:0:
256,192,111053,1,0,0:0:0:0:
256,192,111467,1,8,0:0:0:0:
256,192,111674,1,12,0:0:0:0:
256,192,112087,1,0,0:0:0:0:
256,192,112191,1,0,0:0:0:0:
256,192,112294,1,0,0:0:0:0:
256,192,112501,1,0,0:0:0:0:
256,192,112915,1,8,0:0:0:0:
256,192,113122,1,8,0:0:0:0:
256,192,113329,1,12,0:0:0:0:
256,192,113743,1,8,0:0:0:0:
256,192,113950,1,8,0:0:0:0:
256,192,114156,1,0,0:0:0:0:
256,192,114363,1,8,0:0:0:0:
256,192,114777,1,0,0:0:0:0:
256,192,114984,1,12,0:0:0:0:
256,192,115398,1,8,0:0:0:0:
256,192,115501,1,8,0:0:0:0:
256,192,115605,1,8,0:0:0:0:
256,192,115812,1,0,0:0:0:0:
256,192,116225,1,8,0:0:0:0:
256,192,116432,1,0,0:0:0:0:
256,192,116639,1,12,0:0:0:0:
256,192,117053,1,0,0:0:0:0:
256,192,117260,1,0,0:0:0:0:
256,192,117467,1,8,0:0:0:0:
256,192,117674,1,0,0:0:0:0:
256,192,118087,1,8,0:0:0:0:
256,192,118294,1,12,0:0:0:0:
256,192,119122,1,4,0:0:0:0:
256,192,131329,5,8,0:0:0:0:
256,192,131432,1,8,0:0:0:0:
256,192,131536,1,8,0:0:0:0:
256,192,131743,1,0,0:0:0:0:
256,192,131950,1,0,0:0:0:0:
256,192,132363,1,4,0:0:0:0:
256,192,132570,1,8,0:0:0:0:
256,192,132777,1,0,0:0:0:0:
256,192,132984,1,8,0:0:0:0:
256,192,133191,1,8,0:0:0:0:
256,192,133812,1,0,0:0:0:0:
256,192,134018,1,8,0:0:0:0:
256,192,134225,1,0,0:0:0:0:
256,192,134432,1,8,0:0:0:0:
256,192,134846,1,8,0:0:0:0:
256,192,135053,1,8,0:0:0:0:
256,192,135260,1,0,0:0:0:0:
256,192,135674,1,0,0:0:0:0:
256,192,135881,1,8,0:0:0:0:
256,192,136087,1,8,0:0:0:0:
256,192,136294,1,0,0:0:0:0:
256,192,136501,1,8,0:0:0:0:
256,192,136915,1,8,0:0:0:0:
256,192,137122,1,8,0:0:0:0:
256,192,137536,1,0,0:0:0:0:
256,192,138156,1,8,0:0:0:0:
256,192,138984,1,0,0:0:0:0:
256,192,139191,1,8,0:0:0:0:
256,192,139398,1,0,0:0:0:0:
256,192,139605,1,8,0:0:0:0:
256,192,139812,1,8,0:0:0:0:
256,192,140432,1,0,0:0:0:0:
256,192,140639,1,8,0:0:0:0:
256,192,140846,1,0,0:0:0:0:
256,192,141053,1,8,0:0:0:0:
256,192,141467,1,8,0:0:0:0:
256,192,141674,1,8,0:0:0:0:
256,192,141881,1,0,0:0:0:0:
256,192,142294,1,0,0:0:0:0:
256,192,142501,1,8,0:0:0:0:
256,192,142708,1,8,0:0:0:0:
256,192,142915,1,0,0:0:0:0:
256,192,143122,1,8,0:0:0:0:
256,192,143536,1,8,0:0:0:0:
256,192,143743,1,8,0:0:0:0:
256,192,144156,1,0,0:0:0:0:
256,192,144777,1,8,0:0:0:0:
256,192,145605,1,0,0:0:0:0:
256,192,147260,1,0,0:0:0:0:
256,192,148915,1,8,0:0:0:0:
256,192,150156,5,8,0:0:0:0:
256,192,152225,1,0,0:0:0:0:
256,192,153881,1,0,0:0:0:0:
256,192,155536,1,8,0:0:0:0:
256,192,156777,1,8,0:0:0:0:
256,192,158846,1,0,0:0:0:0:
256,192,159260,1,8,0:0:0:0:
256,192,159674,1,0,0:0:0:0:
256,192,160087,1,0,0:0:0:0:
256,192,160501,1,8,0:0:0:0:
256,192,160915,1,0,0:0:0:0:
256,192,161329,1,8,0:0:0:0:
256,192,161743,1,8,0:0:0:0:
256,192,162156,1,0,0:0:0:0:
256,192,162570,1,8,0:0:0:0:
256,192,162984,1,0,0:0:0:0:
256,192,163398,1,8,0:0:0:0:
256,192,163812,1,0,0:0:0:0:
256,192,164225,1,0,0:0:0:0:
256,192,164639,1,8,0:0:0:0:
256,192,165053,1,8,0:0:0:0:
256,192,165467,1,8,0:0:0:0:
256,192,165674,1,0,0:0:0:0:
256,192,165881,1,8,0:0:0:0:
256,192,166087,1,8,0:0:0:0:
256,192,166294,1,0,0:0:0:0:
256,192,166708,1,0,0:0:0:0:
256,192,167122,1,8,0:0:0:0:
256,192,167329,1,0,0:0:0:0:
256,192,167536,1,8,0:0:0:0:
256,192,167743,1,8,0:0:0:0:
256,192,167950,1,0,0:0:0:0:
256,192,168363,1,0,0:0:0:0:
256,192,168777,1,0,0:0:0:0:
256,192,168984,1,8,0:0:0:0:
256,192,169191,1,0,0:0:0:0:
256,192,169398,1,0,0:0:0:0:
256,192,169605,1,8,0:0:0:0:
256,192,169812,1,0,0:0:0:0:
256,192,170018,1,8,0:0:0:0:
256,192,170225,1,8,0:0:0:0:
256,192,170432,1,0,0:0:0:0:
256,192,172087,1,4,0:0:0:0:
256,192,172501,1,0,0:0:0:0:
256,192,172708,1,8,0:0:0:0:
256,192,172915,1,12,0:0:0:0:
256,192,173225,1,8,0:0:0:0:
256,192,173536,1,0,0:0:0:0:
256,192,173743,1,0,0:0:0:0:
256,192,174156,1,8,0:0:0:0:
256,192,174363,1,0,0:0:0:0:
256,192,174570,1,12,0:0:0:0:
256,192,174881,1,0,0:0:0:0:
256,192,175191,1,0,0:0:0:0:
256,192,175398,1,0,0:0:0:0:
256,192,175812,1,8,0:0:0:0:
256,192,176018,1,0,0:0:0:0:
256,192,176225,1,12,0:0:0:0:
256,192,176536,1,8,0:0:0:0:
256,192,176846,1,8,0:0:0:0:
256,192,177053,1,8,0:0:0:0:
256,192,177467,1,0,0:0:0:0:
256,192,177674,1,0,0:0:0:0:
256,192,177881,1,8,0:0:0:0:
256,192,177984,5,8,0:0:0:0:
256,192,178087,1,8,0:0:0:0:
256,192,178294,1,0,0:0:0:0:
256,192,178501,1,8,0:0:0:0:
256,192,178708,1,0,0:0:0:0:
256,192,179122,1,0,0:0:0:0:
256,192,179329,1,8,0:0:0:0:
256,192,179536,1,12,0:0:0:0:
256,192,179846,1,0,0:0:0:0:
256,192,180156,1,0,0:0:0:0:
256,192,180363,1,0,0:0:0:0:
256,192,180777,1,8,0:0:0:0:
256,192,180984,1,0,0:0:0:0:
256,192,181191,1,12,0:0:0:0:
256,192,181501,1,8,0:0:0:0:
256,192,181812,1,0,0:0:0:0:
256,192,182018,1,0,0:0:0:0:
256,192,182432,1,8,0:0:0:0:
256,192,182639,1,0,0:0:0:0:
256,192,182846,1,12,0:0:0:0:
256,192,183156,1,8,0:0:0:0:
256,192,183467,1,8,0:0:0:0:
256,192,183674,1,8,0:0:0:0:
256,192,184087,1,0,0:0:0:0:
256,192,184294,1,0,0:0:0:0:
256,192,184501,1,8,0:0:0:0:
256,192,184605,5,8,0:0:0:0:
256,192,184708,1,8,0:0:0:0:
256,192,184915,5,8,0:0:0:0:
256,192,185122,1,8,0:0:0:0:
256,192,185329,1,4,0:0:0:0:
256,192,185743,1,8,0:0:0:0:
256,192,185950,1,8,0:0:0:0:
256,192,186156,1,12,0:0:0:0:
256,192,186570,1,8,0:0:0:0:
256,192,186777,1,8,0:0:0:0:
256,192,187191,1,8,0:0:0:0:
256,192,187398,1,0,0:0:0:0:
256,192,187605,1,0,0:0:0:0:
256,192,187812,1,12,0:0:0:0:
256,192,188122,1,0,0:0:0:0:
256,192,188432,1,8,0:0:0:0:
256,192,188639,1,0,0:0:0:0:
256,192,189053,1,8,0:0:0:0:
256,192,189260,1,0,0:0:0:0:
256,192,189467,1,12,0:0:0:0:
256,192,189881,1,0,0:0:0:0:
256,192,190087,1,0,0:0:0:0:
256,192,190501,1,0,0:0:0:0:
256,192,190708,1,8,0:0:0:0:
256,192,190915,1,8,0:0:0:0:
256,192,191122,1,12,0:0:0:0:
256,192,191329,1,0,0:0:0:0:
256,192,191536,1,8,0:0:0:0:
256,192,191950,1,0,0:0:0:0:
256,192,192363,1,8,0:0:0:0:
256,192,192570,1,8,0:0:0:0:
256,192,192777,1,12,0:0:0:0:
256,192,193191,1,8,0:0:0:0:
256,192,193398,1,8,0:0:0:0:
256,192,193812,1,8,0:0:0:0:
256,192,194018,1,0,0:0:0:0:
256,192,194225,1,0,0:0:0:0:
256,192,194432,1,12,0:0:0:0:
256,192,194846,1,8,0:0:0:0:
256,192,194950,1,8,0:0:0:0:
256,192,195053,1,8,0:0:0:0:
256,192,195260,1,0,0:0:0:0:
256,192,195674,1,8,0:0:0:0:
256,192,195881,1,0,0:0:0:0:
256,192,196087,1,12,0:0:0:0:
256,192,196501,1,0,0:0:0:0:
256,192,196708,1,0,0:0:0:0:
256,192,197122,1,0,0:0:0:0:
256,192,197329,1,8,0:0:0:0:
256,192,197536,1,8,0:0:0:0:
256,192,197743,1,12,0:0:0:0:
256,192,198570,1,4,0:0:0:0:
256,192,198984,1,8,0:0:0:0:
256,192,199398,1,0,0:0:0:0:
256,192,199812,1,0,0:0:0:0:
256,192,200225,1,8,0:0:0:0:
256,192,200639,1,0,0:0:0:0:
256,192,201053,1,8,0:0:0:0:
256,192,201467,1,8,0:0:0:0:
256,192,201881,1,0,0:0:0:0:
256,192,202294,1,8,0:0:0:0:
256,192,202708,1,0,0:0:0:0:
256,192,203122,1,8,0:0:0:0:
256,192,203536,1,0,0:0:0:0:
256,192,203950,1,0,0:0:0:0:
256,192,204363,1,8,0:0:0:0:
256,192,204777,1,8,0:0:0:0:
256,192,205191,1,0,0:0:0:0:
256,192,205398,1,0,0:0:0:0:
256,192,205605,1,0,0:0:0:0:
256,192,206018,1,0,0:0:0:0:
256,192,206225,1,0,0:0:0:0:
256,192,206432,1,0,0:0:0:0:
256,192,206846,1,8,0:0:0:0:
256,192,207053,1,8,0:0:0:0:
256,192,207260,1,8,0:0:0:0:
256,192,207674,1,8,0:0:0:0:
256,192,207881,1,8,0:0:0:0:
256,192,208087,1,8,0:0:0:0:
256,192,208501,1,0,0:0:0:0:
256,192,208605,1,0,0:0:0:0:
256,192,208708,1,0,0:0:0:0:
256,192,208915,1,0,0:0:0:0:
256,192,209329,1,8,0:0:0:0:
256,192,209432,1,8,0:0:0:0:
256,192,209536,1,8,0:0:0:0:
256,192,209743,1,8,0:0:0:0:
256,192,210156,1,0,0:0:0:0:
256,192,210777,1,8,0:0:0:0:
256,192,210881,1,8,0:0:0:0:
256,192,210984,1,8,0:0:0:0:
256,192,211191,1,0,0:0:0:0:
256,192,211398,1,0,0:0:0:0:
256,192,211812,1,4,0:0:0:0:
256,192,212225,1,8,0:0:0:0:
256,192,212432,1,8,0:0:0:0:
256,192,213053,1,8,0:0:0:0:
256,192,213260,1,8,0:0:0:0:
256,192,213467,1,0,0:0:0:0:
256,192,213881,1,0,0:0:0:0:
256,192,214087,1,0,0:0:0:0:
256,192,214294,1,8,0:0:0:0:
256,192,214708,1,0,0:0:0:0:
256,192,214915,1,8,0:0:0:0:
256,192,215122,1,0,0:0:0:0:
256,192,215536,1,8,0:0:0:0:
256,192,215743,1,0,0:0:0:0:
256,192,215950,1,8,0:0:0:0:
256,192,216363,1,0,0:0:0:0:
256,192,216570,1,0,0:0:0:0:
256,192,216777,1,8,0:0:0:0:
256,192,217191,1,8,0:0:0:0:
256,192,217398,1,8,0:0:0:0:
256,192,217605,1,8,0:0:0:0:
256,192,218018,1,0,0:0:0:0:
256,192,218122,1,0,0:0:0:0:
256,192,218225,1,0,0:0:0:0:
256,192,218432,1,0,0:0:0:0:
256,192,218846,1,8,0:0:0:0:
256,192,219053,1,8,0:0:0:0:
256,192,219674,1,8,0:0:0:0:
256,192,219881,1,8,0:0:0:0:
256,192,220087,1,0,0:0:0:0:
256,192,220501,1,0,0:0:0:0:
256,192,220708,1,0,0:0:0:0:
256,192,220915,1,8,0:0:0:0:
256,192,221329,1,8,0:0:0:0:
256,192,221432,1,8,0:0:0:0:
256,192,221536,1,8,0:0:0:0:
256,192,221743,1,0,0:0:0:0:
256,192,222156,1,8,0:0:0:0:
256,192,222363,1,0,0:0:0:0:
256,192,222570,1,8,0:0:0:0:
256,192,222984,1,0,0:0:0:0:
256,192,223191,1,0,0:0:0:0:
256,192,223398,1,8,0:0:0:0:
256,192,223812,1,8,0:0:0:0:
256,192,224018,1,8,0:0:0:0:
