osu file format v14

[General]
AudioFilename: audio.mp3
AudioLeadIn: 0
PreviewTime: 51260
Countdown: 0
SampleSet: Normal
StackLeniency: 0.7
Mode: 1
LetterboxInBreaks: 0
WidescreenStoryboard: 0

[Editor]
DistanceSpacing: 0.9
BeatDivisor: 4
GridSize: 32
TimelineZoom: 3

[Metadata]
Title:To Say Goodbye (Original Mix)
TitleUnicode:To Say Goodbye (Original Mix)
Artist:slushii
ArtistUnicode:slushii
Creator:Surono
Version:Kantan
Source:
Tags:EDM Electronic Dance Music
BeatmapID:1516512
BeatmapSetID:717906

[Difficulty]
HPDrainRate:7
CircleSize:2
OverallDifficulty:4
ApproachRate:10
SliderMultiplier:1.4
SliderTickRate:1

[Events]
//Background and Video events
0,0,"nangid.jpg",0,-100
//Break Periods
2,124087,130879
//Storyboard Layer 0 (Background)
//Storyboard Layer 1 (Fail)
//Storyboard Layer 2 (Pass)
//Storyboard Layer 3 (Foreground)
//Storyboard Sound Samples

[TimingPoints]
-50,413.793103448276,4,1,0,90,1,0
11536,-111.111111111111,4,1,0,90,0,0
13191,-100,4,1,0,90,0,0
26329,-125,4,1,0,90,0,0
39570,-111.111111111111,4,1,0,90,0,0
46191,-100,4,1,0,90,0,0
49553,-90.9090909090909,4,1,0,90,0,0
52915,-90.9090909090909,4,1,0,90,0,1
79191,-111.111111111111,4,1,0,90,0,1
79398,-111.111111111111,4,1,0,90,0,0
85915,-99.9999999999999,4,1,0,90,0,0
89277,-90.9090909090908,4,1,0,90,0,0
91553,-100,4,1,0,90,0,0
92639,-90.9090909090909,4,1,0,90,0,1
119122,-100,4,1,0,90,0,0
130708,-111.111111111111,4,1,0,90,0,0
132363,-100,4,1,0,90,0,0
145501,-125,4,1,0,90,0,0
158743,-111.111111111111,4,1,0,90,0,0
165415,-100,4,1,0,90,0,0
168725,-90.9090909090909,4,1,0,90,0,0
172087,-90.9090909090909,4,1,0,90,0,1
198570,-111.111111111111,4,1,0,90,0,0
205087,-100,4,1,0,90,0,0
208398,-90.9090909090909,4,1,0,90,0,0
210674,-100,4,1,0,90,0,0
211812,-90.9090909090909,4,1,0,90,0,1
224225,-100,4,1,0,90,0,0

[HitObjects]
256,192,12156,5,8,0:0:0:0:
256,192,12363,1,8,0:0:0:0:
256,192,13191,1,4,0:0:0:0:
256,192,14018,1,8,0:0:0:0:
256,192,14639,1,0,0:0:0:0:
256,192,15053,1,0,0:0:0:0:
256,192,15674,1,8,0:0:0:0:
256,192,16501,1,8,0:0:0:0:
256,192,17329,1,8,0:0:0:0:
256,192,17950,1,0,0:0:0:0:
256,192,18363,1,0,0:0:0:0:
256,192,18984,1,8,0:0:0:0:
256,192,19812,1,0,0:0:0:0:
256,192,20639,1,8,0:0:0:0:
256,192,21260,1,0,0:0:0:0:
256,192,21674,1,0,0:0:0:0:
256,192,22294,1,8,0:0:0:0:
256,192,23122,1,8,0:0:0:0:
256,192,23950,1,8,0:0:0:0:
256,192,24570,1,0,0:0:0:0:
256,192,24984,1,0,0:0:0:0:
256,192,25605,1,8,0:0:0:0:
256,192,26432,1,4,0:0:0:0:
256,192,28087,1,0,0:0:0:0:
256,192,29743,1,8,0:0:0:0:
256,192,30984,5,8,0:0:0:0:
256,192,33053,1,0,0:0:0:0:
256,192,34708,1,0,0:0:0:0:
256,192,36363,1,8,0:0:0:0:
256,192,37605,1,8,0:0:0:0:
256,192,39674,1,0,0:0:0:0:
256,192,40501,1,0,0:0:0:0:
256,192,41329,1,8,0:0:0:0:
256,192,42156,1,8,0:0:0:0:
256,192,42984,1,0,0:0:0:0:
256,192,43812,1,8,0:0:0:0:
256,192,44639,1,8,0:0:0:0:
256,192,45467,1,8,0:0:0:0:
256,192,46294,1,0,0:0:0:0:
256,192,46708,1,0,0:0:0:0:
256,192,47122,1,0,0:0:0:0:
256,192,47950,1,8,0:0:0:0:
256,192,48363,1,8,0:0:0:0:
256,192,48777,1,8,0:0:0:0:
256,192,49605,1,0,0:0:0:0:
256,192,50018,1,8,0:0:0:0:
256,192,50432,2,0,L|192:192,8,38.5000011749268
256,192,52915,1,4,0:0:0:0:
256,192,53743,1,12,0:0:0:0:
256,192,54156,1,0,0:0:0:0:
256,192,54984,1,0,0:0:0:0:
256,192,55398,1,12,0:0:0:0:
256,192,56225,1,0,0:0:0:0:
256,192,57053,1,12,0:0:0:0:
256,192,57467,1,0,0:0:0:0:
256,192,58708,1,12,0:0:0:0:
256,192,59536,1,0,0:0:0:0:
256,192,60363,1,12,0:0:0:0:
256,192,60777,1,0,0:0:0:0:
256,192,61605,1,0,0:0:0:0:
256,192,62018,1,12,0:0:0:0:
256,192,62846,1,0,0:0:0:0:
256,192,63674,1,12,0:0:0:0:
256,192,64087,1,0,0:0:0:0:
256,192,65329,1,8,0:0:0:0:
256,192,65743,1,8,0:0:0:0:
256,192,66156,1,4,0:0:0:0:
256,192,66984,1,12,0:0:0:0:
256,192,67398,1,0,0:0:0:0:
256,192,68225,1,0,0:0:0:0:
256,192,68639,1,12,0:0:0:0:
256,192,69467,1,0,0:0:0:0:
256,192,70294,1,12,0:0:0:0:
256,192,70708,1,0,0:0:0:0:
256,192,71950,1,12,0:0:0:0:
256,192,72363,1,0,0:0:0:0:
256,192,72777,1,0,0:0:0:0:
256,192,73605,1,12,0:0:0:0:
256,192,74018,1,0,0:0:0:0:
256,192,75260,1,12,0:0:0:0:
256,192,76087,1,0,0:0:0:0:
256,192,76915,1,12,0:0:0:0:
256,192,77329,1,0,0:0:0:0:
256,192,78156,1,0,0:0:0:0:
256,192,78570,1,12,0:0:0:0:
256,192,79398,1,4,0:0:0:0:
256,192,80225,1,0,0:0:0:0:
256,192,81053,1,8,0:0:0:0:
256,192,81881,1,8,0:0:0:0:
256,192,82708,1,0,0:0:0:0:
256,192,83536,1,8,0:0:0:0:
256,192,84363,1,8,0:0:0:0:
256,192,85191,1,8,0:0:0:0:
256,192,86018,1,0,0:0:0:0:
256,192,86432,1,0,0:0:0:0:
256,192,86846,1,0,0:0:0:0:
256,192,87674,1,8,0:0:0:0:
256,192,88087,1,8,0:0:0:0:
256,192,88501,1,8,0:0:0:0:
256,192,89329,1,0,0:0:0:0:
256,192,89743,1,0,0:0:0:0:
256,192,90156,2,0,L|224:160,8,38.5000011749268
256,192,91605,1,8,0:0:0:0:
256,192,91812,1,8,0:0:0:0:
256,192,92639,1,4,0:0:0:0:
256,192,93467,1,12,0:0:0:0:
256,192,94294,1,0,0:0:0:0:
256,192,94708,1,0,0:0:0:0:
256,192,95122,1,12,0:0:0:0:
256,192,95950,1,0,0:0:0:0:
256,192,96777,1,12,0:0:0:0:
256,192,97605,1,0,0:0:0:0:
256,192,98432,1,12,0:0:0:0:
256,192,98846,1,8,0:0:0:0:
256,192,99260,1,0,0:0:0:0:
256,192,100087,1,12,0:0:0:0:
256,192,100915,1,0,0:0:0:0:
256,192,101329,1,0,0:0:0:0:
256,192,101743,1,12,0:0:0:0:
256,192,102570,1,0,0:0:0:0:
256,192,103398,1,12,0:0:0:0:
256,192,104225,1,0,0:0:0:0:
256,192,105053,1,8,0:0:0:0:
256,192,105467,1,8,0:0:0:0:
256,192,105881,1,4,0:0:0:0:
256,192,106708,1,12,0:0:0:0:
256,192,107122,1,0,0:0:0:0:
256,192,108363,1,12,0:0:0:0:
256,192,109191,1,0,0:0:0:0:
256,192,110018,1,12,0:0:0:0:
256,192,110432,1,0,0:0:0:0:
256,192,111260,1,0,0:0:0:0:
256,192,111674,1,12,0:0:0:0:
256,192,112501,1,0,0:0:0:0:
256,192,113329,1,12,0:0:0:0:
256,192,113743,1,0,0:0:0:0:
256,192,114984,1,12,0:0:0:0:
256,192,115812,1,0,0:0:0:0:
256,192,116639,1,12,0:0:0:0:
256,192,117053,1,0,0:0:0:0:
256,192,117881,1,0,0:0:0:0:
256,192,118294,1,12,0:0:0:0:
256,192,119122,1,4,0:0:0:0:
256,192,131329,5,8,0:0:0:0:
256,192,131536,1,8,0:0:0:0:
256,192,132363,1,4,0:0:0:0:
256,192,133191,1,8,0:0:0:0:
256,192,133812,1,0,0:0:0:0:
256,192,134225,1,0,0:0:0:0:
256,192,134846,1,8,0:0:0:0:
256,192,135674,1,8,0:0:0:0:
256,192,136501,1,8,0:0:0:0:
256,192,137122,1,0,0:0:0:0:
256,192,137536,1,0,0:0:0:0:
256,192,138156,1,8,0:0:0:0:
256,192,138984,1,0,0:0:0:0:
256,192,139812,1,8,0:0:0:0:
256,192,140432,1,0,0:0:0:0:
256,192,140846,1,0,0:0:0:0:
256,192,141467,1,8,0:0:0:0:
256,192,142294,1,8,0:0:0:0:
256,192,143122,1,8,0:0:0:0:
256,192,143743,1,0,0:0:0:0:
256,192,144156,1,0,0:0:0:0:
256,192,144777,1,8,0:0:0:0:
256,192,145605,1,4,0:0:0:0:
256,192,147260,1,0,0:0:0:0:
256,192,148915,1,8,0:0:0:0:
256,192,150156,5,8,0:0:0:0:
256,192,152225,1,0,0:0:0:0:
256,192,153881,1,0,0:0:0:0:
256,192,155536,1,8,0:0:0:0:
256,192,156777,1,8,0:0:0:0:
256,192,158846,1,0,0:0:0:0:
256,192,159674,1,0,0:0:0:0:
256,192,160501,1,8,0:0:0:0:
256,192,161329,1,8,0:0:0:0:
256,192,162156,1,0,0:0:0:0:
256,192,162984,1,8,0:0:0:0:
256,192,163812,1,8,0:0:0:0:
256,192,164639,1,8,0:0:0:0:
256,192,165467,1,0,0:0:0:0:
256,192,165881,1,0,0:0:0:0:
256,192,166294,1,0,0:0:0:0:
256,192,167122,1,8,0:0:0:0:
256,192,167536,1,8,0:0:0:0:
256,192,167950,1,8,0:0:0:0:
256,192,168777,1,0,0:0:0:0:
256,192,169191,1,8,0:0:0:0:
256,192,169605,2,0,L|192:192,8,38.5000011749268
256,192,172087,5,4,0:0:0:0:
256,192,172915,1,12,0:0:0:0:
256,192,173329,1,0,0:0:0:0:
256,192,173743,1,0,0:0:0:0:
256,192,174570,1,12,0:0:0:0:
256,192,174984,1,0,0:0:0:0:
256,192,176225,1,12,0:0:0:0:
256,192,177053,1,8,0:0:0:0:
256,192,177467,1,0,0:0:0:0:
256,192,177881,1,12,0:0:0:0:
256,192,178708,1,0,0:0:0:0:
256,192,179536,1,12,0:0:0:0:
256,192,179950,1,0,0:0:0:0:
256,192,180363,1,0,0:0:0:0:
256,192,181191,1,12,0:0:0:0:
256,192,181605,1,0,0:0:0:0:
256,192,182846,1,12,0:0:0:0:
256,192,183674,1,8,0:0:0:0:
256,192,184087,1,0,0:0:0:0:
256,192,184501,1,12,0:0:0:0:
256,192,185329,1,4,0:0:0:0:
256,192,186156,1,12,0:0:0:0:
256,192,186570,1,0,0:0:0:0:
256,192,187398,1,0,0:0:0:0:
256,192,187812,1,12,0:0:0:0:
256,192,188639,1,0,0:0:0:0:
256,192,189467,1,12,0:0:0:0:
256,192,189881,1,0,0:0:0:0:
256,192,191122,1,12,0:0:0:0:
256,192,191536,1,0,0:0:0:0:
256,192,191950,1,0,0:0:0:0:
256,192,192777,1,12,0:0:0:0:
256,192,193191,1,0,0:0:0:0:
256,192,194432,1,12,0:0:0:0:
256,192,195260,1,0,0:0:0:0:
256,192,196087,1,12,0:0:0:0:
256,192,196501,1,0,0:0:0:0:
256,192,197329,1,0,0:0:0:0:
256,192,197743,1,12,0:0:0:0:
256,192,198570,1,4,0:0:0:0:
256,192,199398,1,0,0:0:0:0:
256,192,200225,1,8,0:0:0:0:
256,192,201053,1,8,0:0:0:0:
256,192,201881,1,0,0:0:0:0:
256,192,202708,1,8,0:0:0:0:
256,192,203536,1,8,0:0:0:0:
256,192,204363,1,8,0:0:0:0:
256,192,205191,1,0,0:0:0:0:
256,192,205605,1,0,0:0:0:0:
256,192,206018,1,0,0:0:0:0:
256,192,206846,1,8,0:0:0:0:
256,192,207260,1,8,0:0:0:0:
256,192,207674,1,8,0:0:0:0:
256,192,208501,1,0,0:0:0:0:
256,192,208915,1,0,0:0:0:0:
256,192,209329,2,0,L|192:192,8,38.5000011749268
256,192,210777,1,8,0:0:0:0:
256,192,210984,1,8,0:0:0:0:
256,192,211812,5,4,0:0:0:0:
256,192,212225,1,8,0:0:0:0:
256,192,213053,1,8,0:0:0:0:
256,192,213467,1,0,0:0:0:0:
256,192,215122,1,0,0:0:0:0:
256,192,215536,1,0,0:0:0:0:
256,192,216363,1,8,0:0:0:0:
256,192,216777,1,8,0:0:0:0:
256,192,218432,1,0,0:0:0:0:
256,192,218846,1,8,0:0:0:0:
256,192,219674,1,8,0:0:0:0:
256,192,220087,1,0,0:0:0:0:
256,192,221743,1,0,0:0:0:0:
256,192,222156,1,0,0:0:0:0:
256,192,222984,1,8,0:0:0:0:
256,192,223398,1,8,0:0:0:0:
256,192,224018,1,0,0:0:0:0:
