osu file format v14

[General]
AudioFilename: audio.mp3
AudioLeadIn: 0
PreviewTime: 82622
Countdown: 0
SampleSet: Soft
StackLeniency: 0.7
Mode: 0
LetterboxInBreaks: 0
WidescreenStoryboard: 0

[Editor]
Bookmarks: 148199
DistanceSpacing: 0.8
BeatDivisor: 4
GridSize: 8
TimelineZoom: 1.4

[Metadata]
Title:Doorman
TitleUnicode:Doorman
Artist:slowthai, Mura Masa
ArtistUnicode:slowthai, Mura Masa
Creator:Fsjallink
Version:LET ME IN
Source:
Tags:english hip hop Nothing Great About Britain uk punk electronic post-punk dance-punk Tyron Kaymone Frampton Alex Crossan muramasa slow thai synth-punk
BeatmapID:3177305
BeatmapSetID:1555205

[Difficulty]
HPDrainRate:6
CircleSize:4
OverallDifficulty:8
ApproachRate:8.5
SliderMultiplier:1.8
SliderTickRate:1

[Events]
//Background and Video events
0,0,"b960dd58-9b06-402e-bae0-cb6e1e3c165b (2).png",0,0
//Break Periods
//Storyboard Layer 0 (Background)
//Storyboard Layer 1 (Fail)
//Storyboard Layer 2 (Pass)
//Storyboard Layer 3 (Foreground)
//Storyboard Layer 4 (Overlay)
//Storyboard Sound Samples

[TimingPoints]
16794,342.857142857143,4,1,0,60,1,0
21165,-100,4,1,0,10,0,0
21251,-100,4,1,0,60,0,0
24594,-100,4,1,0,10,0,0
24679,-100,4,1,0,60,0,0
35994,-83.3333333333333,4,1,0,65,0,1
37365,-83.3333333333333,4,1,0,70,0,1
38736,-100,4,1,0,60,0,0
40965,-125,4,1,0,60,0,0
41479,-100,4,1,0,60,0,0
42851,-100,4,1,0,60,0,0
46451,-125,4,1,0,60,0,0
46965,-100,4,1,0,60,0,0
57936,-83.3333333333333,4,1,0,65,0,1
59308,-83.3333333333333,4,1,0,70,0,1
60679,-133.333333333333,4,1,0,40,0,0
61022,-133.333333333333,4,2,0,50,0,0
71994,-111.111111111111,4,2,0,55,0,0
76451,-133.333333333333,4,2,0,55,0,0
77308,-111.111111111111,4,2,0,55,0,0
82622,-111.111111111111,4,2,0,45,0,0
82965,-111.111111111111,4,1,0,45,0,0
84851,-100,4,1,0,60,0,0
88365,-100,4,1,0,10,0,0
88451,-100,4,1,0,60,0,0
90851,-83.3333333333333,4,1,0,65,0,1
92222,-83.3333333333333,4,1,0,70,0,1
93594,-100,4,1,0,60,0,0
94194,-100,4,1,0,10,0,0
94279,-100,4,1,0,60,0,0
99336,-100,4,1,0,10,0,0
99422,-100,4,1,0,60,0,0
100022,-100,4,1,0,10,0,0
100108,-100,4,1,0,60,0,0
101822,-83.3333333333333,4,1,0,65,0,1
103194,-83.3333333333333,4,1,0,70,0,1
104565,-100,4,1,0,60,0,0
123765,-83.3333333333333,4,1,0,65,0,1
125136,-83.3333333333333,4,1,0,70,0,1
126508,-100,4,1,0,60,0,0
126851,-133.333333333333,4,2,0,50,0,0
137822,-111.111111111111,4,2,0,45,0,0
142279,-133.333333333333,4,2,0,45,0,0
142965,-111.111111111111,4,2,0,40,0,0
151194,-111.111111111111,4,2,0,20,0,0

[Colours]
Combo1 : 17,254,176
Combo2 : 173,255,95
Combo3 : 255,88,100
Combo4 : 255,94,55

[HitObjects]
87,116,16793,6,0,P|126:105|185:102,1,90
332,141,17136,1,8,0:0:0:0:
222,185,17308,1,0,0:0:0:0:
257,55,17479,1,0,0:0:0:0:
405,85,17651,1,0,0:0:0:0:
372,262,17822,2,0,P|333:251|274:248,1,90,8|2,0:0|0:3,0:0:0:0:
455,358,18165,1,4,0:3:0:0:
455,358,18508,5,8,0:0:0:0:
260,322,18679,1,0,0:0:0:0:
455,358,18851,2,0,P|479:275|504:246,1,90
372,262,19193,1,8,0:0:0:0:
288,185,19365,1,2,0:3:0:0:
398,83,19536,2,0,P|422:143|419:211,1,90,4|0,0:3|0:0,0:0:0:0:
170,224,19879,5,8,0:0:0:0:
212,122,20051,1,0,0:0:0:0:
274,272,20222,2,0,P|246:359|235:387,1,90
78,289,20565,2,0,P|63:246|50:203,1,90,8|2,0:0|0:3,0:0:0:0:
176,89,20908,2,0,P|170:203|168:262,1,135,4|0,0:3|0:0,0:0:0:0:
169,236,21251,1,8,0:0:0:0:
271,179,21422,1,0,0:0:0:0:
70,111,21593,2,0,P|67:43|66:12,1,90
25,184,21936,1,8,0:0:0:0:
256,103,22108,1,2,0:3:0:0:
25,184,22279,1,4,0:3:0:0:
25,184,22622,6,0,P|95:197|134:214,1,90,8|0,0:0|0:0,0:0:0:0:
192,283,22965,1,0,0:0:0:0:
306,209,23136,1,0,0:0:0:0:
318,379,23308,2,0,P|296:313|297:273,1,90,8|2,0:0|0:3,0:0:0:0:
306,209,23651,1,4,0:3:0:0:
306,209,23993,6,0,P|207:235|192:239,1,90,8|0,0:0|0:0,0:0:0:0:
268,84,24336,2,0,P|375:100|404:105,1,135
416,108,24679,1,8,0:0:0:0:
306,208,24851,1,2,0:3:0:0:
147,143,25022,1,4,0:3:0:0:
147,143,25365,6,0,P|141:222|141:274,1,90,8|0,0:0|0:0,0:0:0:0:
23,363,25708,2,0,P|17:302|8:251,1,90
18,174,26051,1,8,0:0:0:0:
141,265,26222,1,2,0:3:0:0:
258,177,26393,1,2,0:1:0:0:
143,98,26565,1,0,0:0:0:0:
161,351,26736,6,0,P|256:329|283:323,1,90,10|0,0:0|0:0,0:0:0:0:
344,200,27079,1,2,0:0:0:0:
344,200,27165,1,0,0:0:0:0:
344,200,27251,2,0,P|245:173|221:167,1,90,8|8,0:0|0:0,0:0:0:0:
331,287,27593,1,2,0:3:0:0:
425,92,27765,1,4,0:3:0:0:
425,92,28108,6,0,P|405:30|388:-2,1,90,8|0,0:0|0:0,0:0:0:0:
501,153,28451,2,0,P|482:193|469:237,1,90
350,172,28793,1,8,0:0:0:0:
461,267,28965,1,2,0:3:0:0:
334,365,29136,2,0,P|356:299|385:253,1,90,4|0,0:3|0:0,0:0:0:0:
245,248,29479,2,0,P|160:247|131:241,1,90,8|0,0:0|0:0,0:0:0:0:
5,237,29822,1,0,0:0:0:0:
76,328,29993,1,0,0:0:0:0:
155,247,30165,2,0,P|164:184|169:130,1,90,8|2,0:0|0:3,0:0:0:0:
149,17,30508,1,4,0:3:0:0:
149,17,30851,5,8,0:0:0:0:
281,98,31022,1,0,0:0:0:0:
352,38,31193,1,0,0:0:0:0:
266,84,31365,1,0,0:0:0:0:
299,193,31536,1,8,0:0:0:0:
388,182,31708,1,2,0:3:0:0:
214,161,31879,2,0,P|121:163|105:164,1,90,0|0,0:1|0:0,0:0:0:0:
299,193,32222,1,8,0:0:0:0:
386,163,32393,1,0,0:0:0:0:
480,195,32565,2,0,P|459:251|445:305,1,90
299,193,32908,2,0,P|286:149|269:107,2,90,8|2|4,0:0|0:3|0:3,0:0:0:0:
365,290,33422,5,0,0:0:0:0:
250,257,33593,1,8,0:0:0:0:
84,282,33765,1,0,0:0:0:0:
164,365,33936,2,0,P|171:301|182:244,1,90
67,58,34279,2,0,P|60:102|55:147,1,90,8|2,0:0|0:3,0:0:0:0:
150,158,34622,5,4,0:3:0:0:
264,100,34794,1,0,0:0:0:0:
181,8,34965,1,8,0:0:0:0:
67,58,35136,1,0,0:0:0:0:
252,194,35308,2,0,P|327:179|366:172,1,90
150,158,35651,2,0,P|105:167|61:175,1,90,8|2,0:0|0:3,0:0:0:0:
158,290,35994,5,6,0:0:0:0:
47,177,36165,1,0,0:0:0:0:
226,63,36336,2,0,B|270:77|270:77|294:90|316:95|316:95|348:106,1,107.999996704102,8|0,0:0|0:0,0:0:0:0:
359,223,36679,1,0,0:0:0:0:
350,91,36851,2,0,B|386:75|386:75|403:73|403:73|418:64|436:58|436:58|455:52|473:45,1,107.999996704102,2|8,0:0|0:0,0:0:0:0:
492,150,37194,1,0,0:0:0:0:
446,287,37365,5,6,0:0:0:0:
318,303,37536,1,0,0:0:0:0:
198,284,37708,5,14,0:0:0:0:
194,273,37879,1,0,0:0:0:0:
201,277,38051,1,6,0:0:0:0:
207,274,38222,1,0,0:0:0:0:
320,291,38393,5,14,0:0:0:0:
217,379,38565,1,0,0:0:0:0:
124,303,38736,1,4,0:3:0:0:
124,303,39079,6,0,P|200:324|228:335,1,90,8|0,0:0|0:0,0:0:0:0:
278,223,39422,2,0,P|354:202|382:191,1,90
418,108,39765,1,8,0:0:0:0:
282,139,39936,1,2,0:3:0:0:
183,51,40108,2,0,P|177:106|172:174,1,90,4|0,0:3|0:0,0:0:0:0:
161,252,40451,5,8,0:0:0:0:
88,89,40622,1,0,0:0:0:0:
258,25,40794,1,0,0:0:0:0:
331,188,40965,2,2,P|359:101|392:51,1,144,2|2,0:1|0:3,0:1:0:0:
443,100,41479,1,4,0:3:0:0:
331,188,41651,1,0,0:0:0:0:
192,125,41822,6,0,P|118:120|69:109,1,90,8|0,0:0|0:0,0:0:0:0:
19,154,42165,1,0,0:0:0:0:
159,307,42336,2,0,P|200:245|234:208,1,90,0|8,0:0|0:0,0:0:0:0:
331,188,42679,1,2,0:3:0:0:
365,266,42851,6,0,P|386:315|397:367,1,90,2|0,0:0|0:0,0:0:0:0:
331,188,43194,2,0,P|368:94|374:13,1,180,10|2,0:0|0:0,0:0:0:0:
475,135,43708,1,0,0:0:0:0:
284,57,43879,1,8,0:0:0:0:
475,135,44051,1,2,0:3:0:0:
395,317,44222,1,4,0:3:0:0:
395,317,44565,6,0,P|455:333|486:344,1,90,8|0,0:0|0:0,0:0:0:0:
342,207,44908,2,0,P|403:201|436:201,1,90
307,364,45251,1,8,0:0:0:0:
267,273,45422,1,2,0:3:0:0:
189,336,45594,5,4,0:3:0:0:
267,273,45765,1,0,0:0:0:0:
224,177,45936,2,0,P|188:130|150:96,1,90,8|0,0:0|0:0,0:0:0:0:
21,213,46279,1,0,0:0:0:0:
129,215,46451,2,2,P|102:265|111:371,1,144,0|2,0:0|0:3,0:1:0:0:
204,265,46965,2,0,P|253:249|320:234,1,90,4|0,0:3|0:0,0:0:0:0:
415,209,47308,5,8,0:0:0:0:
342,312,47479,1,0,0:0:0:0:
228,163,47651,2,0,P|179:147|112:132,1,90
21,77,47994,1,8,0:0:0:0:
88,23,48165,1,2,0:3:0:0:
45,184,48336,6,0,P|20:253|8:293,1,90,2|0,0:1|0:0,0:0:0:0:
228,163,48679,2,0,P|213:120|198:78,1,90,10|0,0:0|0:0,0:0:0:0:
141,245,49022,1,2,0:0:0:0:
141,245,49108,1,0,0:0:0:0:
141,245,49194,2,0,P|145:316|150:371,1,90,8|8,0:0|0:0,0:0:0:0:
343,256,49536,2,0,P|346:211|348:166,1,90,2|4,0:3|0:3,0:0:0:0:
347,166,50051,5,8,0:0:0:0:
250,192,50222,1,0,0:0:0:0:
161,47,50394,1,0,0:0:0:0:
261,82,50565,1,0,0:0:0:0:
348,166,50736,2,0,P|345:210|342:255,1,90,8|2,0:0|0:3,0:0:0:0:
266,354,51079,1,4,0:3:0:0:
266,354,51422,6,0,P|344:341|387:335,1,90,8|0,0:0|0:0,0:0:0:0:
491,240,51765,1,0,0:0:0:0:
455,380,51936,1,0,0:0:0:0:
458,240,52108,2,0,P|467:168|478:108,1,90,8|2,0:0|0:3,0:0:0:0:
479,65,52451,5,4,3:0:0:0:
479,65,52622,1,4,3:0:0:0:
351,132,52794,1,8,0:0:0:0:
351,132,52965,1,0,0:0:0:0:
236,45,53136,2,0,P|301:29|351:18,1,90,4|4,3:0|3:0,0:0:0:0:
241,131,53479,1,8,0:0:0:0:
151,98,53651,1,0,0:0:0:0:
56,120,53822,2,0,P|40:192|40:304,2,180,4|8|4,3:0|0:0|0:3,0:0:0:0:
151,98,54679,1,4,3:0:0:0:
163,323,54850,1,12,0:3:0:0:
163,323,55022,1,0,0:0:0:0:
242,108,55193,1,4,0:3:0:0:
242,108,55536,6,0,P|205:197|200:226,1,90,8|0,0:0|0:0,0:0:0:0:
402,351,55879,2,0,P|387:308|366:268,1,90
290,217,56222,1,8,0:0:0:0:
284,310,56394,1,2,0:3:0:0:
464,164,56565,2,0,P|394:184|376:187,1,90,2|0,0:0|0:0,0:0:0:0:
200,257,56908,2,0,P|130:237|112:234,1,90,10|0,0:0|0:0,0:0:0:0:
26,124,57251,2,0,P|68:137|112:146,1,90,2|0,0:0|0:0,0:0:0:0:
290,217,57594,2,0,P|332:203|376:194,1,90,10|2,0:0|0:3,0:0:0:0:
240,100,57936,6,0,B|213:92|213:92|195:91|158:79|158:79|99:47,1,107.999996704102,6|0,0:0|0:0,0:0:0:0:
32,14,58279,1,8,0:0:0:0:
161,34,58451,1,0,0:0:0:0:
136,188,58622,1,2,0:0:0:0:
0,160,58793,1,0,0:0:0:0:
233,115,58965,2,0,B|237:157|237:157|242:195|249:215|249:215|250:256,1,107.999996704102,8|0,0:0|0:0,0:0:0:0:
361,363,59308,5,6,0:0:0:0:
403,228,59479,1,0,0:0:0:0:
274,282,59651,5,14,0:0:0:0:
250,130,59822,1,0,0:0:0:0:
125,243,59994,5,6,0:0:0:0:
122,237,60165,1,0,0:0:0:0:
130,240,60336,1,14,0:0:0:0:
130,233,60508,1,0,0:0:0:0:
355,170,60679,1,4,0:3:0:0:
355,170,61022,6,0,P|344:112|339:83,1,67.5000025749208,8|0,0:0|0:0,0:0:0:0:
475,22,61365,2,0,P|468:55|454:179,1,135.000005149842,2|8,0:0|0:0,0:0:0:0:
455,155,62051,1,8,0:3:0:0:
207,172,62394,2,0,P|131:183|111:187,1,67.5000025749208,10|0,0:0|0:0,0:0:0:0:
23,71,62736,1,2,0:0:0:0:
110,102,62908,2,2,P|182:94|247:85,1,135.000005149842,2|0,0:1|0:1,0:1:0:0:
297,148,63422,1,8,0:3:0:0:
297,148,63765,6,0,P|286:207|281:245,1,67.5000025749208,10|0,0:0|0:0,0:0:0:0:
206,339,64108,2,0,P|200:305|170:189,1,135.000005149842,2|8,0:0|0:0,0:0:0:0:
175,207,64794,1,8,0:3:0:0:
430,272,65136,2,0,P|444:211|457:181,1,67.5000025749208,10|0,0:0|0:0,0:0:0:0:
327,245,65479,2,2,P|336:277|353:382,2,135.000005149842,0|8|8,0:0|0:0|0:3,0:1:0:0:
271,177,66336,5,0,0:0:0:0:
211,245,66508,1,8,0:0:0:0:
125,207,66679,1,0,0:0:0:0:
190,138,66851,2,0,P|207:228|214:285,1,135.000005149842,2|8,0:0|0:0,0:0:0:0:
274,322,67365,1,0,0:0:0:0:
112,312,67536,2,0,P|40:296|-7:264,1,90.0000034332277,2|2,0:0|0:0,0:0:0:0:
100,171,68050,1,2,0:0:0:0:
15,61,68394,2,2,P|84:63|169:24,1,135.000005149842,2|0,0:1|0:0,0:1:0:0:
228,35,68908,1,8,0:3:0:0:
228,35,69251,5,10,0:0:0:0:
182,127,69422,1,0,0:0:0:0:
266,252,69594,2,0,P|279:172|261:101,1,135.000005149842,2|8,0:0|0:0,0:0:0:0:
182,127,70108,1,0,0:0:0:0:
349,84,70279,2,0,L|420:69,1,67.5000025749208,2|0,0:1|0:0,0:0:0:0:
491,202,70622,2,0,L|420:187,1,67.5000025749208,10|0,0:1|0:0,0:0:0:0:
287,200,70965,2,2,P|209:221|156:241,2,135.000005149842,2|8|8,0:1|0:0|0:3,0:1:0:0:
287,200,71994,5,10,0:0:0:0:
271,306,72165,1,0,0:0:0:0:
377,348,72336,2,0,P|382:289|412:178,2,161.999995056153,2|8|8,0:0|0:0|0:3,0:0:0:0:
377,348,73365,6,0,L|462:335,1,80.9999975280763,10|0,0:0|0:0,0:0:0:0:
286,346,73708,1,2,0:0:0:0:
206,320,73879,2,2,P|173:260|188:166,1,161.999995056153,2|0,0:1|0:1,0:1:0:0:
89,180,74394,1,8,0:3:0:0:
89,180,74736,6,0,P|77:238|69:277,1,80.9999975280763,10|0,0:0|0:0,0:0:0:0:
185,170,75079,2,0,P|176:130|154:6,1,161.999995056153,2|8,0:0|0:0,0:0:0:0:
367,83,75765,1,10,0:3:0:0:
367,83,76108,2,0,P|383:36|396:2,1,80.9999975280763,8|0,0:0|0:0,0:0:0:0:
266,63,76451,2,2,P|280:120|332:328,1,270.000010299683,2|8,0:1|0:3,0:1:0:0:
256,362,77308,5,0,0:0:0:0:
397,268,77479,1,8,0:0:0:0:
461,323,77651,1,0,0:0:0:0:
289,280,77822,2,0,P|172:266|111:259,1,161.999995056153,2|8,0:0|0:0,0:0:0:0:
7,315,78336,1,0,0:0:0:0:
90,355,78508,2,0,P|139:353|220:379,1,107.999996704102,2|2,0:2|0:2,0:0:0:0:
236,181,79022,1,2,0:0:0:0:
37,229,79365,2,2,P|32:170|13:65,1,161.999995056153,2|0,0:1|0:1,0:1:0:0:
97,65,79879,1,8,0:3:0:0:
97,65,80222,5,10,0:2:0:0:
179,135,80394,1,0,0:0:0:0:
269,97,80565,2,0,P|279:47|289:7,1,80.9999975280763,2|0,0:2|0:0,0:0:0:0:
175,127,80908,1,8,0:0:0:0:
197,230,81079,1,0,0:0:0:0:
306,189,81250,2,0,P|296:139|286:99,1,80.9999975280763,2|0,0:1|0:1,0:1:0:0:
398,255,81594,2,0,P|396:204|393:162,1,80.9999975280763,10|0,0:1|0:1,0:1:0:0:
486,329,81936,2,2,P|493:278|503:156,1,161.999995056153,2|8,0:1|0:1,0:1:0:0:
502,167,82622,1,4,3:0:0:0:
256,192,82965,5,2,2:1:0:0:
256,192,83308,1,2,2:1:0:0:
256,192,83994,1,2,2:1:0:0:
256,192,84165,1,0,2:1:0:0:
256,192,84336,1,2,2:1:0:0:
256,192,84508,1,0,2:1:0:0:
151,124,84679,1,2,0:0:0:0:
151,124,84765,1,0,0:0:0:0:
151,124,84851,2,0,P|221:97|255:85,1,90,8|8,0:0|0:0,0:0:0:0:
360,145,85194,1,0,0:0:0:0:
406,22,85365,5,4,0:3:0:0:
481,117,85536,1,0,0:0:0:0:
360,145,85708,1,8,0:0:0:0:
287,42,85879,1,0,0:0:0:0:
360,145,86051,1,0,0:0:0:0:
299,231,86222,1,0,0:0:0:0:
354,306,86394,1,8,0:0:0:0:
448,296,86565,1,2,0:3:0:0:
231,292,86736,6,0,P|170:299|117:307,1,90,4|0,0:3|0:0,0:0:0:0:
171,192,87079,2,0,P|110:182|57:176,1,90,8|0,0:0|0:0,0:0:0:0:
149,86,87422,2,0,P|92:61|42:41,1,90
290,131,87765,1,10,0:0:0:0:
290,131,88108,2,0,P|291:265|289:293,1,135,4|0,0:3|0:0,0:0:0:0:
426,208,88451,1,10,0:0:0:0:
426,208,88794,2,0,P|435:32|438:16,1,180,0|8,0:0|0:0,0:0:0:0:
507,30,89308,1,2,0:3:0:0:
248,98,89479,6,0,P|239:35|232:-26,1,90,4|0,0:3|0:0,0:0:0:0:
260,205,89822,1,8,0:0:0:0:
360,193,89994,1,0,0:0:0:0:
178,197,90165,2,0,P|165:274|159:316,2,90,0|0|8,0:0|0:0|0:0,0:0:0:0:
260,205,90679,1,2,0:3:0:0:
152,73,90851,6,0,B|125:84|119:80|102:83|102:83|62:100|36:104|36:104|2:122,1,107.999996704102,6|0,0:0|0:0,0:0:0:0:
78,253,91194,1,8,0:0:0:0:
195,369,91365,1,0,0:0:0:0:
262,225,91536,1,2,0:0:0:0:
152,73,91708,1,0,0:0:0:0:
78,253,91879,2,0,B|116:263|116:263|135:271|135:271|154:275|154:275|168:280|188:284|223:299,1,107.999996704102,8|0,0:0|0:0,0:0:0:0:
349,326,92222,5,6,0:0:0:0:
250,375,92394,1,0,0:0:0:0:
285,258,92565,5,14,0:0:0:0:
166,281,92737,1,0,0:0:0:0:
254,176,92908,5,6,0:0:0:0:
121,166,93080,1,0,0:0:0:0:
250,90,93250,5,14,0:0:0:0:
111,41,93423,1,0,0:0:0:0:
0,161,93594,1,4,0:3:0:0:
0,161,93936,6,0,P|11:236|7:319,1,135,8|0,0:0|0:0,0:0:0:0:
4,306,94279,2,0,P|74:296|125:290,1,90
196,266,94622,1,8,0:0:0:0:
371,327,94794,1,2,0:3:0:0:
292,373,94965,1,4,0:3:0:0:
301,232,95136,1,0,0:0:0:0:
450,242,95308,1,8,0:0:0:0:
442,380,95479,1,0,0:0:0:0:
294,317,95651,6,0,P|231:321|181:326,1,90
260,103,95994,2,0,P|323:107|373:112,1,90,8|2,0:0|0:3,0:0:0:0:
250,211,96336,2,0,P|115:202|62:196,1,180,4|8,0:3|0:0,0:0:0:0:
250,211,96851,1,0,0:0:0:0:
345,213,97022,2,0,P|415:215|466:217,1,90
299,126,97365,1,8,0:0:0:0:
295,295,97536,1,2,0:3:0:0:
299,126,97708,1,4,0:3:0:0:
299,126,98051,5,8,0:0:0:0:
388,78,98222,1,0,0:0:0:0:
209,59,98394,2,0,P|192:120|192:160,1,90
374,232,98736,1,10,0:0:0:0:
374,232,99079,6,0,P|295:247|214:258,1,135,4|0,0:3|0:0,0:0:0:0:
132,220,99422,1,10,0:0:0:0:
132,220,99765,2,0,P|140:290|149:398,1,135
145,365,100108,5,8,0:0:0:0:
37,288,100279,1,2,0:3:0:0:
121,182,100451,1,4,0:3:0:0:
216,259,100622,1,0,0:0:0:0:
32,192,100794,2,0,P|28:117|21:73,1,90,8|0,0:0|0:0,0:0:0:0:
141,122,101136,2,0,P|156:48|161:4,1,90
261,105,101479,2,0,P|295:38|310:-3,1,90,8|2,0:0|0:3,0:0:0:0:
426,102,101822,6,0,B|408:130|408:130|396:140|396:140|392:149|372:167|372:167|353:191,1,107.999996704102,6|0,0:0|0:0,0:0:0:0:
173,255,102165,1,8,0:0:0:0:
280,201,102336,1,0,0:0:0:0:
369,263,102507,1,2,0:0:0:0:
464,200,102679,1,0,0:0:0:0:
512,318,102851,2,0,B|467:324|467:324|455:332|440:330|423:338|423:338|407:338|407:338|363:357,1,107.999996704102,8|0,0:0|0:0,0:0:0:0:
295,330,103193,5,6,0:0:0:0:
192,288,103365,1,0,0:0:0:0:
96,232,103536,5,14,0:0:0:0:
238,181,103708,1,0,0:0:0:0:
286,325,103879,1,6,0:0:0:0:
145,373,104050,1,0,0:0:0:0:
286,325,104222,5,14,0:0:0:0:
145,373,104393,1,0,0:0:0:0:
151,136,104565,1,4,0:3:0:0:
151,136,104908,5,8,0:0:0:0:
4,163,105079,1,0,0:0:0:0:
151,136,105251,2,0,P|247:114|260:111,1,90
406,233,105594,2,0,P|310:211|297:208,1,90,8|2,0:0|0:3,0:0:0:0:
485,144,105936,1,4,0:3:0:0:
485,144,106279,5,8,0:0:0:0:
468,315,106451,1,0,0:0:0:0:
485,144,106622,2,0,P|486:75|492:11,1,90
296,139,106965,2,0,P|297:208|303:272,1,90,8|2,0:0|0:3,0:0:0:0:
391,166,107308,5,4,0:3:0:0:
199,219,107479,1,0,0:0:0:0:
343,353,107651,1,8,0:0:0:0:
391,166,107822,1,0,0:0:0:0:
199,219,107994,2,0,P|126:235|76:246,1,90
28,124,108336,1,8,0:0:0:0:
7,208,108508,1,2,0:3:0:0:
137,10,108679,6,0,P|146:54|155:99,1,90,2|0,0:1|0:0,0:0:0:0:
278,134,109022,2,0,P|282:89|286:44,1,90,10|0,0:0|0:0,0:0:0:0:
431,11,109365,2,0,P|416:54|403:97,1,90,2|0,0:0|0:0,0:0:0:0:
421,179,109708,1,8,0:0:0:0:
440,263,109879,1,2,0:3:0:0:
402,96,110051,5,4,0:3:0:0:
278,105,110222,1,0,0:0:0:0:
152,110,110394,2,0,P|115:211|109:235,1,90,8|0,0:0|0:0,0:0:0:0:
260,352,110736,2,0,P|245:309|227:268,1,90
130,293,111079,1,8,0:0:0:0:
322,245,111251,1,2,0:3:0:0:
130,293,111422,6,0,P|67:309|-1:333,2,135,4|2|0,0:3|2:0|0:0,0:0:0:0:
263,337,112108,2,0,P|332:326|384:317,1,90
257,206,112451,1,8,0:0:0:0:
151,155,112622,1,2,0:3:0:0:
257,206,112794,1,4,0:3:0:0:
331,126,112965,1,0,0:0:0:0:
244,15,113136,6,0,P|238:81|231:143,1,90,8|0,0:0|0:0,0:0:0:0:
209,282,113479,1,0,0:0:0:0:
99,267,113651,1,0,0:0:0:0:
210,262,113822,1,8,0:0:0:0:
309,300,113994,1,2,0:3:0:0:
112,335,114165,5,2,0:1:0:0:
95,303,114336,1,0,0:0:0:0:
93,261,114508,1,10,0:0:0:0:
103,230,114679,1,0,0:0:0:0:
308,212,114851,1,2,0:0:0:0:
308,212,114936,1,0,0:0:0:0:
308,212,115022,2,0,P|316:272|308:301,1,90,8|8,0:0|0:0,0:0:0:0:
210,262,115365,1,2,0:3:0:0:
375,358,115536,1,4,0:3:0:0:
375,358,115879,6,0,P|391:292|403:234,1,90,8|0,0:0|0:0,0:0:0:0:
349,189,116222,2,0,P|333:123|321:65,1,90
371,24,116565,1,8,0:0:0:0:
241,39,116736,2,0,P|170:44|117:49,1,90,2|4,0:3|0:3,0:0:0:0:
3,48,117079,1,0,0:0:0:0:
142,55,117251,1,8,0:0:0:0:
7,30,117422,1,0,0:0:0:0:
147,36,117594,2,0,P|141:108|139:159,1,90
6,242,117936,2,0,P|3:197|0:152,1,90,8|2,0:0|0:3,0:0:0:0:
66,101,118279,5,4,0:3:0:0:
188,167,118451,1,0,0:0:0:0:
356,104,118622,1,8,0:0:0:0:
255,88,118794,1,0,0:0:0:0:
295,190,118965,2,0,P|299:239|303:292,1,90
481,188,119308,2,0,P|484:143|488:98,1,90,8|2,0:0|0:3,0:0:0:0:
389,175,119651,5,4,3:0:0:0:
389,175,119822,1,4,3:0:0:0:
228,238,119994,1,8,0:0:0:0:
228,238,120165,1,0,0:0:0:0:
341,309,120336,1,4,3:0:0:0:
341,309,120508,1,4,3:0:0:0:
465,283,120679,1,12,0:3:0:0:
465,283,120851,1,0,0:0:0:0:
249,328,121022,6,0,P|190:343|131:356,1,90,4|0,0:3|0:0,0:0:0:0:
11,267,121365,1,8,0:0:0:0:
97,303,121536,1,0,0:0:0:0:
177,261,121708,2,0,P|181:178|215:81,1,180,0|8,0:0|0:0,0:0:0:0:
285,121,122222,1,2,0:3:0:0:
213,187,122394,5,4,0:3:0:0:
72,109,122565,1,0,0:0:0:0:
21,173,122736,1,8,0:0:0:0:
108,185,122908,1,0,0:0:0:0:
156,110,123079,2,0,P|138:50|126:19,1,90
366,141,123422,2,0,P|350:183|338:226,1,90,8|2,0:0|0:3,0:0:0:0:
259,125,123765,6,0,B|266:84|266:84|265:55|265:55|271:26|277:12|277:12|280:-26,1,107.999996704102,6|0,0:0|0:0,0:0:0:0:
365,58,124108,1,8,0:0:0:0:
146,73,124279,1,0,0:0:0:0:
365,58,124451,2,0,B|395:51|395:51|426:46|450:49|461:44|461:44|487:35,1,107.999996704102,2|0,0:0|0:0,0:0:0:0:
421,299,124794,2,0,B|401:295|401:295|379:295|379:295|360:287|329:278|329:278|301:277,1,107.999996704102,8|0,0:0|0:0,0:0:0:0:
442,177,125136,5,6,0:0:0:0:
442,177,125308,1,0,0:0:0:0:
84,183,125479,5,14,0:0:0:0:
84,183,125651,1,0,0:0:0:0:
255,40,125822,5,6,0:0:0:0:
255,40,125994,1,0,0:0:0:0:
254,343,126165,5,14,0:0:0:0:
254,343,126336,1,0,0:0:0:0:
255,192,126508,1,4,0:3:0:0:
255,192,126851,6,0,P|191:203|163:204,1,67.5000025749208,8|0,0:0|0:0,0:0:0:0:
77,209,127194,2,0,P|91:276|95:371,1,135.000005149842,2|8,0:0|0:0,0:0:0:0:
95,342,127879,1,8,0:3:0:0:
214,349,128222,6,0,P|278:338|306:337,1,67.5000025749208,10|0,0:0|0:0,0:0:0:0:
385,338,128565,1,2,0:0:0:0:
385,338,128736,2,2,P|389:270|403:204,1,135.000005149842,2|0,0:1|0:1,0:1:0:0:
483,193,129251,1,8,0:3:0:0:
209,138,129594,6,0,P|197:190|188:228,1,67.5000025749208,10|0,0:0|0:0,0:0:0:0:
309,310,129936,2,0,P|298:233|286:149,1,135.000005149842,2|8,0:0|0:0,0:0:0:0:
289,176,130622,1,8,0:3:0:0:
48,190,130965,2,0,P|44:143|39:111,1,67.5000025749208,10|0,0:0|0:0,0:0:0:0:
141,179,131308,2,2,P|127:248|122:331,2,135.000005149842,0|8|8,0:0|0:0|0:3,0:1:0:0:
171,100,132165,5,0,0:0:0:0:
259,138,132336,1,8,0:0:0:0:
320,72,132508,1,0,0:0:0:0:
237,40,132679,2,0,P|243:93|255:197,1,135.000005149842,2|8,0:0|0:0,0:0:0:0:
332,226,133194,1,0,0:0:0:0:
405,168,133365,2,0,P|416:113|425:67,1,90.0000034332277,2|2,0:0|0:0,0:0:0:0:
482,230,133879,1,2,0:0:0:0:
242,244,134222,2,2,P|157:242|89:223,1,135.000005149842,2|0,0:1|0:0,0:1:0:0:
18,179,134736,1,8,0:3:0:0:
18,179,135079,5,10,0:0:0:0:
7,294,135251,1,0,0:0:0:0:
107,348,135422,2,0,P|163:333|262:324,1,135.000005149842,2|8,0:0|0:0,0:0:0:0:
332,358,135936,1,0,0:0:0:0:
248,305,136108,6,0,P|272:230|277:216,1,67.5000025749208,2|0,0:1|0:0,0:0:0:0:
341,148,136451,2,0,P|351:180|361:212,1,67.5000025749208,10|0,0:1|0:0,0:0:0:0:
431,311,136793,2,2,P|448:263|487:157,2,135.000005149842,2|8|8,0:1|0:0|0:3,0:1:0:0:
431,311,137822,5,10,0:0:0:0:
326,271,137994,1,0,0:0:0:0:
346,178,138165,2,0,P|367:123|385:11,2,161.999995056153,2|8|8,0:0|0:0|0:3,0:0:0:0:
346,178,139194,6,0,P|304:176|248:160,1,80.9999975280763,10|0,0:0|0:0,0:0:0:0:
426,182,139536,1,2,0:0:0:0:
512,144,139708,2,2,P|505:188|508:319,1,161.999995056153,2|0,0:1|0:1,0:1:0:0:
411,342,140222,1,8,0:3:0:0:
208,132,140565,6,0,P|214:183|211:215,1,80.9999975280763,10|0,0:0|0:0,0:0:0:0:
299,168,140908,2,0,P|305:102|330:9,1,161.999995056153,2|8,0:0|0:0,0:0:0:0:
329,9,141593,1,10,0:3:0:0:
76,92,141936,2,0,P|71:44|60:2,1,80.9999975280763,8|0,0:0|0:0,0:0:0:0:
177,67,142279,2,2,P|163:142|155:342,1,270.000010299683,2|8,0:1|0:3,0:1:0:0:
74,327,143136,5,0,0:0:0:0:
203,258,143308,1,8,0:0:0:0:
280,357,143479,1,0,0:0:0:0:
203,258,143651,2,0,P|217:190|319:138,1,161.999995056153,2|8,0:0|0:0,0:0:0:0:
356,210,144165,1,0,0:0:0:0:
464,136,144336,2,0,P|487:34|481:15,1,107.999996704102,2|2,0:2|0:2,0:0:0:0:
456,240,144850,1,2,0:0:0:0:
350,35,145194,2,2,P|271:43|184:54,1,161.999995056153,2|0,0:1|0:0,0:1:0:0:
101,64,145708,1,8,0:3:0:0:
101,64,146051,5,10,0:2:0:0:
151,238,146222,1,0,0:0:0:0:
62,258,146394,2,0,P|98:170|177:149,1,161.999995056153,2|8,0:2|0:0,0:0:0:0:
238,202,146908,1,0,0:0:0:0:
310,130,147079,2,0,P|324:78|332:47,1,80.9999975280763,2|0,0:1|0:1,0:1:0:0:
216,93,147422,2,0,P|216:39|215:7,1,80.9999975280763,10|0,0:1|0:1,0:1:0:0:
127,181,147765,2,2,P|113:128|86:19,1,161.999995056153,2|8,0:1|0:1,0:1:0:0:
87,23,148451,1,4,3:0:0:0:
256,192,148622,12,2,151194,0:2:0:0:
