osu file format v14

[General]
AudioFilename: audio.mp3
AudioLeadIn: 0
PreviewTime: 90441
Countdown: 0
SampleSet: Normal
StackLeniency: 0.7
Mode: 0
LetterboxInBreaks: 0
WidescreenStoryboard: 0

[Editor]
Bookmarks: 10511
DistanceSpacing: 0.8
BeatDivisor: 4
GridSize: 4
TimelineZoom: 1.8

[Metadata]
Title:Go Go Go
TitleUnicode:Go Go Go
Artist:sleeping with sirens
ArtistUnicode:sleeping with sirens
Creator:Lilyanna
Version:Insane
Source:
Tags:
BeatmapID:988226
BeatmapSetID:461430

[Difficulty]
HPDrainRate:6
CircleSize:4
OverallDifficulty:7
ApproachRate:9
SliderMultiplier:1.6
SliderTickRate:1

[Events]
//Background and Video events
0,0,"7620435186-9523429865-z.jpg",0,0
//Break Periods
2,57153,60887
2,130758,134219
//Storyboard Layer 0 (Background)
//Storyboard Layer 1 (Fail)
//Storyboard Layer 2 (Pass)
//Storyboard Layer 3 (Foreground)
//Storyboard Sound Samples

[TimingPoints]
744,348.837209302326,4,1,0,60,1,0
11906,-125,4,1,0,60,0,0
13986,-125,4,1,0,60,0,0
18883,-100,4,1,0,60,0,0
23941,-125,4,1,0,60,0,0
33011,-133.333333333333,4,1,0,60,0,0
33534,-100,4,1,0,60,0,0
34232,355.029585798817,4,1,0,60,1,0
40001,-125,4,1,0,60,0,0
44527,-100,4,1,0,60,0,0
45592,-100,4,1,0,60,0,1
50563,-66.6666666666667,4,1,0,60,0,1
51628,-100,4,1,0,60,0,1
56066,-133.333333333333,4,1,0,60,0,1
56598,-100,4,1,0,60,0,1
56953,348.837209302326,4,1,0,60,1,0
61487,-100,4,1,0,60,0,0
68115,-117.647058823529,4,1,0,60,0,0
78185,-100,4,1,0,60,0,0
79842,-125,4,1,0,60,0,0
80278,-117.647058823529,4,1,0,60,0,0
81761,-125,4,1,0,60,0,0
88127,-100,4,1,0,60,0,0
90441,355.029585798817,4,1,0,60,1,0
96298,-117.647058823529,4,1,0,60,0,0
101801,-133.333333333333,4,1,0,60,0,1
103044,-100,4,1,0,60,0,1
113162,-100,4,1,0,60,0,0
124523,-133.333333333333,4,1,0,60,0,0
135884,-200,4,1,0,60,0,0
140500,-100,4,1,0,60,0,0
157541,-166.666666666667,4,1,0,60,0,0

[HitObjects]
120,164,744,5,0,0:0:0:0:
192,48,918,1,0,0:0:0:0:
320,72,1092,1,0,0:0:0:0:
426,238,1267,2,0,L|425:142,1,80
312,312,1616,1,0,0:0:0:0:
240,168,1790,1,0,0:0:0:0:
132,280,1964,1,0,3:0:0:0:
100,123,2313,1,0,0:0:0:0:
100,123,2488,2,0,P|208:72|272:72,1,160
264,73,2924,1,0,3:0:0:0:
285,83,3011,1,0,3:0:0:0:
448,196,3185,6,0,L|360:196,1,80
292,224,3534,1,0,0:0:0:0:
224,320,3709,2,0,L|319:320,1,80
424,176,4057,1,0,0:0:0:0:
432,308,4232,1,0,0:0:0:0:
128,248,4406,2,0,L|163:163,1,80
328,220,4755,1,0,0:0:0:0:
295,102,4930,6,0,L|237:43,1,80
156,64,5278,1,0,3:0:0:0:
48,128,5453,1,0,0:0:0:0:
158,174,5627,1,0,0:0:0:0:
64,252,5802,1,0,0:0:0:0:
240,236,5976,1,0,3:0:0:0:
240,216,6063,1,0,3:0:0:0:
240,196,6150,1,0,3:0:0:0:
244,172,6238,1,0,0:0:0:0:
248,156,6325,2,0,P|268:112|308:80,1,80
408,264,6674,2,0,P|444:224|460:172,1,80
452,120,7023,5,0,0:0:0:0:
244,120,7197,2,0,L|244:204,1,80
248,280,7546,1,0,0:0:0:0:
340,272,7720,2,0,L|340:188,1,80
340,96,8069,1,0,0:0:0:0:
220,280,8244,2,0,P|287:320|326:326,1,80,0|0,3:0|3:0,3:0:0:0:
314,312,8505,1,0,3:0:0:0:
344,298,8592,1,0,3:0:0:0:
420,244,8767,2,0,L|420:156,1,80
172,92,9116,2,0,L|172:184,1,80
244,188,9464,5,0,0:0:0:0:
440,292,9639,1,0,0:0:0:0:
337,96,9813,1,0,0:0:0:0:
300,296,9988,1,0,0:0:0:0:
464,152,10162,1,0,0:0:0:0:
413,59,10337,1,0,3:0:0:0:
413,59,10424,1,0,3:0:0:0:
407,57,10511,2,0,L|328:102,1,80
260,44,10860,1,0,0:0:0:0:
160,32,11034,6,0,P|111:48|73:88,1,80,0|0,3:0|3:0,3:0:0:0:
72,84,11296,1,0,3:0:0:0:
68,108,11383,1,0,3:0:0:0:
64,132,11470,1,0,3:0:0:0:
64,152,11557,1,0,3:0:0:0:
144,208,11906,5,0,0:0:0:0:
214,321,12081,2,0,L|296:321,1,64
224,80,12430,1,0,2:0:0:0:
282,165,12604,1,0,3:0:0:0:
282,165,12691,1,0,0:0:0:0:
282,165,12778,2,0,L|375:165,1,64,0|0,3:0|3:0,3:0:0:0:
420,200,13127,1,0,0:0:0:0:
360,264,13302,2,0,L|288:264,1,64
224,228,13650,1,0,0:0:0:0:
136,256,13825,2,0,P|124:208|132:180,1,64
122,96,14174,2,0,P|92:121|75:170,2,64
208,64,14697,1,0,0:0:0:0:
312,40,14871,6,0,P|364:80|367:141,1,128
292,168,15395,1,0,0:0:0:0:
304,260,15569,2,0,P|240:244|198:193,1,128
292,168,16092,1,0,0:0:0:0:
44,168,16267,1,0,0:0:0:0:
160,52,16441,1,0,0:0:0:0:
185,286,16616,1,0,0:0:0:0:
185,286,16790,6,0,P|247:287|274:220,1,128
362,93,17313,2,0,P|310:57|302:35,1,64
356,222,17662,2,0,P|369:171|395:156,1,64,0|0,2:0|2:0,2:0:0:0:
228,66,18011,2,0,P|210:102|167:104,1,64,0|0,2:0|2:0,2:0:0:0:
40,200,18360,1,0,0:0:0:0:
72,296,18534,1,0,0:0:0:0:
184,244,18709,1,0,0:0:0:0:
252,296,18883,6,0,L|334:296,1,80
364,280,19232,2,0,L|400:200,1,80
452,152,19581,1,0,0:0:0:0:
312,32,19755,1,0,0:0:0:0:
440,48,19930,1,0,0:0:0:0:
257,111,20104,6,0,L|166:109,2,80
263,115,20540,1,0,3:0:0:0:
263,115,20627,1,0,3:0:0:0:
264,200,20802,1,0,0:0:0:0:
368,308,20976,5,0,0:0:0:0:
444,120,21150,1,0,0:0:0:0:
361,94,21325,2,0,L|293:44,1,80
199,51,21674,1,0,0:0:0:0:
75,72,21848,1,0,0:0:0:0:
57,203,22023,1,0,0:0:0:0:
130,275,22197,2,0,L|219:275,1,80
234,275,22459,1,0,3:0:0:0:
266,275,22546,2,0,L|352:273,1,80
420,232,22895,5,0,0:0:0:0:
352,28,23069,1,0,0:0:0:0:
256,54,23244,2,0,L|256:150,1,80
257,225,23592,1,0,3:0:0:0:
257,225,23680,1,0,3:0:0:0:
257,225,23767,1,0,3:0:0:0:
343,266,23941,6,0,L|409:320,1,64
347,120,24290,2,0,L|412:66,1,64
179,117,24639,2,0,L|125:63,1,64
170,266,24988,2,0,L|94:301,1,64
284,88,25337,5,0,1:0:0:0:
284,88,25511,2,0,B|224:56|224:56|156:60,1,128
136,104,26034,2,0,B|160:172|160:172|144:232,1,128
136,288,26557,1,0,0:0:0:0:
136,288,26732,2,0,B|212:312|212:312|264:304,1,128
376,68,27430,5,0,0:0:0:0:
272,184,27604,1,0,0:0:0:0:
372,193,27778,2,0,L|410:248,1,64
281,316,28127,1,0,0:0:0:0:
152,255,28302,1,0,0:0:0:0:
52,136,28476,2,0,L|116:136,1,64
215,154,28825,6,0,L|283:205,1,64
344,200,29174,1,0,0:0:0:0:
372,36,29348,1,0,0:0:0:0:
196,48,29523,2,0,L|168:120,1,64
140,161,29871,2,0,L|67:198,1,64
84,240,30220,2,0,L|112:312,1,64
192,316,30569,1,0,0:0:0:0:
274,206,30744,1,0,3:0:0:0:
376,92,30918,1,0,0:0:0:0:
376,92,31092,2,0,B|424:144|424:144|420:228,1,128
340,168,31616,1,0,0:0:0:0:
340,168,31790,2,0,B|284:116|284:116|232:100,1,128
232,180,32313,1,0,0:0:0:0:
68,76,32488,1,0,0:0:0:0:
192,36,32662,1,0,0:0:0:0:
120,188,32837,1,0,0:0:0:0:
272,272,33011,6,0,P|339:289|402:252,1,120.000004577637
428,200,33534,1,0,0:0:0:0:
435,83,33709,2,0,P|432:64|385:42,2,40,0|0|0,3:0|3:0|3:0,3:0:0:0:
312,44,34057,1,0,0:0:0:0:
200,96,34232,6,0,L|120:132,1,80
104,216,34587,2,0,L|184:180,1,80
220,256,34942,1,0,0:0:0:0:
220,256,35119,2,0,B|312:272|312:272|368:232,1,160
292,168,35652,2,0,L|208:140,1,80
160,76,36007,1,0,0:0:0:0:
252,48,36184,1,0,0:0:0:0:
252,48,36362,2,0,L|336:72,1,80
376,144,36717,1,0,0:0:0:0:
216,142,36894,1,0,0:0:0:0:
63,140,37072,2,0,P|85:184|107:232,1,80
136,288,37427,2,0,L|224:288,1,80
292,264,37782,5,0,0:0:0:0:
376,128,37959,1,0,0:0:0:0:
176,120,38137,1,0,0:0:0:0:
172,256,38314,2,0,L|257:325,1,80
300,264,38669,1,0,0:0:0:0:
428,184,38847,1,0,0:0:0:0:
312,66,39024,5,0,3:0:0:0:
312,66,39113,1,0,3:0:0:0:
312,66,39202,2,0,L|232:66,1,80
202,78,39468,1,0,3:0:0:0:
171,93,39557,2,0,P|136:114|119:173,1,80
140,248,39912,5,0,0:0:0:0:
329,329,40089,2,0,B|342:264|342:264|398:196,1,128
388,60,40622,2,0,B|321:89|321:89|284:162,1,128
284,297,41155,2,0,B|224:224|224:224|208:173,1,128
148,48,41687,5,0,0:0:0:0:
148,48,41865,2,0,P|120:81|94:122,1,64
104,200,42220,2,0,L|152:260,1,64
216,320,42575,1,0,0:0:0:0:
388,184,42752,1,0,3:0:0:0:
388,184,42841,1,0,3:0:0:0:
388,184,42930,1,0,3:0:0:0:
384,316,43107,1,0,0:0:0:0:
240,192,43285,1,0,0:0:0:0:
384,53,43462,5,0,0:0:0:0:
240,192,43640,1,0,0:0:0:0:
368,164,43817,1,0,0:0:0:0:
232,56,43995,1,0,0:0:0:0:
380,272,44172,5,0,0:0:0:0:
380,272,44350,2,0,P|346:292|304:317,1,64
177,284,44705,1,0,0:0:0:0:
118,153,44882,5,0,3:0:0:0:
134,126,44970,1,0,3:0:0:0:
154,101,45059,1,0,3:0:0:0:
186,78,45148,1,0,3:0:0:0:
221,60,45237,1,0,3:0:0:0:
260,53,45325,1,0,3:0:0:0:
292,48,45415,2,0,P|380:68|424:136,1,160
348,160,45947,1,0,0:0:0:0:
348,160,46125,2,0,P|412:228|420:296,1,160
344,276,46658,1,0,0:0:0:0:
192,144,46835,1,0,0:0:0:0:
344,144,47013,1,0,0:0:0:0:
200,284,47190,1,0,0:0:0:0:
340,280,47368,1,0,0:0:0:0:
188,140,47545,1,0,0:0:0:0:
442,79,47723,2,0,L|358:78,1,80
296,196,48078,2,0,L|385:195,1,80
128,319,48433,6,0,L|90:245,1,80
130,171,48788,2,0,L|91:86,1,80
160,48,49143,1,0,0:0:0:0:
256,120,49320,1,0,0:0:0:0:
412,96,49498,1,0,0:0:0:0:
412,96,49675,2,0,B|384:180|384:180|324:224,1,160
272,276,50208,1,0,0:0:0:0:
140,168,50385,5,0,0:0:0:0:
216,49,50563,1,0,3:0:0:0:
248,57,50651,1,0,3:0:0:0:
275,66,50740,1,0,3:0:0:0:
306,77,50829,1,0,3:0:0:0:
332,86,50918,1,0,3:0:0:0:
357,93,51006,1,0,3:0:0:0:
384,96,51095,6,0,L|512:96,2,120.000004577637
184,136,51628,2,0,L|105:137,1,80
93,297,51983,2,0,L|192:297,1,80
273,217,52338,2,0,L|355:217,1,80
500,184,52693,6,0,B|444:144|444:144|356:112,1,160
320,216,53226,1,0,0:0:0:0:
152,168,53403,1,0,0:0:0:0:
256,76,53581,1,0,0:0:0:0:
224,280,53758,2,0,P|172:268|143:252,2,80
284,232,54291,1,0,0:0:0:0:
424,228,54468,5,0,0:0:0:0:
408,104,54646,1,0,0:0:0:0:
304,35,54823,1,0,0:0:0:0:
214,49,55001,2,0,L|149:101,1,80
159,135,55356,2,0,L|88:197,1,80
105,221,55711,2,0,L|41:280,1,80
264,296,56066,2,0,P|347:244|368:228,1,120.000004577637,0|0,2:0|2:0,2:0:0:0:
364,140,56598,2,0,L|264:140,2,80
122,340,61487,6,0,P|104:251|109:241,1,80
73,196,61836,1,0,0:0:0:0:
106,131,62011,2,0,P|147:88|170:86,1,80
274,269,62359,1,0,0:0:0:0:
405,217,62534,1,0,0:0:0:0:
384,96,62708,5,0,0:0:0:0:
384,96,62883,2,0,P|320:64|288:64,2,80
290,151,63406,2,0,L|207:151,1,80
106,190,63755,2,0,L|68:273,1,80
384,256,64104,1,0,0:0:0:0:
384,256,64278,2,0,L|448:352,2,80
232,312,64801,2,0,P|212:252|197:218,1,80
197,203,65063,1,0,3:0:0:0:
185,165,65150,2,0,P|180:123|214:70,1,80
324,58,65499,5,0,0:0:0:0:
96,96,65673,1,0,0:0:0:0:
96,96,65848,2,0,L|32:0,2,80
87,277,66371,1,0,0:0:0:0:
181,171,66546,1,0,0:0:0:0:
242,342,66720,1,0,0:0:0:0:
292,108,66894,1,0,0:0:0:0:
288,32,67069,2,0,P|384:36|420:96,1,160
416,112,67505,1,0,0:0:0:0:
416,144,67592,1,0,0:0:0:0:
416,176,67679,1,0,3:0:0:0:
416,208,67766,1,0,3:0:0:0:
283,96,68115,6,0,L|192:96,1,68.0000012969971
180,96,68377,1,0,3:0:0:0:
154,95,68464,2,0,L|75:95,1,68.0000012969971
79,237,68813,1,0,0:0:0:0:
273,234,68987,1,0,0:0:0:0:
177,329,69162,1,0,0:0:0:0:
177,207,69336,6,0,L|176:113,1,68.0000012969971
249,53,69685,2,0,L|310:98,1,68.0000012969971
441,66,70034,2,0,L|422:137,1,68.0000012969971
395,227,70383,1,0,3:0:0:0:
376,261,70470,1,0,3:0:0:0:
339,274,70557,1,0,3:0:0:0:
292,104,70732,1,0,0:0:0:0:
292,104,70906,2,0,P|207:93|162:114,2,136.000002593994
343,251,71778,5,0,0:0:0:0:
38,177,71953,2,0,L|101:117,1,68.0000012969971
123,206,72301,2,0,L|174:276,1,68.0000012969971
210,193,72650,2,0,L|236:129,1,68.0000012969971
254,58,72999,2,0,L|326:94,1,68.0000012969971
415,160,73348,2,0,L|368:218,1,68.0000012969971
204,291,73697,2,0,L|284:291,2,68.0000012969971
71,250,74220,5,0,3:0:0:0:
70,216,74307,1,0,3:0:0:0:
72,178,74394,1,0,3:0:0:0:
203,144,74569,2,0,L|350:144,1,136.000002593994
280,280,75092,1,0,0:0:0:0:
432,52,75266,1,0,0:0:0:0:
380,332,75441,1,0,0:0:0:0:
480,164,75615,1,0,0:0:0:0:
333,192,75790,6,0,L|279:131,1,68.0000012969971
205,288,76139,2,0,L|151:336,1,68.0000012969971
91,209,76487,2,0,L|43:148,1,68.0000012969971
99,84,76836,2,0,L|163:43,1,68.0000012969971
289,35,77185,2,0,L|289:109,1,68.0000012969971
290,133,77447,1,0,3:0:0:0:
290,170,77534,2,0,B|289:224|289:275|289:321,1,136.000002593994
448,291,78057,5,0,3:0:0:0:
278,102,78232,1,0,3:0:0:0:
475,104,78406,1,0,3:0:0:0:
257,294,78580,1,0,3:0:0:0:
230,199,78755,1,0,3:0:0:0:
474,206,78929,1,0,3:0:0:0:
380,319,79104,1,0,3:0:0:0:
382,102,79278,1,0,3:0:0:0:
308,25,79453,1,0,3:0:0:0:
247,109,79627,5,0,3:0:0:0:
247,109,79714,1,0,3:0:0:0:
247,109,79801,1,0,3:0:0:0:
247,109,79976,2,0,L|247:253,1,128
101,258,80499,1,0,0:0:0:0:
67,96,80673,1,0,0:0:0:0:
261,49,80848,2,0,L|344:49,1,68.0000012969971
363,48,81109,1,0,3:0:0:0:
401,49,81197,2,0,P|449:49|484:49,1,68.0000012969971
421,172,81546,6,0,L|367:226,1,68.0000012969971
251,319,81894,2,0,L|186:252,1,64
74,142,82243,2,0,P|89:87|151:54,1,128
168,51,82679,1,0,3:0:0:0:
203,53,82766,1,0,3:0:0:0:
231,137,82941,2,0,L|299:137,1,64
448,276,83290,2,0,L|381:276,1,64
72,216,83639,6,0,L|136:216,1,64
223,309,83987,2,0,L|288:309,1,64
395,278,84336,1,0,0:0:0:0:
432,193,84511,2,0,L|432:62,1,128
82,87,85034,2,0,L|83:153,1,64
114,281,85383,2,0,L|170:324,1,64
254,280,85732,5,0,0:0:0:0:
355,159,85906,1,0,0:0:0:0:
215,148,86080,1,0,0:0:0:0:
369,285,86255,1,0,0:0:0:0:
352,76,86429,1,0,0:0:0:0:
448,284,86604,1,0,0:0:0:0:
280,104,86778,1,0,0:0:0:0:
484,208,86953,1,0,0:0:0:0:
460,112,87127,1,0,0:0:0:0:
328,276,87301,1,0,0:0:0:0:
228,284,87476,6,0,L|208:208,1,64
100,264,87825,2,0,L|72:196,1,64
128,112,88173,2,0,L|188:52,1,80
264,104,88522,2,0,L|332:48,1,80
384,116,88871,2,0,L|448:68,1,80
360,240,89220,2,0,L|420:296,1,80
42,290,89569,5,0,3:0:0:0:
99,120,89743,1,0,3:0:0:0:
229,317,89918,1,0,3:0:0:0:
196,123,90092,1,0,3:0:0:0:
126,326,90266,1,0,3:0:0:0:
34,196,90441,5,0,3:0:0:0:
168,60,90618,2,0,L|252:58,1,80
352,95,90973,1,0,0:0:0:0:
406,185,91151,2,0,L|405:289,1,80
292,324,91506,2,0,L|292:217,1,80
188,239,91861,5,0,0:0:0:0:
59,129,92038,1,0,0:0:0:0:
179,58,92216,1,0,0:0:0:0:
321,217,92393,2,0,L|420:217,1,80
428,51,92748,2,0,L|345:52,1,80
288,51,93103,2,0,L|207:51,1,80
99,61,93458,2,0,L|52:129,1,80
52,175,93813,2,0,L|112:270,1,80
94,242,94168,5,0,0:0:0:0:
174,321,94346,1,0,0:0:0:0:
260,238,94523,1,0,0:0:0:0:
372,228,94701,2,0,P|432:160|388:80,1,160
332,40,95233,2,0,P|244:24|216:100,1,160
284,124,95766,1,0,0:0:0:0:
204,300,95943,1,0,0:0:0:0:
356,300,96121,1,0,0:0:0:0:
129,231,96298,6,0,P|80:176|173:98,1,204.000003890991
284,69,97009,2,0,P|345:55|344:180,1,204.000003890991
126,118,97719,2,0,L|168:53,2,68.0000012969971
68,226,98251,2,0,L|105:292,1,68.0000012969971
209,244,98606,2,0,L|249:310,1,68.0000012969971
390,282,98961,2,0,L|339:210,1,68.0000012969971
454,164,99316,1,0,0:0:0:0:
385,47,99494,1,0,0:0:0:0:
300,160,99671,1,0,0:0:0:0:
44,104,99849,6,0,L|71:189,1,68.0000012969971
192,259,100204,2,0,L|157:166,1,68.0000012969971
179,35,100559,2,0,L|213:126,1,68.0000012969971
339,108,100914,2,0,L|304:23,2,68.0000012969971
424,96,101446,5,0,0:0:0:0:
437,122,101535,1,0,0:0:0:0:
444,153,101624,1,0,0:0:0:0:
447,181,101713,1,0,0:0:0:0:
448,204,101801,1,0,0:0:0:0:
452,232,101890,1,0,0:0:0:0:
448,264,101979,2,0,P|416:328|356:340,1,120.000004577637
344,276,102512,1,0,0:0:0:0:
248,320,102689,2,0,L|168:320,2,60.0000022888184
151,180,103222,5,0,0:0:0:0:
151,180,103399,2,0,L|237:181,1,80
313,178,103754,2,0,L|393:178,1,80
447,73,104109,1,0,0:0:0:0:
292,283,104287,1,0,0:0:0:0:
456,287,104464,1,0,0:0:0:0:
308,73,104642,1,0,0:0:0:0:
257,158,104819,6,0,L|165:158,1,80
331,325,105174,2,0,L|240:325,1,80
113,252,105529,2,0,L|25:252,2,80
156,168,106062,1,0,0:0:0:0:
384,100,106239,1,0,0:0:0:0:
416,192,106417,2,0,B|384:256|320:288|288:288,1,160
264,289,106861,1,0,3:0:0:0:
236,288,106949,1,0,3:0:0:0:
206,287,107038,1,0,3:0:0:0:
176,288,107127,1,0,3:0:0:0:
128,192,107304,5,0,0:0:0:0:
288,96,107482,1,0,0:0:0:0:
152,104,107659,2,0,P|140:44|220:56,1,160
304,232,108192,2,0,P|372:236|364:160,1,160
192,224,108725,1,0,0:0:0:0:
384,192,108902,1,0,0:0:0:0:
224,128,109080,1,0,0:0:0:0:
352,288,109257,1,0,0:0:0:0:
128,320,109435,2,0,L|64:256,1,80
64,128,109790,2,0,L|128:192,1,80
288,256,110145,6,0,L|224:192,1,80
192,32,110500,2,0,L|256:96,1,80
416,128,110855,2,0,L|352:64,1,80
288,32,111210,1,0,0:0:0:0:
213,34,111387,1,0,0:0:0:0:
147,68,111565,1,0,0:0:0:0:
114,133,111742,1,0,0:0:0:0:
103,206,111920,1,0,0:0:0:0:
127,275,112097,1,0,0:0:0:0:
191,309,112275,1,0,0:0:0:0:
263,306,112452,1,0,0:0:0:0:
356,288,112630,2,0,P|404:216|388:136,1,160
368,112,113074,5,0,0:0:0:0:
342,81,113162,1,0,0:0:0:0:
309,58,113251,1,0,0:0:0:0:
272,45,113340,1,0,0:0:0:0:
232,43,113429,1,0,0:0:0:0:
193,51,113517,1,0,0:0:0:0:
158,70,113606,1,0,0:0:0:0:
129,98,113695,1,0,0:0:0:0:
184,284,114227,5,0,0:0:0:0:
218,303,114315,1,0,0:0:0:0:
258,311,114404,1,0,0:0:0:0:
297,307,114493,1,0,0:0:0:0:
334,292,114582,1,0,0:0:0:0:
365,267,114670,1,0,0:0:0:0:
387,234,114759,1,0,0:0:0:0:
399,196,114848,1,0,0:0:0:0:
408,172,114938,2,0,L|424:88,1,80
392,64,115293,6,0,L|301:31,1,80
280,52,115648,2,0,L|200:100,1,80
208,128,116003,2,0,L|244:212,1,80
256,256,116358,2,0,L|180:336,1,80
136,296,116713,1,0,0:0:0:0:
136,296,116890,2,0,L|84:216,1,80
88,168,117245,2,0,L|160:120,1,80
224,144,117600,1,0,0:0:0:0:
224,144,117778,2,0,L|292:96,1,80
414,155,118133,6,0,B|420:97|469:107|523:222|356:237|361:207|342:107,1,240
220,120,118843,6,0,L|272:120,6,40
376,192,119908,6,0,L|404:236,6,40
327,315,120618,6,0,L|228:300,1,80
209,294,120973,2,0,L|160:212,1,80
104,208,121328,1,0,0:0:0:0:
104,208,121506,2,0,L|124:120,1,80
136,76,121861,2,0,L|224:56,1,80
400,312,122393,6,0,L|436:208,1,80
436,160,122748,1,0,0:0:0:0:
436,160,122926,2,0,L|376:104,1,80
316,96,123281,2,0,L|240:140,1,80
387,277,124346,5,0,0:0:0:0:
387,277,124523,2,0,B|432:208|440:128|308:32|216:200|148:332|8:240|108:40,1,600.000022888184
420,60,127364,2,0,B|288:80|248:128|300:212|392:244|344:336|212:332|136:280,1,480.000018310548
272,252,129316,2,0,B|188:95|219:74|270:120|270:120|321:74|341:95|268:264,1,420.000016021729
341,77,134819,6,0,L|390:119,1,60.0000022888184
391,200,135174,1,0,0:0:0:0:
310,258,135352,2,0,L|241:278,1,60.0000022888184
153,224,135884,6,0,L|136:172,1,40
214,147,136417,2,0,L|193:93,1,40
276,80,136949,2,0,L|257:27,1,40
370,100,137304,2,0,P|415:137|421:168,1,80
348,192,137837,2,0,P|342:237|373:262,1,80
257,290,138369,1,0,0:0:0:0:
165,240,138547,1,0,0:0:0:0:
106,157,138725,2,0,L|158:140,1,40
226,110,139080,1,0,0:0:0:0:
318,86,139257,2,0,L|359:76,1,40
399,163,139612,2,0,P|434:205|425:239,1,80
377,288,140145,1,0,0:0:0:0:
191,190,140500,6,0,P|152:100|192:69,1,160
286,70,141032,1,0,0:0:0:0:
385,111,141565,1,0,0:0:0:0:
385,111,141742,1,0,0:0:0:0:
430,229,142097,1,0,0:0:0:0:
430,229,142275,1,0,0:0:0:0:
333,286,142630,1,0,0:0:0:0:
333,286,142807,1,0,0:0:0:0:
261,256,143695,5,0,0:0:0:0:
212,69,143872,1,0,0:0:0:0:
180,248,144050,1,0,0:0:0:0:
298,76,144227,1,0,0:0:0:0:
353,256,144405,1,0,0:0:0:0:
141,95,144583,1,0,0:0:0:0:
381,173,144760,1,0,0:0:0:0:
145,204,144938,1,0,0:0:0:0:
360,87,145115,1,0,0:0:0:0:
256,192,145293,12,0,146358,0:0:0:0:
352,84,147245,5,0,0:0:0:0:
352,84,147423,2,0,L|404:164,1,80
344,208,147778,1,0,0:0:0:0:
344,208,147955,2,0,L|276:268,1,80
212,248,148310,2,0,L|140:172,2,80
276,312,148843,2,0,B|332:212|332:212|416:216|416:216|448:152,1,240
396,120,149553,5,0,0:0:0:0:
396,120,149730,2,0,L|336:64,1,80
276,68,150085,2,0,L|184:68,1,80
132,96,150441,2,0,L|36:140,2,80
208,128,150973,1,0,0:0:0:0:
240,44,151151,1,0,0:0:0:0:
304,88,151328,2,0,L|384:112,1,80
420,184,151683,5,0,0:0:0:0:
424,216,151772,1,0,0:0:0:0:
420,248,151861,1,0,0:0:0:0:
408,280,151949,1,0,0:0:0:0:
384,304,152038,2,0,P|292:328|236:300,1,160
272,260,152571,2,0,P|176:264|104:224,1,160
152,196,153103,2,0,P|84:152|68:72,1,160
160,104,153636,6,0,P|80:160|48:244,1,160
132,224,154168,1,0,0:0:0:0:
96,296,154346,1,0,0:0:0:0:
176,288,154523,2,0,L|292:288,1,80
312,240,154878,1,0,0:0:0:0:
360,292,155056,2,0,L|448:292,1,80
460,212,155411,1,0,0:0:0:0:
360,168,155588,1,0,0:0:0:0:
488,120,155766,1,0,0:0:0:0:
384,52,155943,1,0,0:0:0:0:
288,64,156121,5,0,0:0:0:0:
288,64,156298,2,0,L|188:64,1,80
160,124,156654,1,0,0:0:0:0:
92,80,156831,2,0,P|52:136|56:228,1,160
132,208,157364,1,0,0:0:0:0:
176,284,157541,2,0,P|224:296|288:280,1,95.9999970703126
344,308,158074,1,0,0:0:0:0:
348,228,158251,2,0,P|368:180|408:160,1,95.9999970703126
440,236,158784,1,0,0:0:0:0:
408,328,158961,1,0,0:0:0:0:
