osu file format v14

[General]
AudioFilename: liujifen.mp3
AudioLeadIn: 0
PreviewTime: -1
Countdown: 0
SampleSet: Soft
StackLeniency: 0.7
Mode: 0
LetterboxInBreaks: 1
WidescreenStoryboard: 0

[Editor]
DistanceSpacing: 1.4
BeatDivisor: 4
GridSize: 8
TimelineZoom: 1

[Metadata]
Title:Bao Liu Ji Fen
TitleUnicode:抱刘继芬
Artist:slayerboom
ArtistUnicode:slayerboom
Creator:lkx_Shore
Version:I
Source:
Tags:刘德华 liu de hua pop DCZLD
BeatmapID:811862
BeatmapSetID:370447

[Difficulty]
HPDrainRate:6
CircleSize:4
OverallDifficulty:8
ApproachRate:8
SliderMultiplier:1.6
SliderTickRate:1

[Events]
//Background and Video events
0,0,"bgll.png",0,0
//Break Periods
//Storyboard Layer 0 (Background)
//Storyboard Layer 1 (Fail)
//Storyboard Layer 2 (Pass)
//Storyboard Layer 3 (Foreground)
//Storyboard Sound Samples

[TimingPoints]
1150,446.096654275093,4,2,0,70,1,0
4049,-100,4,2,0,40,0,0
4272,-100,4,2,0,50,0,0
4495,-100,4,2,0,60,0,0
4718,-133.333333333333,4,2,0,70,0,0
6503,-133.333333333333,4,2,0,5,0,0
7841,-133.333333333333,4,2,0,70,0,0
10071,-133.333333333333,4,2,0,5,0,0
11410,-133.333333333333,4,2,0,70,0,0
12748,-133.333333333333,4,2,0,5,0,0
14532,-133.333333333333,4,2,0,70,0,0
24570,-133.333333333333,4,2,0,5,0,0
25685,-133.333333333333,4,2,0,70,0,0
28807,-133.333333333333,4,2,0,40,0,0
42525,-133.333333333333,4,2,0,5,0,0
42636,-133.333333333333,4,2,0,40,0,0
42971,-133.333333333333,4,2,0,5,0,0
43083,-133.333333333333,4,2,0,40,0,0
43417,-133.333333333333,4,2,0,5,0,0
43529,-133.333333333333,4,2,0,40,0,0
43863,-133.333333333333,4,2,0,5,0,0
43975,-133.333333333333,4,2,0,40,0,0
44309,-133.333333333333,4,2,0,5,0,0
44421,-133.333333333333,4,2,0,40,0,0
44867,-133.333333333333,4,2,0,5,0,0
45313,-133.333333333333,4,2,0,40,0,0
56800,-133.333333333333,4,2,0,5,0,0
56912,-133.333333333333,4,2,0,40,0,0
57246,-133.333333333333,4,2,0,5,0,0
57358,-133.333333333333,4,2,0,40,0,0
57692,-133.333333333333,4,2,0,5,0,0
57804,-133.333333333333,4,2,0,40,0,0
58138,-133.333333333333,4,2,0,5,0,0
58250,-133.333333333333,4,2,0,40,0,0
58584,-133.333333333333,4,2,0,5,0,0
58696,-133.333333333333,4,2,0,40,0,0
143008,-200,4,2,0,40,0,0

[HitObjects]
488,56,4123,6,0,L|496:96,7,26.6666666666667
496,112,4718,6,0,P|440:136|376:120,1,120.000004577637,4|0,0:0|0:0,0:0:0:0:
312,80,5387,2,0,L|176:96,1,120.000004577637,2|2,0:0|0:0,0:0:0:0:
192,94,6280,6,0,B|200:128|183:152|183:152|200:184|200:184|176:232|187:270|187:270|216:248|208:216|208:216|112:184|56:272,1,420.000016021729,2|0,0:0|0:0,0:0:0:0:
0,136,8064,5,2,0:0:0:0:
72,80,8287,2,0,L|96:200,1,120.000004577637,4|0,0:0|0:0,0:0:0:0:
152,304,8956,2,0,P|88:304|32:328,1,120.000004577637,2|2,0:0|0:0,0:0:0:0:
296,240,9848,6,0,B|408:272|408:272|464:240|464:160|464:160|376:248|328:152|392:104|392:104,1,420.000016021729,2|0,0:0|0:0,0:0:0:0:
381,115,11633,1,2,0:0:0:0:
216,216,11856,2,0,L|80:184,1,120.000004577637,4|2,0:0|0:0,0:0:0:0:
136,280,12525,6,0,B|-8:304|-8:304|80:336|80:336|200:320|200:320|376:368,1,540.000020599366
392,376,14978,5,0,0:0:0:0:
416,384,15425,2,0,P|440:336|432:264,1,120.000004577637,4|0,0:0|0:0,0:0:0:0:
376,200,16094,2,0,L|392:136,1,60.0000022888184,0|2,0:0|0:0,0:0:0:0:
400,104,16428,2,0,L|432:144,1,30.0000011444092
296,240,16651,2,0,L|264:200,1,30.0000011444092,0|2,0:0|0:0,0:0:0:0:
232,192,16874,6,0,L|136:224,1,90.0000034332277,2|4,0:0|0:0,0:0:0:0:
146,220,18547,5,2,0:0:0:0:
88,160,18770,1,2,0:0:0:0:
112,80,18993,1,2,0:0:0:0:
224,200,19439,1,2,0:0:0:0:
128,336,19886,2,0,P|64:320|24:280,1,120.000004577637,2|0,0:0|0:0,0:0:0:0:
0,200,20555,2,0,L|32:64,1,120.000004577637,2|0,0:0|0:0,0:0:0:0:
104,56,21224,5,2,0:0:0:0:
104,56,21447,1,2,0:0:0:0:
176,96,21670,2,0,P|224:104|264:96,1,90.0000034332277,4|2,0:0|0:0,0:0:0:0:
376,40,22265,1,2,0:0:0:0:
376,40,22562,6,0,L|384:160,1,120.000004577637,4|2,0:0|0:0,0:0:0:0:
383,159,23900,1,2,0:0:0:0:
383,159,24347,6,4,B|320:176|272:144|272:144|200:192|200:192|104:160,1,300.000011444092,4|0,0:0|0:0,0:0:0:0:
32,128,25685,5,2,0:0:0:0:
120,240,25908,1,0,0:0:0:0:
0,320,26131,2,0,P|-16:296|-24:264,1,60.0000022888184,6|2,0:0|0:0,0:0:0:0:
88,320,26465,1,2,0:0:0:0:
88,320,26577,2,0,L|160:344,1,60.0000022888184,2|0,0:0|0:0,0:0:0:0:
256,368,27023,1,2,0:0:0:0:
256,368,27469,5,2,0:0:0:0:
408,312,27692,1,2,0:0:0:0:
296,192,27915,1,4,0:0:0:0:
296,192,28807,5,0,0:0:0:0:
296,192,29477,1,0,3:0:0:0:
296,192,29700,6,0,L|176:208,1,120.000004577637,2|2,3:2|0:0,0:0:0:0:
176,208,30592,2,0,L|192:272,1,60.0000022888184,2|0,0:0|0:0,0:0:0:0:
96,272,31038,2,0,L|80:336,1,60.0000022888184,2|2,0:0|0:0,0:0:0:0:
0,360,31484,5,4,0:0:0:0:
0,360,32376,2,0,P|24:304|16:232,1,120.000004577637,2|2,0:0|0:0,0:0:0:0:
152,160,33045,1,2,0:0:0:0:
152,160,33268,6,0,L|32:112,1,120.000004577637,2|0,0:0|0:0,0:0:0:0:
184,248,34161,2,0,L|304:216,1,120.000004577637,2|2,0:0|0:0,0:0:0:0:
384,272,34830,1,2,0:0:0:0:
312,336,35053,2,0,P|272:336|240:328,1,60.0000022888184,2|2,0:0|0:0,0:0:0:0:
151,199,35499,2,0,P|175:223|183:247,1,60.0000022888184,2|2,0:0|0:0,0:0:0:0:
32,328,35834,1,2,0:0:0:0:
32,328,35945,6,0,L|152:352,2,120.000004577637,2|2|2,0:0|0:0|0:0,0:0:0:0:
448,112,37506,1,2,0:0:0:0:
448,112,37729,6,0,L|328:88,1,120.000004577637,2|2,0:0|0:0,0:0:0:0:
176,64,38399,1,2,0:0:0:0:
176,64,38510,1,2,0:0:0:0:
176,64,38622,2,0,P|200:112|192:184,1,120.000004577637,4|0,0:0|0:0,0:0:0:0:
336,256,39291,1,2,0:0:0:0:
336,256,39514,2,0,L|208:304,1,120.000004577637,2|0,0:0|0:0,0:0:0:0:
16,280,40183,1,2,0:0:0:0:
16,280,40406,6,0,L|72:336,1,60.0000022888184,2|0,0:0|0:0,0:0:0:0:
152,224,40852,2,0,L|128:352,1,120.000004577637,2|2,0:0|0:0,0:0:0:0:
80,152,41744,1,2,0:0:0:0:
80,152,42190,6,0,P|120:136|184:136,1,90.0000034332277,4|0,0:0|0:0,0:0:0:0:
224,176,42636,6,0,L|336:160,1,90.0000034332277,2|0,0:0|0:0,0:0:0:0:
384,104,43083,2,0,L|400:216,1,90.0000034332277,2|0,0:0|0:0,0:0:0:0:
312,288,43529,2,0,L|424:272,1,90.0000034332277,2|0,0:0|0:0,0:0:0:0:
472,216,43976,2,0,L|488:320,1,90.0000034332277,2|0,0:0|0:0,0:0:0:0:
384,360,44421,6,0,P|288:368|184:280,1,240.000009155274,2|2,0:0|0:0,0:0:0:0:
80,224,45536,1,0,0:0:0:0:
80,224,45759,6,0,P|88:264|80:296,1,60.0000022888184,6|2,0:0|0:0,0:0:0:0:
0,176,46205,2,0,L|32:120,1,60.0000022888184,2|2,0:0|0:0,0:0:0:0:
112,72,46651,1,2,0:0:0:0:
280,104,47097,1,2,0:0:0:0:
176,240,47544,6,0,P|168:208|168:168,1,60.0000022888184,4|0,0:0|0:0,0:0:0:0:
256,200,47990,1,2,0:0:0:0:
256,200,48213,2,0,L|224:328,1,120.000004577637,2|0,0:0|0:0,0:0:0:0:
226,316,48882,2,0,L|288:304,1,60.0000022888184,2|0,0:0|0:0,0:0:0:0:
112,296,49328,6,0,P|128:328|128:352,1,60.0000022888184,4|0,0:0|0:0,0:0:0:0:
32,248,49774,2,0,P|24:224|24:184,1,60.0000022888184,2|2,0:0|0:0,0:0:0:0:
80,128,50220,1,2,0:0:0:0:
160,112,50443,1,2,0:0:0:0:
240,136,50666,1,2,0:0:0:0:
176,192,50889,1,2,0:0:0:0:
144,32,51112,5,4,0:0:0:0:
144,32,51335,2,0,B|216:32|256:69|256:69|336:64,1,180.000006866455,2|2,0:0|0:0,0:0:0:0:
464,192,52451,1,2,0:0:0:0:
400,136,52674,1,2,0:0:0:0:
376,216,52897,6,0,P|400:248|424:264,1,60.0000022888184,4|0,0:0|0:0,0:0:0:0:
328,312,53343,1,2,0:0:0:0:
416,352,53566,1,2,0:0:0:0:
328,312,53789,2,0,L|208:328,1,120.000004577637,2|2,0:0|0:0,0:0:0:0:
16,288,54681,6,0,L|136:272,1,120.000004577637,4|0,0:0|0:0,0:0:0:0:
144,176,55350,2,0,P|200:176|264:152,1,120.000004577637,2|0,0:0|0:0,0:0:0:0:
304,80,56019,1,2,0:0:0:0:
16,288,56465,6,0,L|112:320,1,90.0000034332277,4|0,0:0|0:0,0:0:0:0:
144,336,56912,2,0,P|192:320|256:320,1,90.0000034332277,2|0,0:0|0:0,0:0:0:0:
328,304,57358,2,0,P|280:288|216:288,1,90.0000034332277,2|0,0:0|0:0,0:0:0:0:
336,160,57804,2,0,P|288:176|224:176,1,90.0000034332277,2|0,0:0|0:0,0:0:0:0:
152,192,58250,2,0,P|200:208|264:208,1,90.0000034332277,2|0,0:0|0:0,0:0:0:0:
104,232,58696,1,2,0:0:0:0:
104,232,58919,6,0,P|48:224|48:152,1,120.000004577637,2|4,0:0|1:3,0:0:0:0:
144,72,59588,2,0,L|128:144,1,60.0000022888184,4|0,1:3|1:0,0:0:0:0:
104,232,60034,6,0,L|224:256,1,120.000004577637,4|2,1:2|0:0,0:0:0:0:
464,288,60926,2,0,L|336:336,1,120.000004577637,2|2,0:3|0:3,0:0:0:0:
256,320,61596,1,0,1:0:0:0:
256,320,61819,6,0,P|208:304|176:304,1,60.0000022888184,0|0,1:0|0:0,0:0:0:0:
48,344,62265,1,2,0:0:0:0:
48,344,62488,2,0,L|24:224,1,120.000004577637,2|2,0:0|0:0,0:0:0:0:
8,144,63157,2,0,P|40:144|80:152,1,60.0000022888184,2|0,0:3|0:0,0:0:0:0:
144,184,63603,6,0,L|216:168,1,60.0000022888184,4|0,1:2|0:0,0:0:0:0:
320,224,64049,2,0,L|288:168,1,60.0000022888184,2|2,0:0|0:3,0:0:0:0:
248,64,64495,1,0,3:0:0:0:
176,280,64941,1,0,0:0:0:0:
320,224,65164,1,0,1:0:0:0:
320,224,65387,6,0,P|255:201|200:200,1,120.000004577637,0|2,1:0|0:0,0:0:0:0:
120,224,66057,1,2,0:0:0:0:
272,352,66280,1,4,1:2:0:0:
344,304,66503,1,2,0:0:0:0:
320,224,66726,1,2,3:0:0:0:
360,152,66949,1,2,0:0:0:0:
360,152,67172,6,0,P|416:136|496:144,1,120.000004577637,4|2,0:0|0:0,0:0:0:0:
168,96,68064,2,0,P|112:80|32:88,1,120.000004577637,2|2,0:0|0:0,0:0:0:0:
152,256,68733,1,0,1:0:0:0:
152,256,68956,6,0,L|136:192,1,60.0000022888184,0|0,1:0|0:0,0:0:0:0:
168,96,69402,1,2,0:0:0:0:
248,64,69625,1,2,0:0:0:0:
240,144,69848,1,0,1:0:0:0:
24,224,70294,1,2,0:0:0:0:
224,336,70741,6,0,L|296:320,1,60.0000022888184,4|2,1:2|0:0,0:0:0:0:
352,248,71187,2,0,L|424:264,1,60.0000022888184,2|2,0:0|0:0,0:0:0:0:
512,296,71633,2,0,L|472:168,1,120.000004577637,2|2,0:0|0:0,0:0:0:0:
376,80,72302,1,0,1:0:0:0:
376,80,72525,6,0,P|432:88|456:80,1,60.0000022888184,0|0,1:0|0:0,0:0:0:0:
280,144,72971,1,0,1:0:0:0:
280,144,73194,2,0,L|152:112,1,120.000004577637,0|2,1:0|0:0,0:0:0:0:
80,96,73863,1,2,3:0:0:0:
16,144,74086,1,2,3:0:0:0:
8,232,74309,5,4,0:0:0:0:
248,312,74755,1,2,0:0:0:0:
168,288,74978,1,2,0:0:0:0:
96,336,75202,2,0,L|160:352,1,60.0000022888184,0|2,1:0|0:0,0:0:0:0:
248,312,75648,2,0,L|312:328,1,60.0000022888184,2|0,0:0|1:0,0:0:0:0:
416,224,76094,6,0,L|400:344,1,120.000004577637,0|2,1:0|0:0,0:0:0:0:
488,160,76763,1,0,0:0:0:0:
488,160,76986,2,0,P|416:128|360:136,1,120.000004577637,0|0,1:0|0:0,0:0:0:0:
232,216,77655,1,2,0:0:0:0:
232,216,77878,6,0,L|240:152,1,60.0000022888184,4|0,0:0|0:0,0:0:0:0:
88,264,78324,2,0,L|56:208,1,60.0000022888184,2|2,0:0|0:0,0:0:0:0:
216,248,78770,2,0,L|224:184,1,60.0000022888184,2|2,3:0|3:0,0:0:0:0:
72,296,79216,2,0,L|40:240,1,60.0000022888184,2|0,0:0|1:0,0:0:0:0:
88,72,79663,6,0,L|128:192,1,120.000004577637,4|0,1:2|1:0,0:0:0:0:
160,336,80332,1,2,0:0:0:0:
160,336,80555,2,0,P|200:320|240:320,1,60.0000022888184,0|0,1:0|3:0,0:0:0:0:
296,336,81001,1,2,0:0:0:0:
376,320,81224,1,2,0:0:0:0:
416,248,81447,6,0,L|384:128,1,120.000004577637,4|2,1:2|0:0,0:0:0:0:
96,88,82339,2,0,L|126:203,1,120.000004577637,0|2,1:0|0:0,0:0:0:0:
0,336,83008,1,2,0:0:0:0:
0,336,83231,6,0,P|56:328|136:360,1,120.000004577637,4|0,0:0|1:0,0:0:0:0:
288,320,83900,1,2,0:0:0:0:
288,320,84123,2,0,L|224:336,1,60.0000022888184,2|0,3:0|0:0,0:0:0:0:
344,232,84570,2,0,P|392:240|456:224,1,90.0000034332277,2|0,3:0|0:0,0:0:0:0:
464,208,85016,5,4,1:2:0:0:
440,128,85239,1,2,0:0:0:0:
256,40,85462,5,2,0:0:0:0:
280,120,85685,1,2,0:0:0:0:
208,248,85908,6,0,P|152:248|80:216,1,120.000004577637,2|2,3:0|0:0,0:0:0:0:
16,304,86577,1,0,1:0:0:0:
16,304,86800,6,0,L|0:168,1,120.000004577637,0|0,1:0|1:0,0:0:0:0:
16,104,87469,1,2,0:0:0:0:
80,56,87692,2,0,P|112:56|144:64,1,60.0000022888184,2|2,3:0|0:0,0:0:0:0:
256,184,88138,1,0,3:0:0:0:
224,64,88361,1,2,0:0:0:0:
344,160,88584,6,0,L|400:184,1,60.0000022888184,4|0,1:2|0:0,0:0:0:0:
288,296,89031,2,0,L|360:280,1,60.0000022888184,2|2,0:0|0:0,0:0:0:0:
200,264,89477,2,0,P|136:272|80:312,1,120.000004577637,2|2,3:0|0:0,0:0:0:0:
40,144,90146,1,0,1:0:0:0:
40,144,90369,6,0,L|56:208,1,60.0000022888184,4|0,1:2|0:0,0:0:0:0:
152,176,90815,2,0,P|208:176|264:144,1,120.000004577637,2|2,0:0|3:0,0:0:0:0:
112,296,91707,1,2,0:0:0:0:
32,328,91930,1,0,1:0:0:0:
112,296,92153,6,0,L|176:320,1,60.0000022888184,4|2,1:2|0:0,0:0:0:0:
264,344,92599,1,2,0:0:0:0:
264,344,92822,2,0,L|336:328,1,60.0000022888184,2|4,0:0|1:2,0:0:0:0:
456,224,93268,1,2,0:0:0:0:
456,224,93491,2,0,L|384:208,1,60.0000022888184,4|4,3:0|1:2,0:0:0:0:
232,80,93938,6,0,L|288:208,1,120.000004577637,2|0,1:2|1:0,0:0:0:0:
280,189,94607,1,2,0:0:0:0:
96,120,94830,2,0,L|80:184,1,60.0000022888184,0|0,1:0|1:0,0:0:0:0:
368,216,95276,2,0,L|384:280,1,60.0000022888184,0|2,1:0|1:2,0:0:0:0:
136,336,95722,6,0,P|208:320|280:336,1,120.000004577637,4|2,1:2|0:0,0:0:0:0:
40,296,96391,1,2,0:0:0:0:
40,296,96614,2,0,P|104:256|160:240,1,120.000004577637,0|2,1:0|0:0,0:0:0:0:
16,200,97283,1,0,1:0:0:0:
16,200,97506,6,0,L|80:80,1,120.000004577637,4|2,1:2|0:0,0:0:0:0:
72,94,98176,1,2,0:0:0:0:
256,184,98399,2,0,P|296:160|264:96,1,120.000004577637,4|2,1:2|0:0,0:0:0:0:
136,224,99068,1,2,0:0:0:0:
272,312,99291,6,0,L|392:296,1,120.000004577637,0|2,1:2|0:0,0:0:0:0:
472,288,99960,1,2,0:0:0:0:
288,232,100183,2,0,L|200:240,1,60.0000022888184,0|2,1:0|0:0,0:0:0:0:
80,320,100629,2,0,L|144:312,1,60.0000022888184,2|0,0:0|1:0,0:0:0:0:
80,64,101075,6,0,P|40:104|32:184,1,120.000004577637,4|2,1:2|0:0,0:0:0:0:
72,232,101744,1,2,0:0:0:0:
144,280,101967,1,0,1:0:0:0:
88,128,102190,1,0,1:0:0:0:
0,312,102413,1,0,3:0:0:0:
200,192,102636,1,0,3:0:0:0:
0,176,102860,6,0,L|128:216,1,120.000004577637,4|2,1:2|0:0,0:0:0:0:
160,280,103529,1,2,0:0:0:0:
360,88,103752,6,0,L|232:128,1,120.000004577637,4|2,1:2|0:0,0:0:0:0:
384,272,104421,1,0,1:0:0:0:
384,272,104867,2,0,P|376:328|296:224,1,300.000011444092,4|2,1:2|0:0,0:0:0:0:
271,237,106428,6,0,L|152:256,1,120.000004577637,4|2,1:2|0:0,0:0:0:0:
72,272,107097,1,2,0:0:0:0:
264,144,107321,1,0,1:0:0:0:
264,144,107544,2,0,P|328:168|360:224,1,120.000004577637,2|2,0:0|0:0,0:0:0:0:
328,336,108213,5,4,1:2:0:0:
472,208,108659,1,0,1:0:0:0:
352,112,108882,1,2,0:0:0:0:
408,280,109105,1,0,1:0:0:0:
288,192,109328,2,0,P|232:192|168:160,1,120.000004577637,2|2,0:0|0:0,0:0:0:0:
144,88,109997,6,0,P|112:104|96:40,1,120.000004577637,4|2,1:2|0:0,0:0:0:0:
92,42,110666,1,2,0:0:0:0:
40,184,110889,1,0,1:0:0:0:
40,184,111112,2,0,L|64:304,1,120.000004577637,2|0,0:0|1:0,0:0:0:0:
128,360,111781,5,0,1:0:0:0:
408,288,112228,1,0,1:0:0:0:
328,136,112451,1,2,0:0:0:0:
264,248,112674,1,0,1:0:0:0:
264,248,112897,2,0,L|384:224,1,120.000004577637,2|0,0:0|1:0,0:0:0:0:
224,328,113566,6,0,P|184:280|184:224,1,120.000004577637,4|2,1:2|0:0,0:0:0:0:
256,96,114235,1,2,0:0:0:0:
256,96,114458,1,0,1:0:0:0:
344,176,114681,1,2,0:0:0:0:
32,336,115127,1,2,0:0:0:0:
32,336,115350,6,0,L|112:312,1,60.0000022888184,4|4,1:2|3:0,0:0:0:0:
176,160,115796,2,0,L|128:208,1,60.0000022888184,4|4,3:0|3:0,0:0:0:0:
248,296,116242,2,0,L|320:312,1,60.0000022888184,0|0,1:0|3:0,0:0:0:0:
480,344,116689,1,0,1:0:0:0:
416,208,116912,1,2,0:0:0:0:
416,208,117135,6,0,P|440:152|432:88,1,120.000004577637,4|0,1:2|0:0,0:0:0:0:
256,152,117804,1,2,0:0:0:0:
256,152,118027,2,0,L|256:16,1,120.000004577637,0|0,1:0|0:0,0:0:0:0:
112,112,118696,1,0,0:0:0:0:
112,112,118919,6,0,L|24:104,1,60.0000022888184,4|0,1:2|0:0,0:0:0:0:
24,264,119365,1,2,0:0:0:0:
24,264,119588,2,0,L|144:248,1,120.000004577637,0|2,1:0|0:0,0:0:0:0:
312,208,120257,1,0,0:0:0:0:
224,296,120480,1,2,0:0:0:0:
256,128,120703,6,0,P|304:112|384:128,1,120.000004577637,4|0,1:2|0:0,0:0:0:0:
432,184,121373,1,2,0:0:0:0:
208,56,121596,2,0,P|128:40|72:64,1,120.000004577637,0|2,1:0|0:0,0:0:0:0:
104,200,122265,6,0,P|160:176|144:128,1,120.000004577637,2|0,0:0|0:0,0:0:0:0:
24,232,122934,1,2,0:0:0:0:
144,336,123157,1,0,0:0:0:0:
144,336,123380,2,0,L|208:320,1,60.0000022888184,0|2,1:0|0:0,0:0:0:0:
296,264,123826,1,0,3:0:0:0:
472,320,124049,1,0,1:0:0:0:
472,320,124272,6,0,P|408:312|368:264,1,120.000004577637,4|0,1:2|0:0,0:0:0:0:
328,128,124941,1,2,0:0:0:0:
328,128,125164,2,0,L|358:243,1,120.000004577637,0|0,1:0|0:0,0:0:0:0:
256,72,125834,1,0,1:0:0:0:
256,72,126280,6,0,B|224:80|208:48|208:48|144:88|88:48,1,180.000006866455,0|0,1:0|1:0,0:0:0:0:
48,128,127172,1,2,0:0:0:0:
112,240,127395,2,0,P|120:192|112:168,1,60.0000022888184,2|2,0:0|0:0,0:0:0:0:
184,288,127841,5,4,1:2:0:0:
256,72,128287,1,0,0:0:0:0:
336,96,128510,1,0,0:0:0:0:
416,128,128733,1,0,1:0:0:0:
416,128,128956,2,0,P|464:112|504:56,1,120.000004577637,2|2,0:0|0:0,0:0:0:0:
336,96,129625,6,0,P|320:160|336:224,1,120.000004577637,0|0,1:0|1:0,0:0:0:0:
392,272,130294,1,2,0:0:0:0:
224,152,130518,2,0,L|240:216,1,60.0000022888184,0|2,1:0|0:0,0:0:0:0:
216,296,130964,1,2,0:0:0:0:
176,368,131187,1,2,0:0:0:0:
40,264,131410,6,0,P|80:256|104:240,1,60.0000022888184,4|0,1:2|0:0,0:0:0:0:
112,144,131856,2,0,L|136:88,1,60.0000022888184,2|2,0:0|0:0,0:0:0:0:
256,40,132302,1,0,1:0:0:0:
464,232,132748,1,2,0:0:0:0:
464,232,132971,2,0,P|408:232|344:184,1,120.000004577637,0|0,1:0|0:0,0:0:0:0:
280,168,133640,5,2,0:0:0:0:
224,328,133863,1,2,3:0:0:0:
296,264,134086,2,0,P|248:240|176:248,1,120.000004577637,0|2,1:0|0:0,0:0:0:0:
136,312,134755,2,0,L|80:288,1,60.0000022888184,2|4,0:0|0:0,0:0:0:0:
56,72,136317,5,2,0:0:0:0:
120,128,136540,1,2,0:0:0:0:
136,48,136763,2,0,L|216:32,1,60.0000022888184,2|2,0:0|0:0,0:0:0:0:
288,128,137209,2,0,P|288:96|280:64,1,60.0000022888184,2|2,0:0|0:0,0:0:0:0:
392,184,137655,1,0,3:0:0:0:
392,184,137878,1,0,3:0:0:0:
392,184,138101,1,0,3:0:0:0:
368,264,138324,2,0,P|384:296|416:328,1,60.0000022888184,0|4,3:0|0:0,0:0:0:0:
72,248,138993,5,2,0:0:0:0:
256,192,140220,1,2,0:0:0:0:
224,272,140480,2,0,L|216:296,4,20.0000007629395
272,48,141168,1,0,0:0:0:0:
272,48,141503,2,0,L|296:112,1,60.0000022888184
336,168,141837,2,0,L|312:320,1,150.000005722046
80,224,143064,6,0,L|312:192,1,230
440,256,144570,6,0,L|288:280,1,150
96,120,146019,6,0,L|112:176,1,50,0|2,0:0|0:0,0:0:0:0:
200,296,146577,2,0,L|208:248,1,46.6666666666667,2|0,0:0|0:0,0:0:0:0:
280,120,147097,2,0,L|312:168,1,53.3333333333333,2|2,0:0|0:0,0:0:0:0:
400,208,147655,2,0,L|424:152,1,60,0|2,0:0|0:0,0:0:0:0:
216,152,148696,6,0,L|240:224,1,70,2|0,0:0|0:0,0:0:0:0:
320,40,149514,1,2,0:0:0:0:
416,320,150815,5,0,0:0:0:0:
416,320,150889,1,0,0:0:0:0:
416,320,150964,1,0,0:0:0:0:
416,320,151038,1,4,0:0:0:0:
256,192,151094,12,0,152990,0:0:0:0:
360,112,153492,6,0,L|352:200,1,86.6666666666667,2|2,0:0|0:0,0:0:0:0:
312,320,154532,1,2,0:0:0:0:
88,240,155443,6,0,L|80:248,2,10
120,224,155648,2,0,L|128:200,1,20
144,168,155871,1,4,0:0:0:0:
